<?xml version="1.0" standalone="no"?>
<!DOCTYPE svg PUBLIC "-//W3C//DTD SVG 1.1//EN" "http://www.w3.org/Graphics/SVG/1.1/DTD/svg11.dtd" >
<svg xmlns="http://www.w3.org/2000/svg" xmlns:xlink="http://www.w3.org/1999/xlink" version="1.1">
<metadata>
Created by FontForge 20200314 at Mon Jul 16 20:55:20 2007
 By Unknown
Copyright (c) The Font Bureau, Inc., 2003. All rights reserved.
</metadata>
<defs>
<font id="Stainless-Bold" horiz-adv-x="752" >
  <font-face 
    font-family="Stainless Bold"
    font-weight="700"
    font-stretch="normal"
    units-per-em="1000"
    panose-1="2 0 5 3 4 0 0 2 0 4"
    ascent="795"
    descent="-205"
    x-height="477"
    cap-height="732"
    bbox="-85 -211 1518 979"
    underline-thickness="20"
    underline-position="-133"
    unicode-range="U+0020-FB02"
  />
<missing-glyph horiz-adv-x="500" 
 />
    <glyph glyph-name="fi" unicode="fi" horiz-adv-x="637" 
d="M105 0v362h-74v115h74v78q0 62 25.5 96t92 57.5t206.5 48.5l22 -117q-98 -20 -140 -34t-53.5 -28t-11.5 -42v-59h325v-477h-142v363h-183v-363h-141z" />
    <glyph glyph-name="fl" unicode="fl" horiz-adv-x="636" 
d="M105 0v362h-74v115h74v73q0 50 6 79t26.5 54.5t59.5 41t105 28.5l35 -127q-62 -15 -76.5 -30.5t-14.5 -59.5v-59h92v-115h-92v-362h-141zM429 0v752h141v-752h-141z" />
    <glyph glyph-name="f_f_l" unicode="ffl" horiz-adv-x="963" 
d="M105 0v362h-74v115h74v52q0 50 5.5 77t28.5 53t69 41t126 27l25 -128q-78 -14 -95.5 -30t-17.5 -62v-30h185v73q0 50 6 79t26.5 54.5t59.5 41t105 28.5l35 -127q-61 -15 -76 -30.5t-15 -59.5v-59h92v-115h-92v-362h-141v362h-185v-362h-141zM756 0v752h140v-752h-140z
" />
    <glyph glyph-name="f_f_i" unicode="ffi" horiz-adv-x="963" 
d="M105 0v362h-74v115h74v52q0 50 5.5 77t28.5 53t69 41t126 27l25 -128q-78 -14 -95.5 -30t-17.5 -62v-30h185v78q0 62 25.5 96t92 57.5t206.5 48.5l22 -117q-98 -20 -140 -34t-53.5 -28t-11.5 -42v-59h325v-477h-141v363h-184v-363h-141v363h-185v-363h-141z" />
    <glyph glyph-name="f_j" unicode="fj" horiz-adv-x="637" 
d="M338 -198l-21 123q76 14 94.5 32.5t18.5 66.5v339h-184v-363h-141v362h-74v115h74v78q0 62 25.5 96t92 57.5t206.5 48.5l22 -117q-98 -20 -140 -34t-53.5 -28t-11.5 -42v-59h325v-482q0 -48 -7.5 -77t-31.5 -54.5t-70.5 -39.5t-123.5 -22z" />
    <glyph glyph-name="f_f" unicode="ff" horiz-adv-x="708" 
d="M105 0v362h-74v115h74v52q0 50 5.5 77t28.5 53t69 41t126 27l25 -128q-78 -14 -95.5 -30t-17.5 -62v-30h185v79q0 40 3.5 63t15.5 47t37 38t67 26.5t106 22.5l25 -127q-78 -14 -95.5 -30t-17.5 -63v-56h109v-115h-109v-362h-141v362h-185v-362h-141z" />
    <glyph glyph-name="f_t" unicode="ft" horiz-adv-x="733" 
d="M566 -5q-74 0 -104.5 33.5t-30.5 113.5v220h-185v-362h-141v362h-74v115h74v79q0 40 3.5 63t15.5 47t37 38t67 26.5t106 22.5l25 -127q-78 -14 -95.5 -30t-17.5 -63v-56h185v152l141 20v-172h115v-115h-115v-187q0 -40 10 -54t36 -14q31 0 72 5l7 -108q-63 -9 -131 -9z
" />
    <glyph glyph-name=".notdef" horiz-adv-x="500" 
 />
    <glyph glyph-name=".null" horiz-adv-x="0" 
 />
    <glyph glyph-name="nonmarkingreturn" horiz-adv-x="333" 
 />
    <glyph glyph-name="space" unicode=" " horiz-adv-x="269" 
 />
    <glyph glyph-name="space" unicode="&#xa0;" horiz-adv-x="269" 
 />
    <glyph glyph-name="exclam" unicode="!" horiz-adv-x="347" 
d="M116 219l-34 513h184l-34 -513h-116zM87 0v152h172v-152h-172z" />
    <glyph glyph-name="quotedbl" unicode="&#x22;" horiz-adv-x="488" 
d="M298 467l-29 265h173l-29 -265h-115zM75 467l-28 265h173l-30 -265h-115z" />
    <glyph glyph-name="numbersign" unicode="#" horiz-adv-x="626" 
d="M78 -20l37 222h-81v107h99l19 114h-118v107h136l37 222h111l-37 -222h117l37 222h111l-37 -222h82v-107h-100l-19 -114h119v-107h-137l-38 -222h-110l37 222h-117l-37 -222h-111zM238 303h127l21 126h-127z" />
    <glyph glyph-name="dollar" unicode="$" horiz-adv-x="611" 
d="M368 739q119 -8 173 -23l-24 -122q-117 20 -219 20q-64 0 -87 -17t-23 -64q0 -46 23 -63t114 -36q79 -15 121 -28t74.5 -38t43.5 -61.5t11 -97.5q0 -104 -46.5 -154t-160.5 -60v-110h-118v108q-113 4 -206 23l22 124q24 -6 101 -14.5t129 -8.5q80 0 105.5 18t25.5 73
q0 45 -24 62.5t-116 36.5q-80 16 -123.5 31t-73 41t-39 62.5t-9.5 97.5q0 95 49.5 143.5t158.5 56.5v95h118v-95z" />
    <glyph glyph-name="percent" unicode="%" horiz-adv-x="1084" 
d="M234 262q-72 0 -114.5 18.5t-67.5 72t-25 149.5q0 140 50.5 191t158.5 51q53 0 89 -10t63.5 -36t40.5 -73.5t13 -120.5t-13.5 -121t-41.5 -74t-64 -36.5t-89 -10.5zM352 0l255 732h126l-255 -732h-126zM849 -12q-72 0 -114.5 18.5t-67.5 72t-25 149.5q0 72 13.5 120
t41.5 74t64 36.5t89 10.5t89 -10t64 -36t41 -73.5t13 -119.5q0 -73 -13.5 -121t-41.5 -74t-64 -36.5t-89 -10.5zM236 360q46 0 62.5 24.5t16.5 96.5v42q0 71 -17.5 96t-63.5 25t-63 -24t-17 -95v-42q0 -71 18 -97t64 -26zM850 85q46 0 63 24.5t17 96.5v43q0 71 -18 96
t-63 25q-46 0 -63 -24t-17 -95v-43q0 -71 18 -97t63 -26z" />
    <glyph glyph-name="ampersand" unicode="&#x26;" horiz-adv-x="768" 
d="M571 195l176 -195h-172l-68 76q-34 -52 -70 -69t-102 -17q-62 0 -103 4t-79.5 18t-60 39t-34.5 67.5t-13 104.5q0 84 37 126.5t125 62.5q-63 79 -63 148q0 104 53 144t185 40q117 0 198 -23l-19 -124q-100 20 -189 20q-54 0 -72.5 -13t-18.5 -45q0 -28 15 -51t73 -88
q15 -17 24 -27l95 -106l73 148h131q-120 -240 -121 -240zM426 166l-153 171q-58 -13 -76 -37t-18 -78q0 -74 32.5 -94t117.5 -20q36 0 55.5 10.5t41.5 47.5z" />
    <glyph glyph-name="quotesingle" unicode="'" horiz-adv-x="266" 
d="M75 467l-28 265h173l-30 -265h-115z" />
    <glyph glyph-name="parenleft" unicode="(" horiz-adv-x="391" 
d="M359 -144q-69 1 -113.5 6.5t-84 23.5t-61 47.5t-37.5 80.5t-21.5 119t-5.5 168q0 85 4.5 147t14 111.5t27.5 81.5t41 54.5t59.5 34.5t77 17t99.5 5v-119q-35 0 -57.5 -1.5t-44.5 -8t-35 -15.5t-24.5 -27.5t-17.5 -41t-10.5 -59t-5.5 -78t-1 -101.5q0 -80 2.5 -129.5
t11 -89t20 -59t36.5 -32t52 -15.5t74 -3v-117z" />
    <glyph glyph-name="parenright" unicode=")" horiz-adv-x="391" 
d="M32 -144v117q47 0 74 3t52 15.5t36.5 32t20 59t11 89t2.5 129.5t-2.5 130.5t-11 90.5t-20.5 59.5t-36.5 32.5t-52 16t-74.5 3v119q69 -1 114.5 -7t84 -25t60.5 -48.5t37.5 -81.5t21 -120.5t5.5 -168.5t-5.5 -168t-21 -119t-37 -80.5t-60.5 -47.5t-84 -23.5t-114 -6.5z
" />
    <glyph glyph-name="asterisk" unicode="*" horiz-adv-x="508" 
d="M204 267l8 163l-131 -90l-49 90l139 76l-138 74l50 91l130 -90l-9 163h99l-8 -164l131 90l50 -91l-139 -74l139 -74l-50 -90l-130 89l6 -163h-98z" />
    <glyph glyph-name="plus" unicode="+" horiz-adv-x="529" 
d="M209 123v163h-160v107h160v162h111v-162h160v-107h-160v-163h-111z" />
    <glyph glyph-name="comma" unicode="," horiz-adv-x="319" 
d="M116 -143l-73 39l43 264h187z" />
    <glyph glyph-name="hyphen" unicode="-" horiz-adv-x="379" 
d="M48 226v114h283v-114h-283z" />
    <glyph glyph-name="hyphen" unicode="&#xad;" horiz-adv-x="379" 
d="M48 226v114h283v-114h-283z" />
    <glyph glyph-name="period" unicode="." horiz-adv-x="319" 
d="M68 0v160h182v-160h-182z" />
    <glyph glyph-name="slash" unicode="/" horiz-adv-x="377" 
d="M-2 0l255 732h126l-255 -732h-126z" />
    <glyph glyph-name="zero" unicode="0" horiz-adv-x="678" 
d="M338 -12q-111 0 -175 33.5t-95.5 116t-31.5 228.5t32 228.5t96.5 116t175.5 33.5t175 -33t95.5 -115t31.5 -228t-32 -229t-96.5 -117t-175.5 -34zM340 113q86 0 119.5 45.5t33.5 167.5v80q0 122 -34 166.5t-121 44.5t-120 -43.5t-33 -165.5v-80q0 -122 34 -168.5
t121 -46.5z" />
    <glyph glyph-name="one" unicode="1" horiz-adv-x="352" 
d="M137 0v609h-117v123h263v-732h-146z" />
    <glyph glyph-name="two" unicode="2" horiz-adv-x="601" 
d="M34 0v111l214 184q5 5 15 14q91 82 110 108q23 33 24 91v12q0 54 -27.5 74.5t-107.5 20.5q-124 0 -198 -20l-20 125q89 24 220 24q159 0 217 -46t58 -170q0 -41 -5.5 -70t-14 -52.5t-34 -52t-51.5 -52.5t-80 -71l-124 -110h332v-120h-528z" />
    <glyph glyph-name="three" unicode="3" horiz-adv-x="596" 
d="M51 -12l-9 122q157 5 236 17t109 34q29 23 29 86q0 58 -28 79q-17 13 -48.5 21.5t-52.5 11t-73 8.5v92l146 145h-329v128h483v-127l-156 -155q97 -18 143 -56q56 -44 56 -151q0 -111 -48 -156q-42 -47 -148 -70.5t-310 -28.5z" />
    <glyph glyph-name="four" unicode="4" horiz-adv-x="651" 
d="M393 0v143h-369v136l281 455h148l-289 -470h229v208h142v-208h84v-121h-84v-143h-142z" />
    <glyph glyph-name="five" unicode="5" horiz-adv-x="612" 
d="M69 -12l-9 122q160 5 238 16t107 34q29 21 29 87q0 60 -28 81q-64 49 -353 56l10 348h469v-129h-345l-4 -110q254 -16 334 -83q33 -28 45.5 -67.5t12.5 -99.5q0 -112 -48 -157q-41 -47 -147 -70t-311 -28z" />
    <glyph glyph-name="six" unicode="6" horiz-adv-x="643" 
d="M324 -11q-64 0 -109.5 7.5t-77.5 25.5t-51.5 41.5t-30.5 64t-14.5 84t-3.5 108.5v66q0 104 15.5 161.5t58.5 94.5q84 74 414 103l15 -121q-165 -20 -237 -36.5t-99 -40.5q-5 -4 -8.5 -9t-6.5 -11.5t-5 -11.5t-3 -14l-1.5 -13.5t-1 -15.5t-0.5 -14.5v-16v-15.5
q28 8 89.5 16t105.5 8q150 0 195.5 -41t45.5 -179q0 -49 -6.5 -84.5t-25 -66.5t-51 -50t-84 -29.5t-123.5 -10.5zM326 102q86 0 116.5 25.5t30.5 99.5q0 66 -21.5 89t-90.5 23q-90 0 -183 -20v-63q0 -90 30.5 -122t117.5 -32z" />
    <glyph glyph-name="seven" unicode="7" horiz-adv-x="604" 
d="M138 0l292 603h-403v129h553v-130l-280 -602h-162z" />
    <glyph glyph-name="eight" unicode="8" horiz-adv-x="678" 
d="M336 -11q-168 0 -235 44.5t-67 156.5q0 86 26 121t121 75q-71 33 -93.5 68.5t-22.5 102.5q0 106 62.5 146.5t209.5 40.5q150 0 216.5 -41t66.5 -146q0 -69 -20 -100t-97 -67q88 -37 115 -75.5t27 -124.5q0 -111 -70 -156t-239 -45zM392 432q64 28 77 47t13 75
q0 41 -35 55t-111 14q-71 0 -99 -13.5t-28 -55.5t19 -57t93 -40q20 -7 31 -11zM336 108q88 0 125.5 18t37.5 67q0 59 -27 79t-143 58l-4.5 1.5l-4.5 1.5t-5 2l-29 10q-79 -35 -95 -57t-16 -95q0 -49 37.5 -67t123.5 -18z" />
    <glyph glyph-name="nine" unicode="9" horiz-adv-x="643" 
d="M118 -13l-15 119q279 27 336 79q5 4 8.5 9.5t6.5 12t5 11.5t3 14l1.5 13.5t1 15.5t0.5 15v16v15q-28 -8 -89 -16t-105 -8q-150 0 -196 41.5t-46 178.5q0 62 11.5 103t42 74.5t89 48.5t148.5 15q64 0 109.5 -7.5t77.5 -25.5t51.5 -41.5t30.5 -64t14.5 -84t3.5 -108.5v-66
q0 -104 -15.5 -160.5t-58.5 -93.5q-90 -77 -415 -106zM283 395q93 0 182 19v63q0 90 -30 121t-117 31t-117.5 -24.5t-30.5 -98.5q0 -65 22 -88t91 -23z" />
    <glyph glyph-name="colon" unicode=":" horiz-adv-x="316" 
d="M68 318v160h179v-160h-179zM68 0v160h179v-160h-179z" />
    <glyph glyph-name="semicolon" unicode=";" horiz-adv-x="316" 
d="M68 318v160h179v-160h-179zM113 -143l-70 39l43 264h184z" />
    <glyph glyph-name="less" unicode="&#x3c;" horiz-adv-x="408" 
d="M227 118l-202 216l202 220h134l-202 -220l202 -216h-134z" />
    <glyph glyph-name="equal" unicode="=" horiz-adv-x="498" 
d="M56 382v100h386v-100h-386zM56 194v100h386v-100h-386z" />
    <glyph glyph-name="greater" unicode="&#x3e;" horiz-adv-x="408" 
d="M46 118l202 220l-202 216h135l201 -216l-201 -220h-135z" />
    <glyph glyph-name="question" unicode="?" horiz-adv-x="600" 
d="M200 219v148q83 33 122.5 51t65.5 38t31 36.5t5 47.5q0 44 -30 60.5t-111 16.5q-122 0 -225 -24l-24 126q36 10 110 18.5t139 8.5q167 0 227.5 -42t60.5 -152q0 -63 -17.5 -101.5t-67 -72.5t-150.5 -73v-86h-136zM179 0v152h173v-152h-173z" />
    <glyph glyph-name="at" unicode="@" horiz-adv-x="1005" 
d="M503 -194q-98 0 -168.5 9t-122.5 32t-84.5 54.5t-52 83t-27 112t-7.5 146.5t7.5 146.5t27 112t52 83.5t84.5 54.5t123 32t168 9.5t168 -9t123 -31t84.5 -53t52 -80t27 -106.5t7.5 -138.5q0 -65 -8 -105.5t-31 -75.5t-67.5 -53t-115 -27.5t-175.5 -9.5l-13 61
q-89 -62 -171 -62q-37 0 -63 6.5t-46.5 23.5t-29 46.5t-8 75.5t12.5 109q27 143 64.5 189.5t110.5 46.5q41 0 100 -17.5t96 -37.5l25 44h119l-75 -394q116 0 152 37.5t36 143.5q0 107 -14.5 168.5t-58 101t-113 52.5t-189.5 13q-80 0 -135 -5.5t-99 -21.5t-69.5 -40.5
t-42.5 -66t-23 -93.5t-6 -128t6 -128t23 -93.5t42.5 -66t69.5 -40.5t99 -21.5t135 -5.5h121v-83h-121zM436 105q32 0 69 15t60 34l32 182q-24 13 -63 23.5t-67 10.5q-30 0 -45 -21.5t-30 -98.5q-17 -92 -8.5 -118.5t52.5 -26.5z" />
    <glyph glyph-name="A" unicode="A" horiz-adv-x="731" 
d="M210 132l-49 -132h-147l284 737h135l284 -737h-155l-49 132h-303zM469 251l-107 288q-107 -288 -108 -288h215z" />
    <glyph glyph-name="B" unicode="B" horiz-adv-x="681" 
d="M65 0v732h309q129 0 188.5 -39.5t59.5 -148.5q0 -74 -27 -112t-81 -51q127 -23 127 -176q0 -111 -58.5 -158t-189.5 -47h-328zM210 118h183q47 0 73.5 21.5t26.5 77.5t-26.5 78t-73.5 22h-183v-199zM210 428h164q49 0 74.5 19t25.5 73q0 55 -26 73.5t-74 18.5h-164v-184z
" />
    <glyph glyph-name="C" unicode="C" horiz-adv-x="614" 
d="M363 -10q-82 0 -137 14.5t-100.5 54t-67 115.5t-21.5 192q0 93 15.5 160.5t42 109t69.5 66t90 33t111 8.5q102 0 209 -22l-25 -125q-108 18 -186 18q-97 0 -134.5 -47.5t-37.5 -171.5v-54q0 -123 39 -174t135 -51q69 0 185 21l24 -123q-85 -24 -211 -24z" />
    <glyph glyph-name="D" unicode="D" horiz-adv-x="706" 
d="M65 0v732h274q58 0 100 -5.5t81.5 -19.5t65.5 -40t46 -66t29 -98.5t9 -136.5t-9 -136.5t-29 -98.5t-46 -66t-65.5 -40t-81.5 -19.5t-100 -5.5h-274zM212 117h126q97 0 137 50t40 175v48q0 125 -40 173.5t-137 48.5h-126v-495z" />
    <glyph glyph-name="E" unicode="E" horiz-adv-x="591" 
d="M65 0v732h487v-129h-340v-163h268v-129h-268v-185h340v-126h-487z" />
    <glyph glyph-name="F" unicode="F" horiz-adv-x="572" 
d="M65 0v732h487v-129h-340v-210h265v-123h-265v-270h-147z" />
    <glyph glyph-name="G" unicode="G" horiz-adv-x="669" 
d="M363 -10q-82 0 -137 14.5t-100.5 54t-67 115.5t-21.5 192q0 93 15.5 160.5t42 109t70 66t91 33t113.5 8.5q145 0 229 -23l-22 -127q-115 21 -209 21q-99 0 -137.5 -47t-38.5 -172v-54q0 -125 39 -177t143 -52q59 0 108 9v251h137v-352q-105 -30 -255 -30z" />
    <glyph glyph-name="H" unicode="H" 
d="M65 0v732h147v-284h327v284h148v-732h-148v313h-327v-313h-147z" />
    <glyph glyph-name="I" unicode="I" horiz-adv-x="291" 
d="M72 0v732h148v-732h-148z" />
    <glyph glyph-name="J" unicode="J" horiz-adv-x="527" 
d="M209 -6q-111 0 -189 19l16 125q5 -1 41.5 -6t69.5 -8.5t62 -3.5q68 0 91 32.5t23 119.5v460h146v-471q0 -155 -58.5 -211t-201.5 -56z" />
    <glyph glyph-name="K" unicode="K" horiz-adv-x="707" 
d="M213 436l281 296h164l-278 -294l295 -438h-172l-222 333l-68 -72v0v0v0v-1v0v0v-1v0v-1v0v-1v0v-1v-1v0v-1v-1v-1v-1v-1v-1v-1v-1v-1v-1v-1v-1v-1v-1v-1v-1v-1v-1v-1v-1v-1v-1v-1v-1v-1v-1v-1v-1v-1v-1v-1v-1v-1v-1v-1v-1v-1v-1v-1v-1v-1v-1v-1v-1v-1v-1v-1v-1v-1v-2v-1
v-1v-1v-1v-1v-2v-1v-1v-1v-1v-1v-2v-1v-1v-1v-2v-1v-1v-1v-2v-1v-1v-2v-1v-1v-1v-2v-1v-1v-2v-1v-1v-2v-1v-2v-1v-1v-2v-1v-1v-2v-1v-2v-1v-2v-1v-1v-2v-1v-2v-1v-2v-1v-2v-1v-2v-1v-2v-1v-2v-1v-2v-1v-2v-1v-2v-2v-1v-2v-1v-2v-1v-2v-2v-1v-2v-1v-2v-2v-1v-2v-1v-2v-2v-1
v-2v-2v-1v-2v-2v-1v-2v-2v-2v-1v-2v-2v-1v-2v-2v-2v-1v-2v-2v-2v-1v-2v-2v-2v-1v-2v-2v-2v-2v-1v-2v-2v-2v-2v-1v-2v-2v-2v-2v-2v-1v-2v-2v-9h-148v732h148v-296z" />
    <glyph glyph-name="L" unicode="L" horiz-adv-x="585" 
d="M61 0v732h147v-606h357v-126h-504z" />
    <glyph glyph-name="M" unicode="M" horiz-adv-x="879" 
d="M492 0h-116l-180 482v-482h-131v732h173l201 -534l202 534h173v-732h-142v482z" />
    <glyph glyph-name="N" unicode="N" horiz-adv-x="739" 
d="M65 0v732h146l322 -466v466h141v-732h-126l-342 497v-497h-141z" />
    <glyph glyph-name="O" unicode="O" 
d="M375 -12q-64 0 -112 8.5t-92.5 33t-72.5 66t-44.5 109.5t-16.5 161q0 115 24 192t72 116.5t105 54.5t139 15t138.5 -14.5t104.5 -54t71.5 -116t23.5 -191.5t-24 -192.5t-72 -117t-105.5 -55t-138.5 -15.5zM377 113q98 0 141 49t43 177v54q0 127 -43.5 175.5t-142.5 48.5
t-141.5 -47.5t-42.5 -174.5v-54q0 -128 44 -178t142 -50z" />
    <glyph glyph-name="P" unicode="P" horiz-adv-x="667" 
d="M65 0v732h302q144 0 207 -53t63 -200q0 -148 -64.5 -202t-207.5 -54h-154v-223h-146zM211 342h156q29 0 47.5 4t38 16.5t28.5 41t9 73.5t-9.5 73.5t-29 41t-38 16t-48.5 3.5h-154v-269z" />
    <glyph glyph-name="Q" unicode="Q" 
d="M608 54l120 -188h-195l-81 131q-33 -4 -77 -4q-65 0 -112.5 8t-92 32t-72.5 64.5t-44.5 108t-16.5 160.5q0 115 24 192t72 116.5t105 54.5t139 15t138.5 -14.5t104.5 -54t71.5 -116t23.5 -191.5q0 -229 -107 -314zM377 107q97 0 140.5 51.5t43.5 180.5v54q0 128 -44 179
t-142 51t-141 -50t-43 -178v-54q0 -129 44.5 -181.5t141.5 -52.5z" />
    <glyph glyph-name="R" unicode="R" horiz-adv-x="698" 
d="M497 265l178 -265h-168l-157 233h-139v-233h-146v732h292q72 0 119 -10t83 -37t52 -76t16 -125q0 -103 -31.5 -153t-98.5 -66zM211 352h146q65 0 94 25.5t29 104.5t-30.5 104t-94.5 25h-144v-259z" />
    <glyph glyph-name="S" unicode="S" horiz-adv-x="625" 
d="M297 -8q-75 0 -149 9.5t-106 19.5l23 123q29 -7 107.5 -17t125.5 -10q80 0 108 17t28 73q0 49 -23.5 64.5t-117.5 34.5q-81 16 -124.5 30.5t-74 40t-40.5 62t-10 97.5q0 110 67 157.5t198 47.5q63 0 140.5 -8.5t103.5 -16.5l-23 -124q-138 21 -222 21q-64 0 -89.5 -17
t-25.5 -62q0 -50 24 -66t114 -34q54 -11 86 -19t64.5 -20.5t49 -27t30.5 -37t19 -52.5t5 -72q0 -120 -68 -167t-220 -47z" />
    <glyph glyph-name="T" unicode="T" horiz-adv-x="662" 
d="M258 0v603h-238v129h622v-129h-237v-603h-147z" />
    <glyph glyph-name="U" unicode="U" horiz-adv-x="730" 
d="M367 -10q-83 0 -137 11t-94.5 40.5t-59 82.5t-18.5 134v474h148v-464q0 -86 36.5 -115.5t126.5 -29.5q92 0 127 27.5t35 115.5v466h141v-472q0 -80 -18 -133t-57.5 -83t-93.5 -42t-136 -12z" />
    <glyph glyph-name="V" unicode="V" horiz-adv-x="731" 
d="M298 -5l-284 737h154l201 -533l200 533h148l-284 -737h-135z" />
    <glyph glyph-name="W" unicode="W" horiz-adv-x="945" 
d="M220 -5l-206 737h151l128 -469l129 457h114l125 -457l132 469h139l-212 -737h-110l-137 504l-140 -504h-113z" />
    <glyph glyph-name="X" unicode="X" horiz-adv-x="753" 
d="M37 0l248 391l-226 341h173l157 -242l151 242h153l-226 -358l248 -374h-173l-180 275l-172 -275h-153z" />
    <glyph glyph-name="Y" unicode="Y" horiz-adv-x="728" 
d="M291 0v261l-277 471h160l194 -327l194 327h152l-276 -468v-264h-147z" />
    <glyph glyph-name="Z" unicode="Z" horiz-adv-x="639" 
d="M33 0v121l388 482h-379v129h558v-127l-384 -479h391v-126h-574z" />
    <glyph glyph-name="bracketleft" unicode="[" horiz-adv-x="348" 
d="M68 -144v896h250v-119h-126v-660h126v-117h-250z" />
    <glyph glyph-name="backslash" unicode="\" horiz-adv-x="377" 
d="M254 0l-256 732h126l255 -732h-125z" />
    <glyph glyph-name="bracketright" unicode="]" horiz-adv-x="348" 
d="M32 -144v117h131v660h-131v119h249v-896h-249z" />
    <glyph glyph-name="asciicircum" unicode="^" horiz-adv-x="379" 
d="M48 290v114h283v-114h-283z" />
    <glyph glyph-name="underscore" unicode="_" horiz-adv-x="513" 
d="M-36 -163v112h585v-112h-585z" />
    <glyph glyph-name="grave" unicode="`" horiz-adv-x="464" 
d="M212 540l-184 199h186l98 -199h-100z" />
    <glyph glyph-name="a" unicode="a" horiz-adv-x="535" 
d="M158 -7q-56 0 -91 37t-35 117q0 83 33 109q31 23 91 31.5t182 8.5v17q0 37 -13.5 51.5t-57.5 14.5q-85 0 -173 -15l-16 113q95 17 190 17q119 0 164.5 -36.5t45.5 -124.5v-333h-121l-15 49q-71 -42 -130 -52q-26 -4 -54 -4zM227 99q47 0 111 27v96q-125 0 -150 -17
q-15 -10 -15 -49q0 -33 12.5 -45t41.5 -12z" />
    <glyph glyph-name="b" unicode="b" horiz-adv-x="588" 
d="M392 -8q-100 0 -195 43l-16 -35h-120v752h141v-319q33 17 89.5 36t105.5 19q78 0 115.5 -52.5t37.5 -194.5q0 -73 -11 -123t-32.5 -77t-49 -38t-65.5 -11zM334 108q40 0 56.5 26.5t16.5 104.5q0 79 -16 103.5t-57 24.5q-56 0 -132 -27v-212q71 -20 132 -20z" />
    <glyph glyph-name="c" unicode="c" horiz-adv-x="465" 
d="M283 -9q-135 0 -192 53t-57 198t58.5 198.5t195.5 53.5q78 0 144 -17l-21 -114q-72 12 -125 12q-64 0 -87 -25.5t-23 -105.5t24.5 -109t87.5 -29q55 0 123 16l21 -111q-67 -20 -149 -20z" />
    <glyph glyph-name="d" unicode="d" horiz-adv-x="588" 
d="M191 -10q-78 0 -115.5 53.5t-37.5 195.5q0 73 11 123t32.5 77t49 38t65.5 11q94 0 190 -41v305h141v-752h-122l-14 48q-112 -58 -200 -58zM254 113q56 0 132 27v212q-71 20 -132 20q-40 0 -56.5 -26.5t-16.5 -104.5q0 -80 15.5 -104t57.5 -24z" />
    <glyph glyph-name="e" unicode="e" horiz-adv-x="519" 
d="M298 -9q-143 0 -203.5 53.5t-60.5 197.5q0 143 58.5 197.5t169.5 54.5q117 0 169.5 -49t52.5 -173v-56h-309q1 -65 28.5 -87.5t93.5 -22.5q81 0 145 14l18 -110q-72 -19 -162 -19zM176 295h172q0 59 -18.5 79.5t-68.5 20.5q-42 0 -62 -21.5t-23 -78.5z" />
    <glyph glyph-name="f" unicode="f" horiz-adv-x="382" 
d="M105 0v362h-74v115h74v79q0 40 3.5 63t15.5 47t37 38t67 26.5t106 22.5l25 -127q-78 -14 -95.5 -30t-17.5 -63v-56h109v-115h-109v-362h-141z" />
    <glyph glyph-name="g" unicode="g" horiz-adv-x="588" 
d="M291 -202q-134 0 -213 12l13 115q78 -10 203 -10q57 0 74.5 22t17.5 95v24q-30 -20 -86.5 -40t-108.5 -20q-51 0 -82.5 19t-51 74.5t-19.5 152.5q0 141 39.5 193.5t118.5 52.5q53 0 109.5 -15.5t85.5 -30.5l17 35h119v-453q0 -63 -9 -102t-34.5 -69t-72 -42.5
t-120.5 -12.5zM254 110q63 0 132 32v206q-61 24 -132 24q-40 0 -56.5 -25.5t-16.5 -102.5q0 -80 16 -107t57 -27z" />
    <glyph glyph-name="h" unicode="h" horiz-adv-x="585" 
d="M61 0v752h141v-324q28 20 88 40t106 20q131 0 131 -124v-364h-141v312q0 30 -13 41.5t-49 11.5q-29 0 -64.5 -9.5t-57.5 -21.5v-334h-141z" />
    <glyph glyph-name="i" unicode="i" horiz-adv-x="273" 
d="M65 558v148h143v-148h-143zM66 0v477h141v-477h-141z" />
    <glyph glyph-name="j" unicode="j" horiz-adv-x="273" 
d="M65 558v148h143v-148h-143zM-26 -198l-21 123q76 14 94.5 33t18.5 66v453h141v-482q0 -48 -7.5 -77t-31.5 -54.5t-71 -39.5t-123 -22z" />
    <glyph glyph-name="k" unicode="k" horiz-adv-x="547" 
d="M202 154v-154h-141v752h141v-457l177 182h138l-170 -174l183 -303h-154l-125 203z" />
    <glyph glyph-name="l" unicode="l" horiz-adv-x="273" 
d="M66 0v752h141v-752h-141z" />
    <glyph glyph-name="m" unicode="m" horiz-adv-x="891" 
d="M61 0v477h123l14 -51q106 62 197 62q90 0 113 -65q110 65 201 65q64 0 94 -30.5t30 -99.5v-358h-141v312q0 30 -11 41.5t-46 11.5q-65 0 -117 -31v-334h-141v312q0 30 -11.5 41.5t-45.5 11.5q-65 0 -117 -31v-334h-142z" />
    <glyph glyph-name="n" unicode="n" horiz-adv-x="585" 
d="M61 0v477h122l15 -47q29 18 88.5 38t109.5 20q131 0 131 -124v-364h-141v312q0 30 -13 41.5t-49 11.5q-29 0 -66 -9t-55 -18v-338h-142z" />
    <glyph glyph-name="o" unicode="o" horiz-adv-x="575" 
d="M287 -9q-135 0 -194 54.5t-59 196.5t59.5 197.5t195.5 55.5q135 0 193.5 -54.5t58.5 -196.5t-59.5 -197.5t-194.5 -55.5zM289 98q61 0 85.5 30.5t24.5 113.5t-25.5 113.5t-86.5 30.5q-62 0 -86.5 -29.5t-24.5 -112.5t25.5 -114.5t87.5 -31.5z" />
    <glyph glyph-name="p" unicode="p" horiz-adv-x="588" 
d="M61 -200v677h122l14 -47q112 58 200 58q78 0 115.5 -52.5t37.5 -194.5q0 -73 -11 -123t-32.5 -77t-49 -38t-65.5 -11q-94 0 -190 41v-233h-141zM334 108q40 0 56.5 26.5t16.5 104.5q0 79 -16 103.5t-57 24.5q-56 0 -132 -27v-212q71 -20 132 -20z" />
    <glyph glyph-name="q" unicode="q" horiz-adv-x="586" 
d="M384 -200v246q-108 -56 -195 -56q-78 0 -115.5 53.5t-37.5 195.5q0 73 11 123t32.5 77t49 38t65.5 11q96 0 195 -43l16 36h120v-681h-141zM252 113q56 0 132 27v212q-71 20 -132 20q-40 0 -56.5 -26.5t-16.5 -104.5q0 -80 15.5 -104t57.5 -24z" />
    <glyph glyph-name="r" unicode="r" horiz-adv-x="406" 
d="M61 0v477h122l15 -56q95 56 171 68l16 -129q-134 -8 -182 -31v-329h-142z" />
    <glyph glyph-name="s" unicode="s" horiz-adv-x="492" 
d="M232 -8q-114 0 -192 22l14 95q86 -20 181 -20q55 0 72.5 9.5t17.5 39.5q0 24 -17.5 32.5t-83.5 18.5q-115 16 -149.5 45t-34.5 112q0 82 50 115t154 33q124 0 196 -18l-17 -97q-92 15 -181 15q-40 0 -55 -9t-15 -34q0 -27 18 -34t94 -17q108 -12 142 -41.5t34 -108.5
q0 -94 -53.5 -126t-174.5 -32z" />
    <glyph glyph-name="t" unicode="t" horiz-adv-x="385" 
d="M218 -5q-74 0 -104.5 33.5t-30.5 113.5v220h-65v115h65v152l141 20v-172h115v-115h-115v-187q0 -40 10 -54t36 -14q31 0 72 5l7 -108q-63 -9 -131 -9z" />
    <glyph glyph-name="u" unicode="u" horiz-adv-x="584" 
d="M189 -10q-131 0 -131 124v363h141v-311q0 -30 13 -41.5t49 -11.5q66 0 121 26v338h141v-476l-122 -1l-14 47q-30 -18 -89 -37.5t-109 -19.5z" />
    <glyph glyph-name="v" unicode="v" horiz-adv-x="541" 
d="M205 -4l-194 481h148l119 -314l119 314h133l-194 -481h-131z" />
    <glyph glyph-name="w" unicode="w" horiz-adv-x="791" 
d="M173 -4l-162 481h143l93 -285l105 273h106l102 -272l93 284h128l-163 -481h-108l-113 302l-113 -302h-111z" />
    <glyph glyph-name="x" unicode="x" horiz-adv-x="559" 
d="M16 0l179 253l-162 224h162l96 -133l93 133h142l-163 -231l179 -246h-162l-113 157l-109 -157h-142z" />
    <glyph glyph-name="y" unicode="y" horiz-adv-x="544" 
d="M203 10l-192 467h148q122 -303 122 -304l120 304h132l-274 -677h-141z" />
    <glyph glyph-name="z" unicode="z" horiz-adv-x="503" 
d="M31 0v100l257 263h-246v114h424v-100l-253 -264h267v-113h-449z" />
    <glyph glyph-name="braceleft" unicode="{" horiz-adv-x="461" 
d="M430 -144q-66 1 -109 6t-81 20.5t-60 41.5t-39 70.5t-24 105t-9 147.5h-88v115h88q2 86 9 146t24 104t39 70.5t60.5 42t81.5 21t108 6.5v-119q-35 0 -57.5 -1.5t-44.5 -8t-35 -15.5t-24.5 -27.5t-17.5 -41t-10.5 -59t-5.5 -78t-1 -101.5q0 -80 2.5 -129.5t11 -89t20 -59
t36.5 -32t52 -15.5t74 -3v-117z" />
    <glyph glyph-name="bar" unicode="|" horiz-adv-x="377" 
d="M130 -200v990h116v-990h-116z" />
    <glyph glyph-name="braceright" unicode="}" horiz-adv-x="461" 
d="M31 -144v117q35 0 57.5 1.5t45 7.5t35 15t24.5 27t18 40t10.5 58.5t5.5 77.5t1 101q0 80 -2.5 130t-11 90t-20.5 60t-36.5 33t-52 16t-74.5 3v119q78 -1 127 -10t89 -32t61 -68t32 -113t13 -172h89v-115h-89q-2 -86 -9 -145.5t-23.5 -103.5t-38.5 -69.5t-60.5 -41
t-81.5 -20.5t-109 -6z" />
    <glyph glyph-name="asciitilde" unicode="~" horiz-adv-x="465" 
d="M94 528l-65 83q32 27 49.5 41t45 29t46.5 15q24 0 69 -23.5t54 -23.5q16 0 78 53l65 -83q-34 -29 -49.5 -41.5t-44 -28t-48.5 -15.5q-23 0 -68 23.5t-54 23.5q-16 0 -78 -53z" />
    <glyph glyph-name="exclamdown" unicode="&#xa1;" horiz-adv-x="347" 
d="M88 580v152h172v-152h-172zM81 0l34 514h116l34 -514h-184z" />
    <glyph glyph-name="cent" unicode="&#xa2;" horiz-adv-x="473" 
d="M315 622q62 -3 117 -16l-21 -112q-65 13 -125 13q-63 0 -86.5 -27t-23.5 -107q0 -81 25 -111t87 -30q55 0 123 16l21 -108q-51 -16 -117 -19v-121h-116v126q-87 13 -126 69t-39 176q0 119 39 175t126 71v121h116v-116z" />
    <glyph glyph-name="sterling" unicode="&#xa3;" horiz-adv-x="603" 
d="M31 0v126h135q-22 87 -42 182h-93v114h68q-15 92 -15 119q0 108 58 156t203 48q118 0 216 -25l-24 -125q-99 21 -192 21q-66 0 -90 -17.5t-24 -66.5q0 -40 12 -110h200v-114h-175q19 -95 41 -182h258v-126h-536z" />
    <glyph glyph-name="currency" unicode="&#xa4;" horiz-adv-x="651" 
d="M414 -10q-123 0 -194 52.5t-92 186.5h-108v96h98v24.5v29.5v25h-98v95h107q23 137 95 190.5t194 53.5q97 0 195 -23l-25 -124q-112 18 -172 18q-61 0 -94.5 -26.5t-44.5 -88.5h201v-95h-212v-79h212v-96h-200q13 -60 46.5 -86.5t93.5 -26.5q90 0 170 19l25 -120
q-91 -25 -197 -25z" />
    <glyph glyph-name="yen" unicode="&#xa5;" horiz-adv-x="716" 
d="M525 434h149v-95h-206l-39 -66v-8h245v-95h-245v-170h-148v170h-246v95h246v5l-40 69h-206v95h151l-172 298h167l185 -326l186 326h150z" />
    <glyph glyph-name="brokenbar" unicode="&#xa6;" horiz-adv-x="377" 
d="M130 366v424h116v-424h-116zM130 -200v424h116v-424h-116z" />
    <glyph glyph-name="section" unicode="&#xa7;" horiz-adv-x="587" 
d="M299 -4q-133 0 -214 23l17 93q101 -19 190 -19q59 0 76 9.5t17 37.5q0 35 -18.5 42.5t-105.5 12.5q-122 7 -165 36.5t-43 104.5q0 67 52 140q-37 33 -37 119q0 76 52.5 111.5t167.5 35.5q126 0 215 -25l-21 -94q-109 20 -186 20q-56 0 -74.5 -9.5t-18.5 -37.5
q0 -33 18.5 -40.5t97.5 -12.5q9 -1 14 -1q122 -7 162 -36t40 -104q0 -67 -53 -141q37 -31 37 -118q0 -76 -52 -111.5t-168 -35.5zM381 301q27 43 27 75q0 26 -20 35.5t-92 14.5q-56 4 -90 11q-26 -46 -26 -75q0 -26 21 -36t91 -14q55 -4 89 -11z" />
    <glyph glyph-name="dieresis" unicode="&#xa8;" horiz-adv-x="465" 
d="M264 544v139h146v-139h-146zM55 544v139h145v-139h-145z" />
    <glyph glyph-name="copyright" unicode="&#xa9;" horiz-adv-x="843" 
d="M421 -12q-109 0 -178 16.5t-116 60t-66.5 115.5t-19.5 186q0 91 13 155t39.5 108t73 69t107 36t147.5 11q109 0 178.5 -17t116.5 -60.5t66.5 -115.5t19.5 -186t-19.5 -186t-66.5 -115.5t-116.5 -60t-178.5 -16.5zM421 65q60 0 98.5 3.5t75 14.5t57.5 31t37 54t22.5 82.5
t6.5 116.5t-6.5 116.5t-23 82.5t-37 53.5t-57 30.5t-75 14.5t-98.5 3.5t-98 -3.5t-74.5 -14.5t-57.5 -30.5t-37 -53.5t-22.5 -82.5t-6.5 -116.5t6.5 -116.5t22.5 -82.5t37 -54t57.5 -31t75 -14.5t97.5 -3.5zM429 130q-52 0 -86.5 9t-63.5 34t-42.5 72.5t-13.5 120.5
t14 120.5t43.5 72.5t64.5 34t86 9q62 0 137 -15l-23 -93q-74 11 -116 11q-52 0 -72.5 -28t-20.5 -97v-26q0 -69 21 -99t74 -30q44 0 118 13l19 -91q-62 -17 -139 -17z" />
    <glyph glyph-name="ordfeminine" unicode="&#xaa;" horiz-adv-x="441" 
d="M138 338q-46 0 -75 31t-29 94q0 73 33 95q24 16 68.5 21.5t141.5 5.5q0 3 0.5 11t0.5 12q0 27 -10.5 37.5t-44.5 10.5q-91 0 -137 -10l-16 86q71 15 151 15q96 0 136.5 -29.5t40.5 -99.5v-274h-104l-12 37q-7 -3 -23 -10t-23.5 -10t-22 -8.5t-25 -8t-24 -4.5t-26.5 -2z
M58 203v90h340v-90h-340zM194 425q32 0 84 21v74q-79 0 -109 -11q-10 -3 -12.5 -12.5t-2.5 -30.5q0 -24 9 -32.5t31 -8.5z" />
    <glyph glyph-name="guillemotleft" unicode="&#xab;" horiz-adv-x="583" 
d="M400 25l-120 204l120 206h119l-105 -206l105 -204h-119zM170 25l-120 204l120 206h118l-104 -206l105 -204h-119z" />
    <glyph glyph-name="logicalnot" unicode="&#xac;" horiz-adv-x="669" 
d="M363 -10q-82 0 -137 14.5t-100.5 54t-67 115.5t-21.5 192q0 93 15.5 160.5t42 109t70 66t91 33t113.5 8.5q145 0 229 -23l-22 -127q-115 21 -209 21q-99 0 -137.5 -47t-38.5 -172v-54q0 -125 39 -177t143 -52q59 0 108 9v148h-117v120h254v-369q-105 -30 -255 -30z" />
    <glyph glyph-name="registered" unicode="&#xae;" horiz-adv-x="843" 
d="M421 -12q-109 0 -178 16.5t-116 60t-66.5 115.5t-19.5 186q0 91 13 155t39.5 108t73 69t107 36t147.5 11q109 0 178.5 -17t116.5 -60.5t66.5 -115.5t19.5 -186t-19.5 -186t-66.5 -115.5t-116.5 -60t-178.5 -16.5zM421 65q60 0 98.5 3.5t75 14.5t57.5 31t37 54t22.5 82.5
t6.5 116.5t-6.5 116.5t-23 82.5t-37 53.5t-57 30.5t-75 14.5t-98.5 3.5t-98 -3.5t-74.5 -14.5t-57.5 -30.5t-37 -53.5t-22.5 -82.5t-6.5 -116.5t6.5 -116.5t22.5 -82.5t37 -54t57.5 -31t75 -14.5t97.5 -3.5zM244 145v447h201q74 0 112 -33t38 -120q0 -108 -69 -134l112 -160
h-122l-98 138h-69v-138h-105zM349 363h85q56 0 56 74q0 70 -54 70h-87v-144z" />
    <glyph glyph-name="macron" unicode="&#xaf;" horiz-adv-x="467" 
d="M64 540v127h340v-127h-340z" />
    <glyph glyph-name="macron" unicode="&#x2c9;" horiz-adv-x="467" 
d="M64 540v127h340v-127h-340z" />
    <glyph glyph-name="degree" unicode="&#xb0;" horiz-adv-x="473" 
d="M236 335q-107 0 -156 49t-49 155t50 156t157 50q106 0 154.5 -49t48.5 -155t-49.5 -156t-155.5 -50zM238 425q48 0 67.5 22t19.5 92t-20.5 93t-68.5 23q-49 0 -68.5 -22t-19.5 -92t20.5 -93t69.5 -23z" />
    <glyph glyph-name="plusminus" unicode="&#xb1;" horiz-adv-x="963" 
d="M105 0v362h-74v115h74v52q0 50 5.5 77t28.5 53t69 41t126 27l25 -128q-78 -14 -95.5 -30t-17.5 -62v-30h185v73q0 50 6 79t26.5 54.5t59.5 41t105 28.5l35 -127q-61 -15 -76 -30.5t-15 -59.5v-59h92v-115h-92v-362h-141v362h-185v-362h-141zM756 0v752h140v-752h-140z
" />
    <glyph glyph-name="twosuperior" unicode="&#xb2;" horiz-adv-x="452" 
d="M49 261v89l134 115q61 54 72.5 70t11.5 50q0 26 -13.5 35.5t-51.5 9.5q-68 0 -132 -14l-17 104q67 19 150 19q104 0 142.5 -32t38.5 -114q0 -61 -20.5 -91.5t-99.5 -98.5l-41 -39h174v-103h-348z" />
    <glyph glyph-name="threesuperior" unicode="&#xb3;" horiz-adv-x="466" 
d="M68 254l-8 105q189 6 217 27q12 9 12 42q0 30 -11 39q-20 13 -112 22v71l88 68h-200v104h322v-98l-91 -78q57 -12 77 -31q39 -30 39 -102q0 -73 -33 -103q-26 -31 -94.5 -46.5t-205.5 -19.5z" />
    <glyph glyph-name="acute" unicode="&#xb4;" horiz-adv-x="464" 
d="M152 540l98 199h186l-184 -199h-100z" />
    <glyph glyph-name="mu" unicode="&#xb5;" horiz-adv-x="709" 
d="M85 0v76q0 229 238 229v95h-238v194h71v-128h167v67h-53v192h176v-192h-53v-67h162v128h70v-194h-232v-95q238 0 238 -229v-76h-73v72q0 95 -37.5 128.5t-127.5 33.5v-100h-70v100q-90 0 -127.5 -33.5t-37.5 -128.5v-72h-73z" />
    <glyph glyph-name="mu" unicode="&#x3bc;" horiz-adv-x="709" 
d="M85 0v76q0 229 238 229v95h-238v194h71v-128h167v67h-53v192h176v-192h-53v-67h162v128h70v-194h-232v-95q238 0 238 -229v-76h-73v72q0 95 -37.5 128.5t-127.5 33.5v-100h-70v100q-90 0 -127.5 -33.5t-37.5 -128.5v-72h-73z" />
    <glyph glyph-name="paragraph" unicode="&#xb6;" horiz-adv-x="622" 
d="M214 0v278q-42 1 -74 11t-59 33.5t-41.5 68t-14.5 108.5q0 135 60 184t184 49h288v-732h-136v275h-77v-275h-130zM257 383h164v229h-162q-46 0 -72 -24.5t-26 -90.5q0 -68 24.5 -91t71.5 -23z" />
    <glyph glyph-name="periodcentered" unicode="&#xb7;" horiz-adv-x="317" 
d="M69 277v158h179v-158h-179z" />
    <glyph glyph-name="periodcentered" unicode="&#x2219;" horiz-adv-x="317" 
d="M69 277v158h179v-158h-179z" />
    <glyph glyph-name="cedilla" unicode="&#xb8;" horiz-adv-x="485" 
d="M163 -211l-23 102q67 12 91 28l-16 91l93 19l31 -168q-19 -20 -66.5 -40.5t-109.5 -31.5z" />
    <glyph glyph-name="onesuperior" unicode="&#xb9;" horiz-adv-x="357" 
d="M135 262v365h-69v105h189v-470h-120z" />
    <glyph glyph-name="ordmasculine" unicode="&#xba;" horiz-adv-x="480" 
d="M239 336q-111 0 -159 44.5t-48 158.5t49 159.5t160 45.5q112 0 159.5 -44.5t47.5 -158.5q0 -115 -48.5 -160t-160.5 -45zM61 203v90h359v-90h-359zM241 424q50 0 68 23.5t18 91.5t-19 92t-69 24q-49 0 -67 -23t-18 -91t19 -92.5t68 -24.5z" />
    <glyph glyph-name="guillemotright" unicode="&#xbb;" horiz-adv-x="583" 
d="M294 25l105 206l-105 204h119l120 -204l-120 -206h-119zM64 25l104 206l-105 204h119l120 -204l-120 -206h-118z" />
    <glyph glyph-name="onequarter" unicode="&#xbc;" horiz-adv-x="941" 
d="M135 262v365h-69v105h189v-470h-120zM228 0l279 732h126l-279 -732h-126zM727 0v86h-224v101l176 285h125l-177 -288h100v100h114v-100h50v-98h-50v-86h-114z" />
    <glyph glyph-name="onehalf" unicode="&#xbd;" horiz-adv-x="995" 
d="M135 262v365h-69v105h189v-470h-120zM228 0l279 732h126l-279 -732h-126zM574 0v90l133 114q64 58 72 71q12 18 12 50q0 26 -13.5 35.5t-51.5 9.5q-62 0 -131 -15l-17 104q67 19 150 19q105 0 143 -31.5t38 -114.5q0 -60 -21 -91t-100 -99l-41 -39h175v-103h-348z" />
    <glyph glyph-name="threequarters" unicode="&#xbe;" horiz-adv-x="1027" 
d="M68 254l-8 105q189 6 217 27q12 9 12 42q0 30 -11 39q-20 13 -112 22v71l88 68h-200v104h322v-98l-91 -78q57 -12 77 -31q39 -30 39 -102q0 -73 -33 -103q-26 -31 -94.5 -46.5t-205.5 -19.5zM314 0l279 732h126l-279 -732h-126zM814 0v86h-225v101l176 285h125l-177 -288
h101v100h113v-100h50v-98h-50v-86h-113z" />
    <glyph glyph-name="questiondown" unicode="&#xbf;" horiz-adv-x="600" 
d="M249 585v152h172v-152h-172zM317 -10q-166 0 -227 42.5t-61 151.5q0 93 44.5 142t190.5 105v87h136v-148q-83 -33 -122.5 -51t-65.5 -38t-31 -36.5t-5 -47.5q0 -45 30 -61.5t111 -16.5q112 0 225 24l24 -126q-36 -10 -110 -18.5t-139 -8.5z" />
    <glyph glyph-name="Agrave" unicode="&#xc0;" horiz-adv-x="731" 
d="M210 132l-49 -132h-147l284 737h135l284 -737h-155l-49 132h-303zM469 251l-107 288q-107 -288 -108 -288h215zM345 780l-184 199h186l98 -199h-100z" />
    <glyph glyph-name="Aacute" unicode="&#xc1;" horiz-adv-x="731" 
d="M210 132l-49 -132h-147l284 737h135l284 -737h-155l-49 132h-303zM469 251l-107 288q-107 -288 -108 -288h215zM285 780l98 199h186l-184 -199h-100z" />
    <glyph glyph-name="Acircumflex" unicode="&#xc2;" horiz-adv-x="731" 
d="M210 132l-49 -132h-147l284 737h135l284 -737h-155l-49 132h-303zM469 251l-107 288q-107 -288 -108 -288h215zM173 766l131 181h119l131 -181h-97l-95 79l-95 -79h-94z" />
    <glyph glyph-name="Atilde" unicode="&#xc3;" horiz-adv-x="731" 
d="M210 132l-49 -132h-147l284 737h135l284 -737h-155l-49 132h-303zM469 251l-107 288q-107 -288 -108 -288h215zM234 768l-65 83q32 27 49.5 41t45 29t46.5 15q24 0 69 -23.5t54 -23.5q16 0 78 53l65 -83q-34 -29 -49.5 -41.5t-44 -28t-48.5 -15.5q-23 0 -68 23.5
t-54 23.5q-16 0 -78 -53z" />
    <glyph glyph-name="Adieresis" unicode="&#xc4;" horiz-adv-x="731" 
d="M531 593v139h146v-139h-146zM53 593v139h146v-139h-146zM210 132l-49 -132h-147l284 737h135l284 -737h-155l-49 132h-303zM469 251l-107 288q-107 -288 -108 -288h215z" />
    <glyph glyph-name="Aring" unicode="&#xc5;" horiz-adv-x="731" 
d="M210 132l-49 -132h-147l268 696q-54 22 -54 99q0 62 32.5 88t103.5 26t103.5 -26t32.5 -88q0 -74 -52 -98l269 -697h-155l-49 132h-303zM364 741q32 0 42.5 11t10.5 43q0 33 -11 45t-42 12t-42 -12t-11 -45q0 -32 10.5 -43t42.5 -11zM469 251l-107 288
q-107 -288 -108 -288h215z" />
    <glyph glyph-name="AE" unicode="&#xc6;" horiz-adv-x="1046" 
d="M14 0l435 732h557v-129h-328v-163h256v-129h-256v-185h328v-126h-469v185h-257l-106 -185h-160zM346 302h191v331z" />
    <glyph glyph-name="Ccedilla" unicode="&#xc7;" horiz-adv-x="614" 
d="M283 -6q-82 10 -133.5 44t-82 114.5t-30.5 213.5q0 93 15.5 160.5t42 109t69.5 66t90 33t111 8.5q102 0 209 -22l-25 -125q-108 18 -186 18q-97 0 -134.5 -47.5t-37.5 -171.5v-54q0 -123 39 -174t135 -51q69 0 185 21l24 -123q-85 -23 -194 -24l24 -129
q-19 -20 -66.5 -40.5t-109.5 -31.5l-23 102q67 12 91 28z" />
    <glyph glyph-name="Egrave" unicode="&#xc8;" horiz-adv-x="591" 
d="M65 0v732h487v-129h-340v-163h268v-129h-268v-185h340v-126h-487zM276 780l-184 199h186l98 -199h-100z" />
    <glyph glyph-name="Eacute" unicode="&#xc9;" horiz-adv-x="591" 
d="M65 0v732h487v-129h-340v-163h268v-129h-268v-185h340v-126h-487zM216 780l98 199h186l-184 -199h-100z" />
    <glyph glyph-name="Ecircumflex" unicode="&#xca;" horiz-adv-x="591" 
d="M65 0v732h487v-129h-340v-163h268v-129h-268v-185h340v-126h-487zM103 780l131 181h119l131 -181h-97l-95 79l-95 -79h-94z" />
    <glyph glyph-name="Edieresis" unicode="&#xcb;" horiz-adv-x="591" 
d="M65 0v732h487v-129h-340v-163h268v-129h-268v-185h340v-126h-487zM327 784v139h146v-139h-146zM118 784v139h145v-139h-145z" />
    <glyph glyph-name="Igrave" unicode="&#xcc;" horiz-adv-x="291" 
d="M72 0v732h148v-732h-148zM113 780l-184 199h186l98 -199h-100z" />
    <glyph glyph-name="Iacute" unicode="&#xcd;" horiz-adv-x="291" 
d="M72 0v732h148v-732h-148zM78 780l98 199h186l-184 -199h-100z" />
    <glyph glyph-name="Icircumflex" unicode="&#xce;" horiz-adv-x="291" 
d="M72 0v732h148v-732h-148zM-47 780l131 181h119l131 -181h-97l-95 79l-95 -79h-94z" />
    <glyph glyph-name="Idieresis" unicode="&#xcf;" horiz-adv-x="291" 
d="M72 0v732h148v-732h-148zM177 784v139h146v-139h-146zM-32 784v139h145v-139h-145z" />
    <glyph glyph-name="Eth" unicode="&#xd0;" horiz-adv-x="747" 
d="M106 322h-73v101h73v309h277q88 0 143.5 -13t100 -51.5t64.5 -112t20 -189.5t-20 -189.5t-64.5 -112t-100 -51.5t-143.5 -13l-277 -1v323zM253 423h116v-101h-116v-212h129q96 0 135.5 53t39.5 179v48q0 126 -39.5 177.5t-135.5 51.5h-129v-196z" />
    <glyph glyph-name="Ntilde" unicode="&#xd1;" horiz-adv-x="739" 
d="M65 0v732h146l322 -466v466h141v-732h-126l-342 497v-497h-141zM238 768l-65 83q32 27 49.5 41t45 29t46.5 15q24 0 69 -23.5t54 -23.5q16 0 78 53l65 -83q-34 -29 -49.5 -41.5t-44 -28t-48.5 -15.5q-23 0 -68 23.5t-54 23.5q-16 0 -78 -53z" />
    <glyph glyph-name="Ograve" unicode="&#xd2;" 
d="M375 -12q-64 0 -112 8.5t-92.5 33t-72.5 66t-44.5 109.5t-16.5 161q0 115 24 192t72 116.5t105 54.5t139 15t138.5 -14.5t104.5 -54t71.5 -116t23.5 -191.5t-24 -192.5t-72 -117t-105.5 -55t-138.5 -15.5zM377 113q98 0 141 49t43 177v54q0 127 -43.5 175.5t-142.5 48.5
t-141.5 -47.5t-42.5 -174.5v-54q0 -128 44 -178t142 -50zM362 780l-184 199h186l98 -199h-100z" />
    <glyph glyph-name="Oacute" unicode="&#xd3;" 
d="M375 -12q-64 0 -112 8.5t-92.5 33t-72.5 66t-44.5 109.5t-16.5 161q0 115 24 192t72 116.5t105 54.5t139 15t138.5 -14.5t104.5 -54t71.5 -116t23.5 -191.5t-24 -192.5t-72 -117t-105.5 -55t-138.5 -15.5zM377 113q98 0 141 49t43 177v54q0 127 -43.5 175.5t-142.5 48.5
t-141.5 -47.5t-42.5 -174.5v-54q0 -128 44 -178t142 -50zM290 780l98 199h186l-184 -199h-100z" />
    <glyph glyph-name="Ocircumflex" unicode="&#xd4;" 
d="M375 -12q-64 0 -112 8.5t-92.5 33t-72.5 66t-44.5 109.5t-16.5 161q0 115 24 192t72 116.5t105 54.5t139 15t138.5 -14.5t104.5 -54t71.5 -116t23.5 -191.5t-24 -192.5t-72 -117t-105.5 -55t-138.5 -15.5zM377 113q98 0 141 49t43 177v54q0 127 -43.5 175.5t-142.5 48.5
t-141.5 -47.5t-42.5 -174.5v-54q0 -128 44 -178t142 -50zM184 780l131 181h119l131 -181h-97l-95 79l-95 -79h-94z" />
    <glyph glyph-name="Otilde" unicode="&#xd5;" 
d="M375 -12q-64 0 -112 8.5t-92.5 33t-72.5 66t-44.5 109.5t-16.5 161q0 115 24 192t72 116.5t105 54.5t139 15t138.5 -14.5t104.5 -54t71.5 -116t23.5 -191.5t-24 -192.5t-72 -117t-105.5 -55t-138.5 -15.5zM377 113q98 0 141 49t43 177v54q0 127 -43.5 175.5t-142.5 48.5
t-141.5 -47.5t-42.5 -174.5v-54q0 -128 44 -178t142 -50zM245 768l-65 83q32 27 49.5 41t45 29t46.5 15q23 0 69 -23.5t54 -23.5q16 0 78 53l65 -83q-34 -29 -49.5 -41.5t-44 -28t-48.5 -15.5q-23 0 -68 23.5t-54 23.5q-16 0 -78 -53z" />
    <glyph glyph-name="Odieresis" unicode="&#xd6;" 
d="M375 -12q-64 0 -112 8.5t-92.5 33t-72.5 66t-44.5 109.5t-16.5 161q0 115 24 192t72 116.5t105 54.5t139 15t138.5 -14.5t104.5 -54t71.5 -116t23.5 -191.5t-24 -192.5t-72 -117t-105.5 -55t-138.5 -15.5zM377 113q98 0 141 49t43 177v54q0 127 -43.5 175.5t-142.5 48.5
t-141.5 -47.5t-42.5 -174.5v-54q0 -128 44 -178t142 -50zM408 784v139h146v-139h-146zM199 784v139h145v-139h-145z" />
    <glyph glyph-name="multiply" unicode="&#xd7;" horiz-adv-x="527" 
d="M133 137l-71 71l130 131l-130 130l71 71l131 -130l130 130l71 -71l-130 -130l130 -131l-71 -71l-130 130z" />
    <glyph glyph-name="Oslash" unicode="&#xd8;" 
d="M620 675q95 -85 95 -307q0 -115 -24 -192.5t-72 -117t-105.5 -55t-138.5 -15.5q-103 0 -167 24l-54 -86h-105l82 132q-94 86 -94 308q0 115 24 192t72 116.5t105 54.5t139 15q101 0 166 -23l54 86h105zM213 189l261 420q-38 17 -99 17q-99 0 -143 -50.5t-44 -180.5v-54
q0 -98 25 -152zM539 544l-263 -421q39 -19 101 -19q99 0 143 52t44 183v54q0 100 -25 151z" />
    <glyph glyph-name="Ugrave" unicode="&#xd9;" horiz-adv-x="730" 
d="M367 -10q-83 0 -137 11t-94.5 40.5t-59 82.5t-18.5 134v474h148v-464q0 -86 36.5 -115.5t126.5 -29.5q92 0 127 27.5t35 115.5v466h141v-472q0 -80 -18 -133t-57.5 -83t-93.5 -42t-136 -12zM351 780l-184 199h186l98 -199h-100z" />
    <glyph glyph-name="Uacute" unicode="&#xda;" horiz-adv-x="730" 
d="M367 -10q-83 0 -137 11t-94.5 40.5t-59 82.5t-18.5 134v474h148v-464q0 -86 36.5 -115.5t126.5 -29.5q92 0 127 27.5t35 115.5v466h141v-472q0 -80 -18 -133t-57.5 -83t-93.5 -42t-136 -12zM279 780l98 199h186l-184 -199h-100z" />
    <glyph glyph-name="Ucircumflex" unicode="&#xdb;" horiz-adv-x="730" 
d="M367 -10q-83 0 -137 11t-94.5 40.5t-59 82.5t-18.5 134v474h148v-464q0 -86 36.5 -115.5t126.5 -29.5q92 0 127 27.5t35 115.5v466h141v-472q0 -80 -18 -133t-57.5 -83t-93.5 -42t-136 -12zM177 780l131 181h119l131 -181h-97l-95 79l-95 -79h-94z" />
    <glyph glyph-name="Udieresis" unicode="&#xdc;" horiz-adv-x="730" 
d="M367 -10q-83 0 -137 11t-94.5 40.5t-59 82.5t-18.5 134v474h148v-464q0 -86 36.5 -115.5t126.5 -29.5q92 0 127 27.5t35 115.5v466h141v-472q0 -80 -18 -133t-57.5 -83t-93.5 -42t-136 -12zM396 784v139h146v-139h-146zM187 784v139h145v-139h-145z" />
    <glyph glyph-name="Yacute" unicode="&#xdd;" horiz-adv-x="728" 
d="M291 0v261l-277 471h160l194 -327l194 327h152l-276 -468v-264h-147zM278 780l98 199h186l-184 -199h-100z" />
    <glyph glyph-name="Thorn" unicode="&#xde;" horiz-adv-x="657" 
d="M65 0v732h147v-118h177q61 0 101.5 -8.5t74.5 -33t50 -72.5t16 -122t-16.5 -122.5t-50.5 -73t-75 -33.5t-102 -9h-175v-140h-147zM212 258h177q46 0 70.5 24.5t24.5 93.5q0 68 -25.5 93t-71.5 25h-175v-236z" />
    <glyph glyph-name="germandbls" unicode="&#xdf;" horiz-adv-x="667" 
d="M316 -7l-15 113q153 17 186 52q21 20 21 73t-22 74q-31 29 -155 47v94q52 61 67 87.5t15 67.5q0 34 -21 42.5t-87 8.5q-34 0 -47 -11t-13 -43v-598h-140v368h-74v109h74v131q0 86 44.5 119.5t161.5 33.5q134 0 186 -31.5t52 -126.5q0 -53 -22.5 -85.5t-82.5 -80.5
q121 -25 159 -74q39 -47 39 -132q0 -112 -44 -153q-39 -37 -106 -56t-176 -29z" />
    <glyph glyph-name="agrave" unicode="&#xe0;" horiz-adv-x="535" 
d="M158 -7q-56 0 -91 37t-35 117q0 83 33 109q31 23 91 31.5t182 8.5v17q0 37 -13.5 51.5t-57.5 14.5q-85 0 -173 -15l-16 113q95 17 190 17q119 0 164.5 -36.5t45.5 -124.5v-333h-121l-15 49q-71 -42 -130 -52q-26 -4 -54 -4zM227 99q47 0 111 27v96q-125 0 -150 -17
q-15 -10 -15 -49q0 -33 12.5 -45t41.5 -12zM255 540l-184 199h186l98 -199h-100z" />
    <glyph glyph-name="aacute" unicode="&#xe1;" horiz-adv-x="535" 
d="M158 -7q-56 0 -91 37t-35 117q0 83 33 109q31 23 91 31.5t182 8.5v17q0 37 -13.5 51.5t-57.5 14.5q-85 0 -173 -15l-16 113q95 17 190 17q119 0 164.5 -36.5t45.5 -124.5v-333h-121l-15 49q-71 -42 -130 -52q-26 -4 -54 -4zM227 99q47 0 111 27v96q-125 0 -150 -17
q-15 -10 -15 -49q0 -33 12.5 -45t41.5 -12zM183 540l98 199h186l-184 -199h-100z" />
    <glyph glyph-name="acircumflex" unicode="&#xe2;" horiz-adv-x="535" 
d="M158 -7q-56 0 -91 37t-35 117q0 83 33 109q31 23 91 31.5t182 8.5v17q0 37 -13.5 51.5t-57.5 14.5q-85 0 -173 -15l-16 113q95 17 190 17q119 0 164.5 -36.5t45.5 -124.5v-333h-121l-15 49q-71 -42 -130 -52q-26 -4 -54 -4zM227 99q47 0 111 27v96q-125 0 -150 -17
q-15 -10 -15 -49q0 -33 12.5 -45t41.5 -12zM77 540l131 181h119l131 -181h-97l-95 79l-95 -79h-94z" />
    <glyph glyph-name="atilde" unicode="&#xe3;" horiz-adv-x="535" 
d="M158 -7q-56 0 -91 37t-35 117q0 83 33 109q31 23 91 31.5t182 8.5v17q0 37 -13.5 51.5t-57.5 14.5q-85 0 -173 -15l-16 113q95 17 190 17q119 0 164.5 -36.5t45.5 -124.5v-333h-121l-15 49q-71 -42 -130 -52q-26 -4 -54 -4zM227 99q47 0 111 27v96q-125 0 -150 -17
q-15 -10 -15 -49q0 -33 12.5 -45t41.5 -12zM138 528l-65 83q32 27 49.5 41t45 29t46.5 15q24 0 69 -23.5t54 -23.5q16 0 78 53l65 -83q-34 -29 -49.5 -41.5t-44 -28t-48.5 -15.5q-23 0 -68 23.5t-54 23.5q-16 0 -78 -53z" />
    <glyph glyph-name="adieresis" unicode="&#xe4;" horiz-adv-x="535" 
d="M158 -7q-56 0 -91 37t-35 117q0 83 33 109q31 23 91 31.5t182 8.5v17q0 37 -13.5 51.5t-57.5 14.5q-85 0 -173 -15l-16 113q95 17 190 17q119 0 164.5 -36.5t45.5 -124.5v-333h-121l-15 49q-71 -42 -130 -52q-26 -4 -54 -4zM227 99q47 0 111 27v96q-125 0 -150 -17
q-15 -10 -15 -49q0 -33 12.5 -45t41.5 -12zM300 544v139h146v-139h-146zM91 544v139h145v-139h-145z" />
    <glyph glyph-name="aring" unicode="&#xe5;" horiz-adv-x="535" 
d="M158 -7q-56 0 -91 37t-35 117q0 83 33 109q31 23 91 31.5t182 8.5v17q0 37 -13.5 51.5t-57.5 14.5q-85 0 -173 -15l-16 113q95 17 190 17q119 0 164.5 -36.5t45.5 -124.5v-333h-121l-15 49q-71 -42 -130 -52q-26 -4 -54 -4zM227 99q47 0 111 27v96q-125 0 -150 -17
q-15 -10 -15 -49q0 -33 12.5 -45t41.5 -12zM269 531q-72 0 -104 25t-32 86q0 62 32.5 88t103.5 26t103.5 -26t32.5 -88q0 -61 -32.5 -86t-103.5 -25zM269 588q32 0 42.5 11t10.5 43q0 33 -11 45t-42 12t-42 -12t-11 -45q0 -32 10.5 -43t42.5 -11z" />
    <glyph glyph-name="ae" unicode="&#xe6;" horiz-adv-x="820" 
d="M158 -7q-56 0 -91 37t-35 117q0 83 35 110q32 24 89.5 32.5t181.5 8.5v15q0 37 -13.5 51.5t-57.5 14.5q-83 0 -171 -15l-16 113q95 17 188 17q123 0 157 -51q51 51 142 51q116 0 168.5 -49t52.5 -173v-56h-309q1 -66 28.5 -88t93.5 -22q81 0 145 14l19 -110
q-74 -19 -163 -19q-86 0 -139.5 17t-83.5 58q-96 -73 -221 -73zM480 295h172q0 59 -18.5 79.5t-68.5 20.5q-42 0 -62 -21.5t-23 -78.5zM227 99q62 0 122 35q-9 35 -11 90q-72 0 -105 -4t-47 -17q-13 -12 -13 -47q0 -33 12.5 -45t41.5 -12z" />
    <glyph glyph-name="ccedilla" unicode="&#xe7;" horiz-adv-x="465" 
d="M208 -5q-92 12 -133 68t-41 179q0 145 58.5 198.5t195.5 53.5q78 0 144 -17l-21 -114q-72 12 -125 12q-64 0 -87 -25.5t-23 -105.5t24.5 -109t87.5 -29q55 0 123 16l21 -111q-57 -17 -127 -20l24 -130q-19 -20 -66.5 -40.5t-109.5 -31.5l-23 102q67 12 91 28z" />
    <glyph glyph-name="egrave" unicode="&#xe8;" horiz-adv-x="519" 
d="M298 -9q-143 0 -203.5 53.5t-60.5 197.5q0 143 58.5 197.5t169.5 54.5q117 0 169.5 -49t52.5 -173v-56h-309q1 -65 28.5 -87.5t93.5 -22.5q81 0 145 14l18 -110q-72 -19 -162 -19zM176 295h172q0 59 -18.5 79.5t-68.5 20.5q-42 0 -62 -21.5t-23 -78.5zM244 540l-184 199
h186l98 -199h-100z" />
    <glyph glyph-name="eacute" unicode="&#xe9;" horiz-adv-x="519" 
d="M298 -9q-143 0 -203.5 53.5t-60.5 197.5q0 143 58.5 197.5t169.5 54.5q117 0 169.5 -49t52.5 -173v-56h-309q1 -65 28.5 -87.5t93.5 -22.5q81 0 145 14l18 -110q-72 -19 -162 -19zM176 295h172q0 59 -18.5 79.5t-68.5 20.5q-42 0 -62 -21.5t-23 -78.5zM172 540l98 199
h186l-184 -199h-100z" />
    <glyph glyph-name="ecircumflex" unicode="&#xea;" horiz-adv-x="519" 
d="M298 -9q-143 0 -203.5 53.5t-60.5 197.5q0 143 58.5 197.5t169.5 54.5q117 0 169.5 -49t52.5 -173v-56h-309q1 -65 28.5 -87.5t93.5 -22.5q81 0 145 14l18 -110q-72 -19 -162 -19zM176 295h172q0 59 -18.5 79.5t-68.5 20.5q-42 0 -62 -21.5t-23 -78.5zM66 540l131 181
h119l131 -181h-97l-95 79l-95 -79h-94z" />
    <glyph glyph-name="edieresis" unicode="&#xeb;" horiz-adv-x="519" 
d="M298 -9q-143 0 -203.5 53.5t-60.5 197.5q0 143 58.5 197.5t169.5 54.5q117 0 169.5 -49t52.5 -173v-56h-309q1 -65 28.5 -87.5t93.5 -22.5q81 0 145 14l18 -110q-72 -19 -162 -19zM176 295h172q0 59 -18.5 79.5t-68.5 20.5q-42 0 -62 -21.5t-23 -78.5zM289 544v139h146
v-139h-146zM80 544v139h145v-139h-145z" />
    <glyph glyph-name="igrave" unicode="&#xec;" horiz-adv-x="273" 
d="M66 0v477h141v-477h-141zM99 540l-184 199h186l98 -199h-100z" />
    <glyph glyph-name="iacute" unicode="&#xed;" horiz-adv-x="273" 
d="M66 0v477h141v-477h-141zM75 540l98 199h186l-184 -199h-100z" />
    <glyph glyph-name="icircumflex" unicode="&#xee;" horiz-adv-x="273" 
d="M66 0v477h141v-477h-141zM-56 540l131 181h119l131 -181h-97l-95 79l-95 -79h-94z" />
    <glyph glyph-name="idieresis" unicode="&#xef;" horiz-adv-x="273" 
d="M66 0v477h141v-477h-141zM168 544v139h146v-139h-146zM-41 544v139h145v-139h-145z" />
    <glyph glyph-name="eth" unicode="&#xf0;" horiz-adv-x="592" 
d="M390 536h-111v109h78q-18 50 -29 77l136 30q18 -35 39 -107h98v-109h-70q22 -114 22 -205q0 -83 -6.5 -137.5t-22.5 -96.5t-46.5 -64.5t-74.5 -33t-110 -10.5q-51 0 -86 5t-69.5 20.5t-54.5 43t-32.5 75t-12.5 114.5q0 82 13.5 133.5t40.5 73.5t52 28t64 6t98.5 -14
t100.5 -34q-4 42 -17 96zM297 98q75 0 95 37t20 141v54q-68 34 -145 34q-50 0 -68.5 -22.5t-18.5 -96.5q0 -89 25 -118t92 -29z" />
    <glyph glyph-name="ntilde" unicode="&#xf1;" horiz-adv-x="585" 
d="M61 0v477h122l15 -47q29 18 88.5 38t109.5 20q131 0 131 -124v-364h-141v312q0 30 -13 41.5t-49 11.5q-29 0 -66 -9t-55 -18v-338h-142zM161 528l-65 83q32 27 49.5 41t45 29t46.5 15q23 0 69 -23.5t54 -23.5q16 0 78 53l65 -83q-34 -29 -49.5 -41.5t-44 -28t-48.5 -15.5
q-23 0 -68 23.5t-54 23.5q-16 0 -78 -53z" />
    <glyph glyph-name="ograve" unicode="&#xf2;" horiz-adv-x="575" 
d="M287 -9q-135 0 -194 54.5t-59 196.5t59.5 197.5t195.5 55.5q135 0 193.5 -54.5t58.5 -196.5t-59.5 -197.5t-194.5 -55.5zM289 98q61 0 85.5 30.5t24.5 113.5t-25.5 113.5t-86.5 30.5q-62 0 -86.5 -29.5t-24.5 -112.5t25.5 -114.5t87.5 -31.5zM273 540l-184 199h186
l98 -199h-100z" />
    <glyph glyph-name="oacute" unicode="&#xf3;" horiz-adv-x="575" 
d="M287 -9q-135 0 -194 54.5t-59 196.5t59.5 197.5t195.5 55.5q135 0 193.5 -54.5t58.5 -196.5t-59.5 -197.5t-194.5 -55.5zM289 98q61 0 85.5 30.5t24.5 113.5t-25.5 113.5t-86.5 30.5q-62 0 -86.5 -29.5t-24.5 -112.5t25.5 -114.5t87.5 -31.5zM201 540l98 199h186
l-184 -199h-100z" />
    <glyph glyph-name="ocircumflex" unicode="&#xf4;" horiz-adv-x="575" 
d="M287 -9q-135 0 -194 54.5t-59 196.5t59.5 197.5t195.5 55.5q135 0 193.5 -54.5t58.5 -196.5t-59.5 -197.5t-194.5 -55.5zM289 98q61 0 85.5 30.5t24.5 113.5t-25.5 113.5t-86.5 30.5q-62 0 -86.5 -29.5t-24.5 -112.5t25.5 -114.5t87.5 -31.5zM95 540l131 181h119
l131 -181h-97l-95 79l-95 -79h-94z" />
    <glyph glyph-name="otilde" unicode="&#xf5;" horiz-adv-x="575" 
d="M287 -9q-135 0 -194 54.5t-59 196.5t59.5 197.5t195.5 55.5q135 0 193.5 -54.5t58.5 -196.5t-59.5 -197.5t-194.5 -55.5zM289 98q61 0 85.5 30.5t24.5 113.5t-25.5 113.5t-86.5 30.5q-62 0 -86.5 -29.5t-24.5 -112.5t25.5 -114.5t87.5 -31.5zM156 528l-65 83
q32 27 49.5 41t45 29t46.5 15q24 0 69 -23.5t54 -23.5q16 0 78 53l65 -83q-34 -29 -49.5 -41.5t-44 -28t-48.5 -15.5q-23 0 -68 23.5t-54 23.5q-16 0 -78 -53z" />
    <glyph glyph-name="odieresis" unicode="&#xf6;" horiz-adv-x="575" 
d="M287 -9q-135 0 -194 54.5t-59 196.5t59.5 197.5t195.5 55.5q135 0 193.5 -54.5t58.5 -196.5t-59.5 -197.5t-194.5 -55.5zM289 98q61 0 85.5 30.5t24.5 113.5t-25.5 113.5t-86.5 30.5q-62 0 -86.5 -29.5t-24.5 -112.5t25.5 -114.5t87.5 -31.5zM319 544v139h146v-139h-146z
M110 544v139h145v-139h-145z" />
    <glyph glyph-name="divide" unicode="&#xf7;" horiz-adv-x="529" 
d="M195 448v134h137v-134h-137zM49 286v107h431v-107h-431zM195 95v135h137v-135h-137z" />
    <glyph glyph-name="oslash" unicode="&#xf8;" horiz-adv-x="574" 
d="M491 432q50 -57 50 -188q0 -142 -59.5 -197.5t-194.5 -55.5q-68 0 -111 11l-52 -70h-113l82 113q-59 56 -59 197q0 142 59.5 197.5t195.5 55.5q78 0 124 -15l41 55h113zM180 163l165 224q-21 8 -58 8q-65 0 -89.5 -31t-24.5 -120q0 -52 7 -81zM398 305l-155 -211
q16 -5 46 -5q64 0 88.5 32t24.5 121q0 39 -4 63z" />
    <glyph glyph-name="ugrave" unicode="&#xf9;" horiz-adv-x="584" 
d="M189 -10q-131 0 -131 124v363h141v-311q0 -30 13 -41.5t49 -11.5q66 0 121 26v338h141v-476l-122 -1l-14 47q-30 -18 -89 -37.5t-109 -19.5zM278 540l-184 199h186l98 -199h-100z" />
    <glyph glyph-name="uacute" unicode="&#xfa;" horiz-adv-x="584" 
d="M189 -10q-131 0 -131 124v363h141v-311q0 -30 13 -41.5t49 -11.5q66 0 121 26v338h141v-476l-122 -1l-14 47q-30 -18 -89 -37.5t-109 -19.5zM206 540l98 199h186l-184 -199h-100z" />
    <glyph glyph-name="ucircumflex" unicode="&#xfb;" horiz-adv-x="584" 
d="M189 -10q-131 0 -131 124v363h141v-311q0 -30 13 -41.5t49 -11.5q66 0 121 26v338h141v-476l-122 -1l-14 47q-30 -18 -89 -37.5t-109 -19.5zM99 540l131 181h119l131 -181h-97l-95 79l-95 -79h-94z" />
    <glyph glyph-name="udieresis" unicode="&#xfc;" horiz-adv-x="584" 
d="M189 -10q-131 0 -131 124v363h141v-311q0 -30 13 -41.5t49 -11.5q66 0 121 26v338h141v-476l-122 -1l-14 47q-30 -18 -89 -37.5t-109 -19.5zM323 544v139h146v-139h-146zM114 544v139h145v-139h-145z" />
    <glyph glyph-name="yacute" unicode="&#xfd;" horiz-adv-x="544" 
d="M203 10l-192 467h148q122 -303 122 -304l120 304h132l-274 -677h-141zM190 540l98 199h186l-184 -199h-100z" />
    <glyph glyph-name="thorn" unicode="&#xfe;" horiz-adv-x="588" 
d="M61 -200v952h141v-320q108 56 195 56q78 0 115.5 -52.5t37.5 -194.5q0 -73 -11 -123t-32.5 -77t-49 -38t-65.5 -11q-94 0 -190 41v-233h-141zM334 108q40 0 56.5 26.5t16.5 104.5q0 79 -16 103.5t-57 24.5q-56 0 -132 -27v-212q71 -20 132 -20z" />
    <glyph glyph-name="ydieresis" unicode="&#xff;" horiz-adv-x="544" 
d="M203 10l-192 467h148q122 -303 122 -304l120 304h132l-274 -677h-141zM305 544v139h146v-139h-146zM96 544v139h145v-139h-145z" />
    <glyph glyph-name="dotlessi" unicode="&#x131;" horiz-adv-x="273" 
d="M66 0v477h141v-477h-141z" />
    <glyph glyph-name="Lslash" unicode="&#x141;" horiz-adv-x="614" 
d="M102 282l-69 -25v102l69 25v348h148v-295l119 43v-102l-119 -43v-216h345v-119h-493v282z" />
    <glyph glyph-name="lslash" unicode="&#x142;" horiz-adv-x="362" 
d="M111 290l-84 -33v102l84 33v360h140v-305l84 33v-102l-84 -33v-345h-140v290z" />
    <glyph glyph-name="OE" unicode="&#x152;" horiz-adv-x="1000" 
d="M367 0q-88 0 -144 13t-101 51t-65 111.5t-20 189.5q0 93 14 159t39 106.5t68 63t91 30.5t118 8h594v-129h-328v-163h257v-129h-257v-185h328v-126h-594zM368 123h123v483h-123q-98 0 -138.5 -46.5t-40.5 -170.5v-48q0 -124 40.5 -171t138.5 -47z" />
    <glyph glyph-name="oe" unicode="&#x153;" horiz-adv-x="888" 
d="M290 -9q-139 0 -197.5 54.5t-58.5 196.5q0 143 59 198t199 55t184 -64q49 63 158 63q116 0 168.5 -49t52.5 -173v-56h-309q1 -65 28.5 -87.5t93.5 -22.5q81 0 145 14l18 -110q-72 -19 -162 -19q-141 3 -195 63q-45 -63 -184 -63zM547 295h172q0 59 -18.5 79.5t-68.5 20.5
q-43 0 -62.5 -21t-22.5 -79zM292 98q63 0 88 30.5t25 113.5t-26 113.5t-89 30.5q-64 0 -89 -29.5t-25 -112.5t26 -114.5t90 -31.5z" />
    <glyph glyph-name="Scaron" unicode="&#x160;" horiz-adv-x="625" 
d="M297 -8q-75 0 -149 9.5t-106 19.5l23 123q29 -7 107.5 -17t125.5 -10q80 0 108 17t28 73q0 49 -23.5 64.5t-117.5 34.5q-81 16 -124.5 30.5t-74 40t-40.5 62t-10 97.5q0 110 67 157.5t198 47.5q63 0 140.5 -8.5t103.5 -16.5l-23 -124q-138 21 -222 21q-64 0 -89.5 -17
t-25.5 -62q0 -50 24 -66t114 -34q54 -11 86 -19t64.5 -20.5t49 -27t30.5 -37t19 -52.5t5 -72q0 -120 -68 -167t-220 -47zM254 780l-131 181h97l95 -79l95 79h94l-131 -181h-119z" />
    <glyph glyph-name="scaron" unicode="&#x161;" horiz-adv-x="492" 
d="M232 -8q-114 0 -192 22l14 95q86 -20 181 -20q55 0 72.5 9.5t17.5 39.5q0 24 -17.5 32.5t-83.5 18.5q-115 16 -149.5 45t-34.5 112q0 82 50 115t154 33q124 0 196 -18l-17 -97q-92 15 -181 15q-40 0 -55 -9t-15 -34q0 -27 18 -34t94 -17q108 -12 142 -41.5t34 -108.5
q0 -94 -53.5 -126t-174.5 -32zM188 540l-131 181h97l95 -79l95 79h94l-131 -181h-119z" />
    <glyph glyph-name="Ydieresis" unicode="&#x178;" horiz-adv-x="728" 
d="M291 0v261l-277 471h160l194 -327l194 327h152l-276 -468v-264h-147zM396 784v139h146v-139h-146zM187 784v139h145v-139h-145z" />
    <glyph glyph-name="Zcaron" unicode="&#x17d;" horiz-adv-x="639" 
d="M33 0v121l388 482h-379v129h558v-127l-384 -479h391v-126h-574zM261 780l-131 181h97l95 -79l95 79h94l-131 -181h-119z" />
    <glyph glyph-name="zcaron" unicode="&#x17e;" horiz-adv-x="503" 
d="M31 0v100l257 263h-246v114h424v-100l-253 -264h267v-113h-449zM193 540l-131 181h97l95 -79l95 79h94l-131 -181h-119z" />
    <glyph glyph-name="florin" unicode="&#x192;" horiz-adv-x="461" 
d="M40 -144l77 455h-80v114h99l21 129q10 64 29.5 94.5t66.5 49.5t146 34l19 -116q-58 -11 -81 -21.5t-31.5 -24t-14.5 -49.5l-16 -96h108v-114h-127l-76 -455h-140z" />
    <glyph glyph-name="circumflex" unicode="&#x2c6;" horiz-adv-x="466" 
d="M41 540l131 181h119l131 -181h-97l-95 79l-95 -79h-94z" />
    <glyph glyph-name="caron" unicode="&#x2c7;" horiz-adv-x="466" 
d="M175 540l-131 181h97l95 -79l95 79h94l-131 -181h-119z" />
    <glyph glyph-name="breve" unicode="&#x2d8;" horiz-adv-x="467" 
d="M234 532q-44 0 -99.5 10t-78.5 25v145h117v-64q19 -11 61 -11q45 0 64 11v64h117v-145q-21 -15 -78 -25t-103 -10z" />
    <glyph glyph-name="dotaccent" unicode="&#x2d9;" horiz-adv-x="467" 
d="M154 540v158h160v-158h-160z" />
    <glyph glyph-name="ring" unicode="&#x2da;" horiz-adv-x="467" 
d="M234 531q-72 0 -104 25t-32 86q0 62 32.5 88t103.5 26t103.5 -26t32.5 -88q0 -61 -32.5 -86t-103.5 -25zM234 588q32 0 42.5 11t10.5 43q0 33 -11 45t-42 12t-42 -12t-11 -45q0 -32 10.5 -43t42.5 -11z" />
    <glyph glyph-name="ogonek" unicode="&#x2db;" horiz-adv-x="485" 
d="M307 -211q-63 11 -110 31.5t-66 40.5l31 168l92 -19l-16 -91q26 -16 92 -28z" />
    <glyph glyph-name="tilde" unicode="&#x2dc;" horiz-adv-x="465" 
d="M94 528l-65 83q32 27 49.5 41t45 29t46.5 15q24 0 69 -23.5t54 -23.5q16 0 78 53l65 -83q-34 -29 -49.5 -41.5t-44 -28t-48.5 -15.5q-23 0 -68 23.5t-54 23.5q-16 0 -78 -53z" />
    <glyph glyph-name="hungarumlaut" unicode="&#x2dd;" horiz-adv-x="464" 
d="M198 540l98 199h158l-180 -199h-76zM10 540l98 199h158l-180 -199h-76z" />
    <glyph glyph-name="Delta" unicode="&#x394;" horiz-adv-x="637" 
d="M338 -198l-21 123q76 14 94.5 32.5t18.5 66.5v339h-184v-363h-141v362h-74v115h74v78q0 62 25.5 96t92 57.5t206.5 48.5l22 -117q-98 -20 -140 -34t-53.5 -28t-11.5 -42v-59h325v-482q0 -48 -7.5 -77t-31.5 -54.5t-70.5 -39.5t-123.5 -22z" />
    <glyph glyph-name="Delta" unicode="&#x2206;" horiz-adv-x="637" 
d="M338 -198l-21 123q76 14 94.5 32.5t18.5 66.5v339h-184v-363h-141v362h-74v115h74v78q0 62 25.5 96t92 57.5t206.5 48.5l22 -117q-98 -20 -140 -34t-53.5 -28t-11.5 -42v-59h325v-482q0 -48 -7.5 -77t-31.5 -54.5t-70.5 -39.5t-123.5 -22z" />
    <glyph glyph-name="Omega" unicode="&#x3a9;" horiz-adv-x="709" 
d="M80 0v76q0 229 238 229v95h-238v194h71v-128h167v67h-53v192h176v-192h-53v-67h162v128h70v-194h-232v-95q238 0 238 -229v-76h-73v72q0 95 -37.5 128.5t-127.5 33.5v-100h-70v100q-90 0 -127.5 -33.5t-37.5 -128.5v-72h-73z" />
    <glyph glyph-name="Omega" unicode="&#x2126;" horiz-adv-x="709" 
d="M80 0v76q0 229 238 229v95h-238v194h71v-128h167v67h-53v192h176v-192h-53v-67h162v128h70v-194h-232v-95q238 0 238 -229v-76h-73v72q0 95 -37.5 128.5t-127.5 33.5v-100h-70v100q-90 0 -127.5 -33.5t-37.5 -128.5v-72h-73z" />
    <glyph glyph-name="pi" unicode="&#x3c0;" horiz-adv-x="843" 
d="M421 -12q-109 0 -178 16.5t-116 60t-66.5 115.5t-19.5 186q0 91 13 155t39.5 108t73 69t107 36t147.5 11q109 0 178.5 -17t116.5 -60.5t66.5 -115.5t19.5 -186t-19.5 -186t-66.5 -115.5t-116.5 -60t-178.5 -16.5zM421 65q60 0 98.5 3.5t75 14.5t57.5 31t37 54t22.5 82.5
t6.5 116.5t-6.5 116.5t-23 82.5t-37 53.5t-57 30.5t-75 14.5t-98.5 3.5t-98 -3.5t-74.5 -14.5t-57.5 -30.5t-37 -53.5t-22.5 -82.5t-6.5 -116.5t6.5 -116.5t22.5 -82.5t37 -54t57.5 -31t75 -14.5t97.5 -3.5zM263 141v456h206q79 0 116 -33t37 -130q0 -98 -38 -133t-116 -35
h-97v-125h-108zM371 352h89q54 0 54 82q0 76 -54 76h-89v-158z" />
    <glyph glyph-name="endash" unicode="&#x2013;" horiz-adv-x="529" 
d="M48 226v114h433v-114h-433z" />
    <glyph glyph-name="emdash" unicode="&#x2014;" horiz-adv-x="804" 
d="M48 226v114h709v-114h-709z" />
    <glyph glyph-name="quoteleft" unicode="&#x2018;" horiz-adv-x="344" 
d="M58 487l156 280l65 -35l-52 -245h-169z" />
    <glyph glyph-name="quoteright" unicode="&#x2019;" horiz-adv-x="344" 
d="M130 452l-65 35l52 245h169z" />
    <glyph glyph-name="quotesinglbase" unicode="&#x201a;" horiz-adv-x="344" 
d="M130 -111l-65 35l52 245h169z" />
    <glyph glyph-name="quotedblleft" unicode="&#x201c;" horiz-adv-x="555" 
d="M275 487l155 280l59 -35l-51 -245h-163zM58 487l156 280l59 -35l-52 -245h-163z" />
    <glyph glyph-name="quotedblright" unicode="&#x201d;" horiz-adv-x="555" 
d="M341 452l-59 35l51 245h163zM124 452l-59 35l52 245h163z" />
    <glyph glyph-name="quotedblbase" unicode="&#x201e;" horiz-adv-x="555" 
d="M341 -111l-59 35l51 245h163zM124 -111l-59 35l52 245h163z" />
    <glyph glyph-name="dagger" unicode="&#x2020;" horiz-adv-x="507" 
d="M199 -129v534h-167v108h167v239h110v-239h167v-108h-167v-534h-110z" />
    <glyph glyph-name="daggerdbl" unicode="&#x2021;" horiz-adv-x="507" 
d="M199 -144v239h-167v108h167v202h-167v108h167v239h110v-239h167v-108h-167v-202h167v-108h-167v-239h-110z" />
    <glyph glyph-name="bullet" unicode="&#x2022;" horiz-adv-x="483" 
d="M243 82q-93 0 -138 44t-45 160t44 159t137 43t137.5 -44t44.5 -160t-43.5 -159t-136.5 -43z" />
    <glyph glyph-name="ellipsis" unicode="&#x2026;" horiz-adv-x="971" 
d="M721 0v160h182v-160h-182zM395 0v160h182v-160h-182zM69 0v160h181v-160h-181z" />
    <glyph glyph-name="perthousand" unicode="&#x2030;" horiz-adv-x="1545" 
d="M234 262q-108 0 -157.5 50t-49.5 190t50.5 191t158.5 51q53 0 89 -10t63.5 -36t40.5 -73.5t13 -120.5q0 -140 -50 -191t-158 -51zM352 0l255 732h126l-255 -732h-126zM1309 -12q-53 0 -89 10t-63.5 36t-40.5 73.5t-13 120.5q0 72 13.5 120t41.5 74t64 36.5t89 10.5
t89 -10t64 -36t41 -73.5t13 -119.5q0 -140 -50.5 -191t-158.5 -51zM849 -12q-53 0 -89 10t-63.5 36t-40.5 73.5t-13 120.5q0 72 13.5 120t41.5 74t64 36.5t89 10.5q108 0 157.5 -50t49.5 -189q0 -140 -50.5 -191t-158.5 -51zM236 360q46 0 63 25t17 96v42q0 71 -18 96
t-64 25t-63 -24t-17 -95v-42q0 -71 18 -97t64 -26zM1311 85q46 0 63 24.5t17 96.5v43q0 71 -18 96t-64 25t-63 -24t-17 -95v-43q0 -71 18 -97t64 -26zM851 85q46 0 63 24.5t17 96.5v43q0 71 -18 96t-64 25t-63 -24t-17 -95v-43q0 -71 18 -97t64 -26z" />
    <glyph glyph-name="guilsinglleft" unicode="&#x2039;" horiz-adv-x="359" 
d="M170 25l-120 204l120 206h125l-104 -206l105 -204h-126z" />
    <glyph glyph-name="guilsinglright" unicode="&#x203a;" horiz-adv-x="359" 
d="M64 25l104 206l-105 204h126l120 -204l-120 -206h-125z" />
    <glyph glyph-name="fraction" unicode="&#x2044;" horiz-adv-x="381" 
d="M0 0l255 732h126l-255 -732h-126z" />
    <glyph glyph-name="fraction" unicode="&#x2215;" horiz-adv-x="381" 
d="M0 0l255 732h126l-255 -732h-126z" />
    <glyph glyph-name="Euro" unicode="&#x20ac;" horiz-adv-x="651" 
d="M414 -10q-123 0 -194 52.5t-92 186.5h-108v96h98v24.5v29.5v25h-98v95h107q23 137 95 190.5t194 53.5q97 0 195 -23l-25 -124q-112 18 -172 18q-61 0 -94.5 -26.5t-44.5 -88.5h201v-95h-212v-79h212v-96h-200q13 -60 46.5 -86.5t93.5 -26.5q90 0 170 19l25 -120
q-91 -25 -197 -25z" />
    <glyph glyph-name="trademark" unicode="&#x2122;" horiz-adv-x="962" 
d="M169 290v358h-136v84h372v-84h-137v-358h-99zM458 290v442h127l94 -329l87 329h133v-442h-92v357l-97 -358h-82l-94 358v-357h-76z" />
    <glyph glyph-name="partialdiff" unicode="&#x2202;" horiz-adv-x="709" 
d="M80 0v76q0 229 238 229v95h-238v194h71v-128h167v67h-53v192h176v-192h-53v-67h162v128h70v-194h-232v-95q238 0 238 -229v-76h-73v72q0 95 -37.5 128.5t-127.5 33.5v-100h-70v100q-90 0 -127.5 -33.5t-37.5 -128.5v-72h-73z" />
    <glyph glyph-name="product" unicode="&#x220f;" horiz-adv-x="709" 
d="M80 0v76q0 229 238 229v95h-238v194h71v-128h167v67h-53v192h176v-192h-53v-67h162v128h70v-194h-232v-95q238 0 238 -229v-76h-73v72q0 95 -37.5 128.5t-127.5 33.5v-100h-70v100q-90 0 -127.5 -33.5t-37.5 -128.5v-72h-73z" />
    <glyph glyph-name="summation" unicode="&#x2211;" horiz-adv-x="709" 
d="M80 0v76q0 229 238 229v95h-238v194h71v-128h167v67h-53v192h176v-192h-53v-67h162v128h70v-194h-232v-95q238 0 238 -229v-76h-73v72q0 95 -37.5 128.5t-127.5 33.5v-100h-70v100q-90 0 -127.5 -33.5t-37.5 -128.5v-72h-73z" />
    <glyph glyph-name="minus" unicode="&#x2212;" horiz-adv-x="529" 
d="M49 286v107h431v-107h-431z" />
    <glyph glyph-name="radical" unicode="&#x221a;" horiz-adv-x="690" 
d="M218 -4l-167 392h131l112 -269l239 613h132l-300 -736h-147z" />
    <glyph glyph-name="infinity" unicode="&#x221e;" horiz-adv-x="963" 
d="M105 0v362h-74v115h74v52q0 50 5.5 77t28.5 53t69 41t126 27l25 -128q-78 -14 -95.5 -30t-17.5 -62v-30h185v78q0 62 25.5 96t92 57.5t206.5 48.5l22 -117q-98 -20 -140 -34t-53.5 -28t-11.5 -42v-59h325v-477h-141v363h-184v-363h-141v363h-185v-363h-141z" />
    <glyph glyph-name="integral" unicode="&#x222b;" horiz-adv-x="709" 
d="M82 0v76q0 229 238 229v95h-238v194h71v-128h167v67h-53v192h176v-192h-53v-67h162v128h70v-194h-232v-95q238 0 238 -229v-76h-73v72q0 95 -37.5 128.5t-127.5 33.5v-100h-70v100q-90 0 -127.5 -33.5t-37.5 -128.5v-72h-73z" />
    <glyph glyph-name="approxequal" unicode="&#x2248;" horiz-adv-x="709" 
d="M80 0v76q0 229 238 229v95h-238v194h71v-128h167v67h-53v192h176v-192h-53v-67h162v128h70v-194h-232v-95q238 0 238 -229v-76h-73v72q0 95 -37.5 128.5t-127.5 33.5v-100h-70v100q-90 0 -127.5 -33.5t-37.5 -128.5v-72h-73z" />
    <glyph glyph-name="notequal" unicode="&#x2260;" horiz-adv-x="708" 
d="M105 0v362h-74v115h74v52q0 50 5.5 77t28.5 53t69 41t126 27l25 -128q-78 -14 -95.5 -30t-17.5 -62v-30h185v79q0 40 3.5 63t15.5 47t37 38t67 26.5t106 22.5l25 -127q-78 -14 -95.5 -30t-17.5 -63v-56h109v-115h-109v-362h-141v362h-185v-362h-141z" />
    <glyph glyph-name="lessequal" unicode="&#x2264;" horiz-adv-x="581" 
d="M191 -10q-77 0 -115 53.5t-38 195.5q0 73 11 123t32.5 77t49 38t65.5 11q52 0 105 -15t83 -31l17 35h119v-477h-122l-14 52q-33 -21 -87 -41.5t-106 -20.5zM254 113q59 0 125 32v203q-61 24 -125 24q-39 0 -56 -26.5t-17 -104.5q0 -79 16 -103.5t57 -24.5z" />
    <glyph glyph-name="greaterequal" unicode="&#x2265;" horiz-adv-x="562" 
d="M44 -205l-1 113q135 1 198 2.5t104.5 8t49 15.5t7.5 29q0 19 -5.5 27.5t-37 16.5t-88 10.5t-169.5 5.5l20 142q-62 18 -82 49.5t-20 103.5q0 69 18.5 104t69.5 51.5t152 16.5q80 0 124 -9l32 71l119 -52l-45 -101q11 -33 11 -80q0 -69 -18 -102.5t-68.5 -48t-155.5 -16.5
h-19l-6 -46q83 -3 131.5 -7.5t87 -13t55 -25t24.5 -39t8 -59.5q0 -38 -6 -62t-26.5 -44t-51.5 -30.5t-90.5 -18t-133 -9.5t-188.5 -3zM259 240q67 0 85.5 12.5t18.5 62.5q0 35 -8 69q-42 7 -100 7q-61 0 -79.5 -13.5t-18.5 -62.5t18.5 -62t83.5 -13z" />
    <glyph glyph-name="lozenge" unicode="&#x25ca;" horiz-adv-x="733" 
d="M566 -5q-74 0 -104.5 33.5t-30.5 113.5v220h-185v-362h-141v362h-74v115h74v79q0 40 3.5 63t15.5 47t37 38t67 26.5t106 22.5l25 -127q-78 -14 -95.5 -30t-17.5 -63v-56h185v152l141 20v-172h115v-115h-115v-187q0 -40 10 -54t36 -14q31 0 72 5l7 -108q-63 -9 -131 -9z
" />
    <glyph glyph-name="apple" unicode="&#xf8ff;" horiz-adv-x="709" 
d="M85 0v76q0 229 238 229v95h-238v194h71v-128h167v67h-53v192h176v-192h-53v-67h162v128h70v-194h-232v-95q238 0 238 -229v-76h-73v72q0 95 -37.5 128.5t-127.5 33.5v-100h-70v100q-90 0 -127.5 -33.5t-37.5 -128.5v-72h-73z" />
    <glyph glyph-name="NUL" horiz-adv-x="0" 
 />
    <glyph glyph-name="g.alt" horiz-adv-x="562" 
d="M44 -205l-1 113q135 1 198 2.5t104.5 8t49 15.5t7.5 29q0 19 -5.5 27.5t-37 16.5t-88 10.5t-169.5 5.5l20 142q-62 18 -82 49.5t-20 103.5q0 69 18.5 104t69.5 51.5t152 16.5q80 0 124 -9l32 71l119 -52l-45 -101q11 -33 11 -80q0 -69 -18 -102.5t-68.5 -48t-155.5 -16.5
h-19l-6 -46q83 -3 131.5 -7.5t87 -13t55 -25t24.5 -39t8 -59.5q0 -38 -6 -62t-26.5 -44t-51.5 -30.5t-90.5 -18t-133 -9.5t-188.5 -3zM259 240q67 0 85.5 12.5t18.5 62.5q0 35 -8 69q-42 7 -100 7q-61 0 -79.5 -13.5t-18.5 -62.5t18.5 -62t83.5 -13z" />
    <glyph glyph-name="a.alt" horiz-adv-x="581" 
d="M191 -10q-77 0 -115 53.5t-38 195.5q0 73 11 123t32.5 77t49 38t65.5 11q52 0 105 -15t83 -31l17 35h119v-477h-122l-14 52q-33 -21 -87 -41.5t-106 -20.5zM254 113q59 0 125 32v203q-61 24 -125 24q-39 0 -56 -26.5t-17 -104.5q0 -79 16 -103.5t57 -24.5z" />
    <glyph glyph-name="G.alt" horiz-adv-x="669" 
d="M363 -10q-82 0 -137 14.5t-100.5 54t-67 115.5t-21.5 192q0 93 15.5 160.5t42 109t70 66t91 33t113.5 8.5q145 0 229 -23l-22 -127q-115 21 -209 21q-99 0 -137.5 -47t-38.5 -172v-54q0 -125 39 -177t143 -52q59 0 108 9v148h-117v120h254v-369q-105 -30 -255 -30z" />
    </font>
</defs>
</svg>
