<?xml version="1.0" standalone="no"?>
<!DOCTYPE svg PUBLIC "-//W3C//DTD SVG 1.1//EN" "http://www.w3.org/Graphics/SVG/1.1/DTD/svg11.dtd" >
<svg xmlns="http://www.w3.org/2000/svg" xmlns:xlink="http://www.w3.org/1999/xlink" version="1.1">
<metadata>
Created by FontForge 20200314 at Fri May 12 21:09:57 2006
 By Unknown
Copyright (c) 1987, 1991, 1993, 1994, 1998, 2002 Adobe Systems Incorporated.  All Rights Reserved. (c) 1981, 1998, 2002 Heidelberger Druckmaschinen AG. All rights reserved.
</metadata>
<defs>
<font id="UniversLTStd-Bold" horiz-adv-x="556" >
  <font-face 
    font-family="Univers LT Std 45 Light"
    font-weight="700"
    font-stretch="normal"
    units-per-em="1000"
    panose-1="2 11 7 3 3 5 2 2 2 4"
    ascent="724"
    descent="-276"
    x-height="505"
    cap-height="725"
    bbox="-167 -250 995 938"
    underline-thickness="50"
    underline-position="-100"
    unicode-range="U+0020-FB02"
  />
<missing-glyph horiz-adv-x="500" 
d="M0 0v700h500v-700h-500zM250 395l170 255h-340zM280 350l170 -255v510zM80 50h340l-170 255zM50 605v-510l170 255z" />
    <glyph glyph-name="fi" unicode="fi" horiz-adv-x="611" 
d="M78 0v400h-76v105h76v69q0 76 36.5 118.5t136.5 42.5q39 0 80 -5v-103q-23 3 -31 3q-26 0 -43 -6t-23 -18t-7.5 -20t-1.5 -22v-59h93v-105h-93v-400h-147zM393 593v129h158v-129h-158zM398 0v506h148v-506h-148z" />
    <glyph glyph-name="fl" unicode="fl" horiz-adv-x="611" 
d="M80 0v400h-75v105h75v69q0 76 37 118.5t137 42.5q38 0 79 -5v-103q-21 3 -30 3q-27 0 -43.5 -6t-23 -18t-8 -20t-1.5 -22v-59h94v-105h-94v-400h-147zM398 0v723h148v-723h-148z" />
    <glyph glyph-name=".notdef" horiz-adv-x="500" 
d="M0 0v700h500v-700h-500zM250 395l170 255h-340zM280 350l170 -255v510zM80 50h340l-170 255zM50 605v-510l170 255z" />
    <glyph glyph-name=".null" horiz-adv-x="0" 
 />
    <glyph glyph-name="nonmarkingreturn" horiz-adv-x="333" 
 />
    <glyph glyph-name="space" unicode=" " horiz-adv-x="278" 
 />
    <glyph glyph-name="exclam" unicode="!" horiz-adv-x="389" 
d="M244 197h-103l-18 526h134zM129 0v133h127v-133h-127z" />
    <glyph glyph-name="quotedbl" unicode="&#x22;" horiz-adv-x="474" 
d="M73 697h133l-27 -248h-79zM265 697h132l-26 -248h-79z" />
    <glyph glyph-name="numbersign" unicode="#" 
d="M-9 175v110h103l22 121h-82v110h103l33 181h128l-33 -181h95l33 181h129l-34 -181h83v-110h-103l-22 -121h82v-110h-103l-32 -175h-128l33 175h-96l-32 -175h-129l32 175h-82zM222 285h95l23 121h-95z" />
    <glyph glyph-name="dollar" unicode="$" 
d="M24 215h136q-1 -35 8.5 -59t25.5 -34.5t28 -14t23 -3.5v177q-48 13 -79 26t-63.5 36t-48.5 58.5t-16 83.5q0 76 51 132q26 28 61.5 45t52.5 20t48 6v84h55v-82q108 -8 160 -60q47 -47 50 -137h-134q-2 51 -21 69.5t-57 22.5v-178q52 -13 83 -24.5t66.5 -34t52.5 -59
t17 -87.5q0 -100 -85 -161q-54 -38 -141 -43v-100h-53v100q-98 -3 -165 59q-52 48 -55 158zM250 422v161q-37 -2 -56.5 -23.5t-19.5 -54.5q0 -38 19.5 -55t56.5 -28zM299 270v-168q34 3 57.5 25.5t23.5 59.5q0 32 -19 51.5t-62 31.5z" />
    <glyph glyph-name="percent" unicode="%" horiz-adv-x="889" 
d="M50 569q0 193 167 193q40 0 70 -10.5t47.5 -26.5t28 -41t14 -49.5t3.5 -55.5q0 -200 -170 -200q-160 0 -160 190zM158 573q0 -59 12 -85.5t43 -26.5q28 0 43 25t15 92q0 106 -54 106q-59 0 -59 -111zM510 182q0 24 1 40.5t10 48t25 51.5t50 36t81 16q50 0 83.5 -14.5
t50 -42t23 -57t6.5 -68.5q0 -201 -171 -201q-159 0 -159 191zM617 185q0 -59 12.5 -85.5t43.5 -26.5q28 0 43 25t15 92q0 106 -55 106q-59 0 -59 -111zM593 769h75l-380 -781h-75z" />
    <glyph glyph-name="ampersand" unicode="&#x26;" horiz-adv-x="778" 
d="M559 449h148q0 -92 -18.5 -160.5t-62.5 -138.5l147 -152h-187l-56 67q-32 -24 -55 -38.5t-73 -30t-106 -15.5q-121 0 -197 58t-76 160q0 77 52 142q34 43 99 84q-87 73 -87 153q0 16 3.5 34t17.5 42t36.5 43t65 32t98.5 13q45 0 81 -8t58.5 -21.5t38.5 -29.5t24 -35
t11 -34t3 -30q0 -39 -15 -72t-42.5 -56.5t-43 -34.5t-39.5 -24l146 -147q19 53 24 92.5t5 106.5zM307 475q73 52 73 105q0 29 -19.5 47.5t-52.5 18.5t-53 -17.5t-20 -46.5q0 -20 17 -46t31 -39.5t24 -21.5zM439 145l-182 185q-78 -51 -78 -119q0 -55 37.5 -87.5t89.5 -32.5
q67 0 133 54z" />
    <glyph glyph-name="quotesingle" unicode="'" horiz-adv-x="238" 
d="M78 449l-27 248h133l-27 -248h-79z" />
    <glyph glyph-name="parenleft" unicode="(" horiz-adv-x="333" 
d="M164 757h109q-26 -78 -39.5 -124t-31 -140.5t-17.5 -176.5q0 -93 18 -178t69 -261h-109q-101 246 -101 434q0 186 102 446z" />
    <glyph glyph-name="parenright" unicode=")" horiz-adv-x="333" 
d="M169 -123h-109q26 78 39.5 124t31 140.5t17.5 176.5q0 93 -18 177.5t-69 261.5h109q101 -245 101 -433q0 -185 -102 -447z" />
    <glyph glyph-name="asterisk" unicode="*" 
d="M67 465v106l152 -22l-94 119l93 51l56 -138l59 141l93 -55l-98 -118l153 18l-2 -106l-149 23l94 -123l-93 -51l-58 141l-58 -142l-90 54l93 122z" />
    <glyph glyph-name="plus" unicode="+" horiz-adv-x="584" 
d="M225 0v202h-199v129h199v202h134v-202h199v-129h-199v-202h-134z" />
    <glyph glyph-name="comma" unicode="," horiz-adv-x="278" 
d="M102 133h148l-119 -246h-103z" />
    <glyph glyph-name="hyphen" unicode="-" horiz-adv-x="333" 
d="M44 208v113h248v-113h-248z" />
    <glyph glyph-name="period" unicode="." horiz-adv-x="278" 
d="M74 0v133h127v-133h-127z" />
    <glyph glyph-name="slash" unicode="/" horiz-adv-x="444" 
d="M300 718h115l-269 -718h-117z" />
    <glyph glyph-name="zero" unicode="0" 
d="M38 347q0 25 1.5 50t7.5 62t16 69.5t28.5 66.5t43 58t62.5 39.5t84 15.5q66 0 111.5 -27.5t70.5 -64.5q63 -93 63 -252q0 -54 -5.5 -101.5t-21.5 -100t-42 -89t-72 -60.5t-106 -24q-65 0 -113 29t-75 80.5t-40 113.5t-13 135zM376 339q0 108 -18 172q-2 10 -6 21
t-12.5 26t-23.5 24.5t-34 9.5q-49 0 -69 -60q-23 -71 -23 -195q0 -230 93 -230t93 232z" />
    <glyph glyph-name="one" unicode="1" 
d="M95 454v139q99 43 185 105h129v-698h-151v543q-64 -49 -163 -89z" />
    <glyph glyph-name="two" unicode="2" 
d="M25 0v141l181 165q70 63 105 106q29 34 38.5 55t9.5 46q0 40 -22 64.5t-61 24.5q-28 0 -47 -12.5t-27 -32t-10.5 -32t-3.5 -25.5h-153q0 80 41 131q61 76 199 76q111 0 173.5 -53t62.5 -137q0 -32 -10 -61.5t-41 -77t-101 -115t-178 -154.5q38 1 93 2t99 2q128 2 142 3
v-116h-490z" />
    <glyph glyph-name="three" unicode="3" 
d="M22 190h152q4 -93 90 -93q41 0 65.5 27t24.5 68q0 30 -12 50.5t-26.5 30.5t-42 15.5t-44.5 6t-47 0.5v117q25 1 38 1.5t37.5 4t38 10t29.5 17.5t23 29t7 42q0 39 -25 61t-61 22q-35 0 -60 -23t-25 -64h-153q7 77 41 118q63 77 194 77q63 0 111 -18.5t73.5 -48.5t38 -61
t12.5 -62q0 -119 -134 -158q51 -16 83 -43q57 -48 57 -125q0 -89 -72 -147.5t-181 -58.5t-168 47q-64 53 -64 158z" />
    <glyph glyph-name="four" unicode="4" 
d="M296 152h-280v135l280 411h149l-1 -431h95v-115h-95v-152h-148v152zM306 525l-178 -261h176v184q0 41 2 77z" />
    <glyph glyph-name="five" unicode="5" 
d="M31 172h148q-1 -12 4.5 -28t25.5 -33t52 -17q44 0 73.5 33t29.5 98q0 55 -23 90t-70 35q-67 0 -89 -70l-145 4l16 413h423v-114h-291l-9 -173q17 15 27.5 22.5t40 17.5t64.5 10q87 0 146.5 -60t59.5 -162q0 -47 -14 -90t-42.5 -80.5t-78.5 -60t-114 -22.5q-131 0 -195 76
q-36 44 -39 111z" />
    <glyph glyph-name="six" unicode="6" 
d="M519 525h-148q-2 35 -22.5 52t-50.5 17q-29 0 -49.5 -14.5t-30.5 -32.5t-16 -50t-7 -50t-2 -49q61 56 137 56q80 0 140 -57t60 -164q0 -114 -74 -182q-70 -65 -178 -65q-50 0 -89.5 14t-64 33.5t-42.5 51.5t-26.5 57.5t-13 62t-5 54t-0.5 44.5q0 272 113 355
q65 49 161 49q86 0 146 -46t62 -136zM287 98q38 0 67 30t29 95q0 56 -25.5 88t-64.5 32q-12 0 -26.5 -4.5t-32.5 -16t-30 -38t-12 -64.5q0 -61 27.5 -91.5t67.5 -30.5z" />
    <glyph glyph-name="seven" unicode="7" 
d="M37 581v116h473v-124l-240 -573h-167l255 581h-321z" />
    <glyph glyph-name="eight" unicode="8" 
d="M174 366q-132 41 -132 149q0 74 62 134.5t179 60.5q104 0 170.5 -53.5t66.5 -135.5q0 -60 -40.5 -102t-96.5 -51q22 -6 34.5 -10.5t36.5 -21t41 -40.5q32 -45 32 -104q0 -93 -74.5 -148t-181.5 -55q-105 0 -172.5 59t-67.5 144q0 73 51 122q32 31 92 52zM281 423
q40 0 67 24.5t27 65.5t-27.5 64t-65.5 23t-64.5 -24t-26.5 -63q0 -38 25 -64t65 -26zM281 96q38 0 68.5 26.5t30.5 79.5q0 46 -29.5 73.5t-70.5 27.5q-43 0 -71.5 -29.5t-28.5 -73.5q0 -50 30.5 -77t70.5 -27z" />
    <glyph glyph-name="nine" unicode="9" 
d="M33 170h151q3 -32 22.5 -50t50.5 -18q37 0 61 17.5t34 50t12.5 63t1.5 73.5q-53 -48 -126 -48q-49 0 -88 15t-62 38t-38.5 53.5t-21 58t-5.5 54.5q0 100 67 164.5t180 64.5q50 0 89.5 -13.5t64.5 -33.5t43.5 -52t27.5 -59.5t14 -65.5t6 -61t1 -55q0 -109 -18 -183.5
t-54 -117t-83.5 -60.5t-113.5 -18q-21 0 -38.5 1t-53.5 11t-60.5 27.5t-44 54.5t-19.5 89zM267 373q50 0 73 34.5t23 79.5q0 47 -24.5 76.5t-68.5 29.5q-49 0 -73 -32.5t-24 -77.5q0 -13 3 -28t11 -35.5t29 -33.5t51 -13z" />
    <glyph glyph-name="colon" unicode=":" horiz-adv-x="278" 
d="M76 0v134h126v-134h-126zM76 370v135h126v-135h-126z" />
    <glyph glyph-name="semicolon" unicode=";" horiz-adv-x="278" 
d="M80 370v135h126v-135h-126zM87 133h148l-119 -246h-103z" />
    <glyph glyph-name="less" unicode="&#x3c;" horiz-adv-x="584" 
d="M26 200v134l532 206v-140l-372 -133l372 -133v-141z" />
    <glyph glyph-name="equal" unicode="=" horiz-adv-x="584" 
d="M26 318v129h532v-129h-532zM26 86v129h532v-129h-532z" />
    <glyph glyph-name="greater" unicode="&#x3e;" horiz-adv-x="584" 
d="M559 200l-533 -207v141l372 133l-372 133v140l533 -206v-134z" />
    <glyph glyph-name="question" unicode="?" horiz-adv-x="500" 
d="M256 162h-114v93q0 46 37 88l44 49q76 86 76 145q0 13 -3.5 26t-14 31.5t-37 30t-65.5 11.5q-45 0 -133 -24v104q76 20 169 20q63 0 114.5 -18t87.5 -61.5t36 -107.5q0 -55 -28 -96q-30 -43 -52 -63l-57 -51q-39 -35 -49.5 -52.5t-10.5 -43.5v-81zM139 0v120h120v-120
h-120z" />
    <glyph glyph-name="at" unicode="@" horiz-adv-x="975" 
d="M773 135l34 -45q-82 -59 -154 -83.5t-151 -24.5q-170 0 -277 103t-107 267q0 174 117 280t284 106q142 0 240 -79.5t98 -221.5q0 -107 -59 -182.5t-145 -75.5q-50 0 -76 32q-15 19 -17 47q-45 -85 -133 -85q-59 0 -96.5 41t-37.5 112q0 91 58 164t141 73q52 0 82 -27
q15 -14 23 -34l13 45h99l-60 -206q-13 -41 -13 -61q0 -17 10 -26t24 -9q42 0 80 56.5t38 140.5q0 63 -24.5 111t-65 74.5t-86 39.5t-95.5 13q-141 0 -237.5 -88.5t-96.5 -243.5q0 -142 90 -225t233 -83t267 95zM411 311q0 -7 1.5 -15t5.5 -21t15 -21.5t28 -8.5q40 0 67 60
q12 26 21 60.5t12.5 54.5t3.5 24q0 19 -13 33t-36 14q-40 0 -72.5 -56.5t-32.5 -123.5z" />
    <glyph glyph-name="A" unicode="A" horiz-adv-x="722" 
d="M266 723h184l251 -723h-156l-52 156h-286l-54 -156h-148zM247 273h207l-100 308z" />
    <glyph glyph-name="B" unicode="B" horiz-adv-x="667" 
d="M68 0v722h270q123 0 178 -34q81 -52 81 -154q0 -69 -42 -108q-8 -9 -31.5 -25.5t-50.5 -23.5v-2q77 -14 115 -63.5t38 -112.5q0 -60 -30 -103.5t-76 -66.5q-56 -29 -182 -29h-270zM216 611v-183h108q19 0 30.5 0.5t31.5 5.5t31.5 14t21 27.5t9.5 45.5q0 26 -9 44
t-20.5 26.5t-31.5 13.5t-32.5 5.5t-33.5 0.5h-105zM216 316v-200h105q29 0 44 0.5t39 5.5t36 14.5t22 29t10 47.5q0 30 -11 50.5t-25.5 30.5t-41 15.5t-43 6t-46.5 0.5h-89z" />
    <glyph glyph-name="C" unicode="C" horiz-adv-x="667" 
d="M634 487h-158q-15 127 -117 127q-82 0 -122.5 -74.5t-40.5 -194.5q0 -19 1 -34t4.5 -48.5t13.5 -58.5t25.5 -51.5t43 -41t63.5 -14.5q53 0 90.5 34.5t39.5 102.5h163q-2 -32 -5 -51.5t-18 -55t-42 -63.5q-79 -81 -211 -81q-90 0 -156 31t-103 84t-54 115t-17 133
q0 173 89.5 277t241.5 104q119 0 194 -66.5t75 -173.5z" />
    <glyph glyph-name="D" unicode="D" horiz-adv-x="722" 
d="M65 0v721l239 -1q161 0 249 -65q64 -47 93.5 -123t29.5 -161q0 -157 -72.5 -250t-183.5 -113q-43 -8 -130 -8h-225zM222 604v-485q34 -2 61 -2q59 0 98 9.5t70 40.5q65 65 65 204q0 83 -32 143.5t-100 79.5q-53 15 -162 10z" />
    <glyph glyph-name="E" unicode="E" horiz-adv-x="611" 
d="M74 0v723h484v-118h-329v-172h308v-118h-308v-195h340v-120h-495z" />
    <glyph glyph-name="F" unicode="F" 
d="M69 0v722h466v-116h-311v-178h290v-120h-290v-308h-155z" />
    <glyph glyph-name="G" unicode="G" horiz-adv-x="778" 
d="M715 501h-161q-2 46 -20 73q-35 56 -121 56q-62 0 -106.5 -26.5t-65.5 -70.5t-30 -87t-9 -91q0 -129 60 -194q56 -62 170 -62q70 0 118 14v152h-140v120h295v-361q-120 -40 -264 -40q-209 0 -307 96q-96 94 -96 270q0 187 105 290t274 103q166 0 246 -91q50 -57 52 -151z
" />
    <glyph glyph-name="H" unicode="H" horiz-adv-x="722" 
d="M67 0v723h155v-289h273v289h157v-723h-155v317h-275v-317h-155z" />
    <glyph glyph-name="I" unicode="I" horiz-adv-x="278" 
d="M60 0v725h155v-725h-155z" />
    <glyph glyph-name="J" unicode="J" 
d="M9 234h152q2 -63 21 -95.5t64 -32.5q63 0 79 61q6 30 6 113v443h157v-444q0 -92 -24 -154t-88 -101q-51 -31 -140 -31q-65 0 -111 19t-78 69q-35 53 -38 153z" />
    <glyph glyph-name="K" unicode="K" horiz-adv-x="667" 
d="M67 0v721h155v-311l242 313h181l-265 -324l288 -399h-193l-253 368v-368h-155z" />
    <glyph glyph-name="L" unicode="L" 
d="M69 0v722h158v-599h310v-123h-468z" />
    <glyph glyph-name="M" unicode="M" horiz-adv-x="944" 
d="M60 0v723h253l153 -526l165 526h246v-723h-154v620l-197 -620h-128l-193 620v-620h-145z" />
    <glyph glyph-name="N" unicode="N" horiz-adv-x="778" 
d="M72 0v723h224l271 -569v569h144v-723h-213l-280 600v-600h-146z" />
    <glyph glyph-name="O" unicode="O" horiz-adv-x="778" 
d="M42 351q0 76 18.5 142t57 122.5t108 89.5t163.5 33q167 0 254 -98q92 -105 92 -272q0 -81 -24 -158t-67 -125q-92 -103 -257 -103q-161 0 -256 99q-89 95 -89 270zM204 356q0 -132 54 -202q43 -58 131 -58q92 0 135 67q49 73 49 207q0 76 -18 129q-43 128 -165 128
q-85 0 -133 -61q-53 -65 -53 -210z" />
    <glyph glyph-name="P" unicode="P" horiz-adv-x="611" 
d="M65 0v721h223q93 0 151.5 -15t99.5 -64q44 -53 44 -135q0 -63 -24.5 -113.5t-67.5 -78.5q-53 -34 -164 -34h-105v-281h-157zM218 604v-208h62q22 0 35 0.5t36 6.5t36.5 16.5t24.5 33t11 53.5q0 34 -12.5 56t-36 30t-39 10t-39.5 2h-78z" />
    <glyph glyph-name="Q" unicode="Q" horiz-adv-x="778" 
d="M761 111v-113q-90 2 -178 2q-8 0 -25.5 -1t-45 -2t-46.5 -2q-98 -6 -114 -6q-77 0 -136.5 27.5t-92.5 67.5t-54.5 93t-28 96t-6.5 83q0 76 20.5 143t61 121t109 85.5t157.5 31.5q145 0 235.5 -95.5t90.5 -268.5q0 -166 -109 -269q64 12 162 7zM194 365q0 -44 7.5 -85.5
t25.5 -84t55 -68.5t89 -26q44 0 77 18t52 45t31 65t16 72.5t4 73.5q0 117 -45 185q-43 67 -130 67q-49 0 -85.5 -22t-57 -60t-30 -83t-9.5 -97z" />
    <glyph glyph-name="R" unicode="R" horiz-adv-x="667" 
d="M60 0v723h277q52 1 82 -1t70 -13.5t67 -34.5q63 -55 63 -139q0 -134 -151 -177q32 -3 54.5 -13t34.5 -21.5t21 -36.5t12 -41.5t8 -53.5q14 -108 22 -140q8 -30 22 -52h-171q-2 13 -10.5 73t-16.5 113t-12 65q-6 19 -21.5 28.5t-26.5 11t-30 1.5h-136v-292h-158zM213 609
v-202h125q54 0 79 20q40 29 40 84q0 57 -38 81q-16 12 -37 14.5t-65 2.5h-104z" />
    <glyph glyph-name="S" unicode="S" horiz-adv-x="667" 
d="M35 231h158q0 -17 0.5 -28t7.5 -34t19.5 -37t39 -26t64.5 -12q63 0 100 27.5t37 73.5q0 44 -28.5 61t-108.5 36q-139 35 -202.5 82.5t-63.5 136.5q0 97 72 160.5t214 63.5q150 0 218 -85q41 -52 41 -134h-149q-9 110 -117 110q-54 0 -86.5 -27t-32.5 -71q0 -46 32.5 -64
t124.5 -41q47 -11 75 -19.5t65 -25t57.5 -36t35.5 -51.5t15 -73q0 -102 -81.5 -168.5t-226.5 -66.5q-57 0 -102.5 10.5t-74 25.5t-49.5 40t-31 44.5t-15.5 48.5t-6.5 43t-1 36z" />
    <glyph glyph-name="T" unicode="T" horiz-adv-x="611" 
d="M229 0v603h-215v120h586v-120h-215v-603h-156z" />
    <glyph glyph-name="U" unicode="U" horiz-adv-x="778" 
d="M72 721h155v-440q0 -30 1.5 -49.5t10.5 -46.5t24.5 -43t46.5 -27.5t74 -11.5q99 0 140 63q23 34 23 123v432h151v-451q0 -77 -28.5 -134.5t-76 -88.5t-100.5 -46t-112 -15q-194 0 -272 125q-24 37 -30.5 77t-6.5 101v432z" />
    <glyph glyph-name="V" unicode="V" horiz-adv-x="722" 
d="M12 720h169l189 -567l190 567h153l-266 -720h-169z" />
    <glyph glyph-name="W" unicode="W" horiz-adv-x="1000" 
d="M15 720h160l112 -541l141 541h175l127 -541l117 541h148l-184 -722h-172l-131 552l-141 -552h-176z" />
    <glyph glyph-name="X" unicode="X" horiz-adv-x="722" 
d="M30 723h191l146 -246l156 246h166l-238 -348l252 -375h-190l-161 272l-173 -272h-166l254 374z" />
    <glyph glyph-name="Y" unicode="Y" horiz-adv-x="667" 
d="M16 720h181l149 -329l152 329h159l-244 -457v-263h-153v265z" />
    <glyph glyph-name="Z" unicode="Z" horiz-adv-x="611" 
d="M27 0v132l378 473l-355 -3v118h523v-137l-377 -470l385 6v-119h-554z" />
    <glyph glyph-name="bracketleft" unicode="[" horiz-adv-x="333" 
d="M287 752v-92h-109v-690h109v-93h-229v875h229z" />
    <glyph glyph-name="backslash" unicode="\" horiz-adv-x="278" 
d="M29 718h115l271 -718h-117z" />
    <glyph glyph-name="bracketright" unicode="]" horiz-adv-x="333" 
d="M46 660v92h229v-875h-229v93h109v690h-109z" />
    <glyph glyph-name="asciicircum" unicode="^" horiz-adv-x="584" 
d="M51 264l181 433h117l181 -433h-138l-103 272l-100 -272h-138z" />
    <glyph glyph-name="underscore" unicode="_" horiz-adv-x="500" 
d="M0 -125v50h500v-50h-500z" />
    <glyph glyph-name="grave" unicode="`" horiz-adv-x="278" 
d="M128 730l84 -145h-85l-139 145h140z" />
    <glyph glyph-name="a" unicode="a" 
d="M502 0h-134q-5 31 -5 69q-56 -81 -151 -81q-84 0 -126 40q-44 44 -44 111q0 108 107 157q62 28 200 28q0 46 -7 67q-15 42 -66 42q-37 0 -56 -28q-11 -17 -11 -45h-145q3 80 57 119q57 41 153 41q124 0 180 -65q35 -42 35 -124l1 -203q0 -72 12 -128zM349 238
q-73 6 -118 -16t-45 -66q0 -28 19 -50t53 -22q38 0 63 29q18 22 23 49.5t5 75.5z" />
    <glyph glyph-name="b" unicode="b" horiz-adv-x="611" 
d="M60 0v721h148v-277q52 68 143 68q95 0 157.5 -71.5t62.5 -195.5q0 -68 -18.5 -119t-49.5 -79.5t-67 -42.5t-76 -14q-105 0 -152 81q-3 -55 -5 -71h-143zM420 240q0 173 -109 173t-109 -156q0 -83 32 -126.5t84 -43.5q29 0 49.5 14t30.5 31.5t15.5 43t6 38t0.5 26.5z" />
    <glyph glyph-name="c" unicode="c" horiz-adv-x="500" 
d="M477 326h-145q-10 93 -65 93q-78 0 -78 -161q0 -115 37 -155q16 -17 40 -17q8 0 16.5 3t20.5 11.5t20.5 30t10.5 52.5h146q-5 -98 -65 -149q-55 -47 -144 -47q-113 0 -172 67q-64 74 -64 199q0 65 18.5 115t45 77t61 43.5t61 21.5t50.5 5q81 0 143 -47t63 -142z" />
    <glyph glyph-name="d" unicode="d" horiz-adv-x="611" 
d="M399 443v279h149v-640q0 -44 4 -82h-150l-4 73q-21 -38 -51 -57q-40 -26 -98 -26q-101 0 -158 66.5t-57 184.5q0 124 61.5 197.5t161.5 73.5q92 0 142 -69zM184 245q0 -69 25 -114t77 -45q31 0 56 16t38 41q24 46 24 119t-29.5 113t-80.5 40q-35 0 -58.5 -18.5t-34 -48.5
t-14 -54t-3.5 -49z" />
    <glyph glyph-name="e" unicode="e" 
d="M523 215h-339q0 -135 103 -135q71 0 88 70h135q-5 -65 -48 -110q-56 -59 -177 -59q-117 0 -178 63q-65 68 -65 197q0 166 105 239q63 42 142 42q62 0 117 -28.5t87 -93.5q35 -72 30 -185zM189 308h183q0 15 -2 28.5t-9.5 35.5t-27 35.5t-49.5 13.5q-46 0 -69.5 -32
t-25.5 -81z" />
    <glyph glyph-name="f" unicode="f" horiz-adv-x="333" 
d="M75 0v400h-75v105h75v69q0 76 37 118.5t137 42.5q38 0 80 -5v-103q-22 3 -31 3q-27 0 -43.5 -6t-23 -18t-8 -20t-1.5 -22v-59h94v-105h-94v-400h-147z" />
    <glyph glyph-name="g" unicode="g" horiz-adv-x="611" 
d="M405 503h139q-7 -70 -7 -125v-373q0 -204 -252 -204q-212 0 -222 162h142q9 -70 88 -70q35 0 60 17t32 49q6 24 7 120q-52 -69 -136 -69q-102 0 -157.5 74t-55.5 174q0 103 56.5 176.5t159.5 73.5q92 0 141 -72zM191 258q0 -19 2 -35.5t10 -46t30.5 -47.5t56.5 -18
q36 0 59.5 18t32 47.5t10.5 45.5t2 33q0 154 -101 154q-45 0 -73.5 -37t-28.5 -114z" />
    <glyph glyph-name="h" unicode="h" horiz-adv-x="611" 
d="M69 0v722h147v-286q54 76 146 76q94 0 147 -68q33 -46 33 -137v-307h-147v302q0 110 -83 110q-38 0 -66.5 -24.5t-28.5 -78.5l1 -309h-149z" />
    <glyph glyph-name="i" unicode="i" horiz-adv-x="278" 
d="M60 593v129h158v-129h-158zM65 0v506h148v-506h-148z" />
    <glyph glyph-name="j" unicode="j" horiz-adv-x="278" 
d="M-2 -194v100q23 -1 38 7.5t20.5 25.5t7 27.5t1.5 25.5v515h148v-552q0 -76 -37.5 -114.5t-127.5 -38.5q-28 0 -50 4zM60 593v129h158v-129h-158z" />
    <glyph glyph-name="k" unicode="k" 
d="M67 0v723h147v-426l153 211h167l-173 -220l184 -288h-175l-156 275v-275h-147z" />
    <glyph glyph-name="l" unicode="l" horiz-adv-x="278" 
d="M65 0v723h148v-723h-148z" />
    <glyph glyph-name="m" unicode="m" horiz-adv-x="944" 
d="M68 0v410q0 42 -5 95h143l5 -65q55 76 156 76q119 0 159 -95q49 94 162 94q109 0 154 -81q25 -41 25 -140v-9v-285h-149v297q0 33 -4.5 55t-24.5 40.5t-56 18.5q-26 0 -43.5 -10t-27 -23.5t-14 -37.5t-5.5 -41t-1 -46v-253h-149v300q0 21 -2 35t-8.5 34t-25 31t-47.5 11
q-33 0 -53.5 -12t-28 -33.5t-9.5 -35t-2 -33.5v-297h-149z" />
    <glyph glyph-name="n" unicode="n" horiz-adv-x="611" 
d="M67 0v415q0 57 -3 92h142l4 -76q54 88 164 88q66 0 103.5 -29.5t50.5 -65.5q14 -39 14 -151v-273h-151v314q0 39 -8 55q-21 43 -72 43t-77 -39q-18 -26 -18 -77v-296h-149z" />
    <glyph glyph-name="o" unicode="o" horiz-adv-x="611" 
d="M42 248q0 49 13.5 94t42 85.5t81.5 65t124 24.5q130 0 196 -75.5t66 -189.5q0 -115 -67.5 -192.5t-197.5 -77.5q-113 0 -185.5 69t-72.5 197zM194 247q0 -162 111 -162q53 0 81 39t28 134q0 160 -111 160q-109 0 -109 -171z" />
    <glyph glyph-name="p" unicode="p" horiz-adv-x="611" 
d="M60 505h144l4 -72q47 82 154 82q98 0 154 -68t56 -184q0 -114 -58 -192t-162 -78q-91 0 -141 65v-252h-151v699zM314 90q52 0 80 45t28 122q0 27 -4 51.5t-14 51.5t-31.5 43.5t-52.5 16.5q-45 0 -80.5 -40t-35.5 -132q0 -21 2.5 -39t11.5 -49.5t33.5 -50.5t62.5 -19z" />
    <glyph glyph-name="q" unicode="q" horiz-adv-x="611" 
d="M407 506h146q0 -3 -1.5 -44.5t-1.5 -52.5v-601h-152v251q-55 -66 -140 -66q-88 0 -155 66.5t-67 199.5q0 70 19 121.5t50.5 80t67.5 42t76 13.5q103 0 153 -83zM187 255q0 -84 33 -128q26 -36 78 -36q34 0 57 16.5t33.5 44t14 51t3.5 49.5t-4 50.5t-15 53t-36 46
t-61 17.5q-103 0 -103 -164z" />
    <glyph glyph-name="r" unicode="r" horiz-adv-x="389" 
d="M65 0v381q0 58 -7 126h139l3 -97q9 21 18.5 35t28.5 31.5t51 25.5t74 6v-133q-53 5 -87.5 -4t-49 -31t-18.5 -41.5t-4 -49.5v-249h-148z" />
    <glyph glyph-name="s" unicode="s" horiz-adv-x="500" 
d="M29 146h139q2 -28 22 -48.5t62 -20.5q37 0 57.5 17.5t20.5 42.5q0 19 -14.5 32.5t-55.5 24.5l-92 25q-24 7 -39 13.5t-39 21.5t-37 42t-13 63q0 73 61 115.5t160 42.5q82 0 135.5 -38t56.5 -111h-135q-4 60 -72 60q-31 0 -50.5 -13.5t-19.5 -36.5t15 -32.5t54 -20.5
l91 -25q135 -37 135 -141q0 -71 -60.5 -122.5t-171.5 -51.5q-114 0 -173 62q-34 36 -37 99z" />
    <glyph glyph-name="t" unicode="t" horiz-adv-x="389" 
d="M362 104v-97q-59 -16 -115 -16q-42 0 -72.5 11t-44.5 24t-22 35.5t-9 34.5t-1 31v277h-97v98h97v99l147 54v-153h120v-98h-120v-228q0 -22 1.5 -32t7.5 -22t20 -16.5t38 -4.5q23 0 50 3z" />
    <glyph glyph-name="u" unicode="u" horiz-adv-x="611" 
d="M60 505h150v-301q0 -19 0.5 -29.5t4.5 -28t12 -27.5t23.5 -18t38.5 -8q28 0 46.5 9t28 20.5t14.5 36t5.5 41t0.5 50.5v255h152v-333q1 -47 1.5 -78.5t1 -41.5t0.5 -15q1 -18 4 -37h-144l-5 67q-55 -80 -149 -80q-49 0 -89.5 19.5t-62.5 48.5q-33 41 -33 136v314z" />
    <glyph glyph-name="v" unicode="v" 
d="M7 505h158l114 -343l116 343h143l-182 -505h-164z" />
    <glyph glyph-name="w" unicode="w" horiz-adv-x="889" 
d="M5 505h157l93 -381l107 381h163l106 -381l99 381h147l-173 -505h-161l-104 374l-106 -374h-163z" />
    <glyph glyph-name="x" unicode="x" 
d="M16 505h175l95 -165l99 165h154l-164 -246l169 -259h-175l-102 185l-103 -185h-155l169 271z" />
    <glyph glyph-name="y" unicode="y" 
d="M14 505h160l111 -350l113 350h147l-191 -496l-61 -201h-149l64 190z" />
    <glyph glyph-name="z" unicode="z" horiz-adv-x="500" 
d="M32 0v130l256 276h-249v99h414v-127l-256 -276h266v-102h-431z" />
    <glyph glyph-name="braceleft" unicode="{" horiz-adv-x="333" 
d="M103 449v35q0 30 1 48t6 45t14 44t27 37t43.5 32t64.5 21t89 12v-82q-32 -3 -54 -14t-33 -24t-16.5 -36.5t-6.5 -37t-1 -39.5v-36q0 -78 -33.5 -126.5t-124.5 -56.5q81 -10 117 -48q41 -41 41 -135v-37q0 -25 1 -39t6.5 -37.5t16.5 -36.5t33 -24t54 -13v-82
q-135 6 -195 63q-27 24 -38.5 60t-11.5 116v35q0 21 -1 33t-7 31.5t-17.5 31t-35 23t-57.5 16.5v86q51 5 83 34q35 31 35 101z" />
    <glyph glyph-name="bar" unicode="|" horiz-adv-x="278" 
d="M73 750h132v-1000h-132v1000z" />
    <glyph glyph-name="braceright" unicode="}" horiz-adv-x="333" 
d="M230 93v-35q0 -30 -1 -47.5t-5.5 -45t-14 -44.5t-27 -37t-43.5 -32t-65 -21t-89 -12v82q32 2 54 13t33 24t16.5 36t6.5 37t1 40v37q0 93 41 135q36 38 117 48q-24 2 -38.5 4.5t-38 15t-42.5 33.5q-20 23 -29.5 50.5t-9.5 79.5v36q0 26 -1 39.5t-6.5 37t-16.5 36.5t-33 24
t-54 14v82q49 -3 88 -12t64.5 -20.5t43.5 -31.5t27.5 -37t14.5 -43.5t6 -45.5t1 -49v-35q0 -68 32 -100q28 -27 86 -35v-86q-41 -7 -66.5 -21t-36 -35.5t-13 -37.5t-2.5 -41z" />
    <glyph glyph-name="asciitilde" unicode="~" horiz-adv-x="584" 
d="M102 173h-84q5 87 48.5 138.5t106.5 51.5q23 0 106 -25q119 -37 145 -37q49 0 58 60h85q-3 -33 -11.5 -63.5t-25 -61t-47.5 -48.5t-72 -18q-32 0 -179 47q-55 17 -71 17q-24 0 -39.5 -17t-19.5 -44z" />
    <glyph glyph-name="uni00A0" unicode="&#xa0;" horiz-adv-x="278" 
 />
    <glyph glyph-name="exclamdown" unicode="&#xa1;" horiz-adv-x="389" 
d="M149 337h103l19 -527h-134zM264 534v-134h-127v134h127z" />
    <glyph glyph-name="cent" unicode="&#xa2;" 
d="M438 637l-36 -143q103 -39 103 -168h-144q-5 93 -64 93q-26 0 -43.5 -18.5t-24.5 -48.5t-9.5 -51.5t-2.5 -44.5q0 -43 6.5 -79.5t25 -63.5t45.5 -27q9 0 18.5 3.5t21 12.5t19.5 30t10 51h146q-1 -18 -2.5 -28t-7.5 -33.5t-15 -39.5t-27.5 -36t-43.5 -33q-60 -32 -139 -25
l-34 -136h-68l37 149q-56 16 -101 80.5t-45 168.5q0 119 62.5 191.5t178.5 72.5q19 0 33 -2l32 125h69z" />
    <glyph glyph-name="sterling" unicode="&#xa3;" 
d="M30 0v116h73v207h-84v112h85v88q0 109 73 159q62 43 158 43q53 0 92 -13.5t59 -31t32.5 -47t15.5 -47.5t6 -47h-150q-4 85 -66 85q-67 0 -67 -87v-102h169v-112h-169v-207h264v-116h-491z" />
    <glyph glyph-name="currency" unicode="&#xa4;" 
d="M20 169l67 67q-32 54 -32 112q0 54 32 113l-68 67l78 78l67 -67q62 31 111 31q53 0 115 -32l66 67l77 -77l-66 -67q31 -57 31 -113q0 -57 -31 -113l67 -66l-78 -78l-67 67q-55 -31 -112 -31q-56 0 -113 31l-67 -67zM277 454q-44 0 -75 -31t-31 -75t31 -75t75 -31
q43 0 74.5 31t31.5 75t-31 75t-75 31z" />
    <glyph glyph-name="yen" unicode="&#xa5;" 
d="M204 0v137h-163v74h163v71h-163v74h125l-166 364h181l108 -329l111 329h160l-164 -364h119v-74h-159v-70h159v-74h-158l-1 -138h-152z" />
    <glyph glyph-name="brokenbar" unicode="&#xa6;" horiz-adv-x="278" 
d="M73 675h132v-350h-132v350zM73 175h132v-350h-132v350z" />
    <glyph glyph-name="section" unicode="&#xa7;" 
d="M90 10l3 112q80 -43 143 -43q36 0 60 13t24 40q0 15 -10.5 26.5t-20 16t-27.5 10.5l-88 31q-51 18 -76.5 55t-25.5 79q0 38 22.5 73t68.5 53q-76 33 -76 112q0 65 52.5 102.5t139.5 37.5q74 0 154 -30l-3 -103q-89 39 -146 39q-30 0 -44 -12t-14 -31q0 -32 45 -51l88 -29
q102 -34 102 -129q0 -86 -83 -125q84 -43 84 -120q0 -70 -56 -113.5t-145 -43.5q-81 0 -171 30zM267 292q36 13 52.5 36t16.5 45q0 54 -74 67q-71 -21 -71 -74q0 -50 76 -74z" />
    <glyph glyph-name="dieresis" unicode="&#xa8;" horiz-adv-x="278" 
d="M172 599v118h102v-118h-102zM0 599v118h102v-118h-102z" />
    <glyph glyph-name="copyright" unicode="&#xa9;" horiz-adv-x="800" 
d="M398 738q156 0 267 -110t111 -268q0 -157 -110.5 -267.5t-267.5 -110.5q-156 0 -266.5 110.5t-110.5 267.5q0 158 111 268t266 110zM398 676q-130 0 -223 -92.5t-93 -223.5t92.5 -223.5t223.5 -92.5q132 0 224.5 93t92.5 223q0 131 -93 223.5t-224 92.5zM581 439h-102
q-1 14 -4.5 28t-22 31.5t-48.5 17.5t-51.5 -14.5t-31.5 -32.5t-15.5 -44.5t-6 -39t-0.5 -27.5q0 -19 2 -36.5t10 -48.5t31 -50t58 -19q31 0 55 20.5t25 61.5h105q-6 -68 -45 -105q-50 -46 -132 -46q-110 0 -161 63t-51 156q0 104 57.5 167t154.5 63q76 0 124 -39.5
t49 -105.5z" />
    <glyph glyph-name="ordfeminine" unicode="&#xaa;" horiz-adv-x="334" 
d="M318 392h-87q-3 20 -3 42q-35 -49 -98 -49q-59 0 -85 27.5t-26 62.5q0 34 21.5 61t58.5 38q44 12 120 12q0 19 -1.5 30t-12.5 23.5t-33 12.5q-17 0 -30.5 -10t-13.5 -34h-94q0 37 23.5 59.5t51.5 29.5t61 7q140 0 140 -113v-122q0 -42 8 -77zM219 535q-47 3 -76.5 -9.5
t-29.5 -40.5q0 -18 13.5 -30t34.5 -12q58 0 58 92z" />
    <glyph glyph-name="guillemotleft" unicode="&#xab;" 
d="M137 56l-109 196l109 190h132l-95 -190l95 -196h-132zM380 56l-109 196l109 190h132l-95 -190l95 -196h-132z" />
    <glyph glyph-name="logicalnot" unicode="&#xac;" horiz-adv-x="584" 
d="M24 318v130h533v-363h-134v233h-399z" />
    <glyph glyph-name="uni00AD" unicode="&#xad;" horiz-adv-x="333" 
d="M44 208v113h248v-113h-248z" />
    <glyph glyph-name="registered" unicode="&#xae;" horiz-adv-x="800" 
d="M400 738q155 0 266.5 -109.5t111.5 -268.5q0 -156 -111 -267t-267 -111q-155 0 -266.5 110.5t-111.5 267.5q0 158 112 268t266 110zM399 677q-130 0 -223 -92t-93 -224t92.5 -225t223.5 -93t224.5 94t93.5 224q0 131 -93.5 223.5t-224.5 92.5zM258 148v424h146
q22 0 35.5 -0.5t37.5 -6.5t38 -17t25.5 -33.5t11.5 -54.5q0 -27 -7.5 -47t-22 -31t-24 -15.5t-26.5 -10.5q17 -1 29 -7t18.5 -12t11.5 -21.5t6.5 -24t4.5 -31.5q11 -94 22 -112h-90q-1 8 -5 41t-7.5 61.5t-3.5 31.5q-5 20 -14 28t-30 8h-74v-170h-82zM338 504v-118h66
q36 0 50 18.5t14 41.5q0 20 -6 33t-17.5 18t-19 6t-19.5 1h-68z" />
    <glyph glyph-name="macron" unicode="&#xaf;" horiz-adv-x="278" 
d="M306 624h-342v68h342v-68z" />
    <glyph glyph-name="degree" unicode="&#xb0;" horiz-adv-x="400" 
d="M198 708q70 0 119.5 -49.5t49.5 -119.5q0 -71 -49.5 -120t-119.5 -49t-119.5 49.5t-49.5 119.5t50 119.5t119 49.5zM198 605q-27 0 -46.5 -19.5t-19.5 -46.5q0 -28 19.5 -47t46.5 -19q28 0 47.5 19.5t19.5 46.5t-19.5 46.5t-47.5 19.5z" />
    <glyph glyph-name="plusminus" unicode="&#xb1;" horiz-adv-x="584" 
d="M225 131v149h-199v130h199v156h134v-156h199v-130h-199v-149h-134zM26 -33v130h532v-130h-532z" />
    <glyph glyph-name="twosuperior" unicode="&#xb2;" horiz-adv-x="333" 
d="M112 585h-99q0 47 26 78q42 46 131 46q70 0 111 -31.5t41 -82.5q0 -36 -18 -64.5t-73 -79.5q-45 -43 -123 -101q185 4 217 4v-69h-318v84l117 99q53 44 82 81q18 24 18 46q0 21 -15 36t-38 15q-28 0 -42.5 -17.5t-16.5 -43.5z" />
    <glyph glyph-name="threesuperior" unicode="&#xb3;" horiz-adv-x="333" 
d="M6 395h99q4 -56 59 -56q23 0 40.5 14t17.5 43q0 22 -9 35.5t-28.5 19t-33.5 6.5t-40 1v70q23 0 39 2t34.5 8t28.5 19t10 33q0 24 -16.5 37t-40.5 13q-25 0 -40.5 -14.5t-14.5 -37.5h-99q5 48 26 71q42 46 128 46q72 0 111.5 -35t39.5 -79q0 -70 -87 -95q91 -25 91 -100
q0 -54 -47 -89t-117 -35q-88 0 -124 42q-27 31 -27 81z" />
    <glyph glyph-name="acute" unicode="&#xb4;" horiz-adv-x="278" 
d="M289 730l-137 -145h-80l83 145h134z" />
    <glyph glyph-name="mu" unicode="&#xb5;" horiz-adv-x="611" 
d="M70 -212l1 717h128v-244q0 -40 3 -65.5t12 -50t29 -36t51 -11.5q27 0 46.5 11t29 25.5t15 38.5t6.5 41.5t1 43.5v247h129v-505h-110v60q-44 -69 -114 -69q-29 0 -51.5 10t-30.5 18t-19 22v-253h-126z" />
    <glyph glyph-name="paragraph" unicode="&#xb6;" 
d="M571 609h-51v-796h-125v796h-95v-796h-125v425q-81 7 -127 49q-70 63 -70 175q0 47 15 90.5t45.5 80t83 58t120.5 21.5h329v-103z" />
    <glyph glyph-name="periodcentered" unicode="&#xb7;" horiz-adv-x="278" 
d="M74 213v133h127v-133h-127z" />
    <glyph glyph-name="cedilla" unicode="&#xb8;" horiz-adv-x="278" 
d="M15 -195l21 42q41 -18 70 -18q25 0 40 10.5t15 27.5q0 13 -10.5 25t-33.5 12q-18 0 -41 -9l-20 21l64 90h47l-48 -64q22 4 35 4q44 0 64 -23t20 -49q0 -34 -23 -55.5t-49.5 -28.5t-53.5 -7q-49 0 -97 22z" />
    <glyph glyph-name="onesuperior" unicode="&#xb9;" horiz-adv-x="333" 
d="M48 553v84q65 25 120 63h84v-419h-98v326q-54 -36 -106 -54z" />
    <glyph glyph-name="ordmasculine" unicode="&#xba;" horiz-adv-x="367" 
d="M14 541q0 74 45.5 117.5t124.5 43.5q82 0 126 -44t44 -115q0 -69 -44.5 -115.5t-127.5 -46.5q-87 0 -127.5 47.5t-40.5 112.5zM113 540q0 -97 71 -97q72 0 72 102q0 98 -71 98q-72 0 -72 -103z" />
    <glyph glyph-name="guillemotright" unicode="&#xbb;" 
d="M164 56h-132l95 189l-95 197h132l109 -197zM407 56h-132l95 189l-95 197h132l109 -197z" />
    <glyph glyph-name="onequarter" unicode="&#xbc;" horiz-adv-x="834" 
d="M665 91h-179v81l182 247h98l-2 -259h62v-69h-63v-91h-98v91zM674 315l-115 -157h111zM142 -28l416 753h83l-417 -753h-82zM9 553v84q65 25 120 63h84v-419h-98v326q-54 -36 -106 -54z" />
    <glyph glyph-name="onehalf" unicode="&#xbd;" horiz-adv-x="834" 
d="M140 -28l417 753h82l-417 -753h-82zM22 553v84q65 25 120 63h84v-419h-98v326q-54 -36 -106 -54zM598 300h-99q0 48 27 78q39 46 130 46q70 0 111 -31.5t41 -82.5q0 -35 -18 -63.5t-73 -80.5q-36 -35 -123 -101q40 2 217 4v-69h-318v85l118 98q51 43 81 81q18 24 18 46
q0 21 -14.5 36t-37.5 15q-29 0 -43.5 -17.5t-16.5 -43.5z" />
    <glyph glyph-name="threequarters" unicode="&#xbe;" horiz-adv-x="834" 
d="M653 91h-179v81l182 247h99l-3 -259h62v-69h-62v-91h-99v91zM655 315l-115 -157h111l3 111q0 39 1 46zM186 -28l416 753h82l-416 -753h-82zM24 395h98l3 -15t7 -17t18.5 -18t31.5 -6q23 0 40 14t17 43q0 22 -9 35.5t-28.5 19t-33.5 6.5t-40 1v70q23 0 39.5 2t35 8
t28.5 19t10 33q0 24 -16.5 37t-40.5 13q-25 0 -40.5 -14.5t-15.5 -37.5h-98q5 48 26 71q42 46 128 46q72 0 111.5 -35t39.5 -79q0 -70 -87 -95q91 -25 91 -100q0 -54 -47 -89t-117 -35q-88 0 -124 42q-27 31 -27 81z" />
    <glyph glyph-name="questiondown" unicode="&#xbf;" horiz-adv-x="500" 
d="M239 366h113v-93q0 -46 -37 -88l-44 -49q-76 -87 -76 -145q0 -13 3.5 -26.5t14.5 -31.5t37 -29.5t65 -11.5q45 0 133 24v-105q-78 -19 -168 -19q-99 0 -168.5 46.5t-69.5 140.5q0 57 27 95q31 44 53 64l56 51q39 35 50 52.5t11 43.5v81zM355 528v-120h-120v120h120z" />
    <glyph glyph-name="Agrave" unicode="&#xc0;" horiz-adv-x="722" 
d="M266 723h184l251 -723h-156l-52 156h-286l-54 -156h-148zM247 273h207l-100 308zM350 918l84 -145h-85l-139 145h140z" />
    <glyph glyph-name="Aacute" unicode="&#xc1;" horiz-adv-x="722" 
d="M266 723h184l251 -723h-156l-52 156h-286l-54 -156h-148zM247 273h207l-100 308zM511 918l-137 -145h-80l83 145h134z" />
    <glyph glyph-name="Acircumflex" unicode="&#xc2;" horiz-adv-x="722" 
d="M266 723h184l251 -723h-156l-52 156h-286l-54 -156h-148zM247 273h207l-100 308zM200 773l110 145h103l104 -145h-89l-68 85l-70 -85h-90z" />
    <glyph glyph-name="Atilde" unicode="&#xc3;" horiz-adv-x="722" 
d="M266 723h184l251 -723h-156l-52 156h-286l-54 -156h-148zM247 273h207l-100 308zM232 781h-52q8 56 40.5 89.5t77.5 33.5q28 0 50 -11l57 -22q18 -6 34 -6q38 0 47 46h51q-7 -62 -40 -93q-29 -29 -72 -29q-22 0 -52 11l-43 16q-30 10 -45 10q-38 0 -53 -45z" />
    <glyph glyph-name="Adieresis" unicode="&#xc4;" horiz-adv-x="722" 
d="M266 723h184l251 -723h-156l-52 156h-286l-54 -156h-148zM247 273h207l-100 308zM394 777v118h102v-118h-102zM222 777v118h102v-118h-102z" />
    <glyph glyph-name="Aring" unicode="&#xc5;" horiz-adv-x="722" 
d="M266 723h184l251 -723h-156l-52 156h-286l-54 -156h-148zM247 273h207l-100 308zM361 938q43 0 72 -30t29 -72t-29.5 -72t-71.5 -30q-41 0 -71 30t-30 72t29.5 72t71.5 30zM361 890q-22 0 -37.5 -16t-15.5 -38t15.5 -37.5t37.5 -15.5t38 15.5t16 37.5t-15.5 38t-38.5 16z
" />
    <glyph glyph-name="AE" unicode="&#xc6;" horiz-adv-x="1000" 
d="M-8 0l400 721h547v-117h-335l26 -178h291v-116h-275l28 -190h274v-120h-416l-22 157h-272l-79 -157h-167zM299 271h196l-42 314z" />
    <glyph glyph-name="Ccedilla" unicode="&#xc7;" horiz-adv-x="667" 
d="M477 234h163q-2 -27 -5 -46t-13 -50.5t-33.5 -60t-59.5 -51.5q-69 -43 -164 -43l-34 -45q22 4 36 4q44 0 63.5 -22.5t19.5 -49.5q0 -34 -23 -55.5t-49.5 -28.5t-53.5 -7q-49 0 -97 22l21 42q43 -18 70 -18q25 0 40.5 10.5t15.5 27.5q0 13 -11 25t-34 12q-19 0 -41 -9
l-20 21l52 74q-128 12 -198 91q-88 100 -88 269q0 173 89.5 277t241.5 104q119 0 194 -66.5t75 -173.5h-158q-15 127 -117 127q-82 0 -122.5 -74.5t-40.5 -194.5q0 -19 1 -34t4.5 -48.5t13.5 -58.5t25.5 -51.5t43 -41t63.5 -14.5q53 0 90.5 34.5t39.5 102.5z" />
    <glyph glyph-name="Egrave" unicode="&#xc8;" horiz-adv-x="611" 
d="M74 0v723h484v-118h-329v-172h308v-118h-308v-195h340v-120h-495zM295 918l84 -145h-85l-139 145h140z" />
    <glyph glyph-name="Eacute" unicode="&#xc9;" horiz-adv-x="611" 
d="M74 0v723h484v-118h-329v-172h308v-118h-308v-195h340v-120h-495zM456 918l-137 -145h-80l83 145h134z" />
    <glyph glyph-name="Ecircumflex" unicode="&#xca;" horiz-adv-x="611" 
d="M74 0v723h484v-118h-329v-172h308v-118h-308v-195h340v-120h-495zM145 773l110 145h103l104 -145h-89l-68 85l-70 -85h-90z" />
    <glyph glyph-name="Edieresis" unicode="&#xcb;" horiz-adv-x="611" 
d="M74 0v723h484v-118h-329v-172h308v-118h-308v-195h340v-120h-495zM339 777v118h102v-118h-102zM167 777v118h102v-118h-102z" />
    <glyph glyph-name="Igrave" unicode="&#xcc;" horiz-adv-x="278" 
d="M60 0v725h155v-725h-155zM128 918l84 -145h-85l-139 145h140z" />
    <glyph glyph-name="Iacute" unicode="&#xcd;" horiz-adv-x="278" 
d="M60 0v725h155v-725h-155zM289 918l-137 -145h-80l83 145h134z" />
    <glyph glyph-name="Icircumflex" unicode="&#xce;" horiz-adv-x="278" 
d="M60 0v725h155v-725h-155zM-22 773l110 145h103l104 -145h-89l-68 85l-70 -85h-90z" />
    <glyph glyph-name="Idieresis" unicode="&#xcf;" horiz-adv-x="278" 
d="M60 0v725h155v-725h-155zM172 777v118h102v-118h-102zM0 777v118h102v-118h-102z" />
    <glyph glyph-name="Eth" unicode="&#xd0;" horiz-adv-x="722" 
d="M65 0v353h-65v87h65v281l239 -1q161 0 249 -65q64 -47 93.5 -123t29.5 -161q0 -157 -72.5 -250t-183.5 -113q-43 -8 -130 -8h-225zM222 353v-234q34 -2 61 -2q59 0 98 9.5t70 40.5q65 65 65 204q0 83 -32 143.5t-100 79.5q-53 15 -162 10v-164h145v-87h-145z" />
    <glyph glyph-name="Ntilde" unicode="&#xd1;" horiz-adv-x="778" 
d="M72 0v723h224l271 -569v569h144v-723h-213l-280 600v-600h-146zM260 781h-52q8 56 40.5 89.5t77.5 33.5q28 0 50 -11l57 -22q18 -6 34 -6q38 0 47 46h51q-7 -62 -40 -93q-29 -29 -72 -29q-22 0 -52 11l-43 16q-30 10 -45 10q-38 0 -53 -45z" />
    <glyph glyph-name="Ograve" unicode="&#xd2;" horiz-adv-x="778" 
d="M42 351q0 76 18.5 142t57 122.5t108 89.5t163.5 33q167 0 254 -98q92 -105 92 -272q0 -81 -24 -158t-67 -125q-92 -103 -257 -103q-161 0 -256 99q-89 95 -89 270zM204 356q0 -132 54 -202q43 -58 131 -58q92 0 135 67q49 73 49 207q0 76 -18 129q-43 128 -165 128
q-85 0 -133 -61q-53 -65 -53 -210zM378 918l84 -145h-85l-139 145h140z" />
    <glyph glyph-name="Oacute" unicode="&#xd3;" horiz-adv-x="778" 
d="M42 351q0 76 18.5 142t57 122.5t108 89.5t163.5 33q167 0 254 -98q92 -105 92 -272q0 -81 -24 -158t-67 -125q-92 -103 -257 -103q-161 0 -256 99q-89 95 -89 270zM204 356q0 -132 54 -202q43 -58 131 -58q92 0 135 67q49 73 49 207q0 76 -18 129q-43 128 -165 128
q-85 0 -133 -61q-53 -65 -53 -210zM539 918l-137 -145h-80l83 145h134z" />
    <glyph glyph-name="Ocircumflex" unicode="&#xd4;" horiz-adv-x="778" 
d="M42 351q0 76 18.5 142t57 122.5t108 89.5t163.5 33q167 0 254 -98q92 -105 92 -272q0 -81 -24 -158t-67 -125q-92 -103 -257 -103q-161 0 -256 99q-89 95 -89 270zM204 356q0 -132 54 -202q43 -58 131 -58q92 0 135 67q49 73 49 207q0 76 -18 129q-43 128 -165 128
q-85 0 -133 -61q-53 -65 -53 -210zM228 773l110 145h103l104 -145h-89l-68 85l-70 -85h-90z" />
    <glyph glyph-name="Otilde" unicode="&#xd5;" horiz-adv-x="778" 
d="M42 351q0 76 18.5 142t57 122.5t108 89.5t163.5 33q167 0 254 -98q92 -105 92 -272q0 -81 -24 -158t-67 -125q-92 -103 -257 -103q-161 0 -256 99q-89 95 -89 270zM204 356q0 -132 54 -202q43 -58 131 -58q92 0 135 67q49 73 49 207q0 76 -18 129q-43 128 -165 128
q-85 0 -133 -61q-53 -65 -53 -210zM260 781h-52q8 56 40.5 89.5t77.5 33.5q28 0 50 -11l57 -22q18 -6 34 -6q38 0 47 46h51q-7 -62 -40 -93q-29 -29 -72 -29q-22 0 -52 11l-43 16q-30 10 -45 10q-38 0 -53 -45z" />
    <glyph glyph-name="Odieresis" unicode="&#xd6;" horiz-adv-x="778" 
d="M42 351q0 76 18.5 142t57 122.5t108 89.5t163.5 33q167 0 254 -98q92 -105 92 -272q0 -81 -24 -158t-67 -125q-92 -103 -257 -103q-161 0 -256 99q-89 95 -89 270zM204 356q0 -132 54 -202q43 -58 131 -58q92 0 135 67q49 73 49 207q0 76 -18 129q-43 128 -165 128
q-85 0 -133 -61q-53 -65 -53 -210zM422 777v118h102v-118h-102zM250 777v118h102v-118h-102z" />
    <glyph glyph-name="multiply" unicode="&#xd7;" horiz-adv-x="584" 
d="M33 99l167 167l-167 168l92 92l167 -168l167 168l92 -92l-167 -168l167 -167l-92 -92l-167 168l-167 -168z" />
    <glyph glyph-name="Oslash" unicode="&#xd8;" horiz-adv-x="778" 
d="M616 664l94 101l47 -47l-95 -104q71 -95 71 -249q0 -187 -96 -285t-249 -98q-146 0 -238 79l-100 -108l-48 47l103 111q-65 92 -65 240q0 52 8.5 101t32 102.5t60.5 93t100.5 65t145.5 25.5q143 0 229 -74zM218 235l305 329q-49 66 -136 66q-48 0 -89.5 -24.5
t-64.5 -71.5q-30 -64 -30 -178q0 -73 15 -121zM555 499l-307 -333q46 -71 140 -71q183 0 183 278q0 73 -16 126z" />
    <glyph glyph-name="Ugrave" unicode="&#xd9;" horiz-adv-x="778" 
d="M72 721h155v-440q0 -30 1.5 -49.5t10.5 -46.5t24.5 -43t46.5 -27.5t74 -11.5q99 0 140 63q23 34 23 123v432h151v-451q0 -77 -28.5 -134.5t-76 -88.5t-100.5 -46t-112 -15q-194 0 -272 125q-24 37 -30.5 77t-6.5 101v432zM378 918l84 -145h-85l-139 145h140z" />
    <glyph glyph-name="Uacute" unicode="&#xda;" horiz-adv-x="778" 
d="M72 721h155v-440q0 -30 1.5 -49.5t10.5 -46.5t24.5 -43t46.5 -27.5t74 -11.5q99 0 140 63q23 34 23 123v432h151v-451q0 -77 -28.5 -134.5t-76 -88.5t-100.5 -46t-112 -15q-194 0 -272 125q-24 37 -30.5 77t-6.5 101v432zM539 918l-137 -145h-80l83 145h134z" />
    <glyph glyph-name="Ucircumflex" unicode="&#xdb;" horiz-adv-x="778" 
d="M72 721h155v-440q0 -30 1.5 -49.5t10.5 -46.5t24.5 -43t46.5 -27.5t74 -11.5q99 0 140 63q23 34 23 123v432h151v-451q0 -77 -28.5 -134.5t-76 -88.5t-100.5 -46t-112 -15q-194 0 -272 125q-24 37 -30.5 77t-6.5 101v432zM228 773l110 145h103l104 -145h-89l-68 85
l-70 -85h-90z" />
    <glyph glyph-name="Udieresis" unicode="&#xdc;" horiz-adv-x="778" 
d="M72 721h155v-440q0 -30 1.5 -49.5t10.5 -46.5t24.5 -43t46.5 -27.5t74 -11.5q99 0 140 63q23 34 23 123v432h151v-451q0 -77 -28.5 -134.5t-76 -88.5t-100.5 -46t-112 -15q-194 0 -272 125q-24 37 -30.5 77t-6.5 101v432zM422 777v118h102v-118h-102zM250 777v118h102
v-118h-102z" />
    <glyph glyph-name="Yacute" unicode="&#xdd;" horiz-adv-x="667" 
d="M16 720h181l149 -329l152 329h159l-244 -457v-263h-153v265zM484 918l-137 -145h-80l83 145h134z" />
    <glyph glyph-name="Thorn" unicode="&#xde;" horiz-adv-x="611" 
d="M65 0v721h153v-110h70q86 0 142.5 -12.5t96.5 -53.5q56 -56 56 -151q0 -58 -23.5 -108.5t-68.5 -81.5q-49 -34 -171 -34h-98v-170h-157zM218 493v-208h62q69 0 94 15q49 28 49 96q0 28 -10 47.5t-22 29t-32.5 14.5t-32 5.5t-30.5 0.5h-78z" />
    <glyph glyph-name="germandbls" unicode="&#xdf;" horiz-adv-x="667" 
d="M59 0v539q0 40 10.5 73t27 52.5t27.5 28.5t21 15q58 34 160 34q59 0 109.5 -14.5t86.5 -49.5t36 -86q0 -37 -19 -65t-73 -63q-10 -7 -15 -11t-10.5 -13.5t-5.5 -22.5q0 -25 47 -52l78 -47q27 -15 43.5 -29.5t32 -46.5t15.5 -76q0 -182 -201 -182q-24 0 -42 2t-43.5 11
t-43 25t-31.5 47.5t-17 74.5h131q0 -30 16 -46q13 -15 36 -15q22 0 39 18t17 53q0 55 -57 89l-78 47q-46 27 -64 48.5t-18 59.5q0 32 15.5 61t59.5 65q13 12 20.5 19.5t13.5 19.5t6 25q0 26 -20 44t-57 18q-58 0 -89 -43q-19 -27 -19 -82v-525h-145z" />
    <glyph glyph-name="agrave" unicode="&#xe0;" 
d="M502 0h-134q-5 31 -5 69q-56 -81 -151 -81q-84 0 -126 40q-44 44 -44 111q0 108 107 157q62 28 200 28q0 46 -7 67q-15 42 -66 42q-37 0 -56 -28q-11 -17 -11 -45h-145q3 80 57 119q57 41 153 41q124 0 180 -65q35 -42 35 -124l1 -203q0 -72 12 -128zM349 238
q-73 6 -118 -16t-45 -66q0 -28 19 -50t53 -22q38 0 63 29q18 22 23 49.5t5 75.5zM267 730l84 -145h-85l-139 145h140z" />
    <glyph glyph-name="aacute" unicode="&#xe1;" 
d="M502 0h-134q-5 31 -5 69q-56 -81 -151 -81q-84 0 -126 40q-44 44 -44 111q0 108 107 157q62 28 200 28q0 46 -7 67q-15 42 -66 42q-37 0 -56 -28q-11 -17 -11 -45h-145q3 80 57 119q57 41 153 41q124 0 180 -65q35 -42 35 -124l1 -203q0 -72 12 -128zM349 238
q-73 6 -118 -16t-45 -66q0 -28 19 -50t53 -22q38 0 63 29q18 22 23 49.5t5 75.5zM428 730l-137 -145h-80l83 145h134z" />
    <glyph glyph-name="acircumflex" unicode="&#xe2;" 
d="M502 0h-134q-5 31 -5 69q-56 -81 -151 -81q-84 0 -126 40q-44 44 -44 111q0 108 107 157q62 28 200 28q0 46 -7 67q-15 42 -66 42q-37 0 -56 -28q-11 -17 -11 -45h-145q3 80 57 119q57 41 153 41q124 0 180 -65q35 -42 35 -124l1 -203q0 -72 12 -128zM349 238
q-73 6 -118 -16t-45 -66q0 -28 19 -50t53 -22q38 0 63 29q18 22 23 49.5t5 75.5zM117 585l110 145h103l104 -145h-89l-68 85l-70 -85h-90z" />
    <glyph glyph-name="atilde" unicode="&#xe3;" 
d="M502 0h-134q-5 31 -5 69q-56 -81 -151 -81q-84 0 -126 40q-44 44 -44 111q0 108 107 157q62 28 200 28q0 46 -7 67q-15 42 -66 42q-37 0 -56 -28q-11 -17 -11 -45h-145q3 80 57 119q57 41 153 41q124 0 180 -65q35 -42 35 -124l1 -203q0 -72 12 -128zM349 238
q-73 6 -118 -16t-45 -66q0 -28 19 -50t53 -22q38 0 63 29q18 22 23 49.5t5 75.5zM149 593h-52q8 56 40.5 89.5t77.5 33.5q28 0 50 -11l57 -22q18 -6 34 -6q38 0 47 46h51q-7 -62 -40 -93q-29 -29 -72 -29q-22 0 -52 11l-43 16q-30 10 -45 10q-38 0 -53 -45z" />
    <glyph glyph-name="adieresis" unicode="&#xe4;" 
d="M502 0h-134q-5 31 -5 69q-56 -81 -151 -81q-84 0 -126 40q-44 44 -44 111q0 108 107 157q62 28 200 28q0 46 -7 67q-15 42 -66 42q-37 0 -56 -28q-11 -17 -11 -45h-145q3 80 57 119q57 41 153 41q124 0 180 -65q35 -42 35 -124l1 -203q0 -72 12 -128zM349 238
q-73 6 -118 -16t-45 -66q0 -28 19 -50t53 -22q38 0 63 29q18 22 23 49.5t5 75.5zM311 599v118h102v-118h-102zM139 599v118h102v-118h-102z" />
    <glyph glyph-name="aring" unicode="&#xe5;" 
d="M502 0h-134q-5 31 -5 69q-56 -81 -151 -81q-84 0 -126 40q-44 44 -44 111q0 108 107 157q62 28 200 28q0 46 -7 67q-15 42 -66 42q-37 0 -56 -28q-11 -17 -11 -45h-145q3 80 57 119q57 41 153 41q124 0 180 -65q35 -42 35 -124l1 -203q0 -72 12 -128zM349 238
q-73 6 -118 -16t-45 -66q0 -28 19 -50t53 -22q38 0 63 29q18 22 23 49.5t5 75.5zM278 760q43 0 72 -30t29 -72t-29.5 -72t-71.5 -30t-71.5 30t-29.5 72t29.5 72t71.5 30zM278 712q-22 0 -37.5 -16t-15.5 -38t15.5 -37.5t37.5 -15.5t38 15.5t16 37.5t-15.5 38t-38.5 16z" />
    <glyph glyph-name="ae" unicode="&#xe6;" horiz-adv-x="889" 
d="M699 156h139q-8 -63 -43 -105q-55 -66 -168 -66q-132 0 -193 93q-24 -28 -43.5 -45.5t-62.5 -34.5t-96 -17q-95 0 -144.5 43.5t-49.5 114.5q0 103 88 145q30 15 78 22.5t77 8.5t89 2q5 117 -84 117q-31 0 -53.5 -16.5t-24.5 -54.5h-143q13 157 203 157q115 0 180 -79
q66 79 178 79q125 0 187 -98q38 -61 38 -191h-338q0 -65 17 -99q25 -52 86 -52q23 0 39 7.5t25 22t12.5 23.5t6.5 23zM512 317h186q0 115 -87 115q-90 0 -99 -115zM369 231q-14 2 -44 2q-144 0 -144 -87q0 -32 23.5 -51t54.5 -19q25 0 50.5 13t39.5 40q15 30 20 102z" />
    <glyph glyph-name="ccedilla" unicode="&#xe7;" horiz-adv-x="500" 
d="M334 183h146q-5 -98 -65 -149q-51 -43 -131 -47l-36 -49q22 4 36 4q44 0 63.5 -22.5t19.5 -49.5q0 -34 -23 -55.5t-49.5 -28.5t-53.5 -7q-49 0 -97 22l21 42q43 -18 70 -18q25 0 40.5 10.5t15.5 27.5q0 13 -11 25t-34 12q-20 0 -40 -9l-21 21l53 76q-90 10 -139 66
q-64 73 -64 199q0 65 18.5 115t45 77t61 43.5t61 21.5t50.5 5q81 0 143 -47t63 -142h-145q-10 93 -65 93q-78 0 -78 -161q0 -115 37 -155q16 -17 40 -17q8 0 16.5 3t20.5 11.5t20.5 30t10.5 52.5z" />
    <glyph glyph-name="egrave" unicode="&#xe8;" 
d="M523 215h-339q0 -135 103 -135q71 0 88 70h135q-5 -65 -48 -110q-56 -59 -177 -59q-117 0 -178 63q-65 68 -65 197q0 166 105 239q63 42 142 42q62 0 117 -28.5t87 -93.5q35 -72 30 -185zM189 308h183q0 15 -2 28.5t-9.5 35.5t-27 35.5t-49.5 13.5q-46 0 -69.5 -32
t-25.5 -81zM267 730l84 -145h-85l-139 145h140z" />
    <glyph glyph-name="eacute" unicode="&#xe9;" 
d="M523 215h-339q0 -135 103 -135q71 0 88 70h135q-5 -65 -48 -110q-56 -59 -177 -59q-117 0 -178 63q-65 68 -65 197q0 166 105 239q63 42 142 42q62 0 117 -28.5t87 -93.5q35 -72 30 -185zM189 308h183q0 15 -2 28.5t-9.5 35.5t-27 35.5t-49.5 13.5q-46 0 -69.5 -32
t-25.5 -81zM428 730l-137 -145h-80l83 145h134z" />
    <glyph glyph-name="ecircumflex" unicode="&#xea;" 
d="M523 215h-339q0 -135 103 -135q71 0 88 70h135q-5 -65 -48 -110q-56 -59 -177 -59q-117 0 -178 63q-65 68 -65 197q0 166 105 239q63 42 142 42q62 0 117 -28.5t87 -93.5q35 -72 30 -185zM189 308h183q0 15 -2 28.5t-9.5 35.5t-27 35.5t-49.5 13.5q-46 0 -69.5 -32
t-25.5 -81zM117 585l110 145h103l104 -145h-89l-68 85l-70 -85h-90z" />
    <glyph glyph-name="edieresis" unicode="&#xeb;" 
d="M523 215h-339q0 -135 103 -135q71 0 88 70h135q-5 -65 -48 -110q-56 -59 -177 -59q-117 0 -178 63q-65 68 -65 197q0 166 105 239q63 42 142 42q62 0 117 -28.5t87 -93.5q35 -72 30 -185zM189 308h183q0 15 -2 28.5t-9.5 35.5t-27 35.5t-49.5 13.5q-46 0 -69.5 -32
t-25.5 -81zM311 599v118h102v-118h-102zM139 599v118h102v-118h-102z" />
    <glyph glyph-name="igrave" unicode="&#xec;" horiz-adv-x="278" 
d="M65 0v506h148v-506h-148zM128 730l84 -145h-85l-139 145h140z" />
    <glyph glyph-name="iacute" unicode="&#xed;" horiz-adv-x="278" 
d="M65 0v506h148v-506h-148zM289 730l-137 -145h-80l83 145h134z" />
    <glyph glyph-name="icircumflex" unicode="&#xee;" horiz-adv-x="278" 
d="M65 0v506h148v-506h-148zM-22 585l110 145h103l104 -145h-89l-68 85l-70 -85h-90z" />
    <glyph glyph-name="idieresis" unicode="&#xef;" horiz-adv-x="278" 
d="M65 0v506h148v-506h-148zM172 599v118h102v-118h-102zM0 599v118h102v-118h-102z" />
    <glyph glyph-name="eth" unicode="&#xf0;" horiz-adv-x="611" 
d="M124 564l86 59q-50 25 -98 44l79 90q72 -32 125 -63l79 54l44 -34l-76 -51q28 -21 49.5 -39t52 -54t50.5 -74.5t34.5 -96t14.5 -121.5q0 -133 -63.5 -212.5t-196.5 -79.5q-107 0 -168 46q-88 64 -88 204q0 67 22.5 117.5t58 78t74 40.5t77.5 13q74 0 132 -46
q-26 43 -59 78.5t-93 75.5l-92 -63zM309 81q108 0 108 165q0 154 -108 154q-31 0 -54 -15t-33.5 -33.5t-16.5 -45.5t-6.5 -40.5t-0.5 -29.5q0 -155 111 -155z" />
    <glyph glyph-name="ntilde" unicode="&#xf1;" horiz-adv-x="611" 
d="M67 0v415q0 57 -3 92h142l4 -76q54 88 164 88q66 0 103.5 -29.5t50.5 -65.5q14 -39 14 -151v-273h-151v314q0 39 -8 55q-21 43 -72 43t-77 -39q-18 -26 -18 -77v-296h-149zM177 593h-52q8 56 40.5 89.5t77.5 33.5q28 0 50 -11l57 -22q18 -6 34 -6q38 0 47 46h51
q-7 -62 -40 -93q-29 -29 -72 -29q-22 0 -52 11l-43 16q-30 10 -45 10q-38 0 -53 -45z" />
    <glyph glyph-name="ograve" unicode="&#xf2;" horiz-adv-x="611" 
d="M42 248q0 49 13.5 94t42 85.5t81.5 65t124 24.5q130 0 196 -75.5t66 -189.5q0 -115 -67.5 -192.5t-197.5 -77.5q-113 0 -185.5 69t-72.5 197zM194 247q0 -162 111 -162q53 0 81 39t28 134q0 160 -111 160q-109 0 -109 -171zM295 730l84 -145h-85l-139 145h140z" />
    <glyph glyph-name="oacute" unicode="&#xf3;" horiz-adv-x="611" 
d="M42 248q0 49 13.5 94t42 85.5t81.5 65t124 24.5q130 0 196 -75.5t66 -189.5q0 -115 -67.5 -192.5t-197.5 -77.5q-113 0 -185.5 69t-72.5 197zM194 247q0 -162 111 -162q53 0 81 39t28 134q0 160 -111 160q-109 0 -109 -171zM456 730l-137 -145h-80l83 145h134z" />
    <glyph glyph-name="ocircumflex" unicode="&#xf4;" horiz-adv-x="611" 
d="M42 248q0 49 13.5 94t42 85.5t81.5 65t124 24.5q130 0 196 -75.5t66 -189.5q0 -115 -67.5 -192.5t-197.5 -77.5q-113 0 -185.5 69t-72.5 197zM194 247q0 -162 111 -162q53 0 81 39t28 134q0 160 -111 160q-109 0 -109 -171zM145 585l110 145h103l104 -145h-89l-68 85
l-70 -85h-90z" />
    <glyph glyph-name="otilde" unicode="&#xf5;" horiz-adv-x="611" 
d="M42 248q0 49 13.5 94t42 85.5t81.5 65t124 24.5q130 0 196 -75.5t66 -189.5q0 -115 -67.5 -192.5t-197.5 -77.5q-113 0 -185.5 69t-72.5 197zM194 247q0 -162 111 -162q53 0 81 39t28 134q0 160 -111 160q-109 0 -109 -171zM177 593h-52q8 56 40.5 89.5t77.5 33.5
q28 0 50 -11l57 -22q18 -6 34 -6q38 0 47 46h51q-7 -62 -40 -93q-29 -29 -72 -29q-22 0 -52 11l-43 16q-30 10 -45 10q-38 0 -53 -45z" />
    <glyph glyph-name="odieresis" unicode="&#xf6;" horiz-adv-x="611" 
d="M42 248q0 49 13.5 94t42 85.5t81.5 65t124 24.5q130 0 196 -75.5t66 -189.5q0 -115 -67.5 -192.5t-197.5 -77.5q-113 0 -185.5 69t-72.5 197zM194 247q0 -162 111 -162q53 0 81 39t28 134q0 160 -111 160q-109 0 -109 -171zM339 599v118h102v-118h-102zM167 599v118h102
v-118h-102z" />
    <glyph glyph-name="divide" unicode="&#xf7;" horiz-adv-x="584" 
d="M21 202v129h533v-129h-533zM213 4v147h149v-147h-149zM213 382v147h149v-147h-149z" />
    <glyph glyph-name="oslash" unicode="&#xf8;" horiz-adv-x="611" 
d="M540 547l41 -35l-75 -78q57 -72 57 -183q0 -117 -66 -192t-194 -75q-51 0 -91 11.5t-54.5 21t-32.5 25.5l-75 -78l-41 34l80 86q-48 71 -48 163q0 124 70 196.5t190 72.5q100 0 165 -45zM198 195l184 190q-30 33 -79 33q-109 0 -109 -164q0 -33 4 -59zM406 330l-190 -195
q28 -50 86 -50q36 0 59.5 14.5t33.5 41.5t13.5 50.5t3.5 55.5q0 51 -6 83z" />
    <glyph glyph-name="ugrave" unicode="&#xf9;" horiz-adv-x="611" 
d="M60 505h150v-301q0 -19 0.5 -29.5t4.5 -28t12 -27.5t23.5 -18t38.5 -8q28 0 46.5 9t28 20.5t14.5 36t5.5 41t0.5 50.5v255h152v-333q1 -47 1.5 -78.5t1 -41.5t0.5 -15q1 -18 4 -37h-144l-5 67q-55 -80 -149 -80q-49 0 -89.5 19.5t-62.5 48.5q-33 41 -33 136v314zM295 730
l84 -145h-85l-139 145h140z" />
    <glyph glyph-name="uacute" unicode="&#xfa;" horiz-adv-x="611" 
d="M60 505h150v-301q0 -19 0.5 -29.5t4.5 -28t12 -27.5t23.5 -18t38.5 -8q28 0 46.5 9t28 20.5t14.5 36t5.5 41t0.5 50.5v255h152v-333q1 -47 1.5 -78.5t1 -41.5t0.5 -15q1 -18 4 -37h-144l-5 67q-55 -80 -149 -80q-49 0 -89.5 19.5t-62.5 48.5q-33 41 -33 136v314zM456 730
l-137 -145h-80l83 145h134z" />
    <glyph glyph-name="ucircumflex" unicode="&#xfb;" horiz-adv-x="611" 
d="M60 505h150v-301q0 -19 0.5 -29.5t4.5 -28t12 -27.5t23.5 -18t38.5 -8q28 0 46.5 9t28 20.5t14.5 36t5.5 41t0.5 50.5v255h152v-333q1 -47 1.5 -78.5t1 -41.5t0.5 -15q1 -18 4 -37h-144l-5 67q-55 -80 -149 -80q-49 0 -89.5 19.5t-62.5 48.5q-33 41 -33 136v314zM145 585
l110 145h103l104 -145h-89l-68 85l-70 -85h-90z" />
    <glyph glyph-name="udieresis" unicode="&#xfc;" horiz-adv-x="611" 
d="M60 505h150v-301q0 -19 0.5 -29.5t4.5 -28t12 -27.5t23.5 -18t38.5 -8q28 0 46.5 9t28 20.5t14.5 36t5.5 41t0.5 50.5v255h152v-333q1 -47 1.5 -78.5t1 -41.5t0.5 -15q1 -18 4 -37h-144l-5 67q-55 -80 -149 -80q-49 0 -89.5 19.5t-62.5 48.5q-33 41 -33 136v314zM339 599
v118h102v-118h-102zM167 599v118h102v-118h-102z" />
    <glyph glyph-name="yacute" unicode="&#xfd;" 
d="M14 505h160l111 -350l113 350h147l-191 -496l-61 -201h-149l64 190zM428 730l-137 -145h-80l83 145h134z" />
    <glyph glyph-name="thorn" unicode="&#xfe;" horiz-adv-x="611" 
d="M42 723h150v-290q46 82 152 82q99 0 154.5 -69t55.5 -184q0 -114 -58.5 -191.5t-160.5 -77.5q-95 0 -143 65v-252h-150v917zM296 90q33 0 56 18t33 46.5t14 53t4 49.5q0 22 -3 44t-12.5 52t-32 48.5t-55.5 18.5q-52 0 -81 -41q-33 -46 -33 -131q0 -158 110 -158z" />
    <glyph glyph-name="ydieresis" unicode="&#xff;" 
d="M14 505h160l111 -350l113 350h147l-191 -496l-61 -201h-149l64 190zM311 599v118h102v-118h-102zM139 599v118h102v-118h-102z" />
    <glyph glyph-name="dotlessi" unicode="&#x131;" horiz-adv-x="278" 
d="M65 0v506h148v-506h-148z" />
    <glyph glyph-name="Lslash" unicode="&#x141;" 
d="M69 0v289l-66 -38v101l67 40l-1 330h158v-241l175 102v-104l-175 -101v-255h310v-123h-468z" />
    <glyph glyph-name="lslash" unicode="&#x142;" horiz-adv-x="278" 
d="M65 0v293l-53 -32v103l53 33v326h148v-236l53 33v-105l-53 -32v-383h-148z" />
    <glyph glyph-name="OE" unicode="&#x152;" horiz-adv-x="1000" 
d="M951 722v-116h-295v-180h286v-116h-287v-190h308v-120h-491q-66 0 -100.5 1.5t-86 9.5t-90 28t-71.5 53q-92 91 -92 261q0 127 56 223.5t159 124.5q54 15 93.5 18t131.5 3h479zM500 111v503q-88 0 -127.5 -4.5t-74.5 -21.5q-106 -50 -106 -239q0 -70 18 -118.5
t48.5 -71.5t70.5 -36t83.5 -12t87.5 0z" />
    <glyph glyph-name="oe" unicode="&#x153;" horiz-adv-x="944" 
d="M760 156h139q-12 -84 -70 -129q-57 -44 -148 -44q-41 0 -72 7.5t-53.5 23.5t-34.5 28t-29 33q-43 -52 -89.5 -72.5t-108.5 -20.5q-69 0 -120 23.5t-78.5 63.5t-40.5 85t-13 96q0 76 25.5 131.5t66.5 83.5t82 40t82 12q43 0 78.5 -10t59 -28t34 -28.5t22.5 -26.5
q60 95 184 95q133 0 196 -102q35 -58 35 -198h-335q0 -36 7 -65t31 -53.5t64 -24.5q70 0 86 80zM572 311h188q0 16 -0.5 27t-5.5 29t-13.5 29.5t-26 20.5t-41.5 9q-42 0 -68.5 -29t-32.5 -86zM305 80q39 0 64 17t35.5 47.5t14 56t3.5 59.5q0 161 -116 161q-114 0 -114 -171
q0 -170 113 -170z" />
    <glyph glyph-name="Scaron" unicode="&#x160;" horiz-adv-x="667" 
d="M35 231h158q0 -17 0.5 -28t7.5 -34t19.5 -37t39 -26t64.5 -12q63 0 100 27.5t37 73.5q0 44 -28.5 61t-108.5 36q-139 35 -202.5 82.5t-63.5 136.5q0 97 72 160.5t214 63.5q150 0 218 -85q41 -52 41 -134h-149q-9 110 -117 110q-54 0 -86.5 -27t-32.5 -71q0 -46 32.5 -64
t124.5 -41q47 -11 75 -19.5t65 -25t57.5 -36t35.5 -51.5t15 -73q0 -102 -81.5 -168.5t-226.5 -66.5q-57 0 -102.5 10.5t-74 25.5t-49.5 40t-31 44.5t-15.5 48.5t-6.5 43t-1 36zM406 918h93l-106 -145h-117l-104 145h94l70 -91z" />
    <glyph glyph-name="scaron" unicode="&#x161;" horiz-adv-x="500" 
d="M29 146h139q2 -28 22 -48.5t62 -20.5q37 0 57.5 17.5t20.5 42.5q0 19 -14.5 32.5t-55.5 24.5l-92 25q-24 7 -39 13.5t-39 21.5t-37 42t-13 63q0 73 61 115.5t160 42.5q82 0 135.5 -38t56.5 -111h-135q-4 60 -72 60q-31 0 -50.5 -13.5t-19.5 -36.5t15 -32.5t54 -20.5
l91 -25q135 -37 135 -141q0 -71 -60.5 -122.5t-171.5 -51.5q-114 0 -173 62q-34 36 -37 99zM322 730h93l-106 -145h-117l-104 145h94l70 -91z" />
    <glyph glyph-name="Ydieresis" unicode="&#x178;" horiz-adv-x="667" 
d="M16 720h181l149 -329l152 329h159l-244 -457v-263h-153v265zM367 777v118h102v-118h-102zM195 777v118h102v-118h-102z" />
    <glyph glyph-name="Zcaron" unicode="&#x17d;" horiz-adv-x="611" 
d="M27 0v132l378 473l-355 -3v118h523v-137l-377 -470l385 6v-119h-554zM378 918h93l-106 -145h-117l-104 145h94l70 -91z" />
    <glyph glyph-name="zcaron" unicode="&#x17e;" horiz-adv-x="500" 
d="M32 0v130l256 276h-249v99h414v-127l-256 -276h266v-102h-431zM322 730h93l-106 -145h-117l-104 145h94l70 -91z" />
    <glyph glyph-name="florin" unicode="&#x192;" 
d="M30 -155l21 113q12 -2 19 -2q27 0 37 11.5t14 32.5l69 350h-65l19 101h66l11 57q11 52 20.5 81.5t28 58t48.5 40.5t75 12q35 0 82 -7l-22 -110q-26 4 -43 0.5t-26 -17t-12.5 -25t-8.5 -36.5l-11 -54h72l-15 -101h-76l-75 -375q-5 -26 -9 -40t-15 -33t-28 -30
q-48 -32 -116 -32q-30 0 -60 5z" />
    <glyph glyph-name="circumflex" unicode="&#x2c6;" horiz-adv-x="278" 
d="M-22 585l110 145h103l104 -145h-89l-68 85l-70 -85h-90z" />
    <glyph glyph-name="caron" unicode="&#x2c7;" horiz-adv-x="278" 
d="M211 730h93l-106 -145h-117l-104 145h94l70 -91z" />
    <glyph glyph-name="uni02C9" unicode="&#x2c9;" horiz-adv-x="278" 
d="M306 624h-342v68h342v-68z" />
    <glyph glyph-name="breve" unicode="&#x2d8;" horiz-adv-x="278" 
d="M-14 730h61q7 -44 32.5 -62t56.5 -18q25 0 43 8t28 22.5t14 24.5t8 25h61q-4 -63 -44.5 -104t-110.5 -41q-81 0 -122 55q-24 31 -27 90z" />
    <glyph glyph-name="dotaccent" unicode="&#x2d9;" horiz-adv-x="278" 
d="M88 599v118h102v-118h-102z" />
    <glyph glyph-name="ring" unicode="&#x2da;" horiz-adv-x="278" 
d="M139 760q43 0 72 -30t29 -72t-29.5 -72t-71.5 -30q-41 0 -71 30t-30 72t29.5 72t71.5 30zM139 712q-22 0 -37.5 -16t-15.5 -38t15.5 -37.5t37.5 -15.5t38 15.5t16 37.5t-15.5 38t-38.5 16z" />
    <glyph glyph-name="ogonek" unicode="&#x2db;" horiz-adv-x="278" 
d="M232 -147v-44q-45 -26 -93 -26q-45 0 -70.5 21t-25.5 54q0 43 33 81t86 62h43q-26 -18 -39.5 -29.5t-24.5 -29.5t-11 -39t8 -35.5t20.5 -19t19 -6t13.5 -1.5q19 0 41 12z" />
    <glyph glyph-name="tilde" unicode="&#x2dc;" horiz-adv-x="278" 
d="M10 593h-52q8 56 40.5 89.5t77.5 33.5q28 0 50 -11l57 -22q18 -6 34 -6q38 0 47 46h51q-7 -62 -40 -93q-29 -29 -72 -29q-22 0 -52 11l-43 16q-30 10 -45 10q-38 0 -53 -45z" />
    <glyph glyph-name="hungarumlaut" unicode="&#x2dd;" 
d="M336 730l-138 -145h-80l84 145h134zM521 730l-138 -145h-80l84 145h134z" />
    <glyph glyph-name="uni03A9" unicode="&#x3a9;" horiz-adv-x="703" 
d="M170 106v3q-120 112 -120 276q0 133 85 226t219 93q70 0 128 -28t94 -73.5t55.5 -100t19.5 -110.5q0 -88 -35 -162t-87 -121v-3h135v-106h-264v78q51 33 84.5 104t33.5 181q0 97 -44 164.5t-121 67.5q-76 0 -123 -66.5t-47 -170.5q0 -102 34 -176t84 -104v-78h-265v106
h134z" />
    <glyph glyph-name="uni03BC" unicode="&#x3bc;" horiz-adv-x="611" 
d="M70 -212l1 717h128v-244q0 -40 3 -65.5t12 -50t29 -36t51 -11.5q27 0 46.5 11t29 25.5t15 38.5t6.5 41.5t1 43.5v247h129v-505h-110v60q-44 -69 -114 -69q-29 0 -51.5 10t-30.5 18t-19 22v-253h-126z" />
    <glyph glyph-name="pi" unicode="&#x3c0;" horiz-adv-x="601" 
d="M578 410h-70v-262q0 -90 13 -148h-127q-17 30 -17 142v268h-133q-4 -93 -21.5 -216t-41.5 -194h-127q24 85 41.5 206t19.5 204q-66 0 -97 -10l-14 87q42 34 165 34h419z" />
    <glyph glyph-name="endash" unicode="&#x2013;" horiz-adv-x="500" 
d="M0 213v97h500v-97h-500z" />
    <glyph glyph-name="emdash" unicode="&#x2014;" horiz-adv-x="1000" 
d="M130 213v97h740v-97h-740z" />
    <glyph glyph-name="quoteleft" unicode="&#x2018;" horiz-adv-x="278" 
d="M240 722l-71 -247h-146l112 247h105z" />
    <glyph glyph-name="quoteright" unicode="&#x2019;" horiz-adv-x="278" 
d="M39 475l71 247h146l-112 -247h-105z" />
    <glyph glyph-name="quotesinglbase" unicode="&#x201a;" horiz-adv-x="278" 
d="M102 133h148l-119 -246h-103z" />
    <glyph glyph-name="quotedblleft" unicode="&#x201c;" 
d="M280 722l-71 -247h-145l112 247h104zM476 722l-71 -247h-146l112 247h105z" />
    <glyph glyph-name="quotedblright" unicode="&#x201d;" 
d="M67 475l71 247h146l-113 -247h-104zM263 475l70 247h146l-112 -247h-104z" />
    <glyph glyph-name="quotedblbase" unicode="&#x201e;" 
d="M171 -113h-103l71 246h143zM370 -113h-103l71 246h143z" />
    <glyph glyph-name="dagger" unicode="&#x2020;" 
d="M214 465h-161v100h161v157h122v-157h157v-100h-157v-465h-122v465z" />
    <glyph glyph-name="daggerdbl" unicode="&#x2021;" 
d="M336 572h159v-97h-159v-225h159v-97h-159v-153h-122v153h-158v97h158v225h-161v97h161v150h122v-150z" />
    <glyph glyph-name="bullet" unicode="&#x2022;" horiz-adv-x="350" 
d="M175 542q75 0 128 -52.5t53 -127.5t-53 -128t-128 -53t-128 53t-53 128t53 127.5t128 52.5z" />
    <glyph glyph-name="ellipsis" unicode="&#x2026;" horiz-adv-x="1000" 
d="M117 0v133h127v-133h-127zM437 0v133h127v-133h-127zM757 0v133h127v-133h-127z" />
    <glyph glyph-name="perthousand" unicode="&#x2030;" horiz-adv-x="1000" 
d="M509 335q142 0 142 -160q0 -25 -1.5 -43t-9 -47t-21.5 -47.5t-41.5 -32.5t-66.5 -14q-141 0 -141 170q0 174 139 174zM511 68q24 0 33.5 22t9.5 75q0 46 -8 70t-33 24q-27 0 -35 -25t-8 -77q0 -46 8 -67.5t33 -21.5zM845 335q143 0 143 -160q0 -25 -1.5 -43t-9 -47
t-21.5 -47.5t-41.5 -32.5t-66.5 -14q-142 0 -142 170q0 174 139 174zM848 68q24 0 33 22t9 75q0 47 -8 70.5t-33 23.5q-27 0 -35 -25.5t-8 -76.5q0 -45 8.5 -67t33.5 -22zM147 719q142 0 142 -159q0 -25 -1 -43t-9 -47.5t-21.5 -48t-41 -32.5t-66.5 -14q-142 0 -142 171
q0 173 139 173zM150 452q24 0 33 22t9 75q0 47 -8 71t-33 24q-27 0 -35 -25.5t-8 -77.5q0 -45 8.5 -67t33.5 -22zM151 -16h-75l427 743h73z" />
    <glyph glyph-name="guilsinglleft" unicode="&#x2039;" horiz-adv-x="278" 
d="M126 56l-109 196l109 190h132l-95 -190l95 -196h-132z" />
    <glyph glyph-name="guilsinglright" unicode="&#x203a;" horiz-adv-x="278" 
d="M10 442h132l109 -197l-109 -189h-132l95 189z" />
    <glyph glyph-name="fraction" unicode="&#x2044;" horiz-adv-x="167" 
d="M-167 -28l417 753h82l-417 -753h-82z" />
    <glyph glyph-name="Euro" unicode="&#x20ac;" 
d="M353 308l-17 -90h-118q6 -56 31.5 -90t70.5 -34q42 0 66.5 35t26.5 95h129q0 -110 -60 -173.5t-162 -63.5q-99 0 -157.5 62t-77.5 169h-79l18 90h51q-1 12 -1 36q0 5 0.5 15t0.5 14h-69l18 90h60q21 114 83 176t159 62q91 0 153 -60.5t62 -171.5h-127q-3 60 -28 95.5
t-60 35.5q-83 0 -109 -137h165l-17 -90h-155l-1 -15q0 -33 1 -50h143z" />
    <glyph glyph-name="afii61289" unicode="&#x2113;" horiz-adv-x="514" 
d="M443 187l53 -55q-72 -140 -209 -140q-84 0 -128 45t-53 117v10q-5 -4 -23 -18t-28 -21l-32 69q74 61 81 68v247q0 126 51 190t130 64q69 0 104.5 -49.5t35.5 -127.5q0 -155 -195 -342l1 -43q1 -50 25 -77t61 -27q70 0 126 90zM230 512v-149q113 128 113 228q0 80 -52 80
q-26 0 -43.5 -37t-17.5 -122z" />
    <glyph glyph-name="trademark" unicode="&#x2122;" horiz-adv-x="1000" 
d="M445 362v361h122l73 -264l79 264h118v-361h-74v310l-94 -310h-62l-93 310v-310h-69zM211 362v301h-127v60h329v-60h-126v-301h-76z" />
    <glyph glyph-name="Omega" unicode="&#x2126;" horiz-adv-x="703" 
d="M170 106v3q-120 112 -120 276q0 133 85 226t219 93q70 0 128 -28t94 -73.5t55.5 -100t19.5 -110.5q0 -88 -35 -162t-87 -121v-3h135v-106h-264v78q51 33 84.5 104t33.5 181q0 97 -44 164.5t-121 67.5q-76 0 -123 -66.5t-47 -170.5q0 -102 34 -176t84 -104v-78h-265v106
h134z" />
    <glyph glyph-name="estimated" unicode="&#x212e;" horiz-adv-x="867" 
d="M832 338h-646q-6 0 -6 -4v-196q0 -9 9 -22q103 -106 244 -106q154 0 258 119h57q-54 -64 -137.5 -101.5t-178.5 -37.5q-165 0 -281.5 105t-116.5 253q0 149 116.5 254.5t281.5 105.5q166 0 283 -105.5t117 -254.5v-10zM686 364v197q0 13 -10 23q-104 102 -243 102
q-140 0 -243 -105q-10 -10 -10 -25v-192q0 -6 6 -6h495q5 0 5 6z" />
    <glyph glyph-name="partialdiff" unicode="&#x2202;" horiz-adv-x="573" 
d="M103 629l-37 97q75 58 184 58q117 0 196.5 -99.5t79.5 -278.5q0 -188 -75 -300.5t-206 -112.5q-67 0 -116 37.5t-70.5 90t-21.5 108.5q0 117 61.5 188.5t153.5 71.5q53 0 91 -25.5t54 -52.5h1v33q0 95 -46 163.5t-119 68.5q-72 0 -130 -47zM258 102h1q50 0 84.5 62
t42.5 140q-8 28 -37.5 54.5t-70.5 26.5q-48 0 -80 -47.5t-32 -113.5q0 -52 25.5 -87t66.5 -35z" />
    <glyph glyph-name="Delta" unicode="&#x2206;" horiz-adv-x="653" 
d="M26 0v76l226 632h156l218 -631v-77h-600zM161 105h325l-105 284q-7 24 -28 89.5t-27 88.5h-3q-4 -18 -24 -77t-27 -86z" />
    <glyph glyph-name="product" unicode="&#x220f;" horiz-adv-x="719" 
d="M694 575h-101v-671h-129v671h-210v-671h-129v671h-101v118h670v-118z" />
    <glyph glyph-name="summation" unicode="&#x2211;" horiz-adv-x="555" 
d="M537 -96h-514v84l237 311l-228 303v91h488v-111h-314v-3l201 -259l-223 -292v-3h353v-121z" />
    <glyph glyph-name="minus" unicode="&#x2212;" horiz-adv-x="584" 
d="M26 202v129h532v-129h-532z" />
    <glyph glyph-name="uni2215" unicode="&#x2215;" horiz-adv-x="167" 
d="M-167 -28l417 753h82l-417 -753h-82z" />
    <glyph glyph-name="uni2219" unicode="&#x2219;" horiz-adv-x="278" 
d="M74 213v133h127v-133h-127z" />
    <glyph glyph-name="radical" unicode="&#x221a;" horiz-adv-x="591" 
d="M600 832l-223 -970h-104l-147 432l-73 -29l-22 72l172 70l102 -311q4 -17 11 -47t9 -41h1q1 6 6.5 39.5t9.5 54.5l168 730h90z" />
    <glyph glyph-name="infinity" unicode="&#x221e;" horiz-adv-x="772" 
d="M725 287v-2q0 -78 -48 -125.5t-112 -47.5q-93 0 -178 113q-44 -55 -86 -84t-97 -29q-63 0 -110 48t-47 121q0 75 47 123t119 48q93 0 178 -110q50 58 77 77q47 33 102 33q67 -1 111 -46.5t44 -118.5zM213 183h2q26 0 52.5 16t41 31.5t40.5 46.5q-30 40 -42 55t-39.5 33
t-57.5 18q-41 0 -65.5 -29t-24.5 -74q0 -40 27 -68.5t66 -28.5zM563 383h-1q-14 0 -29 -5.5t-25.5 -11.5t-24.5 -19.5t-20 -20t-20 -23t-16 -19.5q46 -58 75 -79.5t65 -21.5q38 0 61.5 30.5t23.5 66.5q0 45 -24.5 74t-64.5 29z" />
    <glyph glyph-name="integral" unicode="&#x222b;" horiz-adv-x="396" 
d="M374 846l-14 -89q-18 8 -35 8q-32 0 -50 -25q-26 -35 -26 -166q0 -79 7.5 -230.5t7.5 -243.5q0 -134 -36 -199q-37 -73 -130 -73q-48 0 -78 16l16 92q25 -10 43 -10q29 0 44 20q26 35 26 152q0 92 -7.5 248t-7.5 240q0 88 14 139.5t46 86.5q43 46 118 46q33 0 62 -12z
" />
    <glyph glyph-name="approxequal" unicode="&#x2248;" horiz-adv-x="546" 
d="M461 450l45 -42q-24 -47 -59 -75t-76 -28q-46 0 -111 39q-53 33 -85 33q-20 0 -38 -11.5t-28.5 -24t-25.5 -35.5l-46 42q23 45 61.5 74t83.5 29q8 0 15 -0.5t14.5 -2.5t13 -3t12.5 -4.5t10.5 -5t11 -5.5t9.5 -5t9.5 -5.5t8.5 -5.5q3 -2 14 -8.5t14 -8t11.5 -6t12 -5.5
t10 -3.5t12.5 -3t12 -0.5q27 0 46.5 17.5t42.5 53.5zM461 264l45 -43q-54 -103 -135 -103q-28 0 -51 9t-60 31q-54 34 -84 34q-21 0 -39.5 -12.5t-27 -23t-26.5 -36.5l-46 42q23 45 61.5 73.5t82.5 28.5q10 0 19.5 -1t19 -3.5t15.5 -4.5t15 -6.5t12.5 -6t13 -7t10.5 -6.5
q5 -3 21 -13t22.5 -13t19 -7t23.5 -4q26 0 45.5 17.5t43.5 54.5z" />
    <glyph glyph-name="notequal" unicode="&#x2260;" horiz-adv-x="546" 
d="M402 510l-38 -87h134v-75h-162l-58 -134h220v-74h-249l-49 -113l-59 24l39 89h-133v74h162l58 134h-220v75h248l48 110z" />
    <glyph glyph-name="lessequal" unicode="&#x2264;" horiz-adv-x="546" 
d="M495 99l-442 221v81l442 221v-87l-368 -173v-2l368 -174v-87zM499 -14h-450v76h450v-76z" />
    <glyph glyph-name="greaterequal" unicode="&#x2265;" horiz-adv-x="546" 
d="M54 622l443 -221v-81l-442 -221v87l367 174v2l-368 173v87zM497 -14h-448v76h448v-76z" />
    <glyph glyph-name="lozenge" unicode="&#x25ca;" horiz-adv-x="590" 
d="M542 346l-198 -395h-104l-191 395l197 395h104zM427 343l-111 233q-14 36 -18 60h-4q-6 -30 -19 -60l-111 -228l112 -236q13 -37 16 -57h5q7 33 17 55z" />
    </font>
</defs>
</svg>
