<?xml version="1.0" standalone="no"?>
<!DOCTYPE svg PUBLIC "-//W3C//DTD SVG 1.1//EN" "http://www.w3.org/Graphics/SVG/1.1/DTD/svg11.dtd" >
<svg xmlns="http://www.w3.org/2000/svg" xmlns:xlink="http://www.w3.org/1999/xlink" version="1.1">
<metadata>
Created by FontForge 20190801 at Tue Jun 30 21:54:35 2020
 By Unknown
 Dutch Design: Albert-Jan Pool, 1995. Published by FontShop International FontFont release 15
</metadata>
<defs>
<font id="DIN" horiz-adv-x="522" >
  <font-face 
    font-family="DIN"
    font-weight="400"
    font-stretch="normal"
    units-per-em="1000"
    panose-1="0 0 0 0 0 0 0 0 0 0"
    ascent="800"
    descent="-200"
    x-height="492"
    cap-height="712"
    bbox="-104 -226 1115 985"
    underline-thickness="51"
    underline-position="-214"
    unicode-range="U+0020-FB02"
  />
<missing-glyph horiz-adv-x="1000" 
 />
    <glyph glyph-name=".notdef" horiz-adv-x="1000" 
 />
    <glyph glyph-name=".null" horiz-adv-x="0" 
 />
    <glyph glyph-name="nonmarkingreturn" horiz-adv-x="333" 
 />
    <glyph glyph-name="space" unicode=" " horiz-adv-x="249" 
 />
    <glyph glyph-name="exclam" unicode="!" horiz-adv-x="316" 
d="M204 200h-62l-10 512h83zM130 0v84h86v-84h-86z" />
    <glyph glyph-name="quotedbl" unicode="&#x22;" horiz-adv-x="423" 
d="M256 542v170h79v-170h-79zM88 542v170h79v-170h-79z" />
    <glyph glyph-name="numbersign" unicode="#" horiz-adv-x="653" 
d="M506 432l-23 -141h89v-64h-99l-36 -227h-74l36 227h-160l-35 -227h-74l36 227h-89v64h100l23 141h-92v66h101l34 215h75l-35 -215h159l34 215h73l-34 -215h87v-66h-96zM273 432l-23 -141h159l23 141h-159z" />
    <glyph glyph-name="dollar" unicode="$" horiz-adv-x="596" 
d="M481 56q-59 -53 -159 -60v-110h-60v108q-132 6 -220 94l52 52q73 -73 172 -77v265l-20 2q-75 7 -130 54q-55 49 -55 133q0 85 54 139t147 61v89h60v-89q106 -5 186 -77l-49 -49q-61 55 -140 60v-259l31 -5q88 -15 129 -50q61 -52 61 -141q0 -86 -59 -140zM266 651
q-62 -5 -96 -40t-34 -91q0 -54 32 -82q36 -30 98 -39v252zM429 283q-29 25 -110 37v-257q68 5 106 39q39 35 39 92q0 59 -35 89z" />
    <glyph glyph-name="percent" unicode="%" horiz-adv-x="833" 
d="M769 128q0 -61 -39 -98q-37 -37 -96 -37t-97 37t-38 98v105q0 61 38 98t97 37t96 -37q39 -37 39 -98v-105zM280 0h-60l334 712h60zM335 479q0 -60 -39 -97q-37 -37 -96 -37t-97 37t-38 97v105q0 61 38 98t97 37t96 -37q39 -37 39 -98v-105zM712 231q0 87 -78 87t-78 -87
v-101q0 -87 78 -87t78 87v101zM278 582q0 87 -78 87t-78 -87v-101q0 -86 78 -86t78 86v101z" />
    <glyph glyph-name="ampersand" unicode="&#x26;" horiz-adv-x="739" 
d="M576 0l-64 78q-7 -6 -13 -11l-16 -14q-21 -15 -44 -27q-63 -32 -137 -32q-103 0 -164 57q-61 56 -61 150q0 72 48 127q30 35 106 86l-13 16l-14 17q-15 19 -25 36q-25 44 -25 86q0 64 44 106q45 43 113 43q67 0 111 -43t44 -107q0 -73 -79 -127q-36 -24 -53 -36l182 -219
q39 59 40 163h72q-2 -141 -66 -218l109 -131h-95zM371 629q-24 24 -60 24t-59 -23q-23 -24 -23 -60q0 -39 64 -117q12 8 38 26q64 45 64 89q0 36 -24 61zM273 366l-23 -16l-22 -16q-24 -18 -39 -35q-38 -42 -38 -96q0 -63 42 -103q42 -39 108 -39q91 0 168 69z" />
    <glyph glyph-name="quotesingle" unicode="'" horiz-adv-x="255" 
d="M88 542v170h79v-170h-79z" />
    <glyph glyph-name="parenleft" unicode="(" horiz-adv-x="298" 
d="M185 -94q-55 55 -72 86q-21 39 -21 103v522q0 65 21 103q17 31 72 86l49 -49q-43 -43 -54 -65q-16 -32 -16 -81v-510q0 -49 16 -81q11 -22 54 -65z" />
    <glyph glyph-name="parenright" unicode=")" horiz-adv-x="298" 
d="M205 95q0 -66 -20 -103q-17 -31 -72 -86l-51 51q45 45 55 65q14 28 14 79v510q0 51 -14 79q-10 20 -55 65l51 51q55 -55 72 -86q20 -37 20 -103v-522z" />
    <glyph glyph-name="asterisk" unicode="*" horiz-adv-x="474" 
d="M379 423l-117 71l4 -137h-58l4 137l-116 -71l-29 49l120 65l-120 66l29 48l116 -71l-4 137h58l-4 -137l117 71l28 -48l-120 -66l120 -65z" />
    <glyph glyph-name="plus" unicode="+" 
d="M295 234v-176h-67v176h-176v67h176v174h67v-174h175v-67h-175z" />
    <glyph glyph-name="comma" unicode="," horiz-adv-x="264" 
d="M88 -144v232h88v-153z" />
    <glyph glyph-name="hyphen" unicode="-" horiz-adv-x="426" 
d="M76 236v67h274v-67h-274z" />
    <glyph glyph-name="period" unicode="." horiz-adv-x="270" 
d="M88 0v94h94v-94h-94z" />
    <glyph glyph-name="slash" unicode="/" horiz-adv-x="355" 
d="M71 -74h-71l285 860h71z" />
    <glyph glyph-name="zero" unicode="0" 
d="M456 190q0 -87 -56 -142q-55 -54 -139 -54t-139 54q-56 55 -56 142v332q0 87 56 142q55 54 139 54t139 -54q56 -55 56 -142v-332zM384 518q0 60 -32 97q-33 39 -91 39t-91 -39q-32 -37 -32 -97v-324q0 -60 32 -97q33 -39 91 -39t91 39q32 37 32 97v324z" />
    <glyph glyph-name="one" unicode="1" 
d="M258 0v632l-133 -117v82l133 115h72v-712h-72z" />
    <glyph glyph-name="two" unicode="2" 
d="M68 0v64l281 357q40 52 40 105q0 58 -33 93t-91 35q-54 0 -87 -30q-37 -34 -37 -99h-72q0 85 53 139q55 54 143 54t142 -52q54 -53 54 -140q0 -71 -57 -144l-249 -318h306v-64h-393z" />
    <glyph glyph-name="three" unicode="3" 
d="M399 44q-57 -51 -148 -51q-89 0 -144 46q-61 49 -65 142h72q4 -63 45 -95q36 -29 92 -29q59 0 97 36q40 38 40 102q0 138 -140 138h-15v63h15q127 0 127 129q0 62 -36 97q-34 33 -88 33q-56 0 -89 -32q-34 -32 -39 -87h-72q6 85 63 135q54 48 137 48q87 0 142 -53
q54 -53 54 -140q0 -114 -96 -158q109 -41 109 -174q0 -95 -61 -150z" />
    <glyph glyph-name="four" unicode="4" 
d="M395 113v-113h-71v113h-284v65l257 534h77l-257 -534h207v202h71v-202h87v-65h-87z" />
    <glyph glyph-name="five" unicode="5" 
d="M405 46q-53 -53 -142 -53q-92 0 -143 51q-44 45 -50 124h72q14 -111 121 -111q55 0 88 33q25 25 33 67q6 28 6 78q0 173 -120 173q-95 0 -118 -70h-65v374h360v-64h-295v-226q44 49 128 49q78 0 123 -45q59 -59 59 -191t-57 -189z" />
    <glyph glyph-name="six" unicode="6" 
d="M407 54q-55 -60 -144 -60q-90 0 -144 56t-54 149q0 70 45 160l175 353h74l-159 -320q33 15 75 15q83 0 134 -57q51 -56 51 -145q0 -92 -53 -151zM356 304q-35 42 -94 42q-57 0 -91 -39t-34 -105q0 -65 34 -105q34 -39 91 -39t92 39q34 40 34 105q0 62 -32 102z" />
    <glyph glyph-name="seven" unicode="7" 
d="M224 0h-76l247 648h-248v-112h-71v176h395v-64z" />
    <glyph glyph-name="eight" unicode="8" 
d="M410 50q-59 -56 -149 -56t-149 56q-61 57 -61 146q0 112 107 173q-93 53 -93 158q0 83 56 137q55 54 140 54t140 -54q56 -54 56 -137q0 -105 -92 -158q106 -60 106 -173q0 -89 -61 -146zM350 618q-34 36 -89 36t-89 -36q-35 -36 -35 -92t35 -92q34 -35 89 -35t89 35
q35 36 35 92t-35 92zM359 296q-39 40 -98 40t-98 -40q-40 -40 -40 -99t40 -99q39 -40 98 -40t98 40q40 40 40 99t-40 99z" />
    <glyph glyph-name="nine" unicode="9" 
d="M412 353l-175 -353h-75l160 320q-33 -15 -76 -15q-82 0 -134 57q-50 56 -50 145q0 92 53 151q55 60 144 60q90 0 144 -56t54 -149q0 -70 -45 -160zM351 615q-35 39 -92 39t-91 -39q-34 -40 -34 -105q0 -62 32 -102q34 -42 93 -42q57 0 92 39q34 39 34 105q0 65 -34 105z
" />
    <glyph glyph-name="colon" unicode=":" horiz-adv-x="297" 
d="M115 301v94h94v-94h-94zM115 0v94h94v-94h-94z" />
    <glyph glyph-name="semicolon" unicode=";" horiz-adv-x="297" 
d="M115 301v94h94v-94h-94zM117 -144v232h88v-153z" />
    <glyph glyph-name="less" unicode="&#x3c;" horiz-adv-x="1027" 
d="M183 234l365 -364h-94l-399 399l399 399h94l-365 -364h789v-70h-789z" />
    <glyph glyph-name="equal" unicode="=" 
d="M52 320v67h418v-67h-418zM52 151v66h418v-66h-418z" />
    <glyph glyph-name="greater" unicode="&#x3e;" horiz-adv-x="1027" 
d="M573 -130h-94l365 364h-789v70h789l-365 364h94l399 -399z" />
    <glyph glyph-name="question" unicode="?" horiz-adv-x="497" 
d="M406 415l-82 -118q-18 -27 -18 -58v-39h-72v40q0 50 31 94l81 117q33 49 33 85q0 51 -32 84q-33 34 -83 34q-52 0 -85 -36q-31 -34 -31 -83h-72q0 77 54 130t134 53t133 -51q54 -52 54 -131q0 -55 -45 -121zM227 0v84h86v-84h-86z" />
    <glyph glyph-name="at" unicode="@" horiz-adv-x="713" 
d="M572 0v55q-49 -62 -134 -62q-88 0 -136 61q-44 54 -44 184q0 129 41 183q46 62 138 62q83 0 134 -63v78q0 74 -39 114q-40 40 -111 40h-130q-69 0 -109 -40t-40 -114v-337q0 -47 11 -71q12 -25 46 -50l-49 -49q-46 34 -62 68q-16 35 -16 101v336q0 104 56 161
q55 56 154 56h148q98 0 154 -56q57 -57 57 -161v-497zM550 364q-29 57 -100 57t-100 -57q-21 -42 -21 -126t21 -126q29 -57 100 -57t100 57q21 42 21 126t-21 126z" />
    <glyph glyph-name="A" unicode="A" horiz-adv-x="611" 
d="M518 0l-57 161h-311l-57 -161h-81l262 712h64l261 -712h-81zM307 603l-134 -376h266z" />
    <glyph glyph-name="B" unicode="B" horiz-adv-x="668" 
d="M533 50q-56 -50 -153 -50h-277v712h268q94 0 152 -50q58 -52 58 -140q0 -55 -30 -98q-29 -41 -75 -58q116 -43 116 -169q0 -95 -59 -147zM465 614q-37 30 -100 30h-186v-247h186q62 0 100 30q40 33 40 94t-40 93zM478 294q-39 35 -105 35h-194v-261h194q66 0 105 36
q38 35 38 95t-38 95z" />
    <glyph glyph-name="C" unicode="C" horiz-adv-x="637" 
d="M572 206q-17 -99 -84 -156q-67 -56 -163 -56q-108 0 -182 74q-46 46 -59 113q-8 44 -8 175t8 176q13 66 59 112q74 74 182 74q97 0 163 -56t84 -156h-78q-14 66 -58 105q-45 39 -111 39q-75 0 -123 -50q-32 -33 -42 -83q-8 -44 -8 -161t8 -161q10 -50 42 -83
q48 -50 123 -50q66 0 112 39q45 39 59 105h76z" />
    <glyph glyph-name="D" unicode="D" horiz-adv-x="673" 
d="M597 326l-1 -40q-1 -46 -6 -80q-14 -91 -63 -140q-66 -66 -180 -66h-244v712h244q114 0 180 -66q49 -49 63 -132q5 -32 6 -75l1 -37v-76zM521 429q-1 36 -5 63q-10 66 -42 100q-51 52 -140 52h-155v-576h155q89 0 140 52q32 34 42 109q4 28 5 67v133z" />
    <glyph glyph-name="E" unicode="E" horiz-adv-x="600" 
d="M103 0v712h442v-68h-366v-251h312v-68h-312v-257h366v-68h-442z" />
    <glyph glyph-name="F" unicode="F" horiz-adv-x="580" 
d="M179 644v-262h312v-68h-312v-314h-76v712h442v-68h-366z" />
    <glyph glyph-name="G" unicode="G" horiz-adv-x="650" 
d="M576 260q0 -119 -61 -184q-76 -82 -190 -82q-108 0 -182 74q-46 46 -59 113q-8 44 -8 175t8 176q13 66 59 112q74 74 182 74q100 0 168 -60q65 -57 81 -153h-76q-15 68 -61 106q-46 39 -112 39q-74 0 -123 -51q-32 -33 -42 -83q-8 -43 -8 -160t8 -161q10 -50 42 -83
q48 -50 123 -50q85 0 135 61q40 48 40 129v54h-175v67h251v-113z" />
    <glyph glyph-name="H" unicode="H" horiz-adv-x="696" 
d="M517 0v325h-338v-325h-76v712h76v-319h338v319h76v-712h-76z" />
    <glyph glyph-name="I" unicode="I" horiz-adv-x="282" 
d="M103 0v712h76v-712h-76z" />
    <glyph glyph-name="J" unicode="J" horiz-adv-x="501" 
d="M408 216q0 -102 -62 -162q-61 -60 -160 -60t-163 64l51 51q47 -47 112 -47q70 0 108 43q38 42 38 121v486h76v-496z" />
    <glyph glyph-name="K" unicode="K" horiz-adv-x="650" 
d="M546 0l-217 379l-150 -180v-199h-76v712h76v-409l332 409h93l-224 -275l256 -437h-90z" />
    <glyph glyph-name="L" unicode="L" horiz-adv-x="573" 
d="M103 0v712h76v-644h364v-68h-440z" />
    <glyph glyph-name="M" unicode="M" horiz-adv-x="816" 
d="M637 0v541l-195 -429h-65l-198 429v-541h-76v712h76l232 -505l226 505h76v-712h-76z" />
    <glyph glyph-name="N" unicode="N" horiz-adv-x="732" 
d="M557 0l-378 571v-571h-76v712h72l378 -569v569h76v-712h-72z" />
    <glyph glyph-name="O" unicode="O" horiz-adv-x="650" 
d="M566 181q-13 -67 -59 -113q-74 -74 -182 -74t-182 74q-46 46 -59 113q-8 44 -8 175t8 176q13 66 59 112q74 74 182 74t182 -74q46 -46 59 -112q8 -45 8 -176t-8 -175zM490 516q-10 50 -42 83q-49 51 -123 51t-123 -51q-32 -33 -42 -83q-8 -43 -8 -160t8 -160
q10 -50 42 -83q49 -51 123 -51t123 51q32 33 42 83q8 43 8 160t-8 160z" />
    <glyph glyph-name="P" unicode="P" horiz-adv-x="630" 
d="M527 350q-61 -57 -159 -57h-189v-293h-76v712h265q98 0 159 -56q61 -58 61 -153t-61 -153zM470 609q-40 35 -109 35h-182v-283h182q69 0 109 36q42 37 42 106t-42 106z" />
    <glyph glyph-name="Q" unicode="Q" horiz-adv-x="649" 
d="M557 -35l-79 79q-65 -50 -153 -50q-108 0 -182 74q-46 46 -59 113q-8 44 -8 175t8 176q13 66 59 112q74 74 182 74t182 -74q46 -46 59 -112q8 -45 8 -176q0 -119 -6 -162q-9 -63 -43 -105l78 -78zM490 516q-10 50 -42 83q-49 51 -123 51t-123 -51q-32 -33 -42 -83
q-8 -43 -8 -160t8 -160q10 -50 42 -83q49 -51 123 -51q56 0 101 34l-90 90l46 46l87 -87q29 47 29 211q0 117 -8 160z" />
    <glyph glyph-name="R" unicode="R" horiz-adv-x="656" 
d="M512 0l-162 316h-171v-316h-76v712h273q94 0 152 -53q59 -54 59 -145q0 -76 -43 -127q-41 -49 -112 -64l169 -323h-89zM471 611q-38 33 -102 33h-190v-261h190q65 0 102 32q40 35 40 98t-40 98z" />
    <glyph glyph-name="S" unicode="S" horiz-adv-x="588" 
d="M465 48q-67 -54 -179 -54q-150 0 -244 94l52 52q78 -78 194 -78q78 0 123 35t45 97q0 59 -34 89q-28 24 -93 34l-83 13q-85 14 -131 54q-54 48 -54 133q0 91 61 146q62 55 167 55q125 0 212 -78l-49 -49q-67 61 -166 61q-70 0 -111 -36q-39 -36 -39 -96q0 -54 32 -82
q33 -29 96 -39l78 -12q87 -13 130 -50q60 -51 60 -141q0 -93 -67 -148z" />
    <glyph glyph-name="T" unicode="T" horiz-adv-x="548" 
d="M312 644v-644h-76v644h-206v68h488v-68h-206z" />
    <glyph glyph-name="U" unicode="U" horiz-adv-x="683" 
d="M590 235q0 -106 -70 -174q-71 -67 -179 -67t-178 67q-70 68 -70 174v477h76v-471q0 -81 47 -130t125 -49t126 49q47 49 47 130v471h76v-477z" />
    <glyph glyph-name="V" unicode="V" horiz-adv-x="546" 
d="M304 0h-62l-234 712h80l185 -576l185 576h80z" />
    <glyph glyph-name="W" unicode="W" horiz-adv-x="854" 
d="M656 0h-71l-158 570l-158 -570h-71l-182 712h81l139 -574l157 574h68l157 -574l139 574h81z" />
    <glyph glyph-name="X" unicode="X" horiz-adv-x="551" 
d="M448 0l-173 299l-174 -299h-86l218 365l-204 347h88l158 -281l158 281h88l-205 -347l220 -365h-88z" />
    <glyph glyph-name="Y" unicode="Y" horiz-adv-x="514" 
d="M296 294v-294h-76v294l-212 418h82l168 -341l166 341h82z" />
    <glyph glyph-name="Z" unicode="Z" horiz-adv-x="556" 
d="M57 0v72l356 572h-342v68h428v-64l-359 -580h359v-68h-442z" />
    <glyph glyph-name="bracketleft" unicode="[" horiz-adv-x="313" 
d="M92 -74v860h177v-64h-105v-732h105v-64h-177z" />
    <glyph glyph-name="backslash" unicode="\" horiz-adv-x="355" 
d="M284 -74l-284 857h71l284 -857h-71z" />
    <glyph glyph-name="bracketright" unicode="]" horiz-adv-x="313" 
d="M44 -74v62h108v736h-108v62h177v-860h-177z" />
    <glyph glyph-name="asciicircum" unicode="^" horiz-adv-x="537" 
d="M391 413l-122 228l-123 -228h-74l164 305h66l163 -305h-74z" />
    <glyph glyph-name="underscore" unicode="_" horiz-adv-x="537" 
d="M0 -165v51h537v-51h-537z" />
    <glyph glyph-name="grave" unicode="`" horiz-adv-x="500" 
d="M233 594l-108 153h86l88 -153h-66z" />
    <glyph glyph-name="a" unicode="a" horiz-adv-x="526" 
d="M369 0v47q-53 -53 -142 -53q-95 0 -139 45q-37 37 -37 100q0 66 44 103q45 39 126 39h148v47q0 108 -126 108q-84 0 -124 -56l-49 45q32 41 74 58q38 15 100 15q197 0 197 -164v-334h-72zM369 227h-138q-110 0 -110 -87q0 -84 113 -84q76 0 110 33q25 24 25 85v53z" />
    <glyph glyph-name="b" unicode="b" horiz-adv-x="545" 
d="M421 37q-43 -43 -120 -43q-89 0 -139 65v-59h-72v712h72v-277q49 63 139 63q77 0 120 -43q60 -60 60 -209t-60 -209zM388 376q-29 58 -102 58t-102 -58q-22 -43 -22 -130t22 -130q29 -58 102 -58t102 58q21 43 21 130t-21 130z" />
    <glyph glyph-name="c" unicode="c" horiz-adv-x="490" 
d="M281 -6q-97 0 -155 63q-63 67 -63 189t63 189q58 63 155 63q94 0 162 -73l-49 -46q-50 55 -113 55q-75 0 -114 -56q-32 -45 -32 -132t32 -132q39 -56 114 -56q62 0 113 56l49 -47q-68 -73 -162 -73z" />
    <glyph glyph-name="d" unicode="d" horiz-adv-x="545" 
d="M384 0v59q-50 -65 -140 -65q-77 0 -120 43q-60 60 -60 209t60 209q43 43 120 43q90 0 139 -63v277h72v-712h-71zM362 376q-29 58 -102 58t-102 -58q-22 -43 -22 -130t22 -130q29 -58 102 -58t102 58q21 43 21 130t-21 130z" />
    <glyph glyph-name="e" unicode="e" horiz-adv-x="530" 
d="M135 227q0 -81 37 -125q38 -45 108 -45q73 0 129 56l49 -43q-76 -76 -180 -76q-101 0 -156 61q-59 64 -59 191q0 119 54 186q54 66 148 66q95 0 149 -64q53 -64 53 -174v-33h-332zM395 281q-3 52 -15 82q-31 74 -115 74t-115 -74q-12 -30 -15 -82h260z" />
    <glyph glyph-name="f" unicode="f" horiz-adv-x="314" 
d="M178 434v-434h-72v434h-63v55h63v93q0 58 31 93q34 39 94 39h52v-62h-39q-66 0 -66 -72v-91h105v-55h-105z" />
    <glyph glyph-name="g" unicode="g" horiz-adv-x="543" 
d="M453 -15q0 -93 -54 -151q-56 -60 -151 -60q-94 0 -167 66l47 46q55 -49 118 -49q68 0 103 44q32 40 32 107v77q-50 -64 -138 -64q-75 0 -119 44q-60 60 -60 205t60 205q43 43 120 43q89 0 138 -64v58h71v-507zM360 377q-28 57 -101 57t-102 -57q-21 -43 -21 -127t21 -126
q29 -58 102 -58t101 58q21 42 21 126t-21 127z" />
    <glyph glyph-name="h" unicode="h" horiz-adv-x="562" 
d="M405 0v304q0 130 -120 130q-57 0 -89 -33q-34 -34 -34 -97v-304h-72v712h72v-274q53 60 138 60q83 0 130 -49t47 -133v-316h-72z" />
    <glyph glyph-name="i" unicode="i" horiz-adv-x="253" 
d="M86 632v81h81v-81h-81zM90 0v492h72v-492h-72z" />
    <glyph glyph-name="j" unicode="j" horiz-adv-x="253" 
d="M86 632v81h81v-81h-81zM162 -89q0 -59 -30 -94q-33 -38 -95 -38h-52v63h39q66 0 66 72v575h72v-578z" />
    <glyph glyph-name="k" unicode="k" horiz-adv-x="536" 
d="M414 0l-156 252l-96 -110v-142h-72v712h72v-476l222 256h90l-167 -188l196 -304h-89z" />
    <glyph glyph-name="l" unicode="l" horiz-adv-x="297" 
d="M213 0q-62 0 -95 37q-30 35 -30 94v581h72v-578q0 -72 66 -72h39v-62h-52z" />
    <glyph glyph-name="m" unicode="m" horiz-adv-x="879" 
d="M722 0v303q0 131 -121 131q-55 0 -88 -32q-35 -34 -35 -91v-311h-72v303q0 131 -121 131q-57 0 -89 -33q-34 -35 -34 -98v-303h-72v492h72v-54q53 60 139 60q105 0 151 -82q58 82 162 82q79 0 127 -46q53 -51 53 -137v-315h-72z" />
    <glyph glyph-name="n" unicode="n" horiz-adv-x="562" 
d="M405 0v303q0 131 -121 131q-57 0 -89 -33q-33 -35 -33 -98v-303h-72v492h72v-54q53 60 138 60q80 0 126 -46q51 -50 51 -137v-315h-72z" />
    <glyph glyph-name="o" unicode="o" horiz-adv-x="530" 
d="M406 50q-56 -56 -141 -56t-141 56q-60 61 -60 196t60 196q56 56 141 56t141 -56q60 -61 60 -196t-60 -196zM388 329q-9 45 -33 69q-36 36 -90 36q-53 0 -89 -36q-24 -24 -33 -69q-7 -31 -7 -83t7 -83q9 -45 33 -69q36 -36 89 -36q54 0 90 36q24 24 33 69q6 30 6 83t-6 83
z" />
    <glyph glyph-name="p" unicode="p" horiz-adv-x="545" 
d="M421 37q-43 -43 -120 -43q-89 0 -139 64v-278h-72v712h72v-58q49 64 139 64q77 0 120 -43q60 -60 60 -209t-60 -209zM388 376q-29 58 -102 58t-102 -58q-22 -43 -22 -130t22 -130q29 -58 102 -58t102 58q21 43 21 130t-21 130z" />
    <glyph glyph-name="q" unicode="q" horiz-adv-x="545" 
d="M383 -220v278q-50 -64 -139 -64q-77 0 -120 43q-60 60 -60 209t60 209q43 43 120 43q91 0 140 -64v58h71v-712h-72zM362 376q-29 58 -102 58t-102 -58q-22 -43 -22 -130t22 -130q29 -58 102 -58t102 58q21 43 21 130t-21 130z" />
    <glyph glyph-name="r" unicode="r" horiz-adv-x="421" 
d="M365 398q-36 36 -85 36q-53 0 -86 -38q-32 -37 -32 -94v-302h-72v492h72v-60q43 66 138 66q72 0 118 -46z" />
    <glyph glyph-name="s" unicode="s" horiz-adv-x="496" 
d="M390 33q-54 -39 -145 -39q-128 0 -202 71l48 48q54 -57 153 -57q131 0 131 87q0 65 -82 72l-81 7q-147 12 -147 132q0 66 51 106q50 38 130 38q112 0 177 -53l-47 -47q-51 39 -131 39q-110 0 -110 -81q0 -65 86 -72l79 -7q145 -13 145 -133q0 -70 -55 -111z" />
    <glyph glyph-name="t" unicode="t" horiz-adv-x="332" 
d="M228 0q-61 0 -94 39q-32 35 -32 93v302h-62v55h62v154h72v-154h105v-55h-105v-300q0 -72 67 -72h38v-62h-51z" />
    <glyph glyph-name="u" unicode="u" horiz-adv-x="562" 
d="M401 0v55q-53 -61 -139 -61q-81 0 -127 46q-50 49 -50 138v314h72v-303q0 -131 120 -131q57 0 89 33q34 35 34 98v303h72v-492h-71z" />
    <glyph glyph-name="v" unicode="v" horiz-adv-x="447" 
d="M255 0h-64l-180 492h78l134 -395l135 395h78z" />
    <glyph glyph-name="w" unicode="w" horiz-adv-x="724" 
d="M558 0h-67l-129 382l-128 -382h-67l-156 492h78l113 -395l129 395h62l130 -395l112 395h78z" />
    <glyph glyph-name="x" unicode="x" horiz-adv-x="478" 
d="M358 0l-118 191l-120 -191h-87l167 251l-160 241h87l113 -182l111 182h87l-160 -241l167 -251h-87z" />
    <glyph glyph-name="y" unicode="y" horiz-adv-x="447" 
d="M212 -119q-14 -39 -35 -58q-35 -34 -96 -34h-31v64h22q36 0 53 14q16 12 28 47l35 96l-177 482h78l135 -395l134 395h78z" />
    <glyph glyph-name="z" unicode="z" horiz-adv-x="459" 
d="M50 0v62l274 366h-259v64h342v-61l-275 -367h275v-64h-357z" />
    <glyph glyph-name="braceleft" unicode="{" horiz-adv-x="354" 
d="M268 -74q-71 0 -101 30t-30 99v191q0 42 -18 60t-45 18h-26v64h26q27 0 45 18t18 60v191q0 69 30 99t101 30h37v-64h-23q-46 0 -59 -13q-14 -14 -14 -65v-188q0 -70 -63 -100q63 -30 63 -100v-188q0 -51 14 -65q13 -13 59 -13h23v-64h-37z" />
    <glyph glyph-name="bar" unicode="|" horiz-adv-x="326" 
d="M127 -74v860h72v-860h-72z" />
    <glyph glyph-name="braceright" unicode="}" horiz-adv-x="354" 
d="M280 324q-27 0 -45 -18t-18 -60v-191q0 -69 -30 -99t-101 -30h-38v64h24q45 0 58 13q15 15 15 65v188q0 70 63 100q-63 30 -63 100v188q0 50 -15 65q-13 13 -58 13h-24v64h38q71 0 101 -30t30 -99v-191q0 -42 18 -60t45 -18h25v-64h-25z" />
    <glyph glyph-name="asciitilde" unicode="~" horiz-adv-x="539" 
d="M421 223q-25 -13 -60 -13q-37 0 -106 31q-52 24 -78 24q-39 0 -84 -45l-44 45q41 41 69 55q25 13 60 13q36 0 105 -31q52 -24 78 -24q39 0 84 45l45 -45q-41 -41 -69 -55z" />
    <glyph glyph-name="uni00A0" unicode="&#xa0;" horiz-adv-x="249" 
 />
    <glyph glyph-name="exclamdown" unicode="&#xa1;" horiz-adv-x="316" 
d="M99 408v84h86v-84h-86zM101 -220l10 512h62l11 -512h-83z" />
    <glyph glyph-name="cent" unicode="&#xa2;" horiz-adv-x="498" 
d="M303 115v-115h-59v117q-84 12 -132 77q-49 66 -49 172t49 173q48 64 132 76v97h59v-95q82 -6 145 -74l-49 -46q-45 51 -100 55v-372q55 4 100 55l49 -46q-63 -68 -145 -74zM248 550q-49 -9 -80 -52q-33 -46 -33 -132t33 -132q31 -43 80 -52v368z" />
    <glyph glyph-name="sterling" unicode="&#xa3;" horiz-adv-x="548" 
d="M110 0v330h-63v54h63v112q0 101 63 162q61 60 160 60t163 -64l-52 -51q-47 47 -111 47q-70 0 -108 -43q-38 -42 -38 -121v-102h146v-54h-146v-262h309v-68h-386z" />
    <glyph glyph-name="currency" unicode="&#xa4;" horiz-adv-x="660" 
d="M536 19l-75 74q-59 -44 -131 -44q-73 0 -132 44l-74 -74l-46 46l74 74q-44 59 -44 132t44 132l-74 73l46 46l74 -73q57 43 132 43q74 0 131 -43l75 73l46 -46l-74 -73q44 -59 44 -132t-44 -132l74 -74zM440 381q-45 45 -110 45t-110 -45q-46 -46 -46 -110t46 -110
t110 -46t110 46q45 45 45 110t-45 110z" />
    <glyph glyph-name="yen" unicode="&#xa5;" horiz-adv-x="514" 
d="M349 401h100v-54h-127l-26 -53v-52h153v-55h-153v-187h-77v187h-154v55h154v52l-26 53h-128v54h100l-157 311h82l168 -341l167 341h81z" />
    <glyph glyph-name="brokenbar" unicode="&#xa6;" horiz-adv-x="335" 
d="M127 436v350h72v-350h-72zM127 -74v350h72v-350h-72z" />
    <glyph glyph-name="section" unicode="&#xa7;" horiz-adv-x="557" 
d="M438 151q-28 -39 -72 -61q97 -36 97 -144q0 -77 -53 -125q-52 -47 -131 -47q-78 0 -129 40q-56 44 -60 121h73q9 -95 116 -95q52 0 81 27q30 28 30 78q0 77 -88 102l-78 22q-137 39 -137 183q0 58 32 103q28 39 73 61q-93 42 -93 138q0 73 51 118q50 46 129 46t129 -42
q50 -43 53 -115h-72q-7 93 -110 93q-108 0 -108 -99q0 -72 84 -96l78 -22q65 -19 101 -67t36 -116q0 -57 -32 -103zM365 345q-36 36 -86 36q-53 0 -86 -36t-33 -92t33 -92t86 -36t86 36q32 35 32 92q0 60 -32 92z" />
    <glyph glyph-name="dieresis" unicode="&#xa8;" horiz-adv-x="500" 
d="M320 602v89h72v-89h-72zM108 602v89h72v-89h-72z" />
    <glyph glyph-name="copyright" unicode="&#xa9;" horiz-adv-x="881" 
d="M696 100q-106 -106 -256 -106t-256 106t-106 256t106 256t256 106t256 -106t106 -256t-106 -256zM655 573q-89 91 -215 91t-214 -91q-89 -90 -89 -217t89 -217q88 -91 214 -91t215 91q89 90 89 217t-89 217zM445 153q-85 0 -132 58q-46 54 -46 145t46 146q47 58 132 58
q71 0 131 -53l-36 -36q-44 39 -95 39q-122 0 -122 -154q0 -153 122 -153q52 0 95 38l36 -36q-58 -52 -131 -52z" />
    <glyph glyph-name="ordfeminine" unicode="&#xaa;" horiz-adv-x="449" 
d="M307 319v36q-42 -41 -111 -41q-74 0 -110 36q-30 32 -30 79q0 53 35 83q36 31 100 31h115v36q0 84 -97 84q-66 0 -98 -44l-41 37q47 60 140 60q155 0 155 -132v-265h-58zM306 498h-107q-84 0 -84 -67q0 -65 86 -65q60 0 86 25q19 18 19 67v40z" />
    <glyph glyph-name="guillemotleft" unicode="&#xab;" horiz-adv-x="554" 
d="M266 268l210 210v-90l-121 -120l121 -121v-89zM40 268l210 210v-90l-120 -120l120 -121v-89z" />
    <glyph glyph-name="logicalnot" unicode="&#xac;" 
d="M404 103v137h-353v67h420v-204h-67z" />
    <glyph glyph-name="registered" unicode="&#xae;" horiz-adv-x="881" 
d="M696 100q-106 -106 -256 -106t-256 106t-106 256t106 256t256 106t256 -106t106 -256t-106 -256zM656 574q-90 91 -216 91t-215 -91q-89 -90 -89 -218t89 -218q89 -91 215 -91t216 91q89 90 89 218t-89 218zM528 158l-91 162h-60v-162h-55v397h135q52 0 88 -34
q37 -35 37 -85q0 -83 -85 -109l95 -169h-64zM505 486q-21 20 -54 20h-74v-139h74q33 0 54 20q21 19 21 49t-21 50z" />
    <glyph glyph-name="macron" unicode="&#xaf;" horiz-adv-x="500" 
d="M99 614v57h302v-57h-302z" />
    <glyph glyph-name="degree" unicode="&#xb0;" horiz-adv-x="463" 
d="M348 441q-48 -48 -116 -48t-117 48q-48 48 -48 116t48 116q49 48 117 48t116 -48t48 -116t-48 -116zM305 633q-30 30 -74 30t-74 -30q-29 -31 -29 -76t30 -75q30 -31 74 -31t74 31q29 30 29 75t-30 76z" />
    <glyph glyph-name="plusminus" unicode="&#xb1;" 
d="M295 289v-177h-67v177h-176v67h176v175h67v-175h175v-67h-175zM52 0v67h418v-67h-418z" />
    <glyph glyph-name="uni00B2" unicode="&#xb2;" horiz-adv-x="342" 
d="M48 285v52l165 202q23 29 23 58q0 67 -65 67t-65 -67h-58q0 54 35 87q34 32 88 32q55 0 89 -32q34 -33 34 -87q0 -44 -39 -92l-138 -168h177v-52h-246z" />
    <glyph glyph-name="uni00B3" unicode="&#xb3;" horiz-adv-x="356" 
d="M270 312q-35 -32 -91 -32q-55 0 -90 29q-39 32 -41 90h58q3 -67 73 -67q32 0 51 19q21 20 21 54q0 73 -75 73h-9v50h9q68 0 68 68q0 32 -19 51q-19 17 -47 17q-62 0 -67 -63h-57q3 53 38 85q35 30 86 30q54 0 89 -33q34 -33 34 -86q0 -67 -54 -92q61 -26 61 -100
q0 -59 -38 -93z" />
    <glyph glyph-name="acute" unicode="&#xb4;" horiz-adv-x="500" 
d="M267 594h-66l88 153h86z" />
    <glyph glyph-name="mu" unicode="&#xb5;" horiz-adv-x="561" 
d="M399 0v55q-53 -61 -138 -61q-66 0 -106 37v-251h-72v712h72v-303q0 -131 121 -131q57 0 89 33q34 35 34 98v303h72v-492h-72z" />
    <glyph glyph-name="paragraph" unicode="&#xb6;" horiz-adv-x="603" 
d="M428 -220v864h-117v-864h-72v546q-87 0 -143 59q-54 56 -54 133q0 83 57 137q60 57 160 57h241v-932h-72z" />
    <glyph glyph-name="periodcentered" unicode="&#xb7;" horiz-adv-x="270" 
d="M88 223v94h94v-94h-94z" />
    <glyph glyph-name="cedilla" unicode="&#xb8;" horiz-adv-x="500" 
d="M254 -216h-79l71 149h67z" />
    <glyph glyph-name="uni00B9" unicode="&#xb9;" horiz-adv-x="261" 
d="M126 285v363l-83 -73v66l83 71h57v-427h-57z" />
    <glyph glyph-name="ordmasculine" unicode="&#xba;" horiz-adv-x="455" 
d="M339 359q-44 -44 -112 -44t-112 44q-48 49 -48 156t48 156q45 45 112 45t112 -45q48 -49 48 -156t-48 -156zM323 580q-7 35 -26 54q-28 28 -70 28t-70 -28q-19 -19 -25 -54q-5 -23 -5 -65q0 -41 5 -65q6 -34 25 -53q29 -29 70 -29t70 29q19 19 26 53q5 25 5 65
q0 41 -5 65z" />
    <glyph glyph-name="guillemotright" unicode="&#xbb;" horiz-adv-x="554" 
d="M304 58v89l120 121l-120 120v90l210 -210zM78 58v89l121 121l-121 120v90l210 -210z" />
    <glyph glyph-name="onequarter" unicode="&#xbc;" horiz-adv-x="777" 
d="M690 64v-64h-56v64h-172v53l151 310h62l-150 -310h109v105h56v-105h47v-53h-47zM233 0h-60l333 712h60zM126 285v363l-83 -73v66l83 71h57v-427h-57z" />
    <glyph glyph-name="onehalf" unicode="&#xbd;" horiz-adv-x="790" 
d="M496 0v52l165 202q23 29 23 58q0 67 -65 67t-65 -67h-58q0 54 35 87q34 32 88 32q55 0 89 -32q34 -33 34 -87q0 -44 -39 -92l-137 -168h176v-52h-246zM221 0h-60l333 712h60zM126 285v363l-83 -73v66l83 71h57v-427h-57z" />
    <glyph glyph-name="threequarters" unicode="&#xbe;" horiz-adv-x="822" 
d="M735 64v-64h-56v64h-172v53l151 310h62l-151 -310h110v105h56v-105h47v-53h-47zM285 0h-60l334 712h60zM270 312q-35 -32 -91 -32q-55 0 -90 29q-39 32 -41 90h58q3 -67 73 -67q32 0 51 19q21 20 21 54q0 73 -75 73h-9v50h9q68 0 68 68q0 32 -19 51q-19 17 -47 17
q-62 0 -67 -63h-57q3 53 38 85q35 30 86 30q54 0 89 -33q34 -33 34 -86q0 -67 -54 -92q61 -26 61 -100q0 -59 -38 -93z" />
    <glyph glyph-name="questiondown" unicode="&#xbf;" horiz-adv-x="497" 
d="M185 408v84h85v-84h-85zM421 -43q0 -77 -53 -130q-54 -53 -134 -53t-133 51q-55 53 -55 132q0 53 46 120l82 118q18 27 18 58v40h72v-41q0 -48 -32 -94l-81 -116q-33 -49 -33 -85q0 -50 33 -84t83 -34q52 0 84 35q31 34 31 83h72z" />
    <glyph glyph-name="Agrave" unicode="&#xc0;" horiz-adv-x="611" 
d="M518 0l-57 161h-311l-57 -161h-81l262 712h64l261 -712h-81zM307 603l-134 -376h266zM285 781l-108 153h86l88 -153h-66z" />
    <glyph glyph-name="Aacute" unicode="&#xc1;" horiz-adv-x="611" 
d="M518 0l-57 161h-311l-57 -161h-81l262 712h64l261 -712h-81zM307 603l-134 -376h266zM319 781h-66l88 153h86z" />
    <glyph glyph-name="Acircumflex" unicode="&#xc2;" horiz-adv-x="611" 
d="M518 0l-57 161h-311l-57 -161h-81l262 712h64l261 -712h-81zM307 603l-134 -376h266zM392 781l-90 104l-90 -104h-69l125 153h68l125 -153h-69z" />
    <glyph glyph-name="Atilde" unicode="&#xc3;" horiz-adv-x="611" 
d="M518 0l-57 161h-311l-57 -161h-81l262 712h64l261 -712h-81zM307 603l-134 -376h266zM364 795q-32 0 -71 23q-36 21 -56 21q-27 0 -59 -32l-37 36q51 51 95 51q31 0 71 -24q32 -20 56 -20q27 0 59 32l37 -36q-51 -51 -95 -51z" />
    <glyph glyph-name="Adieresis" unicode="&#xc4;" horiz-adv-x="611" 
d="M518 0l-57 161h-311l-57 -161h-81l262 712h64l261 -712h-81zM307 603l-134 -376h266zM372 789v89h72v-89h-72zM160 789v89h72v-89h-72z" />
    <glyph glyph-name="Aring" unicode="&#xc5;" horiz-adv-x="611" 
d="M518 0l-57 161h-311l-57 -161h-81l262 712h64l261 -712h-81zM307 603l-134 -376h266zM385 783q-34 -35 -83 -35t-83 35q-35 35 -35 84t35 83q34 35 83 35t83 -34q35 -35 35 -84t-35 -84zM351 915q-20 20 -49 20t-49 -20t-20 -48t20 -49q21 -20 49 -20q29 0 49 20
q20 21 20 49t-20 48z" />
    <glyph glyph-name="AE" unicode="&#xc6;" horiz-adv-x="922" 
d="M426 0v169h-247l-88 -169h-83l376 712h483v-68h-366v-253h312v-68h-312v-255h366v-68h-441zM426 644l-214 -409h214v409z" />
    <glyph glyph-name="Ccedilla" unicode="&#xc7;" horiz-adv-x="637" 
d="M572 206q-17 -99 -84 -156q-67 -56 -163 -56q-108 0 -182 74q-46 46 -59 113q-8 44 -8 175t8 176q13 66 59 112q74 74 182 74q97 0 163 -56t84 -156h-78q-14 66 -58 105q-45 39 -111 39q-75 0 -123 -50q-32 -33 -42 -83q-8 -44 -8 -161t8 -161q10 -50 42 -83
q48 -50 123 -50q66 0 112 39q45 39 59 105h76zM311 -216h-79l71 149h67z" />
    <glyph glyph-name="Egrave" unicode="&#xc8;" horiz-adv-x="600" 
d="M103 0v712h442v-68h-366v-251h312v-68h-312v-257h366v-68h-442zM296 781l-108 153h86l88 -153h-66z" />
    <glyph glyph-name="Eacute" unicode="&#xc9;" horiz-adv-x="600" 
d="M103 0v712h442v-68h-366v-251h312v-68h-312v-257h366v-68h-442zM330 781h-66l88 153h86z" />
    <glyph glyph-name="Ecircumflex" unicode="&#xca;" horiz-adv-x="600" 
d="M103 0v712h442v-68h-366v-251h312v-68h-312v-257h366v-68h-442zM403 781l-90 104l-90 -104h-69l125 153h68l125 -153h-69z" />
    <glyph glyph-name="Edieresis" unicode="&#xcb;" horiz-adv-x="600" 
d="M103 0v712h442v-68h-366v-251h312v-68h-312v-257h366v-68h-442zM383 789v89h72v-89h-72zM171 789v89h72v-89h-72z" />
    <glyph glyph-name="Igrave" unicode="&#xcc;" horiz-adv-x="282" 
d="M31 0v712h76v-712h-76zM139 781l-108 153h86l88 -153h-66z" />
    <glyph glyph-name="Iacute" unicode="&#xcd;" horiz-adv-x="282" 
d="M79 0v712h76v-712h-76zM145 781h-66l88 153h86z" />
    <glyph glyph-name="Icircumflex" unicode="&#xce;" horiz-adv-x="282" 
d="M-20 0v712h76v-712h-76zM229 781l-90 104l-90 -104h-69l125 153h68l125 -153h-69z" />
    <glyph glyph-name="Idieresis" unicode="&#xcf;" horiz-adv-x="282" 
d="M-2 0v712h76v-712h-76zM210 789v89h72v-89h-72zM-2 789v89h72v-89h-72z" />
    <glyph glyph-name="Eth" unicode="&#xd0;" horiz-adv-x="687" 
d="M603 190q-8 -45 -36 -85q-75 -105 -211 -105h-239v330h-78v59h78v323h245q135 0 205 -107q30 -46 37 -90q7 -40 7 -159q0 -122 -8 -166zM530 495q-7 44 -31 78q-53 72 -151 72h-154v-256h161v-59h-161v-263h154q106 0 156 74q21 32 26 70q5 34 5 141t-5 143z" />
    <glyph glyph-name="Ntilde" unicode="&#xd1;" horiz-adv-x="732" 
d="M557 0l-378 571v-571h-76v712h72l378 -569v569h76v-712h-72zM428 795q-32 0 -71 23q-36 21 -56 21q-27 0 -59 -32l-37 36q51 51 95 51q31 0 71 -24q32 -20 56 -20q27 0 59 32l37 -36q-51 -51 -95 -51z" />
    <glyph glyph-name="Ograve" unicode="&#xd2;" horiz-adv-x="650" 
d="M566 181q-13 -67 -59 -113q-74 -74 -182 -74t-182 74q-46 46 -59 113q-8 44 -8 175t8 176q13 66 59 112q74 74 182 74t182 -74q46 -46 59 -112q8 -45 8 -176t-8 -175zM490 516q-10 50 -42 83q-49 51 -123 51t-123 -51q-32 -33 -42 -83q-8 -43 -8 -160t8 -160
q10 -50 42 -83q49 -51 123 -51t123 51q32 33 42 83q8 43 8 160t-8 160zM308 781l-108 153h86l88 -153h-66z" />
    <glyph glyph-name="Oacute" unicode="&#xd3;" horiz-adv-x="650" 
d="M566 181q-13 -67 -59 -113q-74 -74 -182 -74t-182 74q-46 46 -59 113q-8 44 -8 175t8 176q13 66 59 112q74 74 182 74t182 -74q46 -46 59 -112q8 -45 8 -176t-8 -175zM490 516q-10 50 -42 83q-49 51 -123 51t-123 -51q-32 -33 -42 -83q-8 -43 -8 -160t8 -160
q10 -50 42 -83q49 -51 123 -51t123 51q32 33 42 83q8 43 8 160t-8 160zM342 781h-66l88 153h86z" />
    <glyph glyph-name="Ocircumflex" unicode="&#xd4;" horiz-adv-x="650" 
d="M566 181q-13 -67 -59 -113q-74 -74 -182 -74t-182 74q-46 46 -59 113q-8 44 -8 175t8 176q13 66 59 112q74 74 182 74t182 -74q46 -46 59 -112q8 -45 8 -176t-8 -175zM490 516q-10 50 -42 83q-49 51 -123 51t-123 -51q-32 -33 -42 -83q-8 -43 -8 -160t8 -160
q10 -50 42 -83q49 -51 123 -51t123 51q32 33 42 83q8 43 8 160t-8 160zM415 781l-90 104l-90 -104h-69l125 153h68l125 -153h-69z" />
    <glyph glyph-name="Otilde" unicode="&#xd5;" horiz-adv-x="650" 
d="M566 181q-13 -67 -59 -113q-74 -74 -182 -74t-182 74q-46 46 -59 113q-8 44 -8 175t8 176q13 66 59 112q74 74 182 74t182 -74q46 -46 59 -112q8 -45 8 -176t-8 -175zM490 516q-10 50 -42 83q-49 51 -123 51t-123 -51q-32 -33 -42 -83q-8 -43 -8 -160t8 -160
q10 -50 42 -83q49 -51 123 -51t123 51q32 33 42 83q8 43 8 160t-8 160zM387 795q-32 0 -71 23q-36 21 -56 21q-27 0 -59 -32l-37 36q51 51 95 51q31 0 71 -24q32 -20 56 -20q27 0 59 32l37 -36q-51 -51 -95 -51z" />
    <glyph glyph-name="Odieresis" unicode="&#xd6;" horiz-adv-x="650" 
d="M566 181q-13 -67 -59 -113q-74 -74 -182 -74t-182 74q-46 46 -59 113q-8 44 -8 175t8 176q13 66 59 112q74 74 182 74t182 -74q46 -46 59 -112q8 -45 8 -176t-8 -175zM490 516q-10 50 -42 83q-49 51 -123 51t-123 -51q-32 -33 -42 -83q-8 -43 -8 -160t8 -160
q10 -50 42 -83q49 -51 123 -51t123 51q32 33 42 83q8 43 8 160t-8 160zM395 789v89h72v-89h-72zM183 789v89h72v-89h-72z" />
    <glyph glyph-name="multiply" unicode="&#xd7;" 
d="M412 74l-151 151l-151 -151l-45 45l151 151l-151 151l45 45l151 -152l151 152l45 -45l-152 -151l152 -151z" />
    <glyph glyph-name="Oslash" unicode="&#xd8;" horiz-adv-x="652" 
d="M566 181q-13 -67 -59 -113q-74 -74 -182 -74q-70 0 -126 32l-33 -70h-65l50 104l-8 8q-46 46 -59 113q-8 44 -8 175t8 176q13 66 59 112q74 74 182 74q70 0 125 -31l34 69h65l-50 -104l4 -4l4 -4q46 -46 59 -112q8 -45 8 -176t-8 -175zM492 502q-7 49 -29 79l-234 -490
q45 -29 96 -29q74 0 123 51q32 33 41 83q8 42 8 160q0 105 -5 146zM325 650q-74 0 -123 -51q-32 -33 -42 -83q-8 -43 -8 -160q0 -178 35 -225l234 490q-45 29 -96 29z" />
    <glyph glyph-name="Ugrave" unicode="&#xd9;" horiz-adv-x="682" 
d="M590 235q0 -106 -70 -174q-71 -67 -179 -67t-178 67q-70 68 -70 174v477h76v-471q0 -81 47 -130t125 -49t126 49q47 49 47 130v471h76v-477zM324 781l-108 153h86l88 -153h-66z" />
    <glyph glyph-name="Uacute" unicode="&#xda;" horiz-adv-x="682" 
d="M590 235q0 -106 -70 -174q-71 -67 -179 -67t-178 67q-70 68 -70 174v477h76v-471q0 -81 47 -130t125 -49t126 49q47 49 47 130v471h76v-477zM358 781h-66l88 153h86z" />
    <glyph glyph-name="Ucircumflex" unicode="&#xdb;" horiz-adv-x="682" 
d="M590 235q0 -106 -70 -174q-71 -67 -179 -67t-178 67q-70 68 -70 174v477h76v-471q0 -81 47 -130t125 -49t126 49q47 49 47 130v471h76v-477zM431 781l-90 104l-90 -104h-69l125 153h68l125 -153h-69z" />
    <glyph glyph-name="Udieresis" unicode="&#xdc;" horiz-adv-x="682" 
d="M590 235q0 -106 -70 -174q-71 -67 -179 -67t-178 67q-70 68 -70 174v477h76v-471q0 -81 47 -130t125 -49t126 49q47 49 47 130v471h76v-477zM411 789v89h72v-89h-72zM199 789v89h72v-89h-72z" />
    <glyph glyph-name="Yacute" unicode="&#xdd;" horiz-adv-x="515" 
d="M296 294v-294h-76v294l-212 418h82l168 -341l166 341h82zM274 781h-66l88 153h86z" />
    <glyph glyph-name="Thorn" unicode="&#xde;" horiz-adv-x="642" 
d="M527 207q-61 -57 -159 -57h-189v-150h-76v712h76v-143h189q98 0 159 -57q61 -58 61 -153t-61 -152zM470 465q-40 35 -109 35h-182v-282h182q69 0 109 35q42 37 42 106t-42 106z" />
    <glyph glyph-name="germandbls" unicode="&#xdf;" horiz-adv-x="556" 
d="M484 141q0 -69 -39 -105t-103 -36h-54v62h40q35 0 59 20q25 20 25 67v169q0 41 -21 62t-59 21h-44v60h36q39 0 64 25q24 24 24 66q0 46 -31 75q-30 29 -94 29q-124 0 -124 -135v-521h-73v524q0 93 54 144t147 51q85 0 136 -40q57 -44 57 -126q0 -78 -63 -119
q36 -19 50 -46q13 -26 13 -74v-173z" />
    <glyph glyph-name="agrave" unicode="&#xe0;" horiz-adv-x="526" 
d="M369 0v47q-53 -53 -142 -53q-95 0 -139 45q-37 37 -37 100q0 66 44 103q45 39 126 39h148v47q0 108 -126 108q-84 0 -124 -56l-49 45q32 41 74 58q38 15 100 15q197 0 197 -164v-334h-72zM369 227h-138q-110 0 -110 -87q0 -84 113 -84q76 0 110 33q25 24 25 85v53z
M235 594l-108 153h86l88 -153h-66z" />
    <glyph glyph-name="aacute" unicode="&#xe1;" horiz-adv-x="526" 
d="M369 0v47q-53 -53 -142 -53q-95 0 -139 45q-37 37 -37 100q0 66 44 103q45 39 126 39h148v47q0 108 -126 108q-84 0 -124 -56l-49 45q32 41 74 58q38 15 100 15q197 0 197 -164v-334h-72zM369 227h-138q-110 0 -110 -87q0 -84 113 -84q76 0 110 33q25 24 25 85v53z
M269 594h-66l88 153h86z" />
    <glyph glyph-name="acircumflex" unicode="&#xe2;" horiz-adv-x="526" 
d="M369 0v47q-53 -53 -142 -53q-95 0 -139 45q-37 37 -37 100q0 66 44 103q45 39 126 39h148v47q0 108 -126 108q-84 0 -124 -56l-49 45q32 41 74 58q38 15 100 15q197 0 197 -164v-334h-72zM369 227h-138q-110 0 -110 -87q0 -84 113 -84q76 0 110 33q25 24 25 85v53z
M342 594l-90 104l-90 -104h-69l125 153h68l125 -153h-69z" />
    <glyph glyph-name="atilde" unicode="&#xe3;" horiz-adv-x="526" 
d="M369 0v47q-53 -53 -142 -53q-95 0 -139 45q-37 37 -37 100q0 66 44 103q45 39 126 39h148v47q0 108 -126 108q-84 0 -124 -56l-49 45q32 41 74 58q38 15 100 15q197 0 197 -164v-334h-72zM369 227h-138q-110 0 -110 -87q0 -84 113 -84q76 0 110 33q25 24 25 85v53z
M314 608q-32 0 -71 23q-36 21 -56 21q-27 0 -59 -32l-37 36q51 51 95 51q31 0 71 -24q32 -20 56 -20q27 0 59 32l37 -36q-51 -51 -95 -51z" />
    <glyph glyph-name="adieresis" unicode="&#xe4;" horiz-adv-x="526" 
d="M369 0v47q-53 -53 -142 -53q-95 0 -139 45q-37 37 -37 100q0 66 44 103q45 39 126 39h148v47q0 108 -126 108q-84 0 -124 -56l-49 45q32 41 74 58q38 15 100 15q197 0 197 -164v-334h-72zM369 227h-138q-110 0 -110 -87q0 -84 113 -84q76 0 110 33q25 24 25 85v53z
M322 602v89h72v-89h-72zM110 602v89h72v-89h-72z" />
    <glyph glyph-name="aring" unicode="&#xe5;" horiz-adv-x="526" 
d="M369 0v47q-53 -53 -142 -53q-95 0 -139 45q-37 37 -37 100q0 66 44 103q45 39 126 39h148v47q0 108 -126 108q-84 0 -124 -56l-49 45q32 41 74 58q38 15 100 15q197 0 197 -164v-334h-72zM369 227h-138q-110 0 -110 -87q0 -84 113 -84q76 0 110 33q25 24 25 85v53z
M335 603q-34 -35 -83 -35t-83 35q-35 35 -35 84t35 83q34 35 83 35t83 -34q35 -35 35 -84t-35 -84zM301 735q-20 20 -49 20t-49 -20t-20 -48t20 -49q21 -20 49 -20q29 0 49 20q20 21 20 49t-20 48z" />
    <glyph glyph-name="ae" unicode="&#xe6;" horiz-adv-x="835" 
d="M440 227q0 -81 38 -125q38 -45 108 -45q72 0 128 56l50 -43q-76 -76 -182 -76q-122 0 -175 85q-33 -47 -75 -66q-40 -19 -105 -19q-95 0 -139 45q-37 37 -37 100q0 66 44 103q45 39 126 39h148v47q0 108 -126 108q-84 0 -124 -56l-49 45q32 41 74 58q38 15 100 15
q132 0 173 -77q52 77 154 77q95 0 149 -64q53 -64 53 -174v-33h-333zM701 281q-3 52 -15 82q-31 74 -115 74t-115 -74q-14 -33 -16 -82h261zM369 227h-138q-110 0 -110 -87q0 -84 113 -84q76 0 110 33q25 24 25 85v53z" />
    <glyph glyph-name="ccedilla" unicode="&#xe7;" horiz-adv-x="494" 
d="M281 -6q-97 0 -155 63q-63 67 -63 189t63 189q58 63 155 63q94 0 162 -73l-49 -46q-50 55 -113 55q-75 0 -114 -56q-32 -45 -32 -132t32 -132q39 -56 114 -56q62 0 113 56l49 -47q-68 -73 -162 -73zM254 -216h-79l71 149h67z" />
    <glyph glyph-name="egrave" unicode="&#xe8;" horiz-adv-x="530" 
d="M135 227q0 -81 37 -125q38 -45 108 -45q73 0 129 56l49 -43q-76 -76 -180 -76q-101 0 -156 61q-59 64 -59 191q0 119 54 186q54 66 148 66q95 0 149 -64q53 -64 53 -174v-33h-332zM395 281q-3 52 -15 82q-31 74 -115 74t-115 -74q-12 -30 -15 -82h260zM251 594l-108 153
h86l88 -153h-66z" />
    <glyph glyph-name="eacute" unicode="&#xe9;" horiz-adv-x="530" 
d="M135 227q0 -81 37 -125q38 -45 108 -45q73 0 129 56l49 -43q-76 -76 -180 -76q-101 0 -156 61q-59 64 -59 191q0 119 54 186q54 66 148 66q95 0 149 -64q53 -64 53 -174v-33h-332zM395 281q-3 52 -15 82q-31 74 -115 74t-115 -74q-12 -30 -15 -82h260zM285 594h-66
l88 153h86z" />
    <glyph glyph-name="ecircumflex" unicode="&#xea;" horiz-adv-x="530" 
d="M135 227q0 -81 37 -125q38 -45 108 -45q73 0 129 56l49 -43q-76 -76 -180 -76q-101 0 -156 61q-59 64 -59 191q0 119 54 186q54 66 148 66q95 0 149 -64q53 -64 53 -174v-33h-332zM395 281q-3 52 -15 82q-31 74 -115 74t-115 -74q-12 -30 -15 -82h260zM358 594l-90 104
l-90 -104h-69l125 153h68l125 -153h-69z" />
    <glyph glyph-name="edieresis" unicode="&#xeb;" horiz-adv-x="530" 
d="M135 227q0 -81 37 -125q38 -45 108 -45q73 0 129 56l49 -43q-76 -76 -180 -76q-101 0 -156 61q-59 64 -59 191q0 119 54 186q54 66 148 66q95 0 149 -64q53 -64 53 -174v-33h-332zM395 281q-3 52 -15 82q-31 74 -115 74t-115 -74q-12 -30 -15 -82h260zM338 602v89h72v-89
h-72zM126 602v89h72v-89h-72z" />
    <glyph glyph-name="igrave" unicode="&#xec;" horiz-adv-x="253" 
d="M18 0v492h72v-492h-72zM126 594l-108 153h86l88 -153h-66z" />
    <glyph glyph-name="iacute" unicode="&#xed;" horiz-adv-x="253" 
d="M66 0v492h72v-492h-72zM132 594h-66l88 153h86z" />
    <glyph glyph-name="icircumflex" unicode="&#xee;" horiz-adv-x="253" 
d="M-33 0v492h72v-492h-72zM216 594l-90 104l-90 -104h-69l125 153h68l125 -153h-69z" />
    <glyph glyph-name="idieresis" unicode="&#xef;" horiz-adv-x="253" 
d="M-18 0v492h72v-492h-72zM194 602v89h72v-89h-72zM-18 602v89h72v-89h-72z" />
    <glyph glyph-name="eth" unicode="&#xf0;" horiz-adv-x="530" 
d="M405 49q-53 -55 -140 -55t-140 55q-59 59 -59 195t59 195q46 47 122 52q49 2 75 -10l-58 99h-116v52h88l-47 82h75l47 -82h82v-52h-54l63 -111q63 -111 63 -225q0 -135 -60 -195zM387 327q-9 44 -33 68q-36 36 -89 36q-52 0 -88 -36q-24 -24 -33 -68q-6 -31 -6 -83t6 -82
q9 -44 33 -68q36 -36 88 -36q53 0 89 36q24 24 33 68q6 30 6 82t-6 83z" />
    <glyph glyph-name="ntilde" unicode="&#xf1;" horiz-adv-x="562" 
d="M405 0v303q0 131 -121 131q-57 0 -89 -33q-33 -35 -33 -98v-303h-72v492h72v-54q53 60 138 60q80 0 126 -46q51 -50 51 -137v-315h-72zM347 608q-32 0 -71 23q-36 21 -56 21q-27 0 -59 -32l-37 36q51 51 95 51q31 0 71 -24q32 -20 56 -20q27 0 59 32l37 -36
q-51 -51 -95 -51z" />
    <glyph glyph-name="ograve" unicode="&#xf2;" horiz-adv-x="530" 
d="M406 50q-56 -56 -141 -56t-141 56q-60 61 -60 196t60 196q56 56 141 56t141 -56q60 -61 60 -196t-60 -196zM388 329q-9 45 -33 69q-36 36 -90 36q-53 0 -89 -36q-24 -24 -33 -69q-7 -31 -7 -83t7 -83q9 -45 33 -69q36 -36 89 -36q54 0 90 36q24 24 33 69q6 30 6 83t-6 83
zM238 594l-108 153h86l88 -153h-66z" />
    <glyph glyph-name="oacute" unicode="&#xf3;" horiz-adv-x="530" 
d="M406 50q-56 -56 -141 -56t-141 56q-60 61 -60 196t60 196q56 56 141 56t141 -56q60 -61 60 -196t-60 -196zM388 329q-9 45 -33 69q-36 36 -90 36q-53 0 -89 -36q-24 -24 -33 -69q-7 -31 -7 -83t7 -83q9 -45 33 -69q36 -36 89 -36q54 0 90 36q24 24 33 69q6 30 6 83t-6 83
zM282 594h-66l88 153h86z" />
    <glyph glyph-name="ocircumflex" unicode="&#xf4;" horiz-adv-x="530" 
d="M406 50q-56 -56 -141 -56t-141 56q-60 61 -60 196t60 196q56 56 141 56t141 -56q60 -61 60 -196t-60 -196zM388 329q-9 45 -33 69q-36 36 -90 36q-53 0 -89 -36q-24 -24 -33 -69q-7 -31 -7 -83t7 -83q9 -45 33 -69q36 -36 89 -36q54 0 90 36q24 24 33 69q6 30 6 83t-6 83
zM355 594l-90 104l-90 -104h-69l125 153h68l125 -153h-69z" />
    <glyph glyph-name="otilde" unicode="&#xf5;" horiz-adv-x="530" 
d="M406 50q-56 -56 -141 -56t-141 56q-60 61 -60 196t60 196q56 56 141 56t141 -56q60 -61 60 -196t-60 -196zM388 329q-9 45 -33 69q-36 36 -90 36q-53 0 -89 -36q-24 -24 -33 -69q-7 -31 -7 -83t7 -83q9 -45 33 -69q36 -36 89 -36q54 0 90 36q24 24 33 69q6 30 6 83t-6 83
zM327 608q-32 0 -71 23q-36 21 -56 21q-27 0 -59 -32l-37 36q51 51 95 51q31 0 71 -24q32 -20 56 -20q27 0 59 32l37 -36q-51 -51 -95 -51z" />
    <glyph glyph-name="odieresis" unicode="&#xf6;" horiz-adv-x="530" 
d="M406 50q-56 -56 -141 -56t-141 56q-60 61 -60 196t60 196q56 56 141 56t141 -56q60 -61 60 -196t-60 -196zM388 329q-9 45 -33 69q-36 36 -90 36q-53 0 -89 -36q-24 -24 -33 -69q-7 -31 -7 -83t7 -83q9 -45 33 -69q36 -36 89 -36q54 0 90 36q24 24 33 69q6 30 6 83t-6 83
zM335 602v89h72v-89h-72zM123 602v89h72v-89h-72z" />
    <glyph glyph-name="divide" unicode="&#xf7;" 
d="M218 404v86h86v-86h-86zM51 236v67h420v-67h-420zM218 49v86h86v-86h-86z" />
    <glyph glyph-name="oslash" unicode="&#xf8;" horiz-adv-x="530" 
d="M406 50q-56 -56 -141 -56q-59 0 -105 27l-38 -65h-57l57 96q-58 60 -58 194q0 135 60 196q56 56 141 56q59 0 105 -27l39 65h56l-57 -96q58 -60 58 -194q0 -135 -60 -196zM370 379l-177 -299q31 -22 72 -22q54 0 90 36q24 24 33 69q6 30 6 83q0 94 -24 133zM265 434
q-53 0 -89 -36q-24 -24 -33 -69q-7 -31 -7 -83q0 -92 25 -133l176 300q-30 21 -72 21z" />
    <glyph glyph-name="ugrave" unicode="&#xf9;" horiz-adv-x="563" 
d="M401 0v55q-53 -61 -139 -61q-81 0 -127 46q-50 49 -50 138v314h72v-303q0 -131 120 -131q57 0 89 33q34 35 34 98v303h72v-492h-71zM261 594l-108 153h86l88 -153h-66z" />
    <glyph glyph-name="uacute" unicode="&#xfa;" horiz-adv-x="563" 
d="M401 0v55q-53 -61 -139 -61q-81 0 -127 46q-50 49 -50 138v314h72v-303q0 -131 120 -131q57 0 89 33q34 35 34 98v303h72v-492h-71zM295 594h-66l88 153h86z" />
    <glyph glyph-name="ucircumflex" unicode="&#xfb;" horiz-adv-x="563" 
d="M401 0v55q-53 -61 -139 -61q-81 0 -127 46q-50 49 -50 138v314h72v-303q0 -131 120 -131q57 0 89 33q34 35 34 98v303h72v-492h-71zM368 594l-90 104l-90 -104h-69l125 153h68l125 -153h-69z" />
    <glyph glyph-name="udieresis" unicode="&#xfc;" horiz-adv-x="563" 
d="M401 0v55q-53 -61 -139 -61q-81 0 -127 46q-50 49 -50 138v314h72v-303q0 -131 120 -131q57 0 89 33q34 35 34 98v303h72v-492h-71zM348 602v89h72v-89h-72zM136 602v89h72v-89h-72z" />
    <glyph glyph-name="yacute" unicode="&#xfd;" horiz-adv-x="446" 
d="M212 -119q-14 -39 -35 -58q-35 -34 -96 -34h-31v64h22q36 0 53 14q16 12 28 47l35 96l-177 482h78l135 -395l134 395h78zM240 594h-66l88 153h86z" />
    <glyph glyph-name="thorn" unicode="&#xfe;" horiz-adv-x="546" 
d="M421 37q-43 -43 -120 -43q-89 0 -139 64v-278h-72v932h72v-277q49 63 139 63q77 0 120 -43q60 -60 60 -209t-60 -209zM388 376q-29 58 -102 58t-102 -58q-22 -43 -22 -130t22 -130q29 -58 102 -58t102 58q21 43 21 130t-21 130z" />
    <glyph glyph-name="ydieresis" unicode="&#xff;" horiz-adv-x="446" 
d="M212 -119q-14 -39 -35 -58q-35 -34 -96 -34h-31v64h22q36 0 53 14q16 12 28 47l35 96l-177 482h78l135 -395l134 395h78zM293 602v89h72v-89h-72zM81 602v89h72v-89h-72z" />
    <glyph glyph-name="dotlessi" unicode="&#x131;" horiz-adv-x="253" 
d="M90 0v492h72v-492h-72z" />
    <glyph glyph-name="Lslash" unicode="&#x141;" horiz-adv-x="582" 
d="M112 0v289l-73 -46v67l73 46v356h77v-308l154 98v-66l-154 -98v-270h363v-68h-440z" />
    <glyph glyph-name="lslash" unicode="&#x142;" horiz-adv-x="315" 
d="M226 0q-62 0 -95 37q-31 35 -31 94v211l-63 -39v62l63 39v308h72v-264l81 50v-62l-81 -50v-252q0 -72 66 -72h40v-62h-52z" />
    <glyph glyph-name="OE" unicode="&#x152;" horiz-adv-x="989" 
d="M497 0v74q-65 -80 -173 -80q-107 0 -181 74q-46 46 -58 112q-9 46 -9 176t9 176q12 66 58 112q74 74 181 74q108 0 173 -80v74h434v-67h-358q0 -39 1 -127v-127h304v-64h-304v-130q-1 -90 -1 -130h360v-67h-436zM489 516q-9 50 -41 83q-49 51 -123 51t-123 -51
q-32 -33 -42 -83q-8 -43 -8 -160t8 -160q10 -50 42 -83q49 -51 123 -51t123 51q32 33 41 83q8 42 8 160t-8 160z" />
    <glyph glyph-name="oe" unicode="&#x153;" horiz-adv-x="861" 
d="M466 227q0 -81 37 -125q38 -45 108 -45q73 0 129 56l49 -43q-76 -76 -180 -76q-124 0 -177 95q-49 -95 -167 -95q-85 0 -141 56q-60 61 -60 196t60 196q56 56 141 56q119 0 168 -95q51 95 163 95q95 0 149 -64q53 -64 53 -174v-33h-332zM727 281q-2 49 -16 82
q-31 74 -115 74t-115 -74q-12 -30 -15 -82h261zM388 329q-9 45 -33 69q-36 36 -90 36q-53 0 -89 -36q-24 -24 -33 -69q-7 -31 -7 -83t7 -83q9 -45 33 -69q36 -36 89 -36q54 0 90 36q24 24 33 69q6 30 6 83t-6 83z" />
    <glyph glyph-name="Scaron" unicode="&#x160;" horiz-adv-x="588" 
d="M465 48q-67 -54 -179 -54q-150 0 -244 94l52 52q78 -78 194 -78q78 0 123 35t45 97q0 59 -34 89q-28 24 -93 34l-83 13q-85 14 -131 54q-54 48 -54 133q0 91 61 146q62 55 167 55q125 0 212 -78l-49 -49q-67 61 -166 61q-70 0 -111 -36q-39 -36 -39 -96q0 -54 32 -82
q33 -29 96 -39l78 -12q87 -13 130 -50q60 -51 60 -141q0 -93 -67 -148zM323 781h-68l-125 153h69l90 -105l90 105h69z" />
    <glyph glyph-name="scaron" unicode="&#x161;" horiz-adv-x="496" 
d="M390 33q-54 -39 -145 -39q-128 0 -202 71l48 48q54 -57 153 -57q131 0 131 87q0 65 -82 72l-81 7q-147 12 -147 132q0 66 51 106q50 38 130 38q112 0 177 -53l-47 -47q-51 39 -131 39q-110 0 -110 -81q0 -65 86 -72l79 -7q145 -13 145 -133q0 -70 -55 -111zM280 594h-68
l-125 153h69l90 -105l90 105h69z" />
    <glyph glyph-name="Ydieresis" unicode="&#x178;" horiz-adv-x="515" 
d="M296 294v-294h-76v294l-212 418h82l168 -341l166 341h82zM327 789v89h72v-89h-72zM115 789v89h72v-89h-72z" />
    <glyph glyph-name="Zcaron" unicode="&#x17d;" horiz-adv-x="556" 
d="M57 0v72l356 572h-342v68h428v-64l-359 -580h359v-68h-442zM318 781h-68l-125 153h69l90 -105l90 105h69z" />
    <glyph glyph-name="zcaron" unicode="&#x17e;" horiz-adv-x="459" 
d="M50 0v62l274 366h-259v64h342v-61l-275 -367h275v-64h-357zM270 594h-68l-125 153h69l90 -105l90 105h69z" />
    <glyph glyph-name="florin" unicode="&#x192;" horiz-adv-x="403" 
d="M323 652q-66 0 -79 -72l-34 -196h105v-54h-115l-97 -550h-72l97 550h-98v54h108l34 198q10 58 48 93q41 39 101 39h52v-62h-50z" />
    <glyph glyph-name="circumflex" unicode="&#x2c6;" horiz-adv-x="500" 
d="M340 594l-90 104l-90 -104h-69l125 153h68l125 -153h-69z" />
    <glyph glyph-name="caron" unicode="&#x2c7;" horiz-adv-x="500" 
d="M284 594h-68l-125 153h69l90 -105l90 105h69z" />
    <glyph glyph-name="breve" unicode="&#x2d8;" horiz-adv-x="500" 
d="M415 727q-12 -139 -163 -139q-155 0 -167 139h58q11 -82 109 -82q97 0 108 82h55z" />
    <glyph glyph-name="dotaccent" unicode="&#x2d9;" horiz-adv-x="500" 
d="M210 634v74h80v-74h-80z" />
    <glyph glyph-name="ring" unicode="&#x2da;" horiz-adv-x="500" 
d="M333 603q-34 -35 -83 -35t-83 35q-35 35 -35 84t35 83q34 35 83 35t83 -34q35 -35 35 -84t-35 -84zM299 735q-20 20 -49 20t-49 -20t-20 -48t20 -49q21 -20 49 -20q29 0 49 20q20 21 20 49t-20 48z" />
    <glyph glyph-name="ogonek" unicode="&#x2db;" horiz-adv-x="500" 
d="M245 -216l-59 149h66l71 -149h-78z" />
    <glyph glyph-name="tilde" unicode="&#x2dc;" horiz-adv-x="500" 
d="M312 608q-32 0 -71 23q-36 21 -56 21q-27 0 -59 -32l-37 36q51 51 95 51q31 0 71 -24q32 -20 56 -20q27 0 59 32l37 -36q-51 -51 -95 -51z" />
    <glyph glyph-name="hungarumlaut" unicode="&#x2dd;" horiz-adv-x="500" 
d="M338 594h-65l89 153h85zM176 594h-66l89 153h85z" />
    <glyph glyph-name="uni0394" unicode="&#x394;" horiz-adv-x="603" 
d="M8 0l262 712h63l261 -712h-586zM302 603l-194 -537h387z" />
    <glyph glyph-name="uni03A9" unicode="&#x3a9;" horiz-adv-x="650" 
d="M379 0v64q64 30 92 76q26 42 26 214q0 118 -8 162q-9 51 -41 83q-51 51 -123 51t-123 -51q-32 -33 -41 -83q-9 -45 -9 -162q0 -171 27 -214q28 -46 92 -76v-64h-195v67h82q-36 30 -55 67t-24 101q-2 25 -3 60v61q0 131 8 176q13 66 59 112q74 74 182 74t182 -74
q46 -46 59 -112q8 -45 8 -176v-61q-1 -35 -3 -60q-5 -64 -24 -101q-18 -36 -56 -67h83v-67h-195z" />
    <glyph glyph-name="pi" unicode="&#x3c0;" horiz-adv-x="591" 
d="M421 0v427h-250v-427h-70v492h389v-492h-69z" />
    <glyph glyph-name="endash" unicode="&#x2013;" 
d="M52 236v67h418v-67h-418z" />
    <glyph glyph-name="emdash" unicode="&#x2014;" horiz-adv-x="914" 
d="M76 236v68h762v-68h-762z" />
    <glyph glyph-name="quoteleft" unicode="&#x2018;" horiz-adv-x="263" 
d="M88 628v84l87 79v-163h-87z" />
    <glyph glyph-name="quoteright" unicode="&#x2019;" horiz-adv-x="263" 
d="M88 549v163h87v-84z" />
    <glyph glyph-name="quotesinglbase" unicode="&#x201a;" horiz-adv-x="263" 
d="M88 -79v163h87v-84z" />
    <glyph glyph-name="quotedblleft" unicode="&#x201c;" horiz-adv-x="434" 
d="M258 628v84l88 79v-163h-88zM88 628v84l87 79v-163h-87z" />
    <glyph glyph-name="quotedblright" unicode="&#x201d;" horiz-adv-x="434" 
d="M258 549v163h88v-84zM88 549v163h87v-84z" />
    <glyph glyph-name="quotedblbase" unicode="&#x201e;" horiz-adv-x="434" 
d="M258 -79v163h88v-84zM88 -79v163h87v-84z" />
    <glyph glyph-name="dagger" unicode="&#x2020;" horiz-adv-x="605" 
d="M337 445v-445h-72v445h-191v64h191v203h72v-203h194v-64h-194z" />
    <glyph glyph-name="daggerdbl" unicode="&#x2021;" horiz-adv-x="605" 
d="M337 -16v-204h-72v204h-191v64h191v397h-191v64h191v203h72v-203h194v-64h-194v-397h194v-64h-194z" />
    <glyph glyph-name="bullet" unicode="&#x2022;" horiz-adv-x="532" 
d="M381 219q-47 -48 -115 -48q-67 0 -115 48t-48 115q0 68 48 115q48 48 115 48q68 0 115 -48q48 -47 48 -115q0 -67 -48 -115z" />
    <glyph glyph-name="ellipsis" unicode="&#x2026;" horiz-adv-x="757" 
d="M577 0v92h92v-92h-92zM332 0v92h92v-92h-92zM88 0v92h92v-92h-92z" />
    <glyph glyph-name="perthousand" unicode="&#x2030;" horiz-adv-x="1179" 
d="M1115 128q0 -61 -39 -98q-37 -37 -96 -37t-97 37t-38 98v105q0 61 38 98t97 37t96 -37q39 -37 39 -98v-105zM769 128q0 -61 -39 -98q-37 -37 -96 -37t-97 37t-38 98v105q0 61 38 98t97 37t96 -37q39 -37 39 -98v-105zM280 0h-60l334 712h60zM335 479q0 -60 -39 -97
q-37 -37 -96 -37t-97 37t-38 97v105q0 61 38 98t97 37t96 -37q39 -37 39 -98v-105zM1058 231q0 87 -78 87t-78 -87v-101q0 -87 78 -87t78 87v101zM712 231q0 87 -78 87t-78 -87v-101q0 -87 78 -87t78 87v101zM278 582q0 87 -78 87t-78 -87v-101q0 -86 78 -86t78 86v101z" />
    <glyph glyph-name="guilsinglleft" unicode="&#x2039;" horiz-adv-x="328" 
d="M40 268l210 210v-90l-120 -120l120 -121v-89z" />
    <glyph glyph-name="guilsinglright" unicode="&#x203a;" horiz-adv-x="328" 
d="M78 58v89l121 121l-121 120v90l210 -210z" />
    <glyph glyph-name="fraction" unicode="&#x2044;" horiz-adv-x="185" 
d="M-44 0h-60l333 712h60z" />
    <glyph glyph-name="trademark" unicode="&#x2122;" horiz-adv-x="839" 
d="M724 285v308l-102 -202h-56l-102 202v-308h-58v427h58l130 -259l130 259h57v-427h-57zM212 659v-374h-58v374h-118v53h295v-53h-119z" />
    <glyph glyph-name="partialdiff" unicode="&#x2202;" horiz-adv-x="544" 
d="M453 244q0 -136 -57 -195q-52 -55 -136 -55q-85 0 -137 55q-57 59 -57 195q0 140 57 198q51 53 130 53q81 0 128 -58v70q0 64 -31 104q-36 45 -104 45q-62 0 -118 -50l-46 46q73 66 166 66q98 0 153 -60q52 -58 52 -156v-258zM375 327q-8 44 -31 68q-34 36 -84 36
q-51 0 -85 -36q-23 -24 -31 -68q-6 -31 -6 -83t6 -82q8 -44 31 -68q34 -36 85 -36q50 0 84 36q23 24 31 68q6 30 6 82t-6 83z" />
    <glyph glyph-name="product" unicode="&#x220f;" horiz-adv-x="696" 
d="M517 -220v912h-338v-912h-76v980h490v-980h-76z" />
    <glyph glyph-name="summation" unicode="&#x2211;" horiz-adv-x="551" 
d="M57 -220v65l202 438l-201 413v64h441v-68h-353l180 -375v-69l-182 -400h356v-68h-443z" />
    <glyph glyph-name="minus" unicode="&#x2212;" 
d="M52 236v67h418v-67h-418z" />
    <glyph glyph-name="radical" unicode="&#x221a;" horiz-adv-x="562" 
d="M443 644l-211 -644h-61l-163 492h79l115 -356l184 576h146v-68h-89z" />
    <glyph glyph-name="infinity" unicode="&#x221e;" horiz-adv-x="808" 
d="M697 154q-44 -46 -115 -46q-93 0 -178 104q-86 -105 -177 -105q-71 0 -116 46q-44 45 -44 114t44 114q45 46 116 46q90 0 177 -106q87 106 178 106q71 0 115 -46q43 -45 43 -114t-43 -113zM645 334q-25 25 -66 25q-34 0 -66 -25q-24 -19 -64 -68q40 -49 64 -67
q32 -26 66 -26q41 0 66 26q26 25 26 67t-26 68zM295 334q-32 26 -66 26q-41 0 -67 -26t-26 -68t26 -67q26 -26 67 -26q34 0 66 26q23 18 63 67q-41 50 -63 68z" />
    <glyph glyph-name="integral" unicode="&#x222b;" horiz-adv-x="372" 
d="M296 653q-73 0 -73 -77v-654q0 -64 -36 -102t-100 -38h-50v62h39q73 0 73 77v654q0 64 36 102t100 38h49v-62h-38z" />
    <glyph glyph-name="approxequal" unicode="&#x2248;" horiz-adv-x="539" 
d="M421 311q-25 -13 -60 -13q-34 0 -106 32q-50 23 -78 23q-40 0 -84 -44l-44 44q41 41 69 56q25 13 60 13q33 0 105 -32q50 -23 78 -23q40 0 84 44l45 -45q-41 -41 -69 -55zM421 134q-25 -13 -60 -13q-37 0 -106 31q-52 24 -77 24q-39 0 -84 -45l-45 45q41 41 69 55
q25 13 60 13q37 0 106 -31q52 -24 77 -24q39 0 84 45l45 -45q-41 -41 -69 -55z" />
    <glyph glyph-name="notequal" unicode="&#x2260;" horiz-adv-x="537" 
d="M201 151l-103 -111l-46 40l67 71h-67v66h126l99 103h-225v67h284l104 111l45 -41l-67 -70h67v-67h-126l-98 -103h224v-66h-284z" />
    <glyph glyph-name="lessequal" unicode="&#x2264;" horiz-adv-x="1027" 
d="M813 -80l-557 558v-516l-67 67v564h565l66 -67l-515 1l557 -558z" />
    <glyph glyph-name="greaterequal" unicode="&#x2265;" horiz-adv-x="1027" 
d="M771 -38v516l-557 -558l-49 49l557 558l-515 -1l66 67h565v-564z" />
    <glyph glyph-name="lozenge" unicode="&#x25ca;" horiz-adv-x="649" 
d="M325 -12l-258 364l258 364l257 -364zM325 605l-177 -253l177 -255l176 255z" />
    <glyph glyph-name="uniFB01" unicode="&#xfb01;" horiz-adv-x="562" 
d="M394 639v74h82v-74h-82zM399 0v489h72v-489h-72zM177 434v-434h-72v434h-63v55h63v93q0 58 31 93q34 39 94 39h52v-62h-39q-66 0 -66 -72v-91h105v-55h-105z" />
    <glyph glyph-name="uniFB02" unicode="&#xfb02;" horiz-adv-x="602" 
d="M521 0q-62 0 -95 37q-31 35 -31 94v581h72v-578q0 -72 66 -72h40v-62h-52zM177 434v-434h-72v434h-63v55h63v93q0 58 31 93q34 39 94 39h52v-62h-39q-66 0 -66 -72v-91h105v-55h-105z" />
    </font>
</defs>
</svg>
