<?xml version="1.0" standalone="no"?>
<!DOCTYPE svg PUBLIC "-//W3C//DTD SVG 1.1//EN" "http://www.w3.org/Graphics/SVG/1.1/DTD/svg11.dtd" >
<svg xmlns="http://www.w3.org/2000/svg" xmlns:xlink="http://www.w3.org/1999/xlink" version="1.1">
<metadata>
Created by FontForge 20200427 at Fri Feb 21 07:08:19 2014
 By www
2005 Albert-Jan Pool published by FSI FontShop International GmbH
</metadata>
<defs>
<font id="DINPro-Bold" horiz-adv-x="543" >
  <font-face 
    font-family="DIN Pro Bold"
    font-weight="700"
    font-stretch="normal"
    units-per-em="1000"
    panose-1="2 11 8 4 2 1 1 2 1 2"
    ascent="800"
    descent="-200"
    x-height="521"
    cap-height="712"
    bbox="-208 -234 1174 1195"
    underline-thickness="87"
    underline-position="-392"
    unicode-range="U+000D-FEFF"
  />
<missing-glyph horiz-adv-x="573" 
d="M73 0v712h427v-712h-427zM160 87h253v538h-253v-538z" />
    <glyph glyph-name=".notdef" horiz-adv-x="573" 
d="M73 0v712h427v-712h-427zM160 87h253v538h-253v-538z" />
    <glyph glyph-name=".null" horiz-adv-x="0" 
 />
    <glyph glyph-name=".null" horiz-adv-x="0" 
 />
    <glyph glyph-name="nonmarkingreturn" horiz-adv-x="333" 
 />
    <glyph glyph-name="CR" unicode="&#xd;" horiz-adv-x="232" 
 />
    <glyph glyph-name="space" unicode=" " horiz-adv-x="232" 
 />
    <glyph glyph-name="exclam" unicode="!" horiz-adv-x="347" 
d="M273 712l-33 -489h-96l-32 489h161zM267 0h-149v148h149v-148z" />
    <glyph glyph-name="quotedbl" unicode="&#x22;" horiz-adv-x="464" 
d="M190 501h-122v211h122v-211zM395 501h-121v211h121v-211z" />
    <glyph glyph-name="numbersign" unicode="#" horiz-adv-x="691" 
d="M643 420h-89l-16 -108h69v-122h-89l-30 -190h-137l31 190h-116l-30 -190h-137l30 190h-69v122h89l16 108h-70v121h89l28 177h137l-28 -177h116l28 177h136l-27 -177h69v-121zM417 420h-115l-17 -108h116z" />
    <glyph glyph-name="dollar" unicode="$" horiz-adv-x="619" 
d="M571 210q0 -89 -59 -144.5t-156 -67.5v-112h-101v108q-148 5 -236 94l90 90q57 -57 159 -60v181l-32 4q-90 12 -138 60q-51 51 -51 139q0 87 55.5 145.5t152.5 68.5v90h101v-89q120 -7 197 -82l-88 -87q-44 42 -123 48v-174l38 -6q91 -14 136 -56q55 -52 55 -150z
M435 206q0 39 -22 60q-20 19 -71 26v-172q93 11 93 86zM268 428v167q-42 -6 -64.5 -30t-22.5 -58q0 -31 21 -51q23 -22 66 -28z" />
    <glyph glyph-name="percent" unicode="%" horiz-adv-x="848" 
d="M248 486v91q0 57 -50 57q-51 0 -51 -57v-91q0 -57 51 -57q50 0 50 57zM342 482q0 -65 -41 -101t-103 -36t-104 36t-42 101v99q0 65 42 101t104 36t103 -36t41 -101v-99zM702 134v92q0 57 -51 57t-51 -57v-92q0 -56 51 -56t51 56zM796 131q0 -65 -41.5 -101t-103.5 -36
t-103.5 36t-41.5 101v99q0 65 41.5 101t103.5 36t103.5 -36t41.5 -101v-99zM644 712l-337 -712h-102l337 712h102z" />
    <glyph glyph-name="ampersand" unicode="&#x26;" horiz-adv-x="721" 
d="M696 0h-165l-52 62q-25 -21 -43 -32.5t-56.5 -23.5t-84.5 -12q-116 0 -175.5 57t-59.5 159q0 106 128 191q-71 81 -71 151q0 74 51 120t139 46q83 0 132.5 -47t49.5 -121q0 -71 -73 -124l-51 -37l120 -142q33 44 36 125h123q-8 -145 -76 -221zM400 154l-142 167
q-37 -26 -54.5 -50t-17.5 -59q0 -44 31 -72t77 -28q58 0 106 42zM366 549q0 25 -16 41.5t-43 16.5q-28 0 -43.5 -16t-15.5 -42q0 -12 7.5 -27t15 -24.5t24.5 -28.5l30 20q41 29 41 60z" />
    <glyph glyph-name="quotesingle" unicode="'" horiz-adv-x="259" 
d="M191 501h-123v211h123v-211z" />
    <glyph glyph-name="parenleft" unicode="(" horiz-adv-x="336" 
d="M80 138v436q0 85 26 129q22 39 88 103l88 -88q-42 -42 -56 -66q-15 -28 -15 -84v-424q0 -55 15 -84q14 -24 56 -66l-88 -88q-66 64 -88 103q-26 43 -26 129z" />
    <glyph glyph-name="parenright" unicode=")" horiz-adv-x="336" 
d="M256 138q0 -86 -26 -129q-22 -39 -88 -103l-88 88q42 42 56 66q15 29 15 84v424q0 56 -15 84q-14 24 -56 66l88 88q66 -64 88 -103q26 -44 26 -129v-436z" />
    <glyph glyph-name="asterisk" unicode="*" horiz-adv-x="494" 
d="M440 460l-46 -79l-105 66l4 -125h-92l5 125l-106 -66l-45 79l110 58l-110 58l45 80l106 -67l-5 125h92l-4 -125l105 67l46 -80l-111 -58z" />
    <glyph glyph-name="plus" unicode="+" 
d="M493 216h-160v-160h-122v160h-161v122h161v160h122v-160h160v-122z" />
    <glyph glyph-name="comma" unicode="," horiz-adv-x="279" 
d="M211 -55l-143 -110v307h143v-197z" />
    <glyph glyph-name="hyphen" unicode="-" horiz-adv-x="426" 
d="M367 225h-308v121h308v-121z" />
    <glyph glyph-name="period" unicode="." horiz-adv-x="285" 
d="M217 0h-149v148h149v-148z" />
    <glyph glyph-name="slash" unicode="/" horiz-adv-x="403" 
d="M407 786l-285 -860h-122l285 860h122z" />
    <glyph glyph-name="zero" unicode="0" 
d="M488 206q0 -98 -62.5 -155t-153.5 -57t-154 57t-63 155v300q0 98 63 155t154 57t153.5 -57t62.5 -155v-300zM358 207v297q0 45 -23.5 71t-62.5 26t-63 -26t-24 -71v-297q0 -45 24 -70.5t63 -25.5t62.5 25.5t23.5 70.5z" />
    <glyph glyph-name="one" unicode="1" 
d="M378 0h-130v572l-145 -126v140l145 126h130v-712z" />
    <glyph glyph-name="two" unicode="2" 
d="M492 0h-433v117l266 309q37 44 37 86q0 40 -22.5 64.5t-63.5 24.5q-37 0 -62 -21.5t-25 -69.5h-130q0 95 61.5 151.5t155.5 56.5q96 0 156 -56t60 -151q0 -48 -17 -81t-59 -82l-199 -231h275v-117z" />
    <glyph glyph-name="three" unicode="3" 
d="M495 206q0 -102 -64.5 -157t-161.5 -55q-95 0 -160.5 52.5t-66.5 157.5h130q1 -46 28.5 -69.5t68.5 -23.5q43 0 69.5 26t26.5 73q0 45 -26.5 71.5t-73.5 26.5h-19v113h19q45 0 67.5 24.5t22.5 64.5q0 43 -25 67t-62 24t-61.5 -23t-26.5 -63h-130q2 93 64 148t154 55
q95 0 156 -57t61 -147q0 -102 -82 -146q92 -49 92 -162z" />
    <glyph glyph-name="four" unicode="4" 
d="M512 101h-65v-101h-125v101h-291v123l244 488h142l-244 -488h149v133h125v-133h65v-123z" />
    <glyph glyph-name="five" unicode="5" 
d="M494 240q0 -65 -13 -108t-50 -80q-58 -58 -157 -58q-102 0 -159 57q-51 51 -58 148h130q11 -88 87 -88q39 0 62 23q28 28 28 106q0 128 -87 128q-67 0 -86 -58h-119v402h406v-117h-288v-153q38 36 107 36q85 0 133 -48q64 -64 64 -190z" />
    <glyph glyph-name="six" unicode="6" 
d="M492 216q0 -103 -62.5 -162.5t-159.5 -59.5t-159.5 58.5t-62.5 161.5q0 68 60 190l150 308h142l-148 -294q22 9 53 9q76 0 131.5 -58t55.5 -153zM362 215q0 47 -25.5 75.5t-66.5 28.5t-66.5 -28t-25.5 -76t25.5 -76t66.5 -28t66.5 28t25.5 76z" />
    <glyph glyph-name="seven" unicode="7" 
d="M503 595l-231 -595h-141l231 595h-188v-112h-124v229h453v-117z" />
    <glyph glyph-name="eight" unicode="8" 
d="M500 207q0 -100 -64.5 -156.5t-163.5 -56.5t-163.5 56.5t-64.5 156.5q0 101 89 160q-80 56 -80 148t63.5 147.5t155.5 55.5t155 -55.5t63 -147.5t-80 -148q90 -60 90 -160zM370 209q0 41 -28.5 70t-69.5 29t-69.5 -29t-28.5 -70t28.5 -69.5t69.5 -28.5t69.5 28.5
t28.5 69.5zM360 511q0 38 -25 64t-63 26t-63.5 -26t-25.5 -64q0 -39 25.5 -64.5t63.5 -25.5t63 25.5t25 64.5z" />
    <glyph glyph-name="nine" unicode="9" 
d="M495 498q0 -70 -59 -190l-151 -308h-141l148 294q-22 -9 -53 -9q-76 0 -132 58t-56 153q0 103 62.5 162.5t159.5 59.5t159.5 -58.5t62.5 -161.5zM365 497q0 48 -25.5 76t-66.5 28t-66.5 -28t-25.5 -76q0 -47 25.5 -75.5t66.5 -28.5t66.5 28t25.5 76z" />
    <glyph glyph-name="colon" unicode=":" horiz-adv-x="309" 
d="M241 271h-148v148h148v-148zM241 0h-148v148h148v-148z" />
    <glyph glyph-name="semicolon" unicode=";" horiz-adv-x="309" 
d="M238 -55l-142 -110v307h142v-197zM241 271h-148v148h148v-148z" />
    <glyph glyph-name="less" unicode="&#x3c;" 
d="M475 42l-406 187v113l406 187v-137l-241 -107l241 -106v-137z" />
    <glyph glyph-name="equal" unicode="=" 
d="M493 333h-443v122h443v-122zM493 116h-443v122h443v-122z" />
    <glyph glyph-name="greater" unicode="&#x3e;" 
d="M475 229l-406 -187v137l241 106l-241 107v137l406 -187v-113z" />
    <glyph glyph-name="question" unicode="?" horiz-adv-x="523" 
d="M487 518q0 -60 -49 -125l-74 -98q-18 -23 -18 -51v-21h-130v30q0 54 38 104l74 95q29 38 29 67q0 36 -22 59t-59 23q-38 0 -59 -23.5t-21 -59.5h-130q0 91 60 145.5t150 54.5q89 0 150 -54t61 -146zM350 0h-138v133h138v-133z" />
    <glyph glyph-name="at" unicode="@" horiz-adv-x="758" 
d="M700 0h-121v46q-48 -52 -120 -52q-79 0 -126 50q-29 31 -38 72t-9 115q0 73 9 113.5t37 71.5q46 51 126 51q73 0 118 -49v45q0 67 -35 102t-100 35h-124q-65 0 -100 -35t-35 -102v-289q0 -37 9.5 -57t34.5 -42l-90 -90q-44 40 -61.5 78t-17.5 104v299q0 127 62 189
q61 61 188 61h144q127 0 188 -61t61 -189v-466zM576 231q0 63 -18.5 95.5t-64.5 32.5t-64 -32t-18 -96t18 -96.5t64 -32.5t64.5 33t18.5 96z" />
    <glyph glyph-name="A" unicode="A" horiz-adv-x="638" 
d="M633 0h-145l-42 126h-253l-43 -126h-145l259 712h109zM409 243l-87 259l-90 -259h177z" />
    <glyph glyph-name="B" unicode="B" horiz-adv-x="658" 
d="M599 205q0 -97 -60 -151t-158 -54h-298v712h286q103 0 161.5 -54t58.5 -146q0 -54 -27.5 -92.5t-60.5 -54.5q98 -46 98 -160zM460 212q0 38 -24 62.5t-69 24.5h-145v-175h145q45 0 69 25t24 63zM450 506q0 37 -24 59.5t-68 22.5h-136v-164h136q44 0 68 22.5t24 59.5z" />
    <glyph glyph-name="C" unicode="C" horiz-adv-x="620" 
d="M583 219q-19 -109 -89 -167t-172 -58q-114 0 -191 75q-49 49 -60.5 107.5t-11.5 179.5t11.5 179.5t60.5 107.5q77 75 191 75q102 0 172 -58t89 -167h-142q-24 101 -119 101q-57 0 -89 -37q-20 -23 -27.5 -62.5t-7.5 -138.5t7.5 -138.5t27.5 -62.5q32 -37 89 -37
q96 0 120 101h141z" />
    <glyph glyph-name="D" unicode="D" horiz-adv-x="659" 
d="M600 356q0 -105 -7.5 -157.5t-37.5 -94.5q-75 -104 -215 -104h-257v712h257q140 0 215 -104q30 -42 37.5 -94.5t7.5 -157.5zM461 356q0 90 -5 128t-24 60q-35 44 -104 44h-106v-464h106q69 0 104 44q19 22 24 60t5 128z" />
    <glyph glyph-name="E" unicode="E" horiz-adv-x="605" 
d="M552 0h-469v712h469v-124h-330v-167h281v-124h-281v-173h330v-124z" />
    <glyph glyph-name="F" unicode="F" horiz-adv-x="590" 
d="M552 588h-330v-175h281v-124h-281v-289h-139v712h469v-124z" />
    <glyph glyph-name="G" unicode="G" horiz-adv-x="649" 
d="M590 292q0 -79 -15 -128t-53 -89q-77 -81 -201 -81q-113 0 -190 75q-49 49 -60.5 107.5t-11.5 179.5t11.5 179.5t60.5 107.5q77 75 190 75q117 0 184.5 -65t83.5 -163h-140q-24 104 -128 104q-54 0 -89 -38q-20 -23 -27 -62t-7 -138q0 -100 7 -139t27 -62q34 -37 89 -37
q64 0 99 40q32 36 32 95v26h-131v117h269v-104z" />
    <glyph glyph-name="H" unicode="H" horiz-adv-x="685" 
d="M602 0h-139v298h-241v-298h-139v712h139v-291h241v291h139v-712z" />
    <glyph glyph-name="I" unicode="I" horiz-adv-x="305" 
d="M222 0h-139v712h139v-712z" />
    <glyph glyph-name="J" unicode="J" horiz-adv-x="511" 
d="M437 234q0 -113 -73 -176.5t-178 -63.5q-58 0 -101 17t-82 56l92 91q40 -40 91 -40q52 0 82 31t30 91v472h139v-478z" />
    <glyph glyph-name="K" unicode="K" horiz-adv-x="665" 
d="M659 0h-162l-183 324l-92 -110v-214h-139v712h139v-310l251 310h169l-236 -283z" />
    <glyph glyph-name="L" unicode="L" horiz-adv-x="575" 
d="M545 0h-462v712h139v-588h323v-124z" />
    <glyph glyph-name="M" unicode="M" horiz-adv-x="811" 
d="M728 0h-139v415l-136 -270h-94l-137 270v-415h-139v712h137l186 -385l185 385h137v-712z" />
    <glyph glyph-name="N" unicode="N" horiz-adv-x="711" 
d="M628 0h-124l-282 437v-437h-139v712h124l282 -436v436h139v-712z" />
    <glyph glyph-name="O" unicode="O" horiz-adv-x="644" 
d="M585 356q0 -120 -12 -179t-61 -108q-75 -75 -190 -75q-116 0 -191 75q-49 49 -60.5 107.5t-11.5 179.5t11.5 179.5t60.5 107.5q75 75 191 75q115 0 190 -75q49 -49 61 -108t12 -179zM446 356q0 99 -7.5 138t-27.5 62q-33 38 -89 38q-55 0 -90 -38q-20 -23 -27 -62
t-7 -138t7 -137.5t27 -61.5q36 -39 90 -39q55 0 89 39q20 24 27.5 62.5t7.5 136.5z" />
    <glyph glyph-name="P" unicode="P" horiz-adv-x="628" 
d="M594 490q0 -94 -63.5 -158t-171.5 -64h-137v-268h-139v712h276q108 0 171.5 -64t63.5 -158zM455 490q0 44 -28 71t-75 27h-130v-195h130q47 0 75 26.5t28 70.5z" />
    <glyph glyph-name="Q" unicode="Q" horiz-adv-x="643" 
d="M585 356q0 -103 -7.5 -156t-36.5 -96l61 -61l-73 -73l-64 62q-60 -38 -143 -38q-114 0 -191 75q-49 49 -60.5 107.5t-11.5 179.5t11.5 179.5t60.5 107.5q77 75 191 75q115 0 190 -75q49 -49 61 -108t12 -179zM446 356q0 99 -7.5 138t-27.5 62q-33 38 -89 38
q-55 0 -90 -38q-20 -23 -27 -62t-7 -138t7 -137.5t27 -61.5q36 -39 90 -39q26 0 46 13l-62 61l73 74l54 -54q13 40 13 144z" />
    <glyph glyph-name="R" unicode="R" horiz-adv-x="654" 
d="M622 0h-161l-139 284h-100v-284h-139v712h279q106 0 168.5 -63t62.5 -155q0 -71 -37 -119t-93 -68zM454 494q0 42 -28 68t-73 26h-131v-188h131q45 0 73 26t28 68z" />
    <glyph glyph-name="S" unicode="S" horiz-adv-x="591" 
d="M543 210q0 -101 -74 -158.5t-190 -57.5q-85 0 -147 21.5t-113 72.5l90 90q60 -60 171 -60q62 0 94.5 23t32.5 66q0 37 -22 59q-19 18 -64 24l-85 13q-90 13 -138 59q-51 50 -51 140q0 97 67 156.5t181 59.5q144 0 230 -83l-88 -87q-50 49 -146 49q-53 0 -81 -25.5
t-28 -64.5q0 -32 20 -51q23 -21 65 -27l85 -13q91 -13 136 -56q55 -51 55 -150z" />
    <glyph glyph-name="T" unicode="T" horiz-adv-x="571" 
d="M541 588h-186v-588h-139v588h-186v124h511v-124z" />
    <glyph glyph-name="U" unicode="U" horiz-adv-x="668" 
d="M596 244q0 -111 -75 -180.5t-187 -69.5t-187 69.5t-75 180.5v468h139v-463q0 -61 33 -96t90 -35t90.5 35t33.5 96v463h138v-468z" />
    <glyph glyph-name="V" unicode="V" horiz-adv-x="581" 
d="M578 712l-236 -712h-104l-235 712h144l143 -464l143 464h145z" />
    <glyph glyph-name="W" unicode="W" horiz-adv-x="887" 
d="M881 712l-191 -712h-116l-131 432l-131 -432h-116l-190 712h145l110 -449l130 449h104l130 -449l111 449h145z" />
    <glyph glyph-name="X" unicode="X" horiz-adv-x="603" 
d="M598 0h-159l-138 248l-137 -248h-159l221 365l-207 347h158l124 -230l125 230h157l-207 -347z" />
    <glyph glyph-name="Y" unicode="Y" horiz-adv-x="572" 
d="M569 712l-214 -420v-292h-138v292l-214 420h151l133 -287l131 287h151z" />
    <glyph glyph-name="Z" unicode="Z" horiz-adv-x="548" 
d="M508 0h-468v112l304 476h-291v124h455v-110l-305 -478h305v-124z" />
    <glyph glyph-name="bracketleft" unicode="[" horiz-adv-x="378" 
d="M337 -74h-257v860h257v-117h-127v-626h127v-117z" />
    <glyph glyph-name="backslash" unicode="\" horiz-adv-x="403" 
d="M403 -74h-122l-281 847h122z" />
    <glyph glyph-name="bracketright" unicode="]" horiz-adv-x="378" 
d="M299 -74h-257v116h127v628h-127v116h257v-860z" />
    <glyph glyph-name="asciicircum" unicode="^" horiz-adv-x="602" 
d="M539 389h-136l-102 188l-102 -188h-136l178 330h120z" />
    <glyph glyph-name="underscore" unicode="_" horiz-adv-x="602" 
d="M602 -178h-602v87h602v-87z" />
    <glyph glyph-name="grave" unicode="`" horiz-adv-x="500" 
d="M305 604h-87l-114 170h137z" />
    <glyph glyph-name="a" unicode="a" horiz-adv-x="534" 
d="M467 0h-127v45q-27 -27 -55.5 -38.5t-72.5 -11.5q-87 0 -133 46q-43 45 -43 117q0 66 46 108.5t134 42.5h121v26q0 43 -23 62.5t-74 19.5q-61 0 -100 -45l-82 81q38 42 79.5 58t107.5 16q222 0 222 -184v-343zM337 192v28h-99q-77 0 -77 -60q0 -59 79 -59q51 0 77 25
q20 17 20 66z" />
    <glyph glyph-name="b" unicode="b" horiz-adv-x="560" 
d="M509 261q0 -81 -10 -133t-44 -87q-45 -47 -126 -47t-130 55v-49h-126v712h130v-237q45 52 126 52t126 -47q34 -35 44 -87t10 -132zM379 261q0 36 -3 59.5t-11.5 45.5t-27 33t-46.5 11t-46.5 -11t-27 -33t-11.5 -45.5t-3 -59.5t3 -59.5t11.5 -46t27 -33.5t46.5 -11
t46.5 11t27 33.5t11.5 46t3 59.5z" />
    <glyph glyph-name="c" unicode="c" horiz-adv-x="480" 
d="M452 65q-68 -71 -172 -71q-33 0 -64 7.5t-62.5 26t-54.5 48t-37.5 77t-14.5 108.5t14.5 108.5t37.5 76.5t54.5 48t62.5 26t64 7q105 0 172 -70l-88 -88q-38 41 -84 41t-74 -34q-29 -36 -29 -115q0 -80 29 -116q28 -34 74 -34t84 41z" />
    <glyph glyph-name="d" unicode="d" horiz-adv-x="561" 
d="M488 0h-127v49q-49 -55 -129 -55q-82 0 -127 47q-34 35 -44 87t-10 133q0 80 10 132t44 87q45 47 126 47q80 0 127 -52v237h130v-712zM358 261q0 73 -17.5 111t-71.5 38q-28 0 -46.5 -11t-27 -33t-11.5 -45.5t-3 -59.5t3 -59.5t11.5 -46t27 -33.5t46.5 -11t46.5 11
t27.5 33t12 46.5t3 59.5z" />
    <glyph glyph-name="e" unicode="e" horiz-adv-x="548" 
d="M501 220h-326q0 -52 30 -84t84 -32q40 0 65.5 11.5t52.5 37.5l79 -77q-42 -43 -86.5 -62.5t-111.5 -19.5q-50 0 -90.5 12.5t-75.5 41.5t-55 83t-20 130q0 125 62 195.5t165 70.5q107 0 167 -69.5t60 -182.5v-55zM373 309q-1 34 -12 56q-24 54 -87 54t-87 -54
q-11 -22 -12 -56h198z" />
    <glyph glyph-name="f" unicode="f" horiz-adv-x="342" 
d="M315 407h-96v-407h-130v407h-54v99h54v65q0 61 39 105t113 44h74v-110h-51q-45 0 -45 -47v-57h96v-99z" />
    <glyph glyph-name="g" unicode="g" horiz-adv-x="555" 
d="M482 19q0 -95 -62.5 -155.5t-166.5 -60.5q-62 0 -106 15t-83 53l81 82q41 -40 102 -40q54 0 79.5 31.5t25.5 76.5v53q-47 -52 -124 -52q-78 0 -124 46q-34 34 -43.5 80.5t-9.5 126.5t9.5 126t43.5 80q46 46 125 46q77 0 127 -55v49h126v-502zM352 275q0 63 -17 99t-69 36
q-28 0 -45.5 -10.5t-26 -31.5t-11 -42t-2.5 -51t2.5 -51t10.5 -42t26 -32t46 -11t46 11t26 32t11 42t3 51z" />
    <glyph glyph-name="h" unicode="h" horiz-adv-x="573" 
d="M506 0h-130v315q0 49 -25.5 72t-60.5 23q-36 0 -61.5 -23t-25.5 -72v-315h-130v712h130v-239q49 54 127 54q77 0 123 -46q53 -53 53 -148v-333z" />
    <glyph glyph-name="i" unicode="i" horiz-adv-x="275" 
d="M203 0h-130v506h130v-506zM204 610h-133v106h133v-106z" />
    <glyph glyph-name="j" unicode="j" horiz-adv-x="275" 
d="M203 -46q0 -61 -38.5 -105t-113.5 -44h-74v110h50q46 0 46 47v544h130v-552zM204 610h-133v106h133v-106z" />
    <glyph glyph-name="k" unicode="k" horiz-adv-x="559" 
d="M547 0h-161l-128 217l-55 -62v-155h-130v712h130v-404l173 213h157l-186 -210z" />
    <glyph glyph-name="l" unicode="l" horiz-adv-x="325" 
d="M294 0h-74q-75 0 -113.5 44t-38.5 105v563h130v-555q0 -47 46 -47h50v-110z" />
    <glyph glyph-name="m" unicode="m" horiz-adv-x="876" 
d="M809 0h-130v315q0 49 -25.5 72t-60.5 23t-61 -22.5t-26 -69.5v-318h-130v315q0 49 -25.5 72t-60.5 23q-36 0 -61.5 -23t-25.5 -72v-315h-130v521h127v-48q52 54 130 54q90 0 138 -66q63 66 156 66q82 0 128 -46q57 -57 57 -148v-333z" />
    <glyph glyph-name="n" unicode="n" horiz-adv-x="573" 
d="M506 0h-130v315q0 49 -25.5 72t-60.5 23q-36 0 -61.5 -23t-25.5 -72v-315h-130v521h127v-48q51 54 130 54q77 0 123 -46q53 -53 53 -148v-333z" />
    <glyph glyph-name="o" unicode="o" 
d="M492 261q0 -75 -12.5 -121.5t-46.5 -81.5q-62 -64 -162 -64q-99 0 -161 64q-34 36 -46.5 82.5t-12.5 120.5t12.5 120t46.5 82q62 64 161 64q102 0 162 -64q34 -36 46.5 -82t12.5 -120zM362 261q0 97 -30 126q-23 23 -61 23q-37 0 -60 -23q-30 -29 -30 -126q0 -98 30 -127
q23 -23 60 -23q38 0 61 23q30 29 30 127z" />
    <glyph glyph-name="p" unicode="p" horiz-adv-x="560" 
d="M509 261q0 -81 -10 -133t-44 -87q-45 -47 -126 -47t-126 52v-237h-130v712h126v-49q49 55 130 55t126 -47q34 -35 44 -87t10 -132zM379 261q0 36 -3 59.5t-11.5 45.5t-27 33t-46.5 11t-46.5 -11t-27 -33t-11.5 -45.5t-3 -59.5t3 -59.5t11.5 -46t27 -33.5t46.5 -11
t46.5 11t27 33.5t11.5 46t3 59.5z" />
    <glyph glyph-name="q" unicode="q" horiz-adv-x="561" 
d="M488 -191h-130v237q-47 -52 -127 -52q-81 0 -126 47q-34 35 -44 87t-10 133q0 80 10 132t44 87q45 47 127 47q80 0 129 -55v49h127v-712zM358 261q0 73 -17.5 111t-71.5 38q-28 0 -46.5 -11t-27 -33t-11.5 -45.5t-3 -59.5t3 -59.5t11.5 -46t27 -33.5t46.5 -11
q54 0 71.5 38t17.5 112z" />
    <glyph glyph-name="r" unicode="r" horiz-adv-x="455" 
d="M454 478l-98 -99q-31 31 -69 31q-33 0 -58.5 -25t-25.5 -71v-314h-130v521h127v-50q20 24 55.5 40t75.5 16q74 0 123 -49z" />
    <glyph glyph-name="s" unicode="s" horiz-adv-x="501" 
d="M465 164q0 -83 -62 -126.5t-159 -43.5q-72 0 -124 15t-98 60l85 85q48 -49 139 -49q38 0 65 13.5t27 40.5q0 43 -55 48l-84 8q-150 15 -150 146q0 78 58.5 122t142.5 44q133 0 199 -61l-80 -81q-39 35 -121 35q-37 0 -55.5 -14.5t-18.5 -35.5q0 -39 54 -45l82 -8
q155 -15 155 -153z" />
    <glyph glyph-name="t" unicode="t" horiz-adv-x="352" 
d="M307 0h-71q-74 0 -112.5 44t-38.5 105v258h-55v99h55v154h130v-154h92v-99h-92v-250q0 -47 45 -47h47v-110z" />
    <glyph glyph-name="u" unicode="u" horiz-adv-x="573" 
d="M500 0h-127v48q-51 -54 -130 -54q-77 0 -123 46q-53 53 -53 148v333h130v-315q0 -49 25.5 -72t60.5 -23q36 0 61.5 23t25.5 72v315h130v-521z" />
    <glyph glyph-name="v" unicode="v" horiz-adv-x="493" 
d="M489 521l-191 -521h-102l-192 521h137l106 -322l105 322h137z" />
    <glyph glyph-name="w" unicode="w" horiz-adv-x="759" 
d="M755 521l-159 -521h-107l-109 327l-109 -327h-107l-160 521h138l84 -322l106 322h95l107 -322l84 322h137z" />
    <glyph glyph-name="x" unicode="x" horiz-adv-x="527" 
d="M515 0h-156l-96 156l-95 -156h-156l180 266l-173 255h156l88 -149l89 149h156l-173 -255z" />
    <glyph glyph-name="y" unicode="y" horiz-adv-x="494" 
d="M490 521l-223 -605q-17 -45 -39 -67q-40 -40 -112 -40h-51v117h30q28 0 41.5 9.5t23.5 37.5l22 64l-178 484h137l108 -322l104 322h137z" />
    <glyph glyph-name="z" unicode="z" horiz-adv-x="478" 
d="M434 0h-397v99l231 305h-218v117h384v-99l-234 -305h234v-117z" />
    <glyph glyph-name="braceleft" unicode="{" horiz-adv-x="457" 
d="M414 -74h-102q-75 0 -112 37q-42 42 -42 111v145q0 43 -17 60q-19 19 -52 19h-46v116h46q33 0 52 19q17 17 17 60v145q0 69 42 111q37 37 112 37h102v-117h-53q-43 0 -57 -14q-16 -17 -16 -64v-135q0 -33 -13 -55.5t-25 -30t-31 -14.5q19 -7 31 -14.5t25 -30t13 -55.5
v-135q0 -47 16 -64q14 -14 57 -14h53v-117z" />
    <glyph glyph-name="bar" unicode="|" horiz-adv-x="350" 
d="M240 -74h-130v860h130v-860z" />
    <glyph glyph-name="braceright" unicode="}" horiz-adv-x="457" 
d="M414 298h-46q-33 0 -52 -19q-17 -17 -17 -60v-145q0 -69 -42 -111q-37 -37 -112 -37h-102v117h53q43 0 57 14q16 17 16 64v135q0 33 13 55.5t25 30t31 14.5q-19 7 -31 14.5t-25 30t-13 55.5v135q0 47 -16 64q-14 14 -57 14h-53v117h102q75 0 112 -37q42 -42 42 -111v-145
q0 -43 17 -60q19 -19 52 -19h46v-116z" />
    <glyph glyph-name="asciitilde" unicode="~" horiz-adv-x="606" 
d="M569 281q-47 -47 -83.5 -66.5t-81.5 -19.5q-53 0 -117 34q-46 24 -82 24q-44 0 -86 -42l-82 82q48 48 83.5 67t80.5 19q53 0 117 -34q46 -24 81 -24q45 0 87 42z" />
    <glyph glyph-name="uni00A0" unicode="&#xa0;" horiz-adv-x="232" 
 />
    <glyph glyph-name="exclamdown" unicode="&#xa1;" horiz-adv-x="347" 
d="M236 -191h-161l32 489h97zM224 388h-137v133h137v-133z" />
    <glyph glyph-name="cent" unicode="&#xa2;" horiz-adv-x="499" 
d="M469 180q-58 -61 -136 -75v-105h-101v105q-83 17 -134 83.5t-51 177.5t51 177.5t134 83.5v85h101v-85q78 -14 136 -75l-86 -84q-31 32 -64 41v-286q33 9 64 41zM246 225v282q-21 -6 -38 -26q-31 -39 -31 -115t31 -115q15 -20 38 -26z" />
    <glyph glyph-name="sterling" unicode="&#xa3;" horiz-adv-x="579" 
d="M534 0h-433v297h-61v100h61v81q0 113 73 176.5t178 63.5q58 0 100.5 -17t81.5 -56l-91 -91q-40 40 -91 40q-52 0 -82.5 -31t-30.5 -91v-75h113v-100h-113v-173h295v-124z" />
    <glyph glyph-name="currency" unicode="&#xa4;" horiz-adv-x="669" 
d="M610 96l-85 -86l-74 73q-54 -32 -117 -32q-62 0 -116 32l-74 -73l-86 86l74 73q-33 56 -33 117t33 117l-74 73l86 86l74 -73q54 32 116 32q63 0 117 -32l74 73l85 -86l-73 -73q32 -54 32 -117t-32 -117zM452 286q0 49 -34.5 83t-83.5 34t-83 -34t-34 -83t34 -83t83 -34
t83.5 34t34.5 83z" />
    <glyph glyph-name="yen" unicode="&#xa5;" horiz-adv-x="571" 
d="M568 712l-136 -270h74v-100h-125l-26 -50v-51h151v-100h-151v-141h-138v141h-152v100h152v51l-26 50h-126v100h75l-137 270h151l132 -288l132 288h150z" />
    <glyph glyph-name="brokenbar" unicode="&#xa6;" horiz-adv-x="353" 
d="M240 436h-130v350h130v-350zM240 -74h-130v350h130v-350z" />
    <glyph glyph-name="section" unicode="&#xa7;" horiz-adv-x="531" 
d="M473 274q0 -50 -28 -90t-62 -59q81 -41 81 -139q0 -87 -58.5 -135t-139.5 -48t-139.5 44.5t-59.5 133.5h125q2 -28 21.5 -45.5t52.5 -17.5q34 0 53.5 17.5t19.5 46.5q0 51 -70 74l-62 21q-75 25 -110.5 68t-35.5 120q0 51 28 90.5t63 58.5q-76 40 -76 131q0 73 50 123
t142 50q94 0 142.5 -48t49.5 -124h-122q-3 61 -70 61q-34 0 -52 -16.5t-18 -42.5q0 -44 67 -66l62 -20q75 -24 110.5 -68t35.5 -120zM348 269q0 43 -25 68q-23 21 -56 21q-36 0 -57 -21q-24 -24 -24 -68q0 -43 24 -67q21 -21 57 -21q35 0 56 21q25 25 25 67z" />
    <glyph glyph-name="dieresis" unicode="&#xa8;" horiz-adv-x="500" 
d="M416 606h-111v125h111v-125zM195 606h-111v125h111v-125z" />
    <glyph glyph-name="copyright" unicode="&#xa9;" horiz-adv-x="844" 
d="M784 356q0 -150 -106 -256t-256 -106t-256 106t-106 256t106 256t256 106t256 -106t106 -256zM697 356q0 120 -79 200.5t-196 80.5t-196.5 -80.5t-79.5 -200.5t79.5 -200.5t196.5 -80.5t196 80.5t79 200.5zM561 212q-58 -52 -132 -52q-78 0 -128.5 51.5t-50.5 144.5
t50.5 145t128.5 52q71 0 132 -53l-56 -56q-38 32 -76 32q-46 0 -70 -32t-24 -88t24 -88t70 -32q38 0 76 32z" />
    <glyph glyph-name="ordfeminine" unicode="&#xaa;" horiz-adv-x="454" 
d="M392 296h-103v36q-40 -40 -101 -40q-69 0 -105 38q-35 35 -35 92q0 53 36.5 87t105.5 34h97v20q0 34 -18 49.5t-59 15.5q-29 0 -45.5 -7.5t-33.5 -26.5l-67 65q30 33 64 45.5t87 12.5q177 0 177 -147v-274zM287 449v23h-81q-27 0 -41.5 -12.5t-14.5 -34.5q0 -46 57 -46
q45 0 65 19q15 14 15 51z" />
    <glyph glyph-name="guillemotleft" unicode="&#xab;" horiz-adv-x="628" 
d="M562 27l-250 248l250 248v-155l-96 -93l96 -93v-155zM283 27l-249 248l249 248v-155l-94 -93l94 -93v-155z" />
    <glyph glyph-name="logicalnot" unicode="&#xac;" 
d="M497 94h-121v145h-330v121h451v-266z" />
    <glyph glyph-name="uni00AD" unicode="&#xad;" horiz-adv-x="426" 
d="M367 225h-308v121h308v-121z" />
    <glyph glyph-name="registered" unicode="&#xae;" horiz-adv-x="844" 
d="M784 356q0 -150 -106 -256t-256 -106t-256 106t-106 256t106 256t256 106t256 -106t106 -256zM698 356q0 120 -79.5 200.5t-196.5 80.5t-196.5 -80.5t-79.5 -200.5t79.5 -200.5t196.5 -80.5t196.5 80.5t79.5 200.5zM585 164h-98l-70 149h-41v-149h-86v385h157
q57 0 92.5 -35.5t35.5 -85.5q0 -37 -20 -63.5t-51 -38.5zM489 428q0 21 -15 35.5t-38 14.5h-60v-100h60q23 0 38 14.5t15 35.5z" />
    <glyph glyph-name="macron" unicode="&#xaf;" horiz-adv-x="500" 
d="M408 623h-317v88h317v-88z" />
    <glyph glyph-name="degree" unicode="&#xb0;" horiz-adv-x="478" 
d="M423 542q0 -76 -53.5 -130t-130.5 -54t-130.5 54t-53.5 130q0 77 54 131t130 54t130 -54t54 -131zM318 542q0 34 -23.5 57t-56.5 23t-55.5 -23t-22.5 -57t23 -57t56 -23t56 23t23 57z" />
    <glyph glyph-name="plusminus" unicode="&#xb1;" 
d="M493 341h-160v-161h-122v161h-161v121h161v161h122v-161h160v-121zM493 0h-443v122h443v-122z" />
    <glyph glyph-name="twosuperior" unicode="&#xb2;" horiz-adv-x="332" 
d="M306 285h-272v85l156 171q22 23 22 47q0 20 -11 31.5t-31 11.5q-42 0 -42 -44h-94q0 60 38.5 94.5t97.5 34.5q60 0 98 -34.5t38 -93.5q0 -30 -12 -51.5t-40 -52.5l-105 -114h157v-85z" />
    <glyph glyph-name="threesuperior" unicode="&#xb3;" horiz-adv-x="332" 
d="M310 412q0 -63 -40.5 -97t-100.5 -34q-59 0 -100 33t-41 99h94q0 -23 13 -35.5t34 -12.5t34 13t13 37q0 21 -13.5 34.5t-35.5 13.5h-13v81h13q22 0 33 12.5t11 30.5q0 21 -12 32.5t-30 11.5t-30 -11t-12 -31h-94q0 58 39 92.5t97 34.5q59 0 97.5 -35.5t38.5 -90.5
q0 -57 -45 -84q50 -32 50 -94z" />
    <glyph glyph-name="acute" unicode="&#xb4;" horiz-adv-x="500" 
d="M396 774l-114 -170h-87l64 170h137z" />
    <glyph glyph-name="mu" unicode="&#xb5;" horiz-adv-x="576" 
d="M503 0h-127v48q-51 -54 -130 -54q-27 0 -46 14v-199h-130v712h130v-315q0 -49 25.5 -72t60.5 -23q36 0 61.5 23t25.5 72v315h130v-521z" />
    <glyph glyph-name="paragraph" unicode="&#xb6;" horiz-adv-x="668" 
d="M585 -191h-130v779h-100v-779h-130v499q-76 0 -133 59.5t-57 141.5q0 97 62.5 150t168.5 53h319v-903z" />
    <glyph glyph-name="periodcentered" unicode="&#xb7;" horiz-adv-x="285" 
d="M217 212h-149v148h149v-148z" />
    <glyph glyph-name="cedilla" unicode="&#xb8;" horiz-adv-x="500" 
d="M325 -60l-44 -146h-121l69 146h96z" />
    <glyph glyph-name="onesuperior" unicode="&#xb9;" horiz-adv-x="332" 
d="M239 285h-95v321l-90 -78v106l90 78h95v-427z" />
    <glyph glyph-name="ordmasculine" unicode="&#xba;" horiz-adv-x="462" 
d="M407 504q0 -59 -10 -95.5t-38 -65.5q-49 -51 -128 -51t-128 51q-28 29 -38 65.5t-10 95.5t10.5 96t37.5 66q49 51 128 51t128 -51q27 -29 37.5 -66t10.5 -96zM302 504q0 78 -23 101q-18 18 -48 18t-48 -18q-23 -23 -23 -101q0 -77 23 -100q18 -18 48 -18t48 18
q23 23 23 100z" />
    <glyph glyph-name="guillemotright" unicode="&#xbb;" horiz-adv-x="628" 
d="M595 275l-250 -248v155l94 93l-94 93v155zM316 275l-249 -248v155l95 93l-95 93v155z" />
    <glyph glyph-name="onequarter" unicode="&#xbc;" horiz-adv-x="872" 
d="M239 285h-95v321l-90 -78v106l90 78h95v-427zM655 712l-337 -712h-101l337 712h101zM857 57h-33v-57h-90v57h-176v89l143 281h103l-144 -281h74v62h90v-62h33v-89z" />
    <glyph glyph-name="onehalf" unicode="&#xbd;" horiz-adv-x="872" 
d="M239 285h-95v321l-90 -78v106l90 78h95v-427zM655 712l-337 -712h-101l337 712h101zM846 0h-272v85l156 171q22 23 22 47q0 20 -11 31.5t-31 11.5q-42 0 -42 -44h-94q0 60 38.5 94.5t97.5 34.5q60 0 98 -34.5t38 -93.5q0 -30 -12 -51.5t-40 -52.5l-105 -114h157v-85z" />
    <glyph glyph-name="threequarters" unicode="&#xbe;" horiz-adv-x="872" 
d="M310 412q0 -63 -40.5 -97t-100.5 -34q-59 0 -100 33t-41 99h94q0 -23 13 -35.5t34 -12.5t34 13t13 37q0 21 -13.5 34.5t-35.5 13.5h-13v81h13q22 0 33 12.5t11 30.5q0 21 -12 32.5t-30 11.5t-30 -11t-12 -31h-94q0 58 39 92.5t97 34.5q59 0 97.5 -35.5t38.5 -90.5
q0 -57 -45 -84q50 -32 50 -94zM655 712l-337 -712h-101l337 712h101zM857 57h-33v-57h-90v57h-176v89l143 281h103l-144 -281h74v62h90v-62h33v-89z" />
    <glyph glyph-name="questiondown" unicode="&#xbf;" horiz-adv-x="523" 
d="M457 4q0 -91 -60.5 -146t-150.5 -55q-88 0 -149 54t-61 146q0 60 49 125l74 99q18 23 18 51v20h130v-30q0 -54 -38 -104l-74 -95q-29 -38 -29 -67q0 -36 21.5 -59t58.5 -23q38 0 59.5 24t21.5 60h130zM311 388h-138v133h138v-133z" />
    <glyph glyph-name="Agrave" unicode="&#xc0;" horiz-adv-x="638" 
d="M633 0h-145l-42 126h-253l-43 -126h-145l259 712h109zM409 243l-87 259l-90 -259h177zM372 781h-87l-114 170h137z" />
    <glyph glyph-name="Aacute" unicode="&#xc1;" horiz-adv-x="638" 
d="M633 0h-145l-42 126h-253l-43 -126h-145l259 712h109zM409 243l-87 259l-90 -259h177zM463 951l-114 -170h-87l64 170h137z" />
    <glyph glyph-name="Acircumflex" unicode="&#xc2;" horiz-adv-x="638" 
d="M633 0h-145l-42 126h-253l-43 -126h-145l259 712h109zM409 243l-87 259l-90 -259h177zM501 781h-101l-83 91l-83 -91h-101l132 169h104z" />
    <glyph glyph-name="Atilde" unicode="&#xc3;" horiz-adv-x="638" 
d="M633 0h-145l-42 126h-253l-43 -126h-145l259 712h109zM409 243l-87 259l-90 -259h177zM497 849q-59 -59 -113 -59q-40 0 -78 23q-31 18 -56 18q-29 0 -58 -29l-56 57q58 59 112 59q39 0 77 -23q30 -18 55 -18q30 0 59 29z" />
    <glyph glyph-name="Adieresis" unicode="&#xc4;" horiz-adv-x="638" 
d="M633 0h-145l-42 126h-253l-43 -126h-145l259 712h109zM409 243l-87 259l-90 -259h177zM485 783h-111v125h111v-125zM264 783h-111v125h111v-125z" />
    <glyph glyph-name="Aring" unicode="&#xc5;" horiz-adv-x="638" 
d="M633 0h-145l-42 126h-253l-43 -126h-145l259 712h109zM409 243l-87 259l-90 -259h177zM448 884q0 -54 -38.5 -92.5t-92.5 -38.5t-92.5 38.5t-38.5 92.5t38.5 92.5t92.5 38.5t92.5 -38t38.5 -93zM375 884q0 24 -17 41t-41 17t-41 -17t-17 -41t17 -41.5t41 -17.5t41 17.5
t17 41.5z" />
    <glyph glyph-name="AE" unicode="&#xc6;" horiz-adv-x="979" 
d="M926 0h-468v156h-225l-81 -156h-149l372 712h551v-124h-330v-168h282v-124h-282v-172h330v-124zM458 273v315l-165 -315h165z" />
    <glyph glyph-name="Ccedilla" unicode="&#xc7;" horiz-adv-x="620" 
d="M583 219q-19 -109 -89 -167t-172 -58q-114 0 -191 75q-49 49 -60.5 107.5t-11.5 179.5t11.5 179.5t60.5 107.5q77 75 191 75q102 0 172 -58t89 -167h-142q-24 101 -119 101q-57 0 -89 -37q-20 -23 -27.5 -62.5t-7.5 -138.5t7.5 -138.5t27.5 -62.5q32 -37 89 -37
q96 0 120 101h141zM379 -60l-44 -146h-121l69 146h96z" />
    <glyph glyph-name="Egrave" unicode="&#xc8;" horiz-adv-x="605" 
d="M552 0h-469v712h469v-124h-330v-167h281v-124h-281v-173h330v-124zM365 781h-87l-114 170h137z" />
    <glyph glyph-name="Eacute" unicode="&#xc9;" horiz-adv-x="605" 
d="M552 0h-469v712h469v-124h-330v-167h281v-124h-281v-173h330v-124zM455 951l-114 -170h-87l64 170h137z" />
    <glyph glyph-name="Ecircumflex" unicode="&#xca;" horiz-adv-x="605" 
d="M552 0h-469v712h469v-124h-330v-167h281v-124h-281v-173h330v-124zM494 781h-101l-83 91l-83 -91h-101l132 169h104z" />
    <glyph glyph-name="Edieresis" unicode="&#xcb;" horiz-adv-x="605" 
d="M552 0h-469v712h469v-124h-330v-167h281v-124h-281v-173h330v-124zM476 783h-111v125h111v-125zM255 783h-111v125h111v-125z" />
    <glyph glyph-name="Igrave" unicode="&#xcc;" horiz-adv-x="305" 
d="M222 0h-139v712h139v-712zM222 781h-87l-114 170h137z" />
    <glyph glyph-name="Iacute" unicode="&#xcd;" horiz-adv-x="305" 
d="M222 0h-139v712h139v-712zM284 951l-114 -170h-87l64 170h137z" />
    <glyph glyph-name="Icircumflex" unicode="&#xce;" horiz-adv-x="305" 
d="M222 0h-139v712h139v-712zM336 781h-101l-83 91l-83 -91h-101l132 169h104z" />
    <glyph glyph-name="Idieresis" unicode="&#xcf;" horiz-adv-x="305" 
d="M222 0h-139v712h139v-712zM319 783h-111v125h111v-125zM98 783h-111v125h111v-125z" />
    <glyph glyph-name="Eth" unicode="&#xd0;" horiz-adv-x="682" 
d="M623 356q0 -105 -7.5 -157.5t-37.5 -94.5q-75 -104 -215 -104h-257v306h-69v106h69v300h257q140 0 215 -104q30 -42 37.5 -94.5t7.5 -157.5zM484 356q0 90 -5 128t-24 60q-35 44 -104 44h-106v-176h116v-106h-116v-182h106q69 0 104 44q19 22 24 60t5 128z" />
    <glyph glyph-name="Ntilde" unicode="&#xd1;" horiz-adv-x="711" 
d="M628 0h-124l-282 437v-437h-139v712h124l282 -436v436h139v-712zM536 849q-59 -59 -113 -59q-40 0 -78 23q-31 18 -56 18q-29 0 -58 -29l-56 57q58 59 112 59q39 0 77 -23q30 -18 55 -18q30 0 59 29z" />
    <glyph glyph-name="Ograve" unicode="&#xd2;" horiz-adv-x="644" 
d="M585 356q0 -120 -12 -179t-61 -108q-75 -75 -190 -75q-116 0 -191 75q-49 49 -60.5 107.5t-11.5 179.5t11.5 179.5t60.5 107.5q75 75 191 75q115 0 190 -75q49 -49 61 -108t12 -179zM446 356q0 99 -7.5 138t-27.5 62q-33 38 -89 38q-55 0 -90 -38q-20 -23 -27 -62
t-7 -138t7 -137.5t27 -61.5q36 -39 90 -39q55 0 89 39q20 24 27.5 62.5t7.5 136.5zM377 781h-87l-114 170h137z" />
    <glyph glyph-name="Oacute" unicode="&#xd3;" horiz-adv-x="644" 
d="M585 356q0 -120 -12 -179t-61 -108q-75 -75 -190 -75q-116 0 -191 75q-49 49 -60.5 107.5t-11.5 179.5t11.5 179.5t60.5 107.5q75 75 191 75q115 0 190 -75q49 -49 61 -108t12 -179zM446 356q0 99 -7.5 138t-27.5 62q-33 38 -89 38q-55 0 -90 -38q-20 -23 -27 -62
t-7 -138t7 -137.5t27 -61.5q36 -39 90 -39q55 0 89 39q20 24 27.5 62.5t7.5 136.5zM468 951l-114 -170h-87l64 170h137z" />
    <glyph glyph-name="Ocircumflex" unicode="&#xd4;" horiz-adv-x="644" 
d="M585 356q0 -120 -12 -179t-61 -108q-75 -75 -190 -75q-116 0 -191 75q-49 49 -60.5 107.5t-11.5 179.5t11.5 179.5t60.5 107.5q75 75 191 75q115 0 190 -75q49 -49 61 -108t12 -179zM446 356q0 99 -7.5 138t-27.5 62q-33 38 -89 38q-55 0 -90 -38q-20 -23 -27 -62
t-7 -138t7 -137.5t27 -61.5q36 -39 90 -39q55 0 89 39q20 24 27.5 62.5t7.5 136.5zM506 781h-101l-83 91l-83 -91h-101l132 169h104z" />
    <glyph glyph-name="Otilde" unicode="&#xd5;" horiz-adv-x="644" 
d="M585 356q0 -120 -12 -179t-61 -108q-75 -75 -190 -75q-116 0 -191 75q-49 49 -60.5 107.5t-11.5 179.5t11.5 179.5t60.5 107.5q75 75 191 75q115 0 190 -75q49 -49 61 -108t12 -179zM446 356q0 99 -7.5 138t-27.5 62q-33 38 -89 38q-55 0 -90 -38q-20 -23 -27 -62
t-7 -138t7 -137.5t27 -61.5q36 -39 90 -39q55 0 89 39q20 24 27.5 62.5t7.5 136.5zM502 849q-59 -59 -113 -59q-40 0 -78 23q-31 18 -56 18q-29 0 -58 -29l-56 57q58 59 112 59q39 0 77 -23q30 -18 55 -18q30 0 59 29z" />
    <glyph glyph-name="Odieresis" unicode="&#xd6;" horiz-adv-x="644" 
d="M585 356q0 -120 -12 -179t-61 -108q-75 -75 -190 -75q-116 0 -191 75q-49 49 -60.5 107.5t-11.5 179.5t11.5 179.5t60.5 107.5q75 75 191 75q115 0 190 -75q49 -49 61 -108t12 -179zM446 356q0 99 -7.5 138t-27.5 62q-33 38 -89 38q-55 0 -90 -38q-20 -23 -27 -62
t-7 -138t7 -137.5t27 -61.5q36 -39 90 -39q55 0 89 39q20 24 27.5 62.5t7.5 136.5zM488 783h-111v125h111v-125zM267 783h-111v125h111v-125z" />
    <glyph glyph-name="multiply" unicode="&#xd7;" 
d="M494 145l-82 -82l-141 141l-140 -141l-82 82l141 141l-141 141l82 82l140 -141l141 141l82 -82l-141 -141z" />
    <glyph glyph-name="Oslash" unicode="&#xd8;" horiz-adv-x="644" 
d="M585 356q0 -120 -12 -179t-61 -108q-75 -75 -190 -75q-65 0 -113 21l-29 -59h-99l53 110l-3 3q-49 49 -60.5 107.5t-11.5 179.5t11.5 179.5t60.5 107.5q75 75 191 75q61 0 113 -22l29 60h98l-53 -110l3 -3q49 -49 61 -108t12 -179zM446 356q0 109 -10 150l-178 -371
q28 -17 64 -17q55 0 89 39q20 24 27.5 62.5t7.5 136.5zM198 356q0 -113 9 -150l178 371q-28 17 -63 17q-55 0 -90 -38q-20 -23 -27 -62t-7 -138z" />
    <glyph glyph-name="Ugrave" unicode="&#xd9;" horiz-adv-x="668" 
d="M596 244q0 -111 -75 -180.5t-187 -69.5t-187 69.5t-75 180.5v468h139v-463q0 -61 33 -96t90 -35t90.5 35t33.5 96v463h138v-468zM389 781h-87l-114 170h137z" />
    <glyph glyph-name="Uacute" unicode="&#xda;" horiz-adv-x="668" 
d="M596 244q0 -111 -75 -180.5t-187 -69.5t-187 69.5t-75 180.5v468h139v-463q0 -61 33 -96t90 -35t90.5 35t33.5 96v463h138v-468zM480 951l-114 -170h-87l64 170h137z" />
    <glyph glyph-name="Ucircumflex" unicode="&#xdb;" horiz-adv-x="668" 
d="M596 244q0 -111 -75 -180.5t-187 -69.5t-187 69.5t-75 180.5v468h139v-463q0 -61 33 -96t90 -35t90.5 35t33.5 96v463h138v-468zM518 781h-101l-83 91l-83 -91h-101l132 169h104z" />
    <glyph glyph-name="Udieresis" unicode="&#xdc;" horiz-adv-x="668" 
d="M596 244q0 -111 -75 -180.5t-187 -69.5t-187 69.5t-75 180.5v468h139v-463q0 -61 33 -96t90 -35t90.5 35t33.5 96v463h138v-468zM500 783h-111v125h111v-125zM279 783h-111v125h111v-125z" />
    <glyph glyph-name="Yacute" unicode="&#xdd;" horiz-adv-x="572" 
d="M569 712l-214 -420v-292h-138v292l-214 420h151l133 -287l131 287h151zM431 951l-114 -170h-87l64 170h137z" />
    <glyph glyph-name="Thorn" unicode="&#xde;" horiz-adv-x="633" 
d="M594 360q0 -94 -64 -158t-171 -64h-137v-138h-139v712h139v-131h137q107 0 171 -63.5t64 -157.5zM455 360q0 44 -28 70.5t-75 26.5h-130v-195h130q47 0 75 27t28 71z" />
    <glyph glyph-name="germandbls" unicode="&#xdf;" horiz-adv-x="574" 
d="M516 161q0 -76 -41 -119q-40 -42 -126 -42h-52v110h26q27 0 44 15q18 15 18 47v144q0 30 -15 45q-15 16 -45 16h-28v102h28q26 0 43 15t17 45q0 28 -19 46q-23 20 -70 20q-50 0 -71.5 -23.5t-21.5 -70.5v-511h-130v521q0 100 61.5 148.5t163.5 48.5q99 0 158 -44t59 -131
q0 -76 -61 -113q62 -30 62 -109v-160z" />
    <glyph glyph-name="agrave" unicode="&#xe0;" horiz-adv-x="534" 
d="M467 0h-127v45q-27 -27 -55.5 -38.5t-72.5 -11.5q-87 0 -133 46q-43 45 -43 117q0 66 46 108.5t134 42.5h121v26q0 43 -23 62.5t-74 19.5q-61 0 -100 -45l-82 81q38 42 79.5 58t107.5 16q222 0 222 -184v-343zM337 192v28h-99q-77 0 -77 -60q0 -59 79 -59q51 0 77 25
q20 17 20 66zM316 604h-87l-114 170h137z" />
    <glyph glyph-name="aacute" unicode="&#xe1;" horiz-adv-x="534" 
d="M467 0h-127v45q-27 -27 -55.5 -38.5t-72.5 -11.5q-87 0 -133 46q-43 45 -43 117q0 66 46 108.5t134 42.5h121v26q0 43 -23 62.5t-74 19.5q-61 0 -100 -45l-82 81q38 42 79.5 58t107.5 16q222 0 222 -184v-343zM337 192v28h-99q-77 0 -77 -60q0 -59 79 -59q51 0 77 25
q20 17 20 66zM407 774l-114 -170h-87l64 170h137z" />
    <glyph glyph-name="acircumflex" unicode="&#xe2;" horiz-adv-x="534" 
d="M467 0h-127v45q-27 -27 -55.5 -38.5t-72.5 -11.5q-87 0 -133 46q-43 45 -43 117q0 66 46 108.5t134 42.5h121v26q0 43 -23 62.5t-74 19.5q-61 0 -100 -45l-82 81q38 42 79.5 58t107.5 16q222 0 222 -184v-343zM337 192v28h-99q-77 0 -77 -60q0 -59 79 -59q51 0 77 25
q20 17 20 66zM445 604h-101l-83 91l-83 -91h-101l132 169h104z" />
    <glyph glyph-name="atilde" unicode="&#xe3;" horiz-adv-x="534" 
d="M467 0h-127v45q-27 -27 -55.5 -38.5t-72.5 -11.5q-87 0 -133 46q-43 45 -43 117q0 66 46 108.5t134 42.5h121v26q0 43 -23 62.5t-74 19.5q-61 0 -100 -45l-82 81q38 42 79.5 58t107.5 16q222 0 222 -184v-343zM337 192v28h-99q-77 0 -77 -60q0 -59 79 -59q51 0 77 25
q20 17 20 66zM436 671q-58 -58 -113 -58q-39 0 -77 22q-31 18 -56 18q-30 0 -58 -28l-57 57q58 58 112 58q40 0 78 -22q30 -19 55 -19q29 0 58 29z" />
    <glyph glyph-name="adieresis" unicode="&#xe4;" horiz-adv-x="534" 
d="M467 0h-127v45q-27 -27 -55.5 -38.5t-72.5 -11.5q-87 0 -133 46q-43 45 -43 117q0 66 46 108.5t134 42.5h121v26q0 43 -23 62.5t-74 19.5q-61 0 -100 -45l-82 81q38 42 79.5 58t107.5 16q222 0 222 -184v-343zM337 192v28h-99q-77 0 -77 -60q0 -59 79 -59q51 0 77 25
q20 17 20 66zM428 606h-111v125h111v-125zM207 606h-111v125h111v-125z" />
    <glyph glyph-name="aring" unicode="&#xe5;" horiz-adv-x="534" 
d="M467 0h-127v45q-27 -27 -55.5 -38.5t-72.5 -11.5q-87 0 -133 46q-43 45 -43 117q0 66 46 108.5t134 42.5h121v26q0 43 -23 62.5t-74 19.5q-61 0 -100 -45l-82 81q38 42 79.5 58t107.5 16q222 0 222 -184v-343zM337 192v28h-99q-77 0 -77 -60q0 -59 79 -59q51 0 77 25
q20 17 20 66zM392 715q0 -54 -38.5 -92.5t-92.5 -38.5t-92.5 38.5t-38.5 92.5t38.5 92.5t92.5 38.5t92.5 -38t38.5 -93zM319 715q0 24 -17 41t-41 17t-41 -17t-17 -41t17 -41.5t41 -17.5t41 17.5t17 41.5z" />
    <glyph glyph-name="ae" unicode="&#xe6;" horiz-adv-x="838" 
d="M337 192v28h-99q-77 0 -77 -60q0 -59 79 -59q51 0 77 25q20 17 20 66zM663 309q-1 34 -12 56q-23 54 -87 54t-87 -54q-10 -22 -12 -56h198zM395 67q-39 -41 -78.5 -57t-104.5 -16q-86 0 -133 47q-43 45 -43 117q0 66 46 108.5t134 42.5h121v26q0 43 -23 62.5t-74 19.5
q-61 0 -100 -45l-82 81q38 42 79.5 58t107.5 16q119 0 171 -57q54 57 148 57q107 0 167 -69.5t60 -182.5v-55h-326q0 -52 30 -84t84 -32q40 0 65.5 11.5t52.5 37.5l79 -77q-42 -43 -86.5 -62.5t-111.5 -19.5q-120 0 -183 73z" />
    <glyph glyph-name="ccedilla" unicode="&#xe7;" horiz-adv-x="480" 
d="M452 65q-68 -71 -172 -71q-33 0 -64 7.5t-62.5 26t-54.5 48t-37.5 77t-14.5 108.5t14.5 108.5t37.5 76.5t54.5 48t62.5 26t64 7q105 0 172 -70l-88 -88q-38 41 -84 41t-74 -34q-29 -36 -29 -115q0 -80 29 -116q28 -34 74 -34t84 41zM325 -60l-44 -146h-121l69 146h96z
" />
    <glyph glyph-name="egrave" unicode="&#xe8;" horiz-adv-x="548" 
d="M501 220h-326q0 -52 30 -84t84 -32q40 0 65.5 11.5t52.5 37.5l79 -77q-42 -43 -86.5 -62.5t-111.5 -19.5q-50 0 -90.5 12.5t-75.5 41.5t-55 83t-20 130q0 125 62 195.5t165 70.5q107 0 167 -69.5t60 -182.5v-55zM373 309q-1 34 -12 56q-24 54 -87 54t-87 -54
q-11 -22 -12 -56h198zM332 604h-87l-114 170h137z" />
    <glyph glyph-name="eacute" unicode="&#xe9;" horiz-adv-x="548" 
d="M501 220h-326q0 -52 30 -84t84 -32q40 0 65.5 11.5t52.5 37.5l79 -77q-42 -43 -86.5 -62.5t-111.5 -19.5q-50 0 -90.5 12.5t-75.5 41.5t-55 83t-20 130q0 125 62 195.5t165 70.5q107 0 167 -69.5t60 -182.5v-55zM373 309q-1 34 -12 56q-24 54 -87 54t-87 -54
q-11 -22 -12 -56h198zM423 774l-114 -170h-87l64 170h137z" />
    <glyph glyph-name="ecircumflex" unicode="&#xea;" horiz-adv-x="548" 
d="M501 220h-326q0 -52 30 -84t84 -32q40 0 65.5 11.5t52.5 37.5l79 -77q-42 -43 -86.5 -62.5t-111.5 -19.5q-50 0 -90.5 12.5t-75.5 41.5t-55 83t-20 130q0 125 62 195.5t165 70.5q107 0 167 -69.5t60 -182.5v-55zM373 309q-1 34 -12 56q-24 54 -87 54t-87 -54
q-11 -22 -12 -56h198zM461 604h-101l-83 91l-83 -91h-101l132 169h104z" />
    <glyph glyph-name="edieresis" unicode="&#xeb;" horiz-adv-x="548" 
d="M501 220h-326q0 -52 30 -84t84 -32q40 0 65.5 11.5t52.5 37.5l79 -77q-42 -43 -86.5 -62.5t-111.5 -19.5q-50 0 -90.5 12.5t-75.5 41.5t-55 83t-20 130q0 125 62 195.5t165 70.5q107 0 167 -69.5t60 -182.5v-55zM373 309q-1 34 -12 56q-24 54 -87 54t-87 -54
q-11 -22 -12 -56h198zM443 606h-111v125h111v-125zM222 606h-111v125h111v-125z" />
    <glyph glyph-name="igrave" unicode="&#xec;" horiz-adv-x="275" 
d="M203 0h-130v506h130v-506zM202 604h-87l-114 170h137z" />
    <glyph glyph-name="iacute" unicode="&#xed;" horiz-adv-x="275" 
d="M203 0h-130v506h130v-506zM273 774l-114 -170h-87l64 170h137z" />
    <glyph glyph-name="icircumflex" unicode="&#xee;" horiz-adv-x="275" 
d="M203 0h-130v506h130v-506zM321 604h-101l-83 91l-83 -91h-101l132 169h104z" />
    <glyph glyph-name="idieresis" unicode="&#xef;" horiz-adv-x="275" 
d="M203 0h-130v506h130v-506zM304 606h-111v125h111v-125zM83 606h-111v125h111v-125z" />
    <glyph glyph-name="eth" unicode="&#xf0;" 
d="M486 254q0 -73 -12.5 -118t-45.5 -80q-60 -62 -157 -62t-157 62q-33 35 -45.5 80t-12.5 118q0 72 12.5 117t45.5 80q32 34 89 49q29 8 58 8q12 0 18 -1l-34 62h-114v91h68l-31 60h139l31 -60h92v-91h-46l40 -77q37 -72 49.5 -119t12.5 -119zM356 254q0 92 -27 120
q-22 22 -58 22q-35 0 -57 -22q-28 -29 -28 -120q0 -92 28 -121q22 -22 57 -22q36 0 58 22q27 28 27 121z" />
    <glyph glyph-name="ntilde" unicode="&#xf1;" horiz-adv-x="573" 
d="M506 0h-130v315q0 49 -25.5 72t-60.5 23q-36 0 -61.5 -23t-25.5 -72v-315h-130v521h127v-48q51 54 130 54q77 0 123 -46q53 -53 53 -148v-333zM465 671q-58 -58 -113 -58q-38 0 -77 22q-31 18 -56 18q-30 0 -58 -28l-57 57q58 58 112 58q40 0 78 -22q30 -19 55 -19
q29 0 58 29z" />
    <glyph glyph-name="ograve" unicode="&#xf2;" 
d="M492 261q0 -75 -12.5 -121.5t-46.5 -81.5q-62 -64 -162 -64q-99 0 -161 64q-34 36 -46.5 82.5t-12.5 120.5t12.5 120t46.5 82q62 64 161 64q102 0 162 -64q34 -36 46.5 -82t12.5 -120zM362 261q0 97 -30 126q-23 23 -61 23q-37 0 -60 -23q-30 -29 -30 -126q0 -98 30 -127
q23 -23 60 -23q38 0 61 23q30 29 30 127zM323 604h-87l-114 170h137z" />
    <glyph glyph-name="oacute" unicode="&#xf3;" 
d="M492 261q0 -75 -12.5 -121.5t-46.5 -81.5q-62 -64 -162 -64q-99 0 -161 64q-34 36 -46.5 82.5t-12.5 120.5t12.5 120t46.5 82q62 64 161 64q102 0 162 -64q34 -36 46.5 -82t12.5 -120zM362 261q0 97 -30 126q-23 23 -61 23q-37 0 -60 -23q-30 -29 -30 -126q0 -98 30 -127
q23 -23 60 -23q38 0 61 23q30 29 30 127zM418 774l-114 -170h-87l64 170h137z" />
    <glyph glyph-name="ocircumflex" unicode="&#xf4;" 
d="M492 261q0 -75 -12.5 -121.5t-46.5 -81.5q-62 -64 -162 -64q-99 0 -161 64q-34 36 -46.5 82.5t-12.5 120.5t12.5 120t46.5 82q62 64 161 64q102 0 162 -64q34 -36 46.5 -82t12.5 -120zM362 261q0 97 -30 126q-23 23 -61 23q-37 0 -60 -23q-30 -29 -30 -126q0 -98 30 -127
q23 -23 60 -23q38 0 61 23q30 29 30 127zM456 604h-101l-83 91l-83 -91h-101l132 169h104z" />
    <glyph glyph-name="otilde" unicode="&#xf5;" 
d="M492 261q0 -75 -12.5 -121.5t-46.5 -81.5q-62 -64 -162 -64q-99 0 -161 64q-34 36 -46.5 82.5t-12.5 120.5t12.5 120t46.5 82q62 64 161 64q102 0 162 -64q34 -36 46.5 -82t12.5 -120zM362 261q0 97 -30 126q-23 23 -61 23q-37 0 -60 -23q-30 -29 -30 -126q0 -98 30 -127
q23 -23 60 -23q38 0 61 23q30 29 30 127zM447 671q-58 -58 -113 -58q-38 0 -77 22q-31 18 -56 18q-30 0 -58 -28l-57 57q58 58 112 58q40 0 78 -22q30 -19 55 -19q29 0 58 29z" />
    <glyph glyph-name="odieresis" unicode="&#xf6;" 
d="M492 261q0 -75 -12.5 -121.5t-46.5 -81.5q-62 -64 -162 -64q-99 0 -161 64q-34 36 -46.5 82.5t-12.5 120.5t12.5 120t46.5 82q62 64 161 64q102 0 162 -64q34 -36 46.5 -82t12.5 -120zM362 261q0 97 -30 126q-23 23 -61 23q-37 0 -60 -23q-30 -29 -30 -126q0 -98 30 -127
q23 -23 60 -23q38 0 61 23q30 29 30 127zM438 606h-111v125h111v-125zM217 606h-111v125h111v-125z" />
    <glyph glyph-name="divide" unicode="&#xf7;" 
d="M497 225h-451v121h451v-121zM337 423h-130v130h130v-130zM337 18h-130v130h130v-130z" />
    <glyph glyph-name="oslash" unicode="&#xf8;" 
d="M492 261q0 -75 -12.5 -121.5t-46.5 -81.5q-60 -64 -162 -64q-58 0 -104 23l-36 -61h-79l59 101q-35 37 -47.5 82.5t-12.5 121.5q0 74 12.5 120.5t46.5 81.5q60 64 161 64q61 0 105 -22l35 60h80l-59 -100q36 -39 48 -84t12 -120zM362 261q0 53 -8 85l-131 -222
q21 -13 48 -13q38 0 61 23q30 30 30 127zM320 397q-21 13 -49 13q-37 0 -60 -23q-30 -30 -30 -126q0 -58 7 -86z" />
    <glyph glyph-name="ugrave" unicode="&#xf9;" horiz-adv-x="573" 
d="M500 0h-127v48q-51 -54 -130 -54q-77 0 -123 46q-53 53 -53 148v333h130v-315q0 -49 25.5 -72t60.5 -23q36 0 61.5 23t25.5 72v315h130v-521zM338 604h-87l-114 170h137z" />
    <glyph glyph-name="uacute" unicode="&#xfa;" horiz-adv-x="573" 
d="M500 0h-127v48q-51 -54 -130 -54q-77 0 -123 46q-53 53 -53 148v333h130v-315q0 -49 25.5 -72t60.5 -23q36 0 61.5 23t25.5 72v315h130v-521zM429 774l-114 -170h-87l64 170h137z" />
    <glyph glyph-name="ucircumflex" unicode="&#xfb;" horiz-adv-x="573" 
d="M500 0h-127v48q-51 -54 -130 -54q-77 0 -123 46q-53 53 -53 148v333h130v-315q0 -49 25.5 -72t60.5 -23q36 0 61.5 23t25.5 72v315h130v-521zM467 604h-101l-83 91l-83 -91h-101l132 169h104z" />
    <glyph glyph-name="udieresis" unicode="&#xfc;" horiz-adv-x="573" 
d="M500 0h-127v48q-51 -54 -130 -54q-77 0 -123 46q-53 53 -53 148v333h130v-315q0 -49 25.5 -72t60.5 -23q36 0 61.5 23t25.5 72v315h130v-521zM450 606h-111v125h111v-125zM229 606h-111v125h111v-125z" />
    <glyph glyph-name="yacute" unicode="&#xfd;" horiz-adv-x="494" 
d="M490 521l-223 -605q-17 -45 -39 -67q-40 -40 -112 -40h-51v117h30q28 0 41.5 9.5t23.5 37.5l22 64l-178 484h137l108 -322l104 322h137zM390 774l-114 -170h-87l64 170h137z" />
    <glyph glyph-name="thorn" unicode="&#xfe;" horiz-adv-x="562" 
d="M509 261q0 -81 -10 -133t-44 -87q-45 -47 -126 -47t-126 52v-237h-130v903h130v-237q45 52 126 52t126 -47q34 -35 44 -86.5t10 -132.5zM379 261q0 36 -3 59.5t-11.5 45.5t-27 33t-46.5 11t-46.5 -11t-27 -33t-11.5 -45.5t-3 -59.5t3 -59.5t11.5 -46t27 -33.5t46.5 -11
t46.5 11t27 33.5t11.5 46t3 59.5z" />
    <glyph glyph-name="ydieresis" unicode="&#xff;" horiz-adv-x="494" 
d="M490 521l-223 -605q-17 -45 -39 -67q-40 -40 -112 -40h-51v117h30q28 0 41.5 9.5t23.5 37.5l22 64l-178 484h137l108 -322l104 322h137zM415 606h-111v125h111v-125zM194 606h-111v125h111v-125z" />
    <glyph glyph-name="Amacron" unicode="&#x100;" horiz-adv-x="638" 
d="M633 0h-145l-42 126h-253l-43 -126h-145l259 712h109zM409 243l-87 259l-90 -259h177zM159 793v88h317v-88h-317z" />
    <glyph glyph-name="amacron" unicode="&#x101;" horiz-adv-x="534" 
d="M467 0h-127v45q-27 -27 -55.5 -38.5t-72.5 -11.5q-87 0 -133 46q-43 45 -43 117q0 66 46 108.5t134 42.5h121v26q0 43 -23 62.5t-74 19.5q-61 0 -100 -45l-82 81q38 42 79.5 58t107.5 16q222 0 222 -184v-343zM337 192v28h-99q-77 0 -77 -60q0 -59 79 -59q51 0 77 25
q20 17 20 66zM424 623h-317v88h317v-88z" />
    <glyph glyph-name="Abreve" unicode="&#x102;" horiz-adv-x="638" 
d="M633 0h-145l-42 126h-253l-43 -126h-145l259 712h109zM409 243l-87 259l-90 -259h177zM482 930q-4 -77 -49 -114t-115 -37t-115.5 37t-48.5 114h87q7 -60 77 -60t77 60h87z" />
    <glyph glyph-name="abreve" unicode="&#x103;" horiz-adv-x="534" 
d="M467 0h-127v45q-27 -27 -55.5 -38.5t-72.5 -11.5q-87 0 -133 46q-43 45 -43 117q0 66 46 108.5t134 42.5h121v26q0 43 -23 62.5t-74 19.5q-61 0 -100 -45l-82 81q38 42 79.5 58t107.5 16q222 0 222 -184v-343zM337 192v28h-99q-77 0 -77 -60q0 -59 79 -59q51 0 77 25
q20 17 20 66zM419 748q-4 -77 -49 -114t-115 -37t-115.5 37t-48.5 114h87q7 -60 77 -60t77 60h87z" />
    <glyph glyph-name="Aogonek" unicode="&#x104;" horiz-adv-x="638" 
d="M633 0h-145l-42 126h-253l-43 -126h-145l259 712h109zM409 243l-87 259l-90 -259h177zM584 -60l-44 -146h-121l69 146h96z" />
    <glyph glyph-name="aogonek" unicode="&#x105;" horiz-adv-x="534" 
d="M467 0h-127v45q-27 -27 -55.5 -38.5t-72.5 -11.5q-87 0 -133 46q-43 45 -43 117q0 66 46 108.5t134 42.5h121v26q0 43 -23 62.5t-74 19.5q-61 0 -100 -45l-82 81q38 42 79.5 58t107.5 16q222 0 222 -184v-343zM337 192v28h-99q-77 0 -77 -60q0 -59 79 -59q51 0 77 25
q20 17 20 66zM436 -60l-44 -146h-121l69 146h96z" />
    <glyph glyph-name="Cacute" unicode="&#x106;" horiz-adv-x="620" 
d="M583 219q-19 -109 -89 -167t-172 -58q-114 0 -191 75q-49 49 -60.5 107.5t-11.5 179.5t11.5 179.5t60.5 107.5q77 75 191 75q102 0 172 -58t89 -167h-142q-24 101 -119 101q-57 0 -89 -37q-20 -23 -27.5 -62.5t-7.5 -138.5t7.5 -138.5t27.5 -62.5q32 -37 89 -37
q96 0 120 101h141zM456 951l-114 -170h-87l64 170h137z" />
    <glyph glyph-name="cacute" unicode="&#x107;" horiz-adv-x="480" 
d="M452 65q-68 -71 -172 -71q-33 0 -64 7.5t-62.5 26t-54.5 48t-37.5 77t-14.5 108.5t14.5 108.5t37.5 76.5t54.5 48t62.5 26t64 7q105 0 172 -70l-88 -88q-38 41 -84 41t-74 -34q-29 -36 -29 -115q0 -80 29 -116q28 -34 74 -34t84 41zM411 774l-114 -170h-87l64 170h137z
" />
    <glyph glyph-name="Ccircumflex" unicode="&#x108;" horiz-adv-x="620" 
d="M583 219q-19 -109 -89 -167t-172 -58q-114 0 -191 75q-49 49 -60.5 107.5t-11.5 179.5t11.5 179.5t60.5 107.5q77 75 191 75q102 0 172 -58t89 -167h-142q-24 101 -119 101q-57 0 -89 -37q-20 -23 -27.5 -62.5t-7.5 -138.5t7.5 -138.5t27.5 -62.5q32 -37 89 -37
q96 0 120 101h141zM506 781h-101l-83 91l-83 -91h-101l132 169h104z" />
    <glyph glyph-name="ccircumflex" unicode="&#x109;" horiz-adv-x="480" 
d="M452 65q-68 -71 -172 -71q-33 0 -64 7.5t-62.5 26t-54.5 48t-37.5 77t-14.5 108.5t14.5 108.5t37.5 76.5t54.5 48t62.5 26t64 7q105 0 172 -70l-88 -88q-38 41 -84 41t-74 -34q-29 -36 -29 -115q0 -80 29 -116q28 -34 74 -34t84 41zM464 604h-101l-83 91l-83 -91h-101
l132 169h104z" />
    <glyph glyph-name="Cdotaccent" unicode="&#x10a;" horiz-adv-x="620" 
d="M583 219q-19 -109 -89 -167t-172 -58q-114 0 -191 75q-49 49 -60.5 107.5t-11.5 179.5t11.5 179.5t60.5 107.5q77 75 191 75q102 0 172 -58t89 -167h-142q-24 101 -119 101q-57 0 -89 -37q-20 -23 -27.5 -62.5t-7.5 -138.5t7.5 -138.5t27.5 -62.5q32 -37 89 -37
q96 0 120 101h141zM261 789v116h115v-116h-115z" />
    <glyph glyph-name="cdotaccent" unicode="&#x10b;" horiz-adv-x="480" 
d="M452 65q-68 -71 -172 -71q-33 0 -64 7.5t-62.5 26t-54.5 48t-37.5 77t-14.5 108.5t14.5 108.5t37.5 76.5t54.5 48t62.5 26t64 7q105 0 172 -70l-88 -88q-38 41 -84 41t-74 -34q-29 -36 -29 -115q0 -80 29 -116q28 -34 74 -34t84 41zM222 612v115h115v-115h-115z" />
    <glyph glyph-name="Ccaron" unicode="&#x10c;" horiz-adv-x="620" 
d="M583 219q-19 -109 -89 -167t-172 -58q-114 0 -191 75q-49 49 -60.5 107.5t-11.5 179.5t11.5 179.5t60.5 107.5q77 75 191 75q102 0 172 -58t89 -167h-142q-24 101 -119 101q-57 0 -89 -37q-20 -23 -27.5 -62.5t-7.5 -138.5t7.5 -138.5t27.5 -62.5q32 -37 89 -37
q96 0 120 101h141zM506 950l-132 -169h-104l-132 169h101l83 -90l83 90h101z" />
    <glyph glyph-name="ccaron" unicode="&#x10d;" horiz-adv-x="480" 
d="M452 65q-68 -71 -172 -71q-33 0 -64 7.5t-62.5 26t-54.5 48t-37.5 77t-14.5 108.5t14.5 108.5t37.5 76.5t54.5 48t62.5 26t64 7q105 0 172 -70l-88 -88q-38 41 -84 41t-74 -34q-29 -36 -29 -115q0 -80 29 -116q28 -34 74 -34t84 41zM464 773l-132 -169h-104l-132 169h101
l83 -90l83 90h101z" />
    <glyph glyph-name="Dcaron" unicode="&#x10e;" horiz-adv-x="659" 
d="M600 356q0 -105 -7.5 -157.5t-37.5 -94.5q-75 -104 -215 -104h-257v712h257q140 0 215 -104q30 -42 37.5 -94.5t7.5 -157.5zM461 356q0 90 -5 128t-24 60q-35 44 -104 44h-106v-464h106q69 0 104 44q19 22 24 60t5 128zM513 950l-132 -169h-104l-132 169h101l83 -90
l83 90h101z" />
    <glyph glyph-name="dcaron" unicode="&#x10f;" horiz-adv-x="561" 
d="M488 0h-127v49q-49 -55 -129 -55q-82 0 -127 47q-34 35 -44 87t-10 133q0 80 10 132t44 87q45 47 126 47q80 0 127 -52v237h130v-712zM358 261q0 73 -17.5 111t-71.5 38q-28 0 -46.5 -11t-27 -33t-11.5 -45.5t-3 -59.5t3 -59.5t11.5 -46t27 -33.5t46.5 -11t46.5 11
t27.5 33t12 46.5t3 59.5zM698 741l-60 -166h-91l36 166h115z" />
    <glyph glyph-name="Dcroat" unicode="&#x110;" horiz-adv-x="682" 
d="M623 356q0 -105 -7.5 -157.5t-37.5 -94.5q-75 -104 -215 -104h-257v306h-69v106h69v300h257q140 0 215 -104q30 -42 37.5 -94.5t7.5 -157.5zM484 356q0 90 -5 128t-24 60q-35 44 -104 44h-106v-176h116v-106h-116v-182h106q69 0 104 44q19 22 24 60t5 128z" />
    <glyph glyph-name="dcroat" unicode="&#x111;" horiz-adv-x="581" 
d="M488 0h-127v49q-49 -55 -129 -55q-82 0 -127 47q-34 35 -44 87t-10 133q0 80 10 132t44 87q45 47 126 47q80 0 127 -52v92h-89v82h89v63h130v-63h60v-82h-60v-567zM358 261q0 73 -17.5 111t-71.5 38q-28 0 -46.5 -11t-27 -33t-11.5 -45.5t-3 -59.5t3 -59.5t11.5 -46
t27 -33.5t46.5 -11t46.5 11t27.5 33t12 46.5t3 59.5z" />
    <glyph glyph-name="Emacron" unicode="&#x112;" horiz-adv-x="605" 
d="M552 0h-469v712h469v-124h-330v-167h281v-124h-281v-173h330v-124zM148 793v88h317v-88h-317z" />
    <glyph glyph-name="emacron" unicode="&#x113;" horiz-adv-x="548" 
d="M501 220h-326q0 -52 30 -84t84 -32q40 0 65.5 11.5t52.5 37.5l79 -77q-42 -43 -86.5 -62.5t-111.5 -19.5q-50 0 -90.5 12.5t-75.5 41.5t-55 83t-20 130q0 125 62 195.5t165 70.5q107 0 167 -69.5t60 -182.5v-55zM373 309q-1 34 -12 56q-24 54 -87 54t-87 -54
q-11 -22 -12 -56h198zM431 623h-317v88h317v-88z" />
    <glyph glyph-name="Ebreve" unicode="&#x114;" horiz-adv-x="605" 
d="M552 0h-469v712h469v-124h-330v-167h281v-124h-281v-173h330v-124zM474 930q-4 -77 -49 -114t-115 -37t-115.5 37t-48.5 114h87q7 -60 77 -60t77 60h87z" />
    <glyph glyph-name="ebreve" unicode="&#x115;" horiz-adv-x="548" 
d="M501 220h-326q0 -52 30 -84t84 -32q40 0 65.5 11.5t52.5 37.5l79 -77q-42 -43 -86.5 -62.5t-111.5 -19.5q-50 0 -90.5 12.5t-75.5 41.5t-55 83t-20 130q0 125 62 195.5t165 70.5q107 0 167 -69.5t60 -182.5v-55zM373 309q-1 34 -12 56q-24 54 -87 54t-87 -54
q-11 -22 -12 -56h198zM441 748q-4 -77 -49 -114t-115 -37t-115.5 37t-48.5 114h87q7 -60 77 -60t77 60h87z" />
    <glyph glyph-name="Edotaccent" unicode="&#x116;" horiz-adv-x="605" 
d="M552 0h-469v712h469v-124h-330v-167h281v-124h-281v-173h330v-124zM249 789v116h115v-116h-115z" />
    <glyph glyph-name="edotaccent" unicode="&#x117;" horiz-adv-x="548" 
d="M501 220h-326q0 -52 30 -84t84 -32q40 0 65.5 11.5t52.5 37.5l79 -77q-42 -43 -86.5 -62.5t-111.5 -19.5q-50 0 -90.5 12.5t-75.5 41.5t-55 83t-20 130q0 125 62 195.5t165 70.5q107 0 167 -69.5t60 -182.5v-55zM373 309q-1 34 -12 56q-24 54 -87 54t-87 -54
q-11 -22 -12 -56h198zM215 612v115h115v-115h-115z" />
    <glyph glyph-name="Eogonek" unicode="&#x118;" horiz-adv-x="605" 
d="M552 0h-469v712h469v-124h-330v-167h281v-124h-281v-173h330v-124zM552 -60l-44 -146h-121l69 146h96z" />
    <glyph glyph-name="eogonek" unicode="&#x119;" horiz-adv-x="548" 
d="M501 220h-326q0 -52 30 -84t84 -32q40 0 65.5 11.5t52.5 37.5l79 -77q-42 -43 -86.5 -62.5t-111.5 -19.5q-50 0 -90.5 12.5t-75.5 41.5t-55 83t-20 130q0 125 62 195.5t165 70.5q107 0 167 -69.5t60 -182.5v-55zM373 309q-1 34 -12 56q-24 54 -87 54t-87 -54
q-11 -22 -12 -56h198zM407 -60l-44 -146h-121l69 146h96z" />
    <glyph glyph-name="Ecaron" unicode="&#x11a;" horiz-adv-x="605" 
d="M552 0h-469v712h469v-124h-330v-167h281v-124h-281v-173h330v-124zM490 950l-132 -169h-104l-132 169h101l83 -90l83 90h101z" />
    <glyph glyph-name="ecaron" unicode="&#x11b;" horiz-adv-x="548" 
d="M501 220h-326q0 -52 30 -84t84 -32q40 0 65.5 11.5t52.5 37.5l79 -77q-42 -43 -86.5 -62.5t-111.5 -19.5q-50 0 -90.5 12.5t-75.5 41.5t-55 83t-20 130q0 125 62 195.5t165 70.5q107 0 167 -69.5t60 -182.5v-55zM373 309q-1 34 -12 56q-24 54 -87 54t-87 -54
q-11 -22 -12 -56h198zM458 773l-132 -169h-104l-132 169h101l83 -90l83 90h101z" />
    <glyph glyph-name="Gcircumflex" unicode="&#x11c;" horiz-adv-x="649" 
d="M590 292q0 -79 -15 -128t-53 -89q-77 -81 -201 -81q-113 0 -190 75q-49 49 -60.5 107.5t-11.5 179.5t11.5 179.5t60.5 107.5q77 75 190 75q117 0 184.5 -65t83.5 -163h-140q-24 104 -128 104q-54 0 -89 -38q-20 -23 -27 -62t-7 -138q0 -100 7 -139t27 -62q34 -37 89 -37
q64 0 99 40q32 36 32 95v26h-131v117h269v-104zM506 781h-101l-83 91l-83 -91h-101l132 169h104z" />
    <glyph glyph-name="gcircumflex" unicode="&#x11d;" horiz-adv-x="555" 
d="M482 19q0 -95 -62.5 -155.5t-166.5 -60.5q-62 0 -106 15t-83 53l81 82q41 -40 102 -40q54 0 79.5 31.5t25.5 76.5v53q-47 -52 -124 -52q-78 0 -124 46q-34 34 -43.5 80.5t-9.5 126.5t9.5 126t43.5 80q46 46 125 46q77 0 127 -55v49h126v-502zM352 275q0 63 -17 99t-69 36
q-28 0 -45.5 -10.5t-26 -31.5t-11 -42t-2.5 -51t2.5 -51t10.5 -42t26 -32t46 -11t46 11t26 32t11 42t3 51zM450 604h-101l-83 91l-83 -91h-101l132 169h104z" />
    <glyph glyph-name="Gbreve" unicode="&#x11e;" horiz-adv-x="649" 
d="M590 292q0 -79 -15 -128t-53 -89q-77 -81 -201 -81q-113 0 -190 75q-49 49 -60.5 107.5t-11.5 179.5t11.5 179.5t60.5 107.5q77 75 190 75q117 0 184.5 -65t83.5 -163h-140q-24 104 -128 104q-54 0 -89 -38q-20 -23 -27 -62t-7 -138q0 -100 7 -139t27 -62q34 -37 89 -37
q64 0 99 40q32 36 32 95v26h-131v117h269v-104zM485 930q-4 -77 -49 -114t-115 -37t-115.5 37t-48.5 114h87q7 -60 77 -60t77 60h87z" />
    <glyph glyph-name="gbreve" unicode="&#x11f;" horiz-adv-x="555" 
d="M482 19q0 -95 -62.5 -155.5t-166.5 -60.5q-62 0 -106 15t-83 53l81 82q41 -40 102 -40q54 0 79.5 31.5t25.5 76.5v53q-47 -52 -124 -52q-78 0 -124 46q-34 34 -43.5 80.5t-9.5 126.5t9.5 126t43.5 80q46 46 125 46q77 0 127 -55v49h126v-502zM352 275q0 63 -17 99t-69 36
q-28 0 -45.5 -10.5t-26 -31.5t-11 -42t-2.5 -51t2.5 -51t10.5 -42t26 -32t46 -11t46 11t26 32t11 42t3 51zM430 748q-4 -77 -49 -114t-115 -37t-115.5 37t-48.5 114h87q7 -60 77 -60t77 60h87z" />
    <glyph glyph-name="Gdotaccent" unicode="&#x120;" horiz-adv-x="649" 
d="M590 292q0 -79 -15 -128t-53 -89q-77 -81 -201 -81q-113 0 -190 75q-49 49 -60.5 107.5t-11.5 179.5t11.5 179.5t60.5 107.5q77 75 190 75q117 0 184.5 -65t83.5 -163h-140q-24 104 -128 104q-54 0 -89 -38q-20 -23 -27 -62t-7 -138q0 -100 7 -139t27 -62q34 -37 89 -37
q64 0 99 40q32 36 32 95v26h-131v117h269v-104zM263 789v116h115v-116h-115z" />
    <glyph glyph-name="gdotaccent" unicode="&#x121;" horiz-adv-x="555" 
d="M482 19q0 -95 -62.5 -155.5t-166.5 -60.5q-62 0 -106 15t-83 53l81 82q41 -40 102 -40q54 0 79.5 31.5t25.5 76.5v53q-47 -52 -124 -52q-78 0 -124 46q-34 34 -43.5 80.5t-9.5 126.5t9.5 126t43.5 80q46 46 125 46q77 0 127 -55v49h126v-502zM352 275q0 63 -17 99t-69 36
q-28 0 -45.5 -10.5t-26 -31.5t-11 -42t-2.5 -51t2.5 -51t10.5 -42t26 -32t46 -11t46 11t26 32t11 42t3 51zM208 612v115h115v-115h-115z" />
    <glyph glyph-name="Gcommaaccent" unicode="&#x122;" horiz-adv-x="649" 
d="M590 292q0 -79 -15 -128t-53 -89q-77 -81 -201 -81q-113 0 -190 75q-49 49 -60.5 107.5t-11.5 179.5t11.5 179.5t60.5 107.5q77 75 190 75q117 0 184.5 -65t83.5 -163h-140q-24 104 -128 104q-54 0 -89 -38q-20 -23 -27 -62t-7 -138q0 -100 7 -139t27 -62q34 -37 89 -37
q64 0 99 40q32 36 32 95v26h-131v117h269v-104zM399 -60l-44 -146h-121l69 146h96z" />
    <glyph glyph-name="gcommaaccent" unicode="&#x123;" horiz-adv-x="555" 
d="M482 19q0 -95 -62.5 -155.5t-166.5 -60.5q-62 0 -106 15t-83 53l81 82q41 -40 102 -40q54 0 79.5 31.5t25.5 76.5v53q-47 -52 -124 -52q-78 0 -124 46q-34 34 -43.5 80.5t-9.5 126.5t9.5 126t43.5 80q46 46 125 46q77 0 127 -55v49h126v-502zM352 275q0 63 -17 99t-69 36
q-28 0 -45.5 -10.5t-26 -31.5t-11 -42t-2.5 -51t2.5 -51t10.5 -42t26 -32t46 -11t46 11t26 32t11 42t3 51zM423 774l-114 -170h-87l64 170h137z" />
    <glyph glyph-name="Hcircumflex" unicode="&#x124;" horiz-adv-x="685" 
d="M602 0h-139v298h-241v-298h-139v712h139v-291h241v291h139v-712zM527 781h-101l-83 91l-83 -91h-101l132 169h104z" />
    <glyph glyph-name="hcircumflex" unicode="&#x125;" horiz-adv-x="573" 
d="M506 0h-130v315q0 49 -25.5 72t-60.5 23q-36 0 -61.5 -23t-25.5 -72v-315h-130v712h130v-239q49 54 127 54q77 0 123 -46q53 -53 53 -148v-333zM323 781h-101l-83 91l-83 -91h-101l132 169h104z" />
    <glyph glyph-name="Hbar" unicode="&#x126;" horiz-adv-x="731" 
d="M694 508h-69v-508h-139v298h-241v-298h-139v508h-69v106h69v98h139v-98h241v98h139v-98h69v-106zM486 422v86h-241v-86h241z" />
    <glyph glyph-name="hbar" unicode="&#x127;" horiz-adv-x="588" 
d="M521 0h-130v315q0 49 -25.5 72t-60.5 23q-36 0 -61.5 -23t-25.5 -72v-315h-130v567h-51v82h51v63h130v-63h85v-82h-85v-94q50 54 127 54t123 -46q53 -53 53 -148v-333z" />
    <glyph glyph-name="Itilde" unicode="&#x128;" horiz-adv-x="305" 
d="M222 0h-139v712h139v-712zM332 849q-59 -59 -113 -59q-40 0 -78 23q-31 18 -56 18q-29 0 -58 -29l-56 57q58 59 112 59q39 0 77 -23q30 -18 55 -18q30 0 59 29z" />
    <glyph glyph-name="itilde" unicode="&#x129;" horiz-adv-x="275" 
d="M203 0h-130v506h130v-506zM319 671q-58 -58 -113 -58q-38 0 -77 22q-31 18 -56 18q-30 0 -58 -28l-57 57q58 58 112 58q40 0 78 -22q30 -19 55 -19q29 0 58 29z" />
    <glyph glyph-name="Imacron" unicode="&#x12a;" horiz-adv-x="305" 
d="M222 0h-139v712h139v-712zM-5 793v88h317v-88h-317z" />
    <glyph glyph-name="imacron" unicode="&#x12b;" horiz-adv-x="275" 
d="M203 0h-130v506h130v-506zM296 623h-317v88h317v-88z" />
    <glyph glyph-name="Ibreve" unicode="&#x12c;" horiz-adv-x="305" 
d="M222 0h-139v712h139v-712zM316 930q-4 -77 -49 -114t-115 -37t-115.5 37t-48.5 114h87q7 -60 77 -60t77 60h87z" />
    <glyph glyph-name="ibreve" unicode="&#x12d;" horiz-adv-x="275" 
d="M203 0h-130v506h130v-506zM302 748q-4 -77 -49 -114t-115 -37t-115.5 37t-48.5 114h87q7 -60 77 -60t77 60h87z" />
    <glyph glyph-name="Iogonek" unicode="&#x12e;" horiz-adv-x="305" 
d="M222 0h-139v712h139v-712zM179 -60l-44 -146h-121l69 146h96z" />
    <glyph glyph-name="iogonek" unicode="&#x12f;" horiz-adv-x="275" 
d="M203 0h-130v506h130v-506zM204 610h-133v106h133v-106zM169 -60l-44 -146h-121l69 146h96z" />
    <glyph glyph-name="Idotaccent" unicode="&#x130;" horiz-adv-x="305" 
d="M222 0h-139v712h139v-712zM94 789v116h115v-116h-115z" />
    <glyph glyph-name="dotlessi" unicode="&#x131;" horiz-adv-x="275" 
d="M203 0h-130v506h130v-506z" />
    <glyph glyph-name="IJ" unicode="&#x132;" horiz-adv-x="816" 
d="M222 0h-139v712h139v-712zM742 234q0 -113 -73 -176.5t-178 -63.5q-58 0 -101 17t-82 56l92 91q40 -40 91 -40q52 0 82 31t30 91v472h139v-478z" />
    <glyph glyph-name="ij" unicode="&#x133;" horiz-adv-x="550" 
d="M203 0h-130v506h130v-506zM204 610h-133v106h133v-106zM478 -46q0 -61 -38.5 -105t-113.5 -44h-74v110h50q46 0 46 47v544h130v-552zM479 610h-133v106h133v-106z" />
    <glyph glyph-name="Jcircumflex" unicode="&#x134;" horiz-adv-x="511" 
d="M437 234q0 -113 -73 -176.5t-178 -63.5q-58 0 -101 17t-82 56l92 91q40 -40 91 -40q52 0 82 31t30 91v472h139v-478zM551 781h-101l-83 91l-83 -91h-101l132 169h104z" />
    <glyph glyph-name="jcircumflex" unicode="&#x135;" horiz-adv-x="275" 
d="M203 -46q0 -61 -38.5 -105t-113.5 -44h-74v110h50q46 0 46 47v544h130v-552zM322 604h-101l-83 91l-83 -91h-101l132 169h104z" />
    <glyph glyph-name="Kcommaaccent" unicode="&#x136;" horiz-adv-x="665" 
d="M659 0h-162l-183 324l-92 -110v-214h-139v712h139v-310l251 310h169l-236 -283zM431 -60l-44 -146h-121l69 146h96z" />
    <glyph glyph-name="kcommaaccent" unicode="&#x137;" horiz-adv-x="559" 
d="M547 0h-161l-128 217l-55 -62v-155h-130v712h130v-404l173 213h157l-186 -210zM354 -60l-44 -146h-121l69 146h96z" />
    <glyph glyph-name="kgreenlandic" unicode="&#x138;" horiz-adv-x="559" 
d="M547 0h-161l-128 217l-55 -62v-155h-130v521h130v-213l173 213h157l-186 -210z" />
    <glyph glyph-name="Lacute" unicode="&#x139;" horiz-adv-x="575" 
d="M545 0h-462v712h139v-588h323v-124zM284 951l-114 -170h-87l64 170h137z" />
    <glyph glyph-name="lacute" unicode="&#x13a;" horiz-adv-x="325" 
d="M294 0h-74q-75 0 -113.5 44t-38.5 105v563h130v-555q0 -47 46 -47h50v-110zM268 951l-114 -170h-87l64 170h137z" />
    <glyph glyph-name="Lcommaaccent" unicode="&#x13b;" horiz-adv-x="575" 
d="M545 0h-462v712h139v-588h323v-124zM362 -60l-44 -146h-121l69 146h96z" />
    <glyph glyph-name="lcommaaccent" unicode="&#x13c;" horiz-adv-x="325" 
d="M294 0h-74q-75 0 -113.5 44t-38.5 105v563h130v-555q0 -47 46 -47h50v-110zM238 -60l-44 -146h-121l69 146h96z" />
    <glyph glyph-name="Lcaron" unicode="&#x13d;" horiz-adv-x="575" 
d="M545 0h-462v712h139v-588h323v-124zM468 712l-60 -166h-91l36 166h115z" />
    <glyph glyph-name="lcaron" unicode="&#x13e;" horiz-adv-x="325" 
d="M294 0h-74q-75 0 -113.5 44t-38.5 105v563h130v-555q0 -47 46 -47h50v-110zM409 741l-60 -166h-91l36 166h115z" />
    <glyph glyph-name="Ldot" unicode="&#x13f;" horiz-adv-x="575" 
d="M545 0h-462v712h139v-588h323v-124zM380 300v116h115v-116h-115z" />
    <glyph glyph-name="ldot" unicode="&#x140;" horiz-adv-x="414" 
d="M294 0h-74q-75 0 -113.5 44t-38.5 105v563h130v-555q0 -47 46 -47h50v-110zM282 228v115h115v-115h-115z" />
    <glyph glyph-name="Lslash" unicode="&#x141;" horiz-adv-x="593" 
d="M563 0h-462v244l-64 -41v116l64 41v352h139v-265l128 81v-115l-128 -81v-208h323v-124z" />
    <glyph glyph-name="lslash" unicode="&#x142;" horiz-adv-x="336" 
d="M309 0h-74q-75 0 -113 43.5t-38 105.5v153l-54 -33v109l54 34v300h130v-222l60 37v-109l-60 -38v-223q0 -47 45 -47h50v-110z" />
    <glyph glyph-name="Nacute" unicode="&#x143;" horiz-adv-x="711" 
d="M628 0h-124l-282 437v-437h-139v712h124l282 -436v436h139v-712zM501 951l-114 -170h-87l64 170h137z" />
    <glyph glyph-name="nacute" unicode="&#x144;" horiz-adv-x="573" 
d="M506 0h-130v315q0 49 -25.5 72t-60.5 23q-36 0 -61.5 -23t-25.5 -72v-315h-130v521h127v-48q51 54 130 54q77 0 123 -46q53 -53 53 -148v-333zM429 774l-114 -170h-87l64 170h137z" />
    <glyph glyph-name="Ncommaaccent" unicode="&#x145;" horiz-adv-x="711" 
d="M628 0h-124l-282 437v-437h-139v712h124l282 -436v436h139v-712zM430 -60l-44 -146h-121l69 146h96z" />
    <glyph glyph-name="ncommaaccent" unicode="&#x146;" horiz-adv-x="573" 
d="M506 0h-130v315q0 49 -25.5 72t-60.5 23q-36 0 -61.5 -23t-25.5 -72v-315h-130v521h127v-48q51 54 130 54q77 0 123 -46q53 -53 53 -148v-333zM361 -60l-44 -146h-121l69 146h96z" />
    <glyph glyph-name="Ncaron" unicode="&#x147;" horiz-adv-x="711" 
d="M628 0h-124l-282 437v-437h-139v712h124l282 -436v436h139v-712zM539 950l-132 -169h-104l-132 169h101l83 -90l83 90h101z" />
    <glyph glyph-name="ncaron" unicode="&#x148;" horiz-adv-x="573" 
d="M506 0h-130v315q0 49 -25.5 72t-60.5 23q-36 0 -61.5 -23t-25.5 -72v-315h-130v521h127v-48q51 54 130 54q77 0 123 -46q53 -53 53 -148v-333zM470 773l-132 -169h-104l-132 169h101l83 -90l83 90h101z" />
    <glyph glyph-name="napostrophe" unicode="&#x149;" horiz-adv-x="573" 
d="M506 0h-130v315q0 49 -25.5 72t-60.5 23q-36 0 -61.5 -23t-25.5 -72v-315h-130v521h127v-48q51 54 130 54q77 0 123 -46q53 -53 53 -148v-333zM75 623l-113 -88v206h113v-118z" />
    <glyph glyph-name="Eng" unicode="&#x14a;" horiz-adv-x="711" 
d="M489 23l-267 414v-437h-139v712h124l282 -436v436h139v-769q0 -61 -38.5 -105t-113.5 -44h-74v110h41q46 0 46 47v72z" />
    <glyph glyph-name="eng" unicode="&#x14b;" horiz-adv-x="573" 
d="M376 315q0 49 -25.5 72t-60.5 23q-36 0 -61.5 -23t-25.5 -72v-315h-130v521h127v-48q51 54 130 54q77 0 123 -46q53 -53 53 -148v-390q0 -61 -38.5 -105t-113.5 -44h-74v110h50q46 0 46 47v364z" />
    <glyph glyph-name="Omacron" unicode="&#x14c;" horiz-adv-x="644" 
d="M585 356q0 -120 -12 -179t-61 -108q-75 -75 -190 -75q-116 0 -191 75q-49 49 -60.5 107.5t-11.5 179.5t11.5 179.5t60.5 107.5q75 75 191 75q115 0 190 -75q49 -49 61 -108t12 -179zM446 356q0 99 -7.5 138t-27.5 62q-33 38 -89 38q-55 0 -90 -38q-20 -23 -27 -62
t-7 -138t7 -137.5t27 -61.5q36 -39 90 -39q55 0 89 39q20 24 27.5 62.5t7.5 136.5zM162 793v88h317v-88h-317z" />
    <glyph glyph-name="omacron" unicode="&#x14d;" 
d="M492 261q0 -75 -12.5 -121.5t-46.5 -81.5q-62 -64 -162 -64q-99 0 -161 64q-34 36 -46.5 82.5t-12.5 120.5t12.5 120t46.5 82q62 64 161 64q102 0 162 -64q34 -36 46.5 -82t12.5 -120zM362 261q0 97 -30 126q-23 23 -61 23q-37 0 -60 -23q-30 -29 -30 -126q0 -98 30 -127
q23 -23 60 -23q38 0 61 23q30 29 30 127zM429 623h-317v88h317v-88z" />
    <glyph glyph-name="Obreve" unicode="&#x14e;" horiz-adv-x="644" 
d="M585 356q0 -120 -12 -179t-61 -108q-75 -75 -190 -75q-116 0 -191 75q-49 49 -60.5 107.5t-11.5 179.5t11.5 179.5t60.5 107.5q75 75 191 75q115 0 190 -75q49 -49 61 -108t12 -179zM446 356q0 99 -7.5 138t-27.5 62q-33 38 -89 38q-55 0 -90 -38q-20 -23 -27 -62
t-7 -138t7 -137.5t27 -61.5q36 -39 90 -39q55 0 89 39q20 24 27.5 62.5t7.5 136.5zM486 932q-4 -77 -49 -114t-115 -37t-115.5 37t-48.5 114h87q7 -60 77 -60t77 60h87z" />
    <glyph glyph-name="obreve" unicode="&#x14f;" 
d="M492 261q0 -75 -12.5 -121.5t-46.5 -81.5q-62 -64 -162 -64q-99 0 -161 64q-34 36 -46.5 82.5t-12.5 120.5t12.5 120t46.5 82q62 64 161 64q102 0 162 -64q34 -36 46.5 -82t12.5 -120zM362 261q0 97 -30 126q-23 23 -61 23q-37 0 -60 -23q-30 -29 -30 -126q0 -98 30 -127
q23 -23 60 -23q38 0 61 23q30 29 30 127zM436 748q-4 -77 -49 -114t-115 -37t-115.5 37t-48.5 114h87q7 -60 77 -60t77 60h87z" />
    <glyph glyph-name="Ohungarumlaut" unicode="&#x150;" horiz-adv-x="644" 
d="M585 356q0 -120 -12 -179t-61 -108q-75 -75 -190 -75q-116 0 -191 75q-49 49 -60.5 107.5t-11.5 179.5t11.5 179.5t60.5 107.5q75 75 191 75q115 0 190 -75q49 -49 61 -108t12 -179zM446 356q0 99 -7.5 138t-27.5 62q-33 38 -89 38q-55 0 -90 -38q-20 -23 -27 -62
t-7 -138t7 -137.5t27 -61.5q36 -39 90 -39q55 0 89 39q20 24 27.5 62.5t7.5 136.5zM359 951l-113 -170h-88l64 170h137zM561 951l-115 -170h-86l63 170h138z" />
    <glyph glyph-name="ohungarumlaut" unicode="&#x151;" 
d="M492 261q0 -75 -12.5 -121.5t-46.5 -81.5q-62 -64 -162 -64q-99 0 -161 64q-34 36 -46.5 82.5t-12.5 120.5t12.5 120t46.5 82q62 64 161 64q102 0 162 -64q34 -36 46.5 -82t12.5 -120zM362 261q0 97 -30 126q-23 23 -61 23q-37 0 -60 -23q-30 -29 -30 -126q0 -98 30 -127
q23 -23 60 -23q38 0 61 23q30 29 30 127zM309 774l-113 -170h-88l64 170h137zM511 774l-115 -170h-86l63 170h138z" />
    <glyph glyph-name="OE" unicode="&#x152;" horiz-adv-x="966" 
d="M912 0h-466v44q-19 -22 -54.5 -36t-69.5 -14q-114 0 -191 75q-49 49 -60.5 107.5t-11.5 179.5t11.5 179.5t60.5 107.5q77 75 191 75q77 0 124 -50v44h465v-124h-326v-167h278v-124h-278v-173h327v-124zM446 356q0 100 -7 138.5t-28 61.5q-33 38 -89 38q-55 0 -90 -38
q-20 -23 -27 -62t-7 -138t7 -137.5t27 -61.5q36 -39 90 -39q55 0 89 39q21 23 28 61.5t7 137.5z" />
    <glyph glyph-name="oe" unicode="&#x153;" horiz-adv-x="863" 
d="M816 220h-326q0 -52 30 -84t84 -32q40 0 65.5 11.5t51.5 37.5l80 -77q-42 -43 -86.5 -62.5t-111.5 -19.5q-114 0 -173 67q-55 -67 -159 -67q-99 0 -161 64q-34 36 -46.5 82t-12.5 121q0 74 12.5 120t46.5 82q62 64 161 64q105 0 161 -68q57 68 157 68q106 0 166.5 -69.5
t60.5 -179.5v-58zM688 309q-1 34 -12 56q-24 54 -87 54t-87 -54q-11 -22 -12 -56h198zM362 261q0 97 -30 126q-23 23 -61 23q-37 0 -60 -23q-30 -29 -30 -126q0 -98 30 -127q23 -23 60 -23q38 0 61 23q30 29 30 127z" />
    <glyph glyph-name="Racute" unicode="&#x154;" horiz-adv-x="654" 
d="M622 0h-161l-139 284h-100v-284h-139v712h279q106 0 168.5 -63t62.5 -155q0 -71 -37 -119t-93 -68zM454 494q0 42 -28 68t-73 26h-131v-188h131q45 0 73 26t28 68zM473 951l-114 -170h-87l64 170h137z" />
    <glyph glyph-name="racute" unicode="&#x155;" horiz-adv-x="455" 
d="M454 478l-98 -99q-31 31 -69 31q-33 0 -58.5 -25t-25.5 -71v-314h-130v521h127v-50q20 24 55.5 40t75.5 16q74 0 123 -49zM372 774l-114 -170h-87l64 170h137z" />
    <glyph glyph-name="Rcommaaccent" unicode="&#x156;" horiz-adv-x="654" 
d="M622 0h-161l-139 284h-100v-284h-139v712h279q106 0 168.5 -63t62.5 -155q0 -71 -37 -119t-93 -68zM454 494q0 42 -28 68t-73 26h-131v-188h131q45 0 73 26t28 68zM402 -60l-44 -146h-121l69 146h96z" />
    <glyph glyph-name="rcommaaccent" unicode="&#x157;" horiz-adv-x="455" 
d="M454 478l-98 -99q-31 31 -69 31q-33 0 -58.5 -25t-25.5 -71v-314h-130v521h127v-50q20 24 55.5 40t75.5 16q74 0 123 -49zM188 -60l-44 -146h-121l69 146h96z" />
    <glyph glyph-name="Rcaron" unicode="&#x158;" horiz-adv-x="654" 
d="M622 0h-161l-139 284h-100v-284h-139v712h279q106 0 168.5 -63t62.5 -155q0 -71 -37 -119t-93 -68zM454 494q0 42 -28 68t-73 26h-131v-188h131q45 0 73 26t28 68zM511 950l-132 -169h-104l-132 169h101l83 -90l83 90h101z" />
    <glyph glyph-name="rcaron" unicode="&#x159;" horiz-adv-x="455" 
d="M454 478l-98 -99q-31 31 -69 31q-33 0 -58.5 -25t-25.5 -71v-314h-130v521h127v-50q20 24 55.5 40t75.5 16q74 0 123 -49zM412 773l-132 -169h-104l-132 169h101l83 -90l83 90h101z" />
    <glyph glyph-name="Sacute" unicode="&#x15a;" horiz-adv-x="591" 
d="M543 210q0 -101 -74 -158.5t-190 -57.5q-85 0 -147 21.5t-113 72.5l90 90q60 -60 171 -60q62 0 94.5 23t32.5 66q0 37 -22 59q-19 18 -64 24l-85 13q-90 13 -138 59q-51 50 -51 140q0 97 67 156.5t181 59.5q144 0 230 -83l-88 -87q-50 49 -146 49q-53 0 -81 -25.5
t-28 -64.5q0 -32 20 -51q23 -21 65 -27l85 -13q91 -13 136 -56q55 -51 55 -150zM448 951l-114 -170h-87l64 170h137z" />
    <glyph glyph-name="sacute" unicode="&#x15b;" horiz-adv-x="501" 
d="M465 164q0 -83 -62 -126.5t-159 -43.5q-72 0 -124 15t-98 60l85 85q48 -49 139 -49q38 0 65 13.5t27 40.5q0 43 -55 48l-84 8q-150 15 -150 146q0 78 58.5 122t142.5 44q133 0 199 -61l-80 -81q-39 35 -121 35q-37 0 -55.5 -14.5t-18.5 -35.5q0 -39 54 -45l82 -8
q155 -15 155 -153zM393 774l-114 -170h-87l64 170h137z" />
    <glyph glyph-name="Scircumflex" unicode="&#x15c;" horiz-adv-x="591" 
d="M543 210q0 -101 -74 -158.5t-190 -57.5q-85 0 -147 21.5t-113 72.5l90 90q60 -60 171 -60q62 0 94.5 23t32.5 66q0 37 -22 59q-19 18 -64 24l-85 13q-90 13 -138 59q-51 50 -51 140q0 97 67 156.5t181 59.5q144 0 230 -83l-88 -87q-50 49 -146 49q-53 0 -81 -25.5
t-28 -64.5q0 -32 20 -51q23 -21 65 -27l85 -13q91 -13 136 -56q55 -51 55 -150zM480 781h-101l-83 91l-83 -91h-101l132 169h104z" />
    <glyph glyph-name="scircumflex" unicode="&#x15d;" horiz-adv-x="501" 
d="M465 164q0 -83 -62 -126.5t-159 -43.5q-72 0 -124 15t-98 60l85 85q48 -49 139 -49q38 0 65 13.5t27 40.5q0 43 -55 48l-84 8q-150 15 -150 146q0 78 58.5 122t142.5 44q133 0 199 -61l-80 -81q-39 35 -121 35q-37 0 -55.5 -14.5t-18.5 -35.5q0 -39 54 -45l82 -8
q155 -15 155 -153zM446 604h-101l-83 91l-83 -91h-101l132 169h104z" />
    <glyph glyph-name="Scedilla" unicode="&#x15e;" horiz-adv-x="591" 
d="M543 210q0 -101 -74 -158.5t-190 -57.5q-85 0 -147 21.5t-113 72.5l90 90q60 -60 171 -60q62 0 94.5 23t32.5 66q0 37 -22 59q-19 18 -64 24l-85 13q-90 13 -138 59q-51 50 -51 140q0 97 67 156.5t181 59.5q144 0 230 -83l-88 -87q-50 49 -146 49q-53 0 -81 -25.5
t-28 -64.5q0 -32 20 -51q23 -21 65 -27l85 -13q91 -13 136 -56q55 -51 55 -150zM370 -60l-44 -146h-121l69 146h96z" />
    <glyph glyph-name="scedilla" unicode="&#x15f;" horiz-adv-x="501" 
d="M465 164q0 -83 -62 -126.5t-159 -43.5q-72 0 -124 15t-98 60l85 85q48 -49 139 -49q38 0 65 13.5t27 40.5q0 43 -55 48l-84 8q-150 15 -150 146q0 78 58.5 122t142.5 44q133 0 199 -61l-80 -81q-39 35 -121 35q-37 0 -55.5 -14.5t-18.5 -35.5q0 -39 54 -45l82 -8
q155 -15 155 -153zM325 -60l-44 -146h-121l69 146h96z" />
    <glyph glyph-name="Scaron" unicode="&#x160;" horiz-adv-x="591" 
d="M543 210q0 -101 -74 -158.5t-190 -57.5q-85 0 -147 21.5t-113 72.5l90 90q60 -60 171 -60q62 0 94.5 23t32.5 66q0 37 -22 59q-19 18 -64 24l-85 13q-90 13 -138 59q-51 50 -51 140q0 97 67 156.5t181 59.5q144 0 230 -83l-88 -87q-50 49 -146 49q-53 0 -81 -25.5
t-28 -64.5q0 -32 20 -51q23 -21 65 -27l85 -13q91 -13 136 -56q55 -51 55 -150zM478 950l-132 -169h-104l-132 169h101l83 -90l83 90h101z" />
    <glyph glyph-name="scaron" unicode="&#x161;" horiz-adv-x="501" 
d="M465 164q0 -83 -62 -126.5t-159 -43.5q-72 0 -124 15t-98 60l85 85q48 -49 139 -49q38 0 65 13.5t27 40.5q0 43 -55 48l-84 8q-150 15 -150 146q0 78 58.5 122t142.5 44q133 0 199 -61l-80 -81q-39 35 -121 35q-37 0 -55.5 -14.5t-18.5 -35.5q0 -39 54 -45l82 -8
q155 -15 155 -153zM434 773l-132 -169h-104l-132 169h101l83 -90l83 90h101z" />
    <glyph glyph-name="Tcommaaccent" unicode="&#x162;" horiz-adv-x="571" 
d="M541 588h-186v-588h-139v588h-186v124h511v-124zM333 -60l-44 -146h-121l69 146h96z" />
    <glyph glyph-name="tcommaaccent" unicode="&#x163;" horiz-adv-x="352" 
d="M307 0h-71q-74 0 -112.5 44t-38.5 105v258h-55v99h55v154h130v-154h92v-99h-92v-250q0 -47 45 -47h47v-110zM251 -60l-44 -146h-121l69 146h96z" />
    <glyph glyph-name="Tcaron" unicode="&#x164;" horiz-adv-x="571" 
d="M541 588h-186v-588h-139v588h-186v124h511v-124zM461 950l-132 -169h-104l-132 169h101l83 -90l83 90h101z" />
    <glyph glyph-name="tcaron" unicode="&#x165;" horiz-adv-x="352" 
d="M307 0h-71q-74 0 -112.5 44t-38.5 105v258h-55v99h55v154h130v-154h92v-99h-92v-250q0 -47 45 -47h47v-110zM425 741l-60 -166h-91l36 166h115z" />
    <glyph glyph-name="Tbar" unicode="&#x166;" horiz-adv-x="571" 
d="M541 588h-186v-176h92v-106h-92v-306h-139v306h-93v106h93v176h-186v124h511v-124z" />
    <glyph glyph-name="tbar" unicode="&#x167;" horiz-adv-x="352" 
d="M307 0h-71q-74 0 -112.5 44t-38.5 105v88h-55v99h55v71h-55v99h55v154h130v-154h92v-99h-92v-71h92v-99h-92v-80q0 -47 45 -47h47v-110z" />
    <glyph glyph-name="Utilde" unicode="&#x168;" horiz-adv-x="668" 
d="M596 244q0 -111 -75 -180.5t-187 -69.5t-187 69.5t-75 180.5v468h139v-463q0 -61 33 -96t90 -35t90.5 35t33.5 96v463h138v-468zM514 849q-59 -59 -113 -59q-40 0 -78 23q-31 18 -56 18q-29 0 -58 -29l-56 57q58 59 112 59q39 0 77 -23q30 -18 55 -18q30 0 59 29z" />
    <glyph glyph-name="utilde" unicode="&#x169;" horiz-adv-x="573" 
d="M500 0h-127v48q-51 -54 -130 -54q-77 0 -123 46q-53 53 -53 148v333h130v-315q0 -49 25.5 -72t60.5 -23q36 0 61.5 23t25.5 72v315h130v-521zM465 671q-58 -58 -113 -58q-38 0 -77 22q-31 18 -56 18q-30 0 -58 -28l-57 57q58 58 112 58q40 0 78 -22q30 -19 55 -19
q29 0 58 29z" />
    <glyph glyph-name="Umacron" unicode="&#x16a;" horiz-adv-x="668" 
d="M596 244q0 -111 -75 -180.5t-187 -69.5t-187 69.5t-75 180.5v468h139v-463q0 -61 33 -96t90 -35t90.5 35t33.5 96v463h138v-468zM175 793v88h317v-88h-317z" />
    <glyph glyph-name="umacron" unicode="&#x16b;" horiz-adv-x="573" 
d="M500 0h-127v48q-51 -54 -130 -54q-77 0 -123 46q-53 53 -53 148v333h130v-315q0 -49 25.5 -72t60.5 -23q36 0 61.5 23t25.5 72v315h130v-521zM444 623h-317v88h317v-88z" />
    <glyph glyph-name="Ubreve" unicode="&#x16c;" horiz-adv-x="668" 
d="M596 244q0 -111 -75 -180.5t-187 -69.5t-187 69.5t-75 180.5v468h139v-463q0 -61 33 -96t90 -35t90.5 35t33.5 96v463h138v-468zM498 930q-4 -77 -49 -114t-115 -37t-115.5 37t-48.5 114h87q7 -60 77 -60t77 60h87z" />
    <glyph glyph-name="ubreve" unicode="&#x16d;" horiz-adv-x="573" 
d="M500 0h-127v48q-51 -54 -130 -54q-77 0 -123 46q-53 53 -53 148v333h130v-315q0 -49 25.5 -72t60.5 -23q36 0 61.5 23t25.5 72v315h130v-521zM447 748q-4 -77 -49 -114t-115 -37t-115.5 37t-48.5 114h87q7 -60 77 -60t77 60h87z" />
    <glyph glyph-name="Uring" unicode="&#x16e;" horiz-adv-x="668" 
d="M596 244q0 -111 -75 -180.5t-187 -69.5t-187 69.5t-75 180.5v468h139v-463q0 -61 33 -96t90 -35t90.5 35t33.5 96v463h138v-468zM465 892q0 -54 -38.5 -92.5t-92.5 -38.5t-92.5 38.5t-38.5 92.5t38.5 92.5t92.5 38.5t92.5 -38t38.5 -93zM392 892q0 24 -17 41t-41 17
t-41 -17t-17 -41t17 -41.5t41 -17.5t41 17.5t17 41.5z" />
    <glyph glyph-name="uring" unicode="&#x16f;" horiz-adv-x="573" 
d="M500 0h-127v48q-51 -54 -130 -54q-77 0 -123 46q-53 53 -53 148v333h130v-315q0 -49 25.5 -72t60.5 -23q36 0 61.5 23t25.5 72v315h130v-521zM417 715q0 -54 -38.5 -92.5t-92.5 -38.5t-92.5 38.5t-38.5 92.5t38.5 92.5t92.5 38.5t92.5 -38t38.5 -93zM344 715q0 24 -17 41
t-41 17t-41 -17t-17 -41t17 -41.5t41 -17.5t41 17.5t17 41.5z" />
    <glyph glyph-name="Uhungarumlaut" unicode="&#x170;" horiz-adv-x="668" 
d="M596 244q0 -111 -75 -180.5t-187 -69.5t-187 69.5t-75 180.5v468h139v-463q0 -61 33 -96t90 -35t90.5 35t33.5 96v463h138v-468zM364 951l-113 -170h-88l64 170h137zM566 951l-115 -170h-86l63 170h138z" />
    <glyph glyph-name="uhungarumlaut" unicode="&#x171;" horiz-adv-x="573" 
d="M500 0h-127v48q-51 -54 -130 -54q-77 0 -123 46q-53 53 -53 148v333h130v-315q0 -49 25.5 -72t60.5 -23q36 0 61.5 23t25.5 72v315h130v-521zM316 774l-113 -170h-88l64 170h137zM518 774l-115 -170h-86l63 170h138z" />
    <glyph glyph-name="Uogonek" unicode="&#x172;" horiz-adv-x="668" 
d="M596 244q0 -111 -75 -180.5t-187 -69.5t-187 69.5t-75 180.5v468h139v-463q0 -61 33 -96t90 -35t90.5 35t33.5 96v463h138v-468zM500 -60l-44 -146h-121l69 146h96z" />
    <glyph glyph-name="uogonek" unicode="&#x173;" horiz-adv-x="573" 
d="M500 0h-127v48q-51 -54 -130 -54q-77 0 -123 46q-53 53 -53 148v333h130v-315q0 -49 25.5 -72t60.5 -23q36 0 61.5 23t25.5 72v315h130v-521zM469 -60l-44 -146h-121l69 146h96z" />
    <glyph glyph-name="Wcircumflex" unicode="&#x174;" horiz-adv-x="887" 
d="M881 712l-191 -712h-116l-131 432l-131 -432h-116l-190 712h145l110 -449l130 449h104l130 -449l111 449h145zM627 781h-101l-83 91l-83 -91h-101l132 169h104z" />
    <glyph glyph-name="wcircumflex" unicode="&#x175;" horiz-adv-x="759" 
d="M755 521l-159 -521h-107l-109 327l-109 -327h-107l-160 521h138l84 -322l106 322h95l107 -322l84 322h137zM564 604h-101l-83 91l-83 -91h-101l132 169h104z" />
    <glyph glyph-name="Ycircumflex" unicode="&#x176;" horiz-adv-x="572" 
d="M569 712l-214 -420v-292h-138v292l-214 420h151l133 -287l131 287h151zM470 781h-101l-83 91l-83 -91h-101l132 169h104z" />
    <glyph glyph-name="ycircumflex" unicode="&#x177;" horiz-adv-x="494" 
d="M490 521l-223 -605q-17 -45 -39 -67q-40 -40 -112 -40h-51v117h30q28 0 41.5 9.5t23.5 37.5l22 64l-178 484h137l108 -322l104 322h137zM433 604h-101l-83 91l-83 -91h-101l132 169h104z" />
    <glyph glyph-name="Ydieresis" unicode="&#x178;" horiz-adv-x="572" 
d="M569 712l-214 -420v-292h-138v292l-214 420h151l133 -287l131 287h151zM452 783h-111v125h111v-125zM231 783h-111v125h111v-125z" />
    <glyph glyph-name="Zacute" unicode="&#x179;" horiz-adv-x="548" 
d="M508 0h-468v112l304 476h-291v124h455v-110l-305 -478h305v-124zM428 951l-114 -170h-87l64 170h137z" />
    <glyph glyph-name="zacute" unicode="&#x17a;" horiz-adv-x="478" 
d="M434 0h-397v99l231 305h-218v117h384v-99l-234 -305h234v-117zM381 774l-114 -170h-87l64 170h137z" />
    <glyph glyph-name="Zdotaccent" unicode="&#x17b;" horiz-adv-x="548" 
d="M508 0h-468v112l304 476h-291v124h455v-110l-305 -478h305v-124zM215 789v116h115v-116h-115z" />
    <glyph glyph-name="zdotaccent" unicode="&#x17c;" horiz-adv-x="478" 
d="M434 0h-397v99l231 305h-218v117h384v-99l-234 -305h234v-117zM182 612v115h115v-115h-115z" />
    <glyph glyph-name="Zcaron" unicode="&#x17d;" horiz-adv-x="548" 
d="M508 0h-468v112l304 476h-291v124h455v-110l-305 -478h305v-124zM461 950l-132 -169h-104l-132 169h101l83 -90l83 90h101z" />
    <glyph glyph-name="zcaron" unicode="&#x17e;" horiz-adv-x="478" 
d="M434 0h-397v99l231 305h-218v117h384v-99l-234 -305h234v-117zM426 773l-132 -169h-104l-132 169h101l83 -90l83 90h101z" />
    <glyph glyph-name="longs" unicode="&#x17f;" horiz-adv-x="275" 
d="M203 563v-563h-130v571q0 61 39 105t113 44h74v-110h-51q-45 0 -45 -47z" />
    <glyph glyph-name="uni018F" unicode="&#x18f;" horiz-adv-x="649" 
d="M590 356q0 -121 -11.5 -180t-60.5 -107q-77 -75 -190 -75q-124 0 -201 81q-38 40 -53 89t-15 128v104h391q-1 73 -8 105.5t-26 54.5q-33 38 -88 38q-104 0 -128 -104h-140q15 98 83 163t185 65q113 0 190 -75q47 -47 59.5 -107.5t12.5 -179.5zM449 279h-252v-26
q0 -59 32 -95q35 -40 99 -40q56 0 88 37q17 18 24 44t9 80z" />
    <glyph glyph-name="florin" unicode="&#x192;" horiz-adv-x="427" 
d="M397 610h-69q-46 0 -54 -47l-29 -166h96v-100h-113l-87 -488h-130l87 488h-67v100h84l31 174q11 66 58.5 107t115.5 41h77v-109z" />
    <glyph glyph-name="uni01B5" unicode="&#x1b5;" horiz-adv-x="548" 
d="M508 0h-468v112l124 195h-50v106h118l112 175h-291v124h455v-110l-121 -189h51v-106h-118l-117 -183h305v-124z" />
    <glyph glyph-name="uni01B6" unicode="&#x1b6;" horiz-adv-x="478" 
d="M434 0h-397v99l90 119h-23v82h85l79 104h-218v117h384v-99l-94 -122h43v-82h-106l-77 -101h234v-117z" />
    <glyph glyph-name="uni01C4" unicode="&#x1c4;" horiz-adv-x="1207" 
d="M600 356q0 -105 -7.5 -157.5t-37.5 -94.5q-75 -104 -215 -104h-257v712h257q140 0 215 -104q30 -42 37.5 -94.5t7.5 -157.5zM461 356q0 90 -5 128t-24 60q-35 44 -104 44h-106v-464h106q69 0 104 44q19 22 24 60t5 128zM1167 0h-468v112l304 476h-291v124h455v-110
l-305 -478h305v-124zM1120 950l-132 -169h-104l-132 169h101l83 -90l83 90h101z" />
    <glyph glyph-name="uni01C5" unicode="&#x1c5;" horiz-adv-x="1137" 
d="M600 356q0 -105 -7.5 -157.5t-37.5 -94.5q-75 -104 -215 -104h-257v712h257q140 0 215 -104q30 -42 37.5 -94.5t7.5 -157.5zM461 356q0 90 -5 128t-24 60q-35 44 -104 44h-106v-464h106q69 0 104 44q19 22 24 60t5 128zM1093 0h-397v99l231 305h-218v117h384v-99
l-234 -305h234v-117zM1085 773l-132 -169h-104l-132 169h101l83 -90l83 90h101z" />
    <glyph glyph-name="uni01C6" unicode="&#x1c6;" horiz-adv-x="1039" 
d="M488 0h-127v49q-49 -55 -129 -55q-82 0 -127 47q-34 35 -44 87t-10 133q0 80 10 132t44 87q45 47 126 47q80 0 127 -52v237h130v-712zM358 261q0 73 -17.5 111t-71.5 38q-28 0 -46.5 -11t-27 -33t-11.5 -45.5t-3 -59.5t3 -59.5t11.5 -46t27 -33.5t46.5 -11t46.5 11
t27.5 33t12 46.5t3 59.5zM995 0h-397v99l231 305h-218v117h384v-99l-234 -305h234v-117zM987 773l-132 -169h-104l-132 169h101l83 -90l83 90h101z" />
    <glyph glyph-name="uni01C7" unicode="&#x1c7;" horiz-adv-x="1086" 
d="M545 0h-462v712h139v-588h323v-124zM1012 234q0 -113 -73 -176.5t-178 -63.5q-58 0 -101 17t-82 56l92 91q40 -40 91 -40q52 0 82 31t30 91v472h139v-478z" />
    <glyph glyph-name="uni01C8" unicode="&#x1c8;" horiz-adv-x="850" 
d="M545 0h-462v712h139v-588h323v-124zM778 -46q0 -61 -38.5 -105t-113.5 -44h-74v110h50q46 0 46 47v544h130v-552zM779 610h-133v106h133v-106z" />
    <glyph glyph-name="uni01C9" unicode="&#x1c9;" horiz-adv-x="600" 
d="M294 0h-74q-75 0 -113.5 44t-38.5 105v563h130v-555q0 -47 46 -47h50v-110zM528 -46q0 -61 -38.5 -105t-113.5 -44h-74v110h50q46 0 46 47v544h130v-552zM529 610h-133v106h133v-106z" />
    <glyph glyph-name="uni01CA" unicode="&#x1ca;" horiz-adv-x="1222" 
d="M628 0h-124l-282 437v-437h-139v712h124l282 -436v436h139v-712zM1148 234q0 -113 -73 -176.5t-178 -63.5q-58 0 -101 17t-82 56l92 91q40 -40 91 -40q52 0 82 31t30 91v472h139v-478z" />
    <glyph glyph-name="uni01CB" unicode="&#x1cb;" horiz-adv-x="986" 
d="M628 0h-124l-282 437v-437h-139v712h124l282 -436v436h139v-712zM914 -46q0 -61 -38.5 -105t-113.5 -44h-74v110h50q46 0 46 47v544h130v-552zM915 610h-133v106h133v-106z" />
    <glyph glyph-name="uni01CC" unicode="&#x1cc;" horiz-adv-x="848" 
d="M506 0h-130v315q0 49 -25.5 72t-60.5 23q-36 0 -61.5 -23t-25.5 -72v-315h-130v521h127v-48q51 54 130 54q77 0 123 -46q53 -53 53 -148v-333zM776 -46q0 -61 -38.5 -105t-113.5 -44h-74v110h50q46 0 46 47v544h130v-552zM777 610h-133v106h133v-106z" />
    <glyph glyph-name="uni01F1" unicode="&#x1f1;" horiz-adv-x="1207" 
d="M600 356q0 -105 -7.5 -157.5t-37.5 -94.5q-75 -104 -215 -104h-257v712h257q140 0 215 -104q30 -42 37.5 -94.5t7.5 -157.5zM461 356q0 90 -5 128t-24 60q-35 44 -104 44h-106v-464h106q69 0 104 44q19 22 24 60t5 128zM1167 0h-468v112l304 476h-291v124h455v-110
l-305 -478h305v-124z" />
    <glyph glyph-name="uni01F2" unicode="&#x1f2;" horiz-adv-x="1137" 
d="M600 356q0 -105 -7.5 -157.5t-37.5 -94.5q-75 -104 -215 -104h-257v712h257q140 0 215 -104q30 -42 37.5 -94.5t7.5 -157.5zM461 356q0 90 -5 128t-24 60q-35 44 -104 44h-106v-464h106q69 0 104 44q19 22 24 60t5 128zM1093 0h-397v99l231 305h-218v117h384v-99
l-234 -305h234v-117z" />
    <glyph glyph-name="uni01F3" unicode="&#x1f3;" horiz-adv-x="1039" 
d="M488 0h-127v49q-49 -55 -129 -55q-82 0 -127 47q-34 35 -44 87t-10 133q0 80 10 132t44 87q45 47 126 47q80 0 127 -52v237h130v-712zM358 261q0 73 -17.5 111t-71.5 38q-28 0 -46.5 -11t-27 -33t-11.5 -45.5t-3 -59.5t3 -59.5t11.5 -46t27 -33.5t46.5 -11t46.5 11
t27.5 33t12 46.5t3 59.5zM995 0h-397v99l231 305h-218v117h384v-99l-234 -305h234v-117z" />
    <glyph glyph-name="Aringacute" unicode="&#x1fa;" horiz-adv-x="638" 
d="M633 0h-145l-42 126h-253l-43 -126h-145l259 712h109zM409 243l-87 259l-90 -259h177zM448 884q0 -54 -38.5 -92.5t-92.5 -38.5t-92.5 38.5t-38.5 92.5t38.5 92.5t92.5 38.5t92.5 -38t38.5 -93zM375 884q0 24 -17 41t-41 17t-41 -17t-17 -41t17 -41.5t41 -17.5t41 17.5
t17 41.5zM463 1195l-114 -170h-87l64 170h137z" />
    <glyph glyph-name="aringacute" unicode="&#x1fb;" horiz-adv-x="534" 
d="M467 0h-127v45q-27 -27 -55.5 -38.5t-72.5 -11.5q-87 0 -133 46q-43 45 -43 117q0 66 46 108.5t134 42.5h121v26q0 43 -23 62.5t-74 19.5q-61 0 -100 -45l-82 81q38 42 79.5 58t107.5 16q222 0 222 -184v-343zM337 192v28h-99q-77 0 -77 -60q0 -59 79 -59q51 0 77 25
q20 17 20 66zM392 715q0 -54 -38.5 -92.5t-92.5 -38.5t-92.5 38.5t-38.5 92.5t38.5 92.5t92.5 38.5t92.5 -38t38.5 -93zM319 715q0 24 -17 41t-41 17t-41 -17t-17 -41t17 -41.5t41 -17.5t41 17.5t17 41.5zM407 1026l-114 -170h-87l64 170h137z" />
    <glyph glyph-name="AEacute" unicode="&#x1fc;" horiz-adv-x="979" 
d="M926 0h-468v156h-225l-81 -156h-149l372 712h551v-124h-330v-168h282v-124h-282v-172h330v-124zM458 273v315l-165 -315h165zM659 951l-114 -170h-87l64 170h137z" />
    <glyph glyph-name="aeacute" unicode="&#x1fd;" horiz-adv-x="838" 
d="M337 192v28h-99q-77 0 -77 -60q0 -59 79 -59q51 0 77 25q20 17 20 66zM663 309q-1 34 -12 56q-23 54 -87 54t-87 -54q-10 -22 -12 -56h198zM395 67q-39 -41 -78.5 -57t-104.5 -16q-86 0 -133 47q-43 45 -43 117q0 66 46 108.5t134 42.5h121v26q0 43 -23 62.5t-74 19.5
q-61 0 -100 -45l-82 81q38 42 79.5 58t107.5 16q119 0 171 -57q54 57 148 57q107 0 167 -69.5t60 -182.5v-55h-326q0 -52 30 -84t84 -32q40 0 65.5 11.5t52.5 37.5l79 -77q-42 -43 -86.5 -62.5t-111.5 -19.5q-120 0 -183 73zM536 774l-114 -170h-87l64 170h137z" />
    <glyph glyph-name="Oslashacute" unicode="&#x1fe;" horiz-adv-x="644" 
d="M585 356q0 -120 -12 -179t-61 -108q-75 -75 -190 -75q-65 0 -113 21l-29 -59h-99l53 110l-3 3q-49 49 -60.5 107.5t-11.5 179.5t11.5 179.5t60.5 107.5q75 75 191 75q61 0 113 -22l29 60h98l-53 -110l3 -3q49 -49 61 -108t12 -179zM446 356q0 109 -10 150l-178 -371
q28 -17 64 -17q55 0 89 39q20 24 27.5 62.5t7.5 136.5zM198 356q0 -113 9 -150l178 371q-28 17 -63 17q-55 0 -90 -38q-20 -23 -27 -62t-7 -138zM468 951l-114 -170h-87l64 170h137z" />
    <glyph glyph-name="oslashacute" unicode="&#x1ff;" 
d="M492 261q0 -75 -12.5 -121.5t-46.5 -81.5q-60 -64 -162 -64q-58 0 -104 23l-36 -61h-79l59 101q-35 37 -47.5 82.5t-12.5 121.5q0 74 12.5 120.5t46.5 81.5q60 64 161 64q61 0 105 -22l35 60h80l-59 -100q36 -39 48 -84t12 -120zM362 261q0 53 -8 85l-131 -222
q21 -13 48 -13q38 0 61 23q30 30 30 127zM320 397q-21 13 -49 13q-37 0 -60 -23q-30 -30 -30 -126q0 -58 7 -86zM418 774l-114 -170h-87l64 170h137z" />
    <glyph glyph-name="Scommaaccent" unicode="&#x218;" horiz-adv-x="591" 
d="M543 210q0 -101 -74 -158.5t-190 -57.5q-85 0 -147 21.5t-113 72.5l90 90q60 -60 171 -60q62 0 94.5 23t32.5 66q0 37 -22 59q-19 18 -64 24l-85 13q-90 13 -138 59q-51 50 -51 140q0 97 67 156.5t181 59.5q144 0 230 -83l-88 -87q-50 49 -146 49q-53 0 -81 -25.5
t-28 -64.5q0 -32 20 -51q23 -21 65 -27l85 -13q91 -13 136 -56q55 -51 55 -150zM370 -60l-44 -146h-121l69 146h96z" />
    <glyph glyph-name="scommaaccent" unicode="&#x219;" horiz-adv-x="501" 
d="M465 164q0 -83 -62 -126.5t-159 -43.5q-72 0 -124 15t-98 60l85 85q48 -49 139 -49q38 0 65 13.5t27 40.5q0 43 -55 48l-84 8q-150 15 -150 146q0 78 58.5 122t142.5 44q133 0 199 -61l-80 -81q-39 35 -121 35q-37 0 -55.5 -14.5t-18.5 -35.5q0 -39 54 -45l82 -8
q155 -15 155 -153zM325 -60l-44 -146h-121l69 146h96z" />
    <glyph glyph-name="uni021A" unicode="&#x21a;" horiz-adv-x="571" 
d="M541 588h-186v-588h-139v588h-186v124h511v-124zM333 -60l-44 -146h-121l69 146h96z" />
    <glyph glyph-name="uni021B" unicode="&#x21b;" horiz-adv-x="352" 
d="M307 0h-71q-74 0 -112.5 44t-38.5 105v258h-55v99h55v154h130v-154h92v-99h-92v-250q0 -47 45 -47h47v-110zM251 -60l-44 -146h-121l69 146h96z" />
    <glyph glyph-name="uni0237" unicode="&#x237;" horiz-adv-x="275" 
d="M203 -46q0 -61 -38.5 -105t-113.5 -44h-74v110h50q46 0 46 47v544h130v-552z" />
    <glyph glyph-name="uni0259" unicode="&#x259;" horiz-adv-x="548" 
d="M47 301h326q0 52 -30 84t-84 32q-40 0 -65.5 -11.5t-52.5 -37.5l-79 77q42 43 86.5 62.5t111.5 19.5q50 0 90.5 -12.5t75.5 -41.5t55 -83t20 -130q0 -125 -62 -195.5t-165 -70.5q-107 0 -167 69.5t-60 182.5v55zM175 212q1 -34 12 -56q24 -54 87 -54t87 54q11 22 12 56
h-198z" />
    <glyph glyph-name="uni02BB" unicode="&#x2bb;" horiz-adv-x="273" 
d="M204 589h-136v123l136 105v-228z" />
    <glyph glyph-name="afii57929" unicode="&#x2bc;" horiz-adv-x="273" 
d="M204 588l-136 -103v227h136v-124z" />
    <glyph glyph-name="circumflex" unicode="&#x2c6;" horiz-adv-x="500" 
d="M434 604h-101l-83 91l-83 -91h-101l132 169h104z" />
    <glyph glyph-name="caron" unicode="&#x2c7;" horiz-adv-x="500" 
d="M434 773l-132 -169h-104l-132 169h101l83 -90l83 90h101z" />
    <glyph glyph-name="breve" unicode="&#x2d8;" horiz-adv-x="500" 
d="M414 748q-4 -77 -49 -114t-115 -37t-115.5 37t-48.5 114h87q7 -60 77 -60t77 60h87z" />
    <glyph glyph-name="dotaccent" unicode="&#x2d9;" horiz-adv-x="500" 
d="M308 612h-116v116h116v-116z" />
    <glyph glyph-name="ring" unicode="&#x2da;" horiz-adv-x="500" 
d="M381 715q0 -54 -38.5 -92.5t-92.5 -38.5t-92.5 38.5t-38.5 92.5t38.5 92.5t92.5 38.5t92.5 -38t38.5 -93zM308 715q0 24 -17 41t-41 17t-41 -17t-17 -41t17 -41.5t41 -17.5t41 17.5t17 41.5z" />
    <glyph glyph-name="ogonek" unicode="&#x2db;" horiz-adv-x="500" 
d="M407 -60l-44 -146h-121l69 146h96z" />
    <glyph glyph-name="tilde" unicode="&#x2dc;" horiz-adv-x="500" 
d="M447 671q-58 -58 -113 -58q-38 0 -77 22q-31 18 -56 18q-30 0 -58 -28l-57 57q58 58 112 58q40 0 78 -22q30 -19 55 -19q29 0 58 29z" />
    <glyph glyph-name="hungarumlaut" unicode="&#x2dd;" horiz-adv-x="500" 
d="M260 774l-113 -170h-88l64 170h137zM462 774l-115 -170h-86l63 170h138z" />
    <glyph glyph-name="uni037E" unicode="&#x37e;" horiz-adv-x="309" 
d="M238 -55l-142 -110v307h142v-197zM241 271h-148v148h148v-148z" />
    <glyph glyph-name="tonos" unicode="&#x384;" horiz-adv-x="360" 
d="M242 622l-116 -49v158h116v-109z" />
    <glyph glyph-name="dieresistonos" unicode="&#x385;" horiz-adv-x="481" 
d="M454 590h-111v125h111v-125zM301 639l-115 -49v158h115v-109zM138 590h-111v125h111v-125z" />
    <glyph glyph-name="Alphatonos" unicode="&#x386;" horiz-adv-x="638" 
d="M633 0h-145l-42 126h-253l-43 -126h-145l259 712h109zM409 243l-87 259l-90 -259h177zM90 603l-116 -49v158h116v-109z" />
    <glyph glyph-name="anoteleia" unicode="&#x387;" horiz-adv-x="285" 
d="M217 212h-149v148h149v-148z" />
    <glyph glyph-name="Epsilontonos" unicode="&#x388;" horiz-adv-x="605" 
d="M552 0h-469v712h469v-124h-330v-167h281v-124h-281v-173h330v-124zM10 603l-116 -49v158h116v-109z" />
    <glyph glyph-name="Etatonos" unicode="&#x389;" horiz-adv-x="685" 
d="M602 0h-139v298h-241v-298h-139v712h139v-291h241v291h139v-712zM10 603l-116 -49v158h116v-109z" />
    <glyph glyph-name="Iotatonos" unicode="&#x38a;" horiz-adv-x="305" 
d="M222 0h-139v712h139v-712zM10 603l-116 -49v158h116v-109z" />
    <glyph glyph-name="Omicrontonos" unicode="&#x38c;" horiz-adv-x="644" 
d="M585 356q0 -120 -12 -179t-61 -108q-75 -75 -190 -75q-116 0 -191 75q-49 49 -60.5 107.5t-11.5 179.5t11.5 179.5t60.5 107.5q75 75 191 75q115 0 190 -75q49 -49 61 -108t12 -179zM446 356q0 99 -7.5 138t-27.5 62q-33 38 -89 38q-55 0 -90 -38q-20 -23 -27 -62
t-7 -138t7 -137.5t27 -61.5q36 -39 90 -39q55 0 89 39q20 24 27.5 62.5t7.5 136.5zM30 603l-116 -49v158h116v-109z" />
    <glyph glyph-name="Upsilontonos" unicode="&#x38e;" horiz-adv-x="572" 
d="M569 712l-214 -420v-292h-138v292l-214 420h151l133 -287l131 287h151zM-30 603l-116 -49v158h116v-109z" />
    <glyph glyph-name="Omegatonos" unicode="&#x38f;" horiz-adv-x="644" 
d="M585 356q0 -121 -23 -178q-13 -31 -36 -54h59v-124h-219v110q37 18 53 43q27 38 27 196q0 101 -7 142t-28 64q-34 39 -89 39q-54 0 -90 -39q-20 -23 -27 -64.5t-7 -141.5q0 -159 26 -196q18 -27 54 -43v-110h-219v124h59q-24 22 -37 54q-22 57 -22 178t11.5 179.5
t60.5 107.5q77 75 191 75q115 0 190 -75q49 -49 61 -108t12 -179zM30 603l-116 -49v158h116v-109z" />
    <glyph glyph-name="iotadieresistonos" unicode="&#x390;" horiz-adv-x="325" 
d="M294 0h-74q-75 0 -113.5 44t-38.5 105v372h130v-364q0 -47 46 -47h50v-110zM354 590h-111v125h111v-125zM201 639l-115 -49v158h115v-109zM38 590h-111v125h111v-125z" />
    <glyph glyph-name="Alpha" unicode="&#x391;" horiz-adv-x="638" 
d="M633 0h-145l-42 126h-253l-43 -126h-145l259 712h109zM409 243l-87 259l-90 -259h177z" />
    <glyph glyph-name="Beta" unicode="&#x392;" horiz-adv-x="658" 
d="M599 205q0 -97 -60 -151t-158 -54h-298v712h286q103 0 161.5 -54t58.5 -146q0 -54 -27.5 -92.5t-60.5 -54.5q98 -46 98 -160zM450 506q0 37 -24 59.5t-68 22.5h-136v-164h136q44 0 68 22.5t24 59.5zM460 212q0 38 -24 62.5t-69 24.5h-145v-175h145q45 0 69 25t24 63z" />
    <glyph glyph-name="Gamma" unicode="&#x393;" horiz-adv-x="568" 
d="M539 588h-317v-588h-139v712h456v-124z" />
    <glyph glyph-name="uni0394" unicode="&#x394;" horiz-adv-x="634" 
d="M631 0h-628l260 712h108zM450 117l-130 385l-134 -385h264z" />
    <glyph glyph-name="Epsilon" unicode="&#x395;" horiz-adv-x="605" 
d="M552 0h-469v712h469v-124h-330v-167h281v-124h-281v-173h330v-124z" />
    <glyph glyph-name="Zeta" unicode="&#x396;" horiz-adv-x="548" 
d="M508 0h-468v112l304 476h-291v124h455v-110l-305 -478h305v-124z" />
    <glyph glyph-name="Eta" unicode="&#x397;" horiz-adv-x="685" 
d="M602 0h-139v298h-241v-298h-139v712h139v-291h241v291h139v-712z" />
    <glyph glyph-name="Theta" unicode="&#x398;" horiz-adv-x="644" 
d="M585 356q0 -120 -12 -179t-61 -108q-75 -75 -190 -75q-114 0 -191 75q-49 49 -60.5 107.5t-11.5 179.5t11.5 179.5t60.5 107.5q77 75 191 75q115 0 190 -75q49 -49 61 -108t12 -179zM411 157q18 19 25.5 48.5t8.5 94.5h-247q2 -65 9.5 -94t24.5 -49q36 -39 90 -39
q55 0 89 39zM232 556q-17 -19 -24.5 -47.5t-8.5 -89.5h246q-2 61 -9.5 89.5t-24.5 47.5q-33 38 -89 38q-55 0 -90 -38z" />
    <glyph glyph-name="Iota" unicode="&#x399;" horiz-adv-x="305" 
d="M222 0h-139v712h139v-712z" />
    <glyph glyph-name="Kappa" unicode="&#x39a;" horiz-adv-x="665" 
d="M659 0h-162l-183 324l-92 -110v-214h-139v712h139v-310l251 310h169l-236 -283z" />
    <glyph glyph-name="Lambda" unicode="&#x39b;" horiz-adv-x="611" 
d="M603 0h-145l-149 498l-156 -498h-145l240 712h114z" />
    <glyph glyph-name="Mu" unicode="&#x39c;" horiz-adv-x="811" 
d="M728 0h-139v415l-136 -270h-94l-137 270v-415h-139v712h137l186 -385l185 385h137v-712z" />
    <glyph glyph-name="Nu" unicode="&#x39d;" horiz-adv-x="711" 
d="M628 0h-124l-282 437v-437h-139v712h124l282 -436v436h139v-712z" />
    <glyph glyph-name="Xi" unicode="&#x39e;" horiz-adv-x="597" 
d="M544 0h-491v124h176v173h-128v124h128v167h-176v124h491v-124h-176v-167h128v-124h-128v-173h176v-124z" />
    <glyph glyph-name="Omicron" unicode="&#x39f;" horiz-adv-x="644" 
d="M585 356q0 -120 -12 -179t-61 -108q-75 -75 -190 -75q-116 0 -191 75q-49 49 -60.5 107.5t-11.5 179.5t11.5 179.5t60.5 107.5q75 75 191 75q115 0 190 -75q49 -49 61 -108t12 -179zM446 356q0 99 -7.5 138t-27.5 62q-33 38 -89 38q-55 0 -90 -38q-20 -23 -27 -62
t-7 -138t7 -137.5t27 -61.5q36 -39 90 -39q55 0 89 39q20 24 27.5 62.5t7.5 136.5z" />
    <glyph glyph-name="Pi" unicode="&#x3a0;" horiz-adv-x="682" 
d="M599 0h-139v588h-238v-588h-139v712h516v-712z" />
    <glyph glyph-name="Rho" unicode="&#x3a1;" horiz-adv-x="628" 
d="M594 490q0 -94 -63.5 -158t-171.5 -64h-137v-268h-139v712h276q108 0 171.5 -64t63.5 -158zM455 490q0 44 -28 71t-75 27h-130v-195h130q47 0 75 26.5t28 70.5z" />
    <glyph glyph-name="Sigma" unicode="&#x3a3;" horiz-adv-x="547" 
d="M511 588h-287l131 -212l-152 -252h305v-124h-468v111l161 263l-145 232v106h455v-124z" />
    <glyph glyph-name="Tau" unicode="&#x3a4;" horiz-adv-x="571" 
d="M541 588h-186v-588h-139v588h-186v124h511v-124z" />
    <glyph glyph-name="Upsilon" unicode="&#x3a5;" horiz-adv-x="572" 
d="M569 712l-214 -420v-292h-138v292l-214 420h151l133 -287l131 287h151z" />
    <glyph glyph-name="Phi" unicode="&#x3a6;" horiz-adv-x="777" 
d="M729 359q0 -153 -71 -224q-78 -78 -200 -78v-57h-139v57q-122 0 -200 78q-71 71 -71 224t71 224q78 78 200 78v51h139v-51q122 0 200 -78q71 -71 71 -224zM590 359q0 98 -33 137q-35 41 -99 41v-356q65 0 99 40q33 39 33 138zM319 181v356q-64 0 -99 -41
q-33 -39 -33 -137q0 -99 33 -138q34 -40 99 -40z" />
    <glyph glyph-name="Chi" unicode="&#x3a7;" horiz-adv-x="603" 
d="M598 0h-159l-138 248l-137 -248h-159l221 365l-207 347h158l124 -230l125 230h157l-207 -347z" />
    <glyph glyph-name="Psi" unicode="&#x3a8;" horiz-adv-x="745" 
d="M695 363q0 -99 -65 -164q-77 -77 -188 -78v-121h-139v121q-111 1 -188 78q-65 65 -65 164v349h138v-349q0 -48 30 -80q35 -36 85 -38v467h139v-467q50 2 85 38q30 32 30 80v349h138v-349z" />
    <glyph glyph-name="uni03A9" unicode="&#x3a9;" horiz-adv-x="644" 
d="M585 356q0 -121 -23 -178q-13 -31 -36 -54h59v-124h-219v110q37 18 53 43q27 38 27 196q0 101 -7 142t-28 64q-34 39 -89 39q-54 0 -90 -39q-20 -23 -27 -64.5t-7 -141.5q0 -159 26 -196q18 -27 54 -43v-110h-219v124h59q-24 22 -37 54q-22 57 -22 178t11.5 179.5
t60.5 107.5q77 75 191 75q115 0 190 -75q49 -49 61 -108t12 -179z" />
    <glyph glyph-name="Iotadieresis" unicode="&#x3aa;" horiz-adv-x="305" 
d="M222 0h-139v712h139v-712zM316 783h-111v125h111v-125zM95 783h-111v125h111v-125z" />
    <glyph glyph-name="Upsilondieresis" unicode="&#x3ab;" horiz-adv-x="572" 
d="M569 712l-214 -420v-292h-138v292l-214 420h151l133 -287l131 287h151zM451 783h-111v125h111v-125zM230 783h-111v125h111v-125z" />
    <glyph glyph-name="alphatonos" unicode="&#x3ac;" horiz-adv-x="561" 
d="M488 0h-127v49q-49 -55 -129 -55q-81 0 -128 47q-24 24 -36.5 65.5t-14.5 72t-2 82.5t2 82.5t14.5 71.5t36.5 65q47 47 127 47q81 0 129 -54v48h128v-521zM358 261q0 36 -3 59.5t-11.5 45.5t-27 33t-46.5 11q-54 0 -71.5 -38t-17.5 -111q0 -35 3 -59.5t12 -46.5t27.5 -33
t46.5 -11t46.5 11t27 33.5t11.5 46t3 59.5zM342 622l-116 -49v158h116v-109z" />
    <glyph glyph-name="epsilontonos" unicode="&#x3ad;" horiz-adv-x="510" 
d="M490 85q-55 -52 -105.5 -71t-126.5 -19q-88 0 -150.5 39t-62.5 117q0 83 77 119q-25 12 -44 39.5t-19 67.5q0 68 60 109t145 41q61 0 104 -15t96 -57l-73 -88q-35 28 -61 40t-60 12q-36 0 -59 -15.5t-23 -40.5q0 -21 18 -35t47 -14h98v-99h-99q-39 0 -57 -15.5t-18 -35.5
q0 -26 26.5 -42.5t65.5 -16.5q71 0 137 58zM332 622l-116 -49v158h116v-109z" />
    <glyph glyph-name="etatonos" unicode="&#x3ae;" horiz-adv-x="573" 
d="M506 0h-130v315q0 49 -25.5 72t-60.5 23q-36 0 -61.5 -23t-25.5 -72v-315h-130v521h127v-48q51 54 130 54q77 0 123 -46q53 -53 53 -148v-333zM352 622l-116 -49v158h116v-109z" />
    <glyph glyph-name="iotatonos" unicode="&#x3af;" horiz-adv-x="325" 
d="M294 0h-74q-75 0 -113.5 44t-38.5 105v372h130v-364q0 -47 46 -47h50v-110zM194 622l-116 -49v158h116v-109z" />
    <glyph glyph-name="upsilondieresistonos" unicode="&#x3b0;" horiz-adv-x="545" 
d="M489 240q0 -69 -12 -110t-43 -74q-60 -62 -162 -62q-101 0 -161 62q-31 33 -43 74t-12 110v281h130v-314q0 -50 25 -73t61 -23t61.5 23t25.5 73v314h130v-281zM486 590h-111v125h111v-125zM333 639l-115 -49v158h115v-109zM170 590h-111v125h111v-125z" />
    <glyph glyph-name="alpha" unicode="&#x3b1;" horiz-adv-x="561" 
d="M488 0h-127v49q-49 -55 -129 -55q-81 0 -128 47q-24 24 -36.5 65.5t-14.5 72t-2 82.5t2 82.5t14.5 71.5t36.5 65q47 47 127 47q81 0 129 -54v48h128v-521zM358 261q0 36 -3 59.5t-11.5 45.5t-27 33t-46.5 11q-54 0 -71.5 -38t-17.5 -111q0 -35 3 -59.5t12 -46.5t27.5 -33
t46.5 -11t46.5 11t27 33.5t11.5 46t3 59.5z" />
    <glyph glyph-name="beta" unicode="&#x3b2;" horiz-adv-x="579" 
d="M531 218q0 -110 -58 -169q-55 -55 -140 -55q-83 0 -134 55v-49h-126v520q0 92 61.5 143.5t159.5 51.5q95 0 154 -47.5t59 -132.5q0 -65 -29 -103q-23 -29 -52 -41q40 -14 63 -40q42 -48 42 -133zM402 228q0 69 -44 89q-29 13 -72 13h-51v103h61q87 0 87 88q0 36 -21 59
q-23 25 -65 25q-93 0 -93 -99v-295q0 -45 26 -73t67 -28q44 0 69 21q36 31 36 97z" />
    <glyph glyph-name="gamma" unicode="&#x3b3;" horiz-adv-x="494" 
d="M490 521l-179 -506v-206h-129v206l-178 506h138l106 -340l104 340h138z" />
    <glyph glyph-name="delta" unicode="&#x3b4;" horiz-adv-x="537" 
d="M486 265q0 -137 -54 -202q-57 -69 -166 -69q-104 0 -160 67q-55 65 -55 195q0 138 65 199q45 43 106 43q23 0 35 -4l-147 121v97h344v-101h-180l110 -92q102 -85 102 -254zM354 256q0 97 -33 126q-19 16 -50 16q-29 0 -51 -15q-39 -28 -39 -127t36 -128q19 -16 51 -16
q33 0 51 15q35 27 35 129z" />
    <glyph glyph-name="epsilon" unicode="&#x3b5;" horiz-adv-x="510" 
d="M490 85q-55 -52 -105.5 -71t-126.5 -19q-88 0 -150.5 39t-62.5 117q0 83 77 119q-25 12 -44 39.5t-19 67.5q0 68 60 109t145 41q61 0 104 -15t96 -57l-73 -88q-35 28 -61 40t-60 12q-36 0 -59 -15.5t-23 -40.5q0 -21 18 -35t47 -14h98v-99h-99q-39 0 -57 -15.5t-18 -35.5
q0 -26 26.5 -42.5t65.5 -16.5q71 0 137 58z" />
    <glyph glyph-name="zeta" unicode="&#x3b6;" horiz-adv-x="500" 
d="M472 -19q0 -15 -3 -30.5t-14 -37t-29 -38t-52.5 -28.5t-80.5 -12v101q57 0 57 41q0 26 -49 26h-44q-214 0 -214 158q0 142 191 243h-158v117h384v-117h-19q-42 -18 -82.5 -40.5t-83 -52.5t-68.5 -65.5t-26 -70.5q0 -33 23.5 -46t74.5 -13h29q164 0 164 -135z" />
    <glyph glyph-name="eta" unicode="&#x3b7;" horiz-adv-x="573" 
d="M506 0h-130v315q0 49 -25.5 72t-60.5 23q-36 0 -61.5 -23t-25.5 -72v-315h-130v521h127v-48q51 54 130 54q77 0 123 -46q53 -53 53 -148v-333z" />
    <glyph glyph-name="theta" unicode="&#x3b8;" horiz-adv-x="575" 
d="M513 356q0 -55 -1 -84.5t-6.5 -74t-19.5 -77t-36 -57.5q-60 -69 -162 -69q-103 0 -163 69q-22 25 -36 57.5t-19.5 77t-6.5 74t-1 84.5t1 84.5t6.5 74t19.5 77t36 57.5q62 69 163 69q100 0 162 -69q22 -25 36 -57.5t19.5 -77t6.5 -74t1 -84.5zM382 311h-189
q0 -135 27 -167q26 -33 68 -33q41 0 67 33q27 32 27 167zM382 420q0 116 -27 148q-26 33 -67 33q-42 0 -68 -33q-27 -32 -27 -148h189z" />
    <glyph glyph-name="iota" unicode="&#x3b9;" horiz-adv-x="325" 
d="M294 0h-74q-75 0 -113.5 44t-38.5 105v372h130v-364q0 -47 46 -47h50v-110z" />
    <glyph glyph-name="kappa" unicode="&#x3ba;" horiz-adv-x="560" 
d="M548 0h-162l-128 217l-55 -62v-155h-131v521h131v-213l173 213h157l-186 -210z" />
    <glyph glyph-name="lambda" unicode="&#x3bb;" horiz-adv-x="514" 
d="M522 0h-54q-62 0 -96.5 32.5t-53.5 94.5l-60 193l-113 -320h-137l188 486l-21 74q-12 42 -57 42h-32v115h48q73 0 113 -41q23 -23 38 -66l152 -458q13 -42 48 -42h37v-110z" />
    <glyph glyph-name="uni03BC" unicode="&#x3bc;" horiz-adv-x="576" 
d="M503 0h-127v48q-51 -54 -130 -54q-27 0 -46 14v-199h-130v712h130v-315q0 -49 25.5 -72t60.5 -23q36 0 61.5 23t25.5 72v315h130v-521z" />
    <glyph glyph-name="nu" unicode="&#x3bd;" horiz-adv-x="494" 
d="M490 521l-192 -521h-102l-192 521h138l106 -321l104 321h138z" />
    <glyph glyph-name="xi" unicode="&#x3be;" horiz-adv-x="509" 
d="M497 628l-72 -84q-61 67 -134 67q-44 0 -69.5 -25.5t-25.5 -69.5q0 -41 25 -63.5t68 -22.5h120v-109h-110q-15 0 -31.5 -3.5t-38.5 -13.5t-36.5 -34t-14.5 -58q0 -48 28.5 -72t74.5 -24h44q155 0 155 -135q0 -15 -3 -30.5t-14 -37t-29 -38t-52.5 -28.5t-80.5 -12v101
q57 0 57 41q0 16 -12.5 21t-40.5 5h-44q-102 0 -160 50t-58 143q0 68 33.5 115.5t88.5 67.5q-43 14 -69 52t-26 88q0 92 61.5 146.5t155.5 54.5q127 0 210 -92z" />
    <glyph glyph-name="omicron" unicode="&#x3bf;" 
d="M492 261q0 -75 -12.5 -121.5t-46.5 -81.5q-62 -64 -162 -64q-99 0 -161 64q-34 36 -46.5 82.5t-12.5 120.5t12.5 120t46.5 82q62 64 161 64q102 0 162 -64q34 -36 46.5 -82t12.5 -120zM362 261q0 97 -30 126q-23 23 -61 23q-37 0 -60 -23q-30 -29 -30 -126q0 -98 30 -127
q23 -23 60 -23q38 0 61 23q30 29 30 127z" />
    <glyph glyph-name="pi" unicode="&#x3c0;" horiz-adv-x="578" 
d="M511 0h-129v399h-180v-399h-130v521h439v-521z" />
    <glyph glyph-name="rho" unicode="&#x3c1;" horiz-adv-x="536" 
d="M485 259q0 -139 -60 -204q-55 -61 -142 -61q-50 0 -102 46v-231h-130v451q0 80 12 121.5t37 70.5q62 75 164 75q103 0 163 -64q35 -37 46.5 -82t11.5 -122zM355 260q0 83 -19 115q-22 34 -70 34q-44 0 -65 -33q-20 -31 -20 -115q0 -80 15 -108q23 -40 71 -40q52 0 70 39
t18 108z" />
    <glyph glyph-name="sigma1" unicode="&#x3c2;" horiz-adv-x="480" 
d="M452 457l-89 -88q-38 41 -82 41q-47 0 -75 -34t-28 -115q0 -127 116 -139q146 -16 146 -141q0 -15 -3 -30.5t-14 -37t-29 -38t-52.5 -28.5t-80.5 -12v101q57 0 57 41q0 29 -64 35q-93 7 -150 68t-57 181q0 75 21.5 130t57.5 83t74 40.5t81 12.5q104 0 171 -70z" />
    <glyph glyph-name="sigma" unicode="&#x3c3;" horiz-adv-x="567" 
d="M521 410h-83q24 -19 39.5 -62t15.5 -87q0 -74 -13 -120.5t-47 -82.5q-62 -64 -161 -64t-161 64q-34 36 -47 82.5t-13 120.5t12.5 119.5t46.5 80.5q58 60 160 60h251v-111zM363 261q0 99 -31 130q-22 22 -61 22q-36 0 -60 -24q-30 -30 -30 -128q0 -97 30 -127
q23 -23 61 -23t61 23q30 30 30 127z" />
    <glyph glyph-name="tau" unicode="&#x3c4;" horiz-adv-x="405" 
d="M383 404h-115v-404h-131v404h-115v117h361v-117z" />
    <glyph glyph-name="upsilon" unicode="&#x3c5;" horiz-adv-x="545" 
d="M489 240q0 -69 -12 -110t-43 -74q-60 -62 -162 -62q-101 0 -161 62q-31 33 -43 74t-12 110v281h130v-314q0 -50 25 -73t61 -23t61.5 23t25.5 73v314h130v-281z" />
    <glyph glyph-name="phi" unicode="&#x3c6;" horiz-adv-x="699" 
d="M648 263q0 -265 -232 -269v-185h-130v185q-120 5 -177.5 78.5t-57.5 188.5q0 184 158 262l46 -96q-73 -46 -73 -170q0 -142 104 -149v413h115q131 0 189 -62t58 -196zM517 265q0 73 -20 108.5t-81 35.5v-301q62 2 81.5 40.5t19.5 116.5z" />
    <glyph glyph-name="chi" unicode="&#x3c7;" horiz-adv-x="527" 
d="M515 0h-156l-96 156l-95 -156h-156l180 266l-173 255h156l88 -149l89 149h156l-173 -255z" />
    <glyph glyph-name="psi" unicode="&#x3c8;" horiz-adv-x="700" 
d="M642 261q0 -73 -12.5 -120.5t-43.5 -81.5q-55 -62 -170 -62v-188h-131v188q-115 0 -170 62q-57 62 -57 202v260h131v-284q0 -126 96 -126v410h131v-410q95 0 95 126v284h131v-260z" />
    <glyph glyph-name="omega" unicode="&#x3c9;" horiz-adv-x="759" 
d="M708 261q0 -129 -43 -190q-55 -77 -151 -77q-89 0 -135 71q-46 -71 -135 -71q-95 0 -150 77q-43 61 -43 190q0 138 56 199q63 67 161 67v-118q-38 0 -62 -29q-15 -18 -20 -43t-5 -76q0 -87 22 -121q19 -28 49 -28q40 0 55 51q7 26 7 64v142h130v-142q0 -43 6 -64
q14 -51 56 -51q30 0 49 28q22 34 22 121q0 52 -4.5 77t-19.5 42q-24 29 -63 29v118q98 0 161 -67q57 -62 57 -199z" />
    <glyph glyph-name="iotadieresis" unicode="&#x3ca;" horiz-adv-x="325" 
d="M294 0h-74q-75 0 -113.5 44t-38.5 105v372h130v-364q0 -47 46 -47h50v-110zM304 606h-111v125h111v-125zM83 606h-111v125h111v-125z" />
    <glyph glyph-name="upsilondieresis" unicode="&#x3cb;" horiz-adv-x="545" 
d="M489 240q0 -69 -12 -110t-43 -74q-60 -62 -162 -62q-101 0 -161 62q-31 33 -43 74t-12 110v281h130v-314q0 -50 25 -73t61 -23t61.5 23t25.5 73v314h130v-281zM443 606h-111v125h111v-125zM222 606h-111v125h111v-125z" />
    <glyph glyph-name="omicrontonos" unicode="&#x3cc;" 
d="M492 261q0 -75 -12.5 -121.5t-46.5 -81.5q-62 -64 -162 -64q-99 0 -161 64q-34 36 -46.5 82.5t-12.5 120.5t12.5 120t46.5 82q62 64 161 64q102 0 162 -64q34 -36 46.5 -82t12.5 -120zM362 261q0 97 -30 126q-23 23 -61 23q-37 0 -60 -23q-30 -29 -30 -126q0 -98 30 -127
q23 -23 60 -23q38 0 61 23q30 29 30 127zM332 622l-116 -49v158h116v-109z" />
    <glyph glyph-name="upsilontonos" unicode="&#x3cd;" horiz-adv-x="545" 
d="M489 240q0 -69 -12 -110t-43 -74q-60 -62 -162 -62q-101 0 -161 62q-31 33 -43 74t-12 110v281h130v-314q0 -50 25 -73t61 -23t61.5 23t25.5 73v314h130v-281zM332 622l-116 -49v158h116v-109z" />
    <glyph glyph-name="omegatonos" unicode="&#x3ce;" horiz-adv-x="759" 
d="M708 261q0 -129 -43 -190q-55 -77 -151 -77q-89 0 -135 71q-46 -71 -135 -71q-95 0 -150 77q-43 61 -43 190q0 138 56 199q63 67 161 67v-118q-38 0 -62 -29q-15 -18 -20 -43t-5 -76q0 -87 22 -121q19 -28 49 -28q40 0 55 51q7 26 7 64v142h130v-142q0 -43 6 -64
q14 -51 56 -51q30 0 49 28q22 34 22 121q0 52 -4.5 77t-19.5 42q-24 29 -63 29v118q98 0 161 -67q57 -62 57 -199zM440 622l-116 -49v158h116v-109z" />
    <glyph glyph-name="uni03D0" unicode="&#x3d0;" horiz-adv-x="579" 
d="M531 218q0 -110 -58 -169q-55 -55 -140 -55q-82 0 -130 52v-237h-130v712q0 92 61.5 143t159.5 51q95 0 154 -47.5t59 -132.5q0 -65 -29 -103q-23 -29 -52 -41q40 -14 63 -40q42 -48 42 -133zM402 228q0 69 -44 89q-29 13 -72 13h-51v103h61q87 0 87 88q0 36 -21 59
q-23 25 -65 25q-94 0 -94 -99v-295q0 -45 26.5 -73t67.5 -28q44 0 69 21q36 31 36 97z" />
    <glyph glyph-name="uni0400" unicode="&#x400;" horiz-adv-x="605" 
d="M365 781h-87l-114 170h137zM552 0h-469v712h469v-124h-330v-167h281v-124h-281v-173h330v-124z" />
    <glyph glyph-name="afii10023" unicode="&#x401;" horiz-adv-x="605" 
d="M552 0h-469v712h469v-124h-330v-167h281v-124h-281v-173h330v-124zM476 783h-111v125h111v-125zM255 783h-111v125h111v-125z" />
    <glyph glyph-name="afii10051" unicode="&#x402;" horiz-adv-x="748" 
d="M684 225q0 -104 -63.5 -164.5t-167.5 -60.5h-42v119h31q47 0 75 27.5t28 77.5t-28 77t-75 27h-119v-328h-138v588h-157v124h512v-124h-217v-140h130q105 0 168 -59.5t63 -163.5z" />
    <glyph glyph-name="afii10052" unicode="&#x403;" horiz-adv-x="561" 
d="M534 588h-309v-588h-139v712h448v-124zM440 951l-114 -170h-87l64 170h137z" />
    <glyph glyph-name="afii10053" unicode="&#x404;" horiz-adv-x="619" 
d="M582 216q-18 -107 -88.5 -164.5t-172.5 -57.5q-113 0 -190 75q-49 49 -60.5 107.5t-11.5 179.5t11.5 179.5t60.5 107.5q77 75 190 75q102 0 172.5 -57.5t88.5 -164.5h-139q-11 46 -41.5 73.5t-79.5 27.5q-57 0 -91 -39q-18 -20 -25.5 -49t-9.5 -91h218v-121h-218
q2 -65 9.5 -94t25.5 -49q34 -39 91 -39q96 0 122 101h138z" />
    <glyph glyph-name="afii10054" unicode="&#x405;" horiz-adv-x="591" 
d="M543 210q0 -101 -74 -158.5t-190 -57.5q-85 0 -147 21.5t-113 72.5l90 90q60 -60 171 -60q62 0 94.5 23t32.5 66q0 37 -22 59q-19 18 -64 24l-85 13q-90 13 -138 59q-51 50 -51 140q0 97 67 156.5t181 59.5q144 0 230 -83l-88 -87q-50 49 -146 49q-53 0 -81 -25.5
t-28 -64.5q0 -32 20 -51q23 -21 65 -27l85 -13q91 -13 136 -56q55 -51 55 -150z" />
    <glyph glyph-name="afii10055" unicode="&#x406;" horiz-adv-x="305" 
d="M222 0h-139v712h139v-712z" />
    <glyph glyph-name="afii10056" unicode="&#x407;" horiz-adv-x="305" 
d="M222 0h-139v712h139v-712zM319 783h-111v125h111v-125zM98 783h-111v125h111v-125z" />
    <glyph glyph-name="afii10057" unicode="&#x408;" horiz-adv-x="511" 
d="M437 234q0 -113 -73 -176.5t-178 -63.5q-58 0 -101 17t-82 56l92 91q40 -40 91 -40q52 0 82 31t30 91v472h139v-478z" />
    <glyph glyph-name="afii10058" unicode="&#x409;" horiz-adv-x="1008" 
d="M732 319h-130v-195h130q47 0 75 27t28 71t-28 70.5t-75 26.5zM159 712h443v-268h141q104 0 167.5 -62t63.5 -160t-64 -160t-167 -62h-280v588h-170v-207q0 -147 -25.5 -231.5t-72 -117t-123.5 -32.5h-55v124h20q29 0 49.5 10.5t38 38t26 81.5t8.5 135v323z" />
    <glyph glyph-name="afii10059" unicode="&#x40a;" horiz-adv-x="1008" 
d="M974 222q0 -98 -64 -160t-167 -62h-280v320h-241v-320h-139v712h139v-268h241v268h139v-268h141q104 0 167.5 -62t63.5 -160zM732 319h-130v-195h130q47 0 75 27t28 71t-28 70.5t-75 26.5z" />
    <glyph glyph-name="afii10060" unicode="&#x40b;" horiz-adv-x="748" 
d="M684 0h-139v231q0 44 -28.5 70.5t-74.5 26.5h-119v-328h-138v588h-156v124h511v-124h-217v-140h130q104 0 167.5 -60t63.5 -157v-231z" />
    <glyph glyph-name="afii10061" unicode="&#x40c;" horiz-adv-x="641" 
d="M224 0h-139v712h139v-712zM645 0h-170l-250 373l230 339h166l-239 -334zM487 951l-114 -170h-87l64 170h137z" />
    <glyph glyph-name="uni040D" unicode="&#x40d;" horiz-adv-x="706" 
d="M623 0h-139v457l-277 -457h-124v712h139v-456l277 456h124v-712zM401 781h-87l-114 170h137z" />
    <glyph glyph-name="afii10062" unicode="&#x40e;" horiz-adv-x="581" 
d="M460 893q-3 -75 -49 -109t-113 -34t-113 34t-49 109h98q4 -62 64 -62t64 62h98zM577 712l-252 -592q-51 -120 -159 -120h-85v124h56q54 0 74 45l21 49l-228 494h145l149 -343l135 343h144z" />
    <glyph glyph-name="afii10145" unicode="&#x40f;" horiz-adv-x="686" 
d="M602 0h-192v-158h-134v158h-193v712h139v-588h241v588h139v-712z" />
    <glyph glyph-name="afii10017" unicode="&#x410;" horiz-adv-x="638" 
d="M633 0h-145l-42 126h-253l-43 -126h-145l259 712h109zM409 243l-87 259l-90 -259h177z" />
    <glyph glyph-name="afii10018" unicode="&#x411;" horiz-adv-x="654" 
d="M599 222q0 -99 -62.5 -160.5t-168.5 -61.5h-285v712h471v-124h-332v-144h146q106 0 168.5 -61.5t62.5 -160.5zM460 222q0 44 -26.5 71t-72.5 27h-139v-196h139q46 0 72.5 26.5t26.5 71.5z" />
    <glyph glyph-name="afii10019" unicode="&#x412;" horiz-adv-x="658" 
d="M501 365q34 -18 54 -38q44 -47 44 -123q0 -94 -59 -149t-159 -55h-298v712h286q101 0 160.5 -53t59.5 -143q0 -102 -88 -151zM222 424h136q43 0 67.5 22t24.5 60t-24.5 60t-67.5 22h-136v-164zM222 124h145q43 0 68 24t25 64t-25 63.5t-68 23.5h-145v-175z" />
    <glyph glyph-name="afii10020" unicode="&#x413;" horiz-adv-x="561" 
d="M534 588h-309v-588h-139v712h448v-124z" />
    <glyph glyph-name="afii10021" unicode="&#x414;" horiz-adv-x="705" 
d="M677 -158h-134v158h-395v-158h-134v282h67q85 131 85 406v182h429v-588h82v-282zM456 124v464h-157v-103q0 -234 -63 -361h220z" />
    <glyph glyph-name="afii10022" unicode="&#x415;" horiz-adv-x="605" 
d="M552 0h-469v712h469v-124h-330v-167h281v-124h-281v-173h330v-124z" />
    <glyph glyph-name="afii10024" unicode="&#x416;" horiz-adv-x="941" 
d="M947 0h-168l-238 373l218 339h164l-233 -334zM162 0h-168l257 378l-233 334h164l218 -339zM540 0h-139v712h139v-712z" />
    <glyph glyph-name="afii10025" unicode="&#x417;" horiz-adv-x="606" 
d="M293 -6q-100 0 -170.5 57.5t-88.5 164.5h138q27 -101 122 -101q52 0 83 26.5t31 69.5q0 46 -27.5 71t-80.5 25h-92v114h93q46 0 71.5 23.5t25.5 66.5q0 41 -28 64.5t-75 23.5q-49 0 -79.5 -28.5t-41.5 -74.5h-139q18 107 88.5 164.5t172.5 57.5q106 0 173.5 -54
t67.5 -143q0 -103 -93 -153q103 -46 103 -162q0 -96 -71 -154t-183 -58z" />
    <glyph glyph-name="afii10026" unicode="&#x418;" horiz-adv-x="706" 
d="M623 0h-139v457l-277 -457h-124v712h139v-456l277 456h124v-712z" />
    <glyph glyph-name="afii10027" unicode="&#x419;" horiz-adv-x="706" 
d="M516 893q-3 -75 -49 -109t-113 -34t-113 34t-49 109h98q4 -62 64 -62t64 62h98zM623 0h-139v457l-277 -457h-124v712h139v-456l277 456h124v-712z" />
    <glyph glyph-name="afii10028" unicode="&#x41a;" horiz-adv-x="641" 
d="M224 0h-139v712h139v-712zM645 0h-170l-250 373l230 339h166l-239 -334z" />
    <glyph glyph-name="afii10029" unicode="&#x41b;" horiz-adv-x="686" 
d="M602 0h-139v588h-170v-207q0 -147 -25.5 -231.5t-72 -117t-123.5 -32.5h-55v124h20q29 0 49.5 10.5t38 38t26 81.5t8.5 135v323h443v-712z" />
    <glyph glyph-name="afii10030" unicode="&#x41c;" horiz-adv-x="811" 
d="M728 0h-139v415l-136 -270h-94l-137 270v-415h-139v712h137l186 -385l185 385h137v-712z" />
    <glyph glyph-name="afii10031" unicode="&#x41d;" horiz-adv-x="685" 
d="M602 0h-139v298h-241v-298h-139v712h139v-291h241v291h139v-712z" />
    <glyph glyph-name="afii10032" unicode="&#x41e;" horiz-adv-x="644" 
d="M585 356q0 -120 -12 -179t-61 -108q-75 -75 -190 -75q-116 0 -191 75q-49 49 -60.5 107.5t-11.5 179.5t11.5 179.5t60.5 107.5q75 75 191 75q115 0 190 -75q49 -49 61 -108t12 -179zM446 356q0 99 -7.5 138t-27.5 62q-33 38 -89 38q-55 0 -90 -38q-20 -23 -27 -62
t-7 -138t7 -137.5t27 -61.5q36 -39 90 -39q55 0 89 39q20 24 27.5 62.5t7.5 136.5z" />
    <glyph glyph-name="afii10033" unicode="&#x41f;" horiz-adv-x="685" 
d="M602 0h-139v588h-241v-588h-139v712h519v-712z" />
    <glyph glyph-name="afii10034" unicode="&#x420;" horiz-adv-x="628" 
d="M594 490q0 -94 -63.5 -158t-171.5 -64h-137v-268h-139v712h276q108 0 171.5 -64t63.5 -158zM455 490q0 44 -28 71t-75 27h-130v-195h130q47 0 75 26.5t28 70.5z" />
    <glyph glyph-name="afii10035" unicode="&#x421;" horiz-adv-x="620" 
d="M583 219q-19 -109 -89 -167t-172 -58q-114 0 -191 75q-49 49 -60.5 107.5t-11.5 179.5t11.5 179.5t60.5 107.5q77 75 191 75q102 0 172 -58t89 -167h-142q-24 101 -119 101q-57 0 -89 -37q-20 -23 -27.5 -62.5t-7.5 -138.5t7.5 -138.5t27.5 -62.5q32 -37 89 -37
q96 0 120 101h141z" />
    <glyph glyph-name="afii10036" unicode="&#x422;" horiz-adv-x="571" 
d="M541 588h-186v-588h-139v588h-186v124h511v-124z" />
    <glyph glyph-name="afii10037" unicode="&#x423;" horiz-adv-x="581" 
d="M577 712l-252 -592q-51 -120 -159 -120h-85v124h56q54 0 74 45l21 49l-228 494h145l149 -343l135 343h144z" />
    <glyph glyph-name="afii10038" unicode="&#x424;" horiz-adv-x="814" 
d="M778 378q0 -285 -301 -296v-87h-139v87q-300 11 -300 296q0 139 72.5 214t227.5 82v70h139v-70q155 -7 228 -82t73 -214zM340 200v356q-88 -4 -125.5 -46.5t-37.5 -131.5t37.5 -131.5t125.5 -46.5zM639 378q0 89 -38 131.5t-126 46.5v-356q88 4 126 46.5t38 131.5z" />
    <glyph glyph-name="afii10039" unicode="&#x425;" horiz-adv-x="603" 
d="M598 0h-159l-138 248l-137 -248h-159l221 365l-207 347h158l124 -230l125 230h157l-207 -347z" />
    <glyph glyph-name="afii10040" unicode="&#x426;" horiz-adv-x="712" 
d="M685 -158h-134v158h-468v712h139v-588h241v588h139v-588h83v-282z" />
    <glyph glyph-name="afii10041" unicode="&#x427;" horiz-adv-x="648" 
d="M565 0h-138v267q-117 -19 -181 -19q-75 0 -128.5 45t-53.5 128v291h139v-255q0 -85 89 -85q62 0 135 15v325h138v-712z" />
    <glyph glyph-name="afii10042" unicode="&#x428;" horiz-adv-x="988" 
d="M905 0h-822v712h139v-588h203v588h139v-588h202v588h139v-712z" />
    <glyph glyph-name="afii10043" unicode="&#x429;" horiz-adv-x="1014" 
d="M987 -158h-134v158h-770v712h139v-588h203v588h139v-588h202v588h139v-588h82v-282z" />
    <glyph glyph-name="afii10044" unicode="&#x42a;" horiz-adv-x="727" 
d="M693 222q0 -98 -64.5 -160t-166.5 -62h-280v588h-152v124h291v-268h141q103 0 167 -62t64 -160zM554 222q0 44 -28.5 71t-74.5 27h-130v-196h130q47 0 75 27t28 71z" />
    <glyph glyph-name="afii10045" unicode="&#x42b;" horiz-adv-x="893" 
d="M810 0h-139v712h139v-712zM594 222q0 -98 -64 -160t-167 -62h-280v712h139v-268h141q104 0 167.5 -62t63.5 -160zM455 222q0 44 -28 71t-75 27h-130v-196h130q47 0 75 27t28 71z" />
    <glyph glyph-name="afii10046" unicode="&#x42c;" horiz-adv-x="628" 
d="M594 222q0 -98 -64 -160t-167 -62h-280v712h139v-268h141q104 0 167.5 -62t63.5 -160zM455 222q0 44 -28 71t-75 27h-130v-196h130q47 0 75 27t28 71z" />
    <glyph glyph-name="afii10047" unicode="&#x42d;" horiz-adv-x="619" 
d="M37 216h138q26 -101 122 -101q57 0 91 39q18 20 25.5 49.5t9.5 93.5h-221v121h221q-2 62 -9.5 91t-25.5 49q-34 39 -91 39q-49 0 -79.5 -27.5t-41.5 -73.5h-139q18 107 88.5 164.5t172.5 57.5q113 0 190 -75q49 -49 60.5 -107.5t11.5 -179.5t-11.5 -179.5t-60.5 -107.5
q-77 -75 -190 -75q-102 0 -172.5 57.5t-88.5 164.5z" />
    <glyph glyph-name="afii10048" unicode="&#x42e;" horiz-adv-x="914" 
d="M855 356q0 -120 -12 -179t-61 -108q-75 -75 -190 -75q-116 0 -191 75q-43 42 -57 93t-15 136h-107v-298h-139v712h139v-290h107q2 80 16.5 130t55.5 91q75 75 191 75q115 0 190 -75q49 -49 61 -108t12 -179zM716 356q0 99 -7.5 138t-27.5 62q-33 38 -89 38q-55 0 -90 -38
q-20 -23 -27 -62t-7 -138t7 -137.5t27 -61.5q36 -39 90 -39q55 0 89 39q20 24 27.5 62.5t7.5 136.5z" />
    <glyph glyph-name="afii10049" unicode="&#x42f;" horiz-adv-x="650" 
d="M314 268l-117 -268h-165l147 296q-57 26 -89.5 76.5t-32.5 117.5q0 101 65 161.5t169 60.5h276v-712h-139v268h-114zM428 391v199h-130q-47 0 -75 -27t-28 -71t28.5 -72.5t74.5 -28.5h130z" />
    <glyph glyph-name="afii10065" unicode="&#x430;" horiz-adv-x="534" 
d="M467 0h-127v45q-27 -27 -55.5 -38.5t-72.5 -11.5q-87 0 -133 46q-43 45 -43 117q0 66 46 108.5t134 42.5h121v26q0 43 -23 62.5t-74 19.5q-61 0 -100 -45l-82 81q38 42 79.5 58t107.5 16q222 0 222 -184v-343zM337 192v28h-99q-77 0 -77 -60q0 -59 79 -59q51 0 77 25
q20 17 20 66z" />
    <glyph glyph-name="afii10066" unicode="&#x431;" horiz-adv-x="548" 
d="M280 111q41 0 63 26q27 33 27 123q0 86 -26 118q-21 28 -64 28t-65 -27q-26 -34 -26 -118q0 -93 29 -125q21 -25 62 -25zM282 -6q-129 0 -181 81q-42 66 -42 229q0 124 7.5 190.5t24 102.5t51.5 63q45 35 114.5 46t198.5 12v-112q-15 -1 -51.5 -2.5t-59 -3t-52 -7.5
t-50.5 -17q-36 -19 -51 -46t-15 -74q15 26 51.5 43t78.5 17q81 0 128 -42q66 -62 66 -211q0 -77 -15 -125t-49 -84q-57 -60 -154 -60z" />
    <glyph glyph-name="afii10067" unicode="&#x432;" horiz-adv-x="550" 
d="M498 150q0 -69 -43 -109.5t-117 -40.5h-266v521h257q73 0 117 -39t44 -104q0 -72 -66 -110q74 -38 74 -118zM298 425h-97v-112h97q63 0 63 57q0 55 -63 55zM369 157q0 29 -17 45t-48 16h-103v-122h103q30 0 47.5 16.5t17.5 44.5z" />
    <glyph glyph-name="afii10068" unicode="&#x433;" horiz-adv-x="434" 
d="M421 406h-215v-406h-130v521h345v-115z" />
    <glyph glyph-name="afii10069" unicode="&#x434;" horiz-adv-x="580" 
d="M557 -128h-123v128h-298v-128h-123v243h53q51 91 51 247v159h374v-406h66v-243zM361 115v291h-119v-68q0 -141 -40 -223h159z" />
    <glyph glyph-name="afii10070" unicode="&#x435;" horiz-adv-x="548" 
d="M501 220h-326q0 -52 30 -84t84 -32q40 0 65.5 11.5t52.5 37.5l79 -77q-42 -43 -86.5 -62.5t-111.5 -19.5q-50 0 -90.5 12.5t-75.5 41.5t-55 83t-20 130q0 125 62 195.5t165 70.5q107 0 167 -69.5t60 -182.5v-55zM373 309q-1 34 -12 56q-24 54 -87 54t-87 -54
q-11 -22 -12 -56h198z" />
    <glyph glyph-name="afii10072" unicode="&#x436;" horiz-adv-x="763" 
d="M769 0h-152l-169 273l161 248h149l-171 -243zM447 0h-131v521h131v-521zM147 0h-153l183 278l-171 243h149l160 -248z" />
    <glyph glyph-name="afii10073" unicode="&#x437;" horiz-adv-x="496" 
d="M444 154q0 -71 -58.5 -115.5t-140.5 -44.5q-146 0 -228 74l75 81q51 -45 131 -45q38 0 65 15.5t27 43.5q0 56 -75 56h-79v93h77q32 0 51.5 15.5t19.5 41.5q0 53 -89 53q-62 0 -113 -36l-72 80q78 61 210 61q80 0 135.5 -37.5t55.5 -103.5q0 -36 -19.5 -66.5t-51.5 -46.5
q36 -15 57.5 -46.5t21.5 -72.5z" />
    <glyph glyph-name="afii10074" unicode="&#x438;" horiz-adv-x="589" 
d="M517 0h-131v318l-183 -318h-131v521h131v-310l183 310h131v-521z" />
    <glyph glyph-name="afii10075" unicode="&#x439;" horiz-adv-x="589" 
d="M456 722q-2 -75 -48.5 -109t-113.5 -34t-113 34t-49 109h98q4 -62 64 -62t64 62h98zM517 0h-131v318l-183 -318h-131v521h131v-310l183 310h131v-521z" />
    <glyph glyph-name="afii10076" unicode="&#x43a;" horiz-adv-x="534" 
d="M204 0h-131v521h131v-521zM540 0h-156l-179 273l171 248h152l-184 -243z" />
    <glyph glyph-name="afii10077" unicode="&#x43b;" horiz-adv-x="571" 
d="M498 0h-130v406h-125v-125q0 -159 -41 -220t-126 -61h-62v115h16q21 0 33 4.5t26.5 22t21 59.5t6.5 109v211h381v-521z" />
    <glyph glyph-name="afii10078" unicode="&#x43c;" horiz-adv-x="677" 
d="M604 0h-130v301l-98 -193h-74l-99 193v-301h-131v521h129l138 -274l137 274h128v-521z" />
    <glyph glyph-name="afii10079" unicode="&#x43d;" horiz-adv-x="573" 
d="M501 0h-131v209h-167v-209h-131v521h131v-197h167v197h131v-521z" />
    <glyph glyph-name="afii10080" unicode="&#x43e;" 
d="M492 261q0 -75 -12.5 -121.5t-46.5 -81.5q-62 -64 -162 -64q-99 0 -161 64q-34 36 -46.5 82.5t-12.5 120.5t12.5 120t46.5 82q62 64 161 64q102 0 162 -64q34 -36 46.5 -82t12.5 -120zM362 261q0 97 -30 126q-23 23 -61 23q-37 0 -60 -23q-30 -29 -30 -126q0 -98 30 -127
q23 -23 60 -23q38 0 61 23q30 29 30 127z" />
    <glyph glyph-name="afii10081" unicode="&#x43f;" horiz-adv-x="568" 
d="M501 0h-131v406h-167v-406h-131v521h429v-521z" />
    <glyph glyph-name="afii10082" unicode="&#x440;" horiz-adv-x="560" 
d="M509 261q0 -81 -10 -133t-44 -87q-45 -47 -126 -47t-126 52v-237h-130v712h126v-49q49 55 130 55t126 -47q34 -35 44 -87t10 -132zM379 261q0 36 -3 59.5t-11.5 45.5t-27 33t-46.5 11t-46.5 -11t-27 -33t-11.5 -45.5t-3 -59.5t3 -59.5t11.5 -46t27 -33.5t46.5 -11
t46.5 11t27 33.5t11.5 46t3 59.5z" />
    <glyph glyph-name="afii10083" unicode="&#x441;" horiz-adv-x="480" 
d="M452 65q-68 -71 -172 -71q-33 0 -64 7.5t-62.5 26t-54.5 48t-37.5 77t-14.5 108.5t14.5 108.5t37.5 76.5t54.5 48t62.5 26t64 7q105 0 172 -70l-88 -88q-38 41 -84 41t-74 -34q-29 -36 -29 -115q0 -80 29 -116q28 -34 74 -34t84 41z" />
    <glyph glyph-name="afii10084" unicode="&#x442;" horiz-adv-x="456" 
d="M445 406h-150v-406h-131v406h-153v115h434v-115z" />
    <glyph glyph-name="afii10085" unicode="&#x443;" horiz-adv-x="494" 
d="M490 521l-223 -605q-21 -56 -56.5 -81.5t-94.5 -25.5h-51v117h30q29 0 42 9.5t23 37.5l22 64l-178 484h137l108 -322l104 322h137z" />
    <glyph glyph-name="afii10086" unicode="&#x444;" horiz-adv-x="726" 
d="M681 264q0 -128 -67 -195t-186 -74v-186h-130v186q-119 7 -186 74t-67 195q0 247 253 262v186h130v-186q253 -15 253 -262zM550 263q0 146 -124 147v-299q124 3 124 152zM300 111v299q-124 -1 -124 -147q0 -149 124 -152z" />
    <glyph glyph-name="afii10087" unicode="&#x445;" horiz-adv-x="527" 
d="M515 0h-156l-96 156l-95 -156h-156l180 266l-173 255h156l88 -149l89 149h156l-173 -255z" />
    <glyph glyph-name="afii10088" unicode="&#x446;" horiz-adv-x="594" 
d="M571 -128h-124v128h-375v521h131v-406h167v406h131v-406h70v-243z" />
    <glyph glyph-name="afii10089" unicode="&#x447;" horiz-adv-x="548" 
d="M476 0h-130v183q-79 -14 -142 -14q-64 0 -105 38t-41 104v210h130v-174q0 -63 64 -63q25 0 94 9v228h130v-521z" />
    <glyph glyph-name="afii10090" unicode="&#x448;" horiz-adv-x="822" 
d="M749 0h-677v521h131v-406h143v406h130v-406h143v406h130v-521z" />
    <glyph glyph-name="afii10091" unicode="&#x449;" horiz-adv-x="843" 
d="M819 -128h-123v128h-624v521h131v-406h143v406h130v-406h143v406h130v-406h70v-243z" />
    <glyph glyph-name="afii10092" unicode="&#x44a;" horiz-adv-x="590" 
d="M558 167q0 -74 -48 -120.5t-125 -46.5h-251v406h-122v115h253v-188h120q77 0 125 -46t48 -120zM361 231h-100v-129h100q32 0 50.5 17.5t18.5 47.5q0 29 -18.5 46.5t-50.5 17.5z" />
    <glyph glyph-name="afii10093" unicode="&#x44b;" horiz-adv-x="763" 
d="M687 0h-131v521h131v-521zM495 167q0 -74 -48.5 -120.5t-125.5 -46.5h-249v521h131v-188h118q77 0 125.5 -46t48.5 -120zM297 231h-98v-129h98q32 0 50.5 17.5t18.5 47.5q0 29 -18.5 46.5t-50.5 17.5z" />
    <glyph glyph-name="afii10094" unicode="&#x44c;" horiz-adv-x="529" 
d="M496 167q0 -74 -48.5 -120.5t-124.5 -46.5h-251v521h131v-188h120q77 0 125 -46t48 -120zM299 231h-100v-129h100q31 0 49.5 17.5t18.5 47.5q0 29 -18.5 46.5t-49.5 17.5z" />
    <glyph glyph-name="afii10095" unicode="&#x44d;" horiz-adv-x="480" 
d="M199 527q111 0 172.5 -69t61.5 -194q0 -130 -61 -200t-173 -70q-54 0 -92 16t-79 54l87 86q23 -23 41.5 -32.5t43.5 -9.5q91 0 103 111h-153v89h153q-15 105 -104 105q-42 0 -84 -42l-87 86q41 38 79 54t92 16z" />
    <glyph glyph-name="afii10096" unicode="&#x44e;" horiz-adv-x="774" 
d="M722 261q0 -75 -12.5 -121.5t-46.5 -81.5q-62 -64 -162 -64q-99 0 -161 64q-50 53 -58 153h-79v-211h-131v521h131v-200h80q7 88 57 142q62 64 161 64q102 0 162 -64q34 -36 46.5 -82t12.5 -120zM592 261q0 97 -30 126q-23 23 -61 23q-37 0 -60 -23q-30 -29 -30 -126
q0 -98 30 -127q23 -23 60 -23q38 0 61 23q30 29 30 127z" />
    <glyph glyph-name="afii10097" unicode="&#x44f;" horiz-adv-x="535" 
d="M335 288v129h-102q-32 0 -50.5 -17.5t-18.5 -47.5q0 -29 18.5 -46.5t50.5 -17.5h102zM177 0h-148l105 213q-45 17 -71 55t-26 90q0 71 48.5 117t124.5 46h253v-521h-130v185h-70z" />
    <glyph glyph-name="uni0450" unicode="&#x450;" horiz-adv-x="548" 
d="M332 604h-87l-114 170h137zM501 220h-326q0 -52 30 -84t84 -32q40 0 65.5 11.5t52.5 37.5l79 -77q-42 -43 -86.5 -62.5t-111.5 -19.5q-50 0 -90.5 12.5t-75.5 41.5t-55 83t-20 130q0 125 62 195.5t165 70.5q107 0 167 -69.5t60 -182.5v-55zM373 309q-1 34 -12 56
q-24 54 -87 54t-87 -54q-11 -22 -12 -56h198z" />
    <glyph glyph-name="afii10071" unicode="&#x451;" horiz-adv-x="548" 
d="M501 220h-326q0 -52 30 -84t84 -32q40 0 65.5 11.5t52.5 37.5l79 -77q-42 -43 -86.5 -62.5t-111.5 -19.5q-50 0 -90.5 12.5t-75.5 41.5t-55 83t-20 130q0 125 62 195.5t165 70.5q107 0 167 -69.5t60 -182.5v-55zM373 309q-1 34 -12 56q-24 54 -87 54t-87 -54
q-11 -22 -12 -56h198zM443 606h-111v125h111v-125zM222 606h-111v125h111v-125z" />
    <glyph glyph-name="afii10099" unicode="&#x452;" horiz-adv-x="573" 
d="M506 -26q0 -169 -171 -169h-60v110h36q32 0 48.5 20.5t16.5 47.5v281q0 49 -25.5 72t-60.5 23q-36 0 -61.5 -23t-25.5 -72v-264h-130v525h-47v100h47v87h130v-87h229v-100h-229v-103q49 54 127 54q77 0 123 -46q53 -53 53 -148v-308z" />
    <glyph glyph-name="afii10100" unicode="&#x453;" horiz-adv-x="434" 
d="M421 406h-215v-406h-130v521h345v-115zM368 774l-114 -170h-87l64 170h137z" />
    <glyph glyph-name="afii10101" unicode="&#x454;" horiz-adv-x="480" 
d="M452 64q-40 -38 -78.5 -54t-92.5 -16q-112 0 -173 70t-61 200q0 124 62 193.5t172 69.5q54 0 92 -16t79 -54l-86 -86q-43 42 -85 42q-90 0 -103 -105h155v-89h-155q12 -111 103 -111q25 0 43.5 9.5t41.5 32.5z" />
    <glyph glyph-name="afii10102" unicode="&#x455;" horiz-adv-x="501" 
d="M465 164q0 -83 -62 -126.5t-159 -43.5q-72 0 -124.5 15t-97.5 60l85 85q49 -49 139 -49q38 0 65 13.5t27 40.5q0 43 -55 48l-82 8q-152 15 -152 146q0 78 58.5 122t142.5 44q134 0 199 -61l-80 -81q-39 35 -121 35q-37 0 -55.5 -14.5t-18.5 -35.5q0 -40 54 -45l82 -8
q76 -7 115.5 -46.5t39.5 -106.5z" />
    <glyph glyph-name="afii10103" unicode="&#x456;" horiz-adv-x="275" 
d="M203 0h-130v506h130v-506zM204 610h-133v106h133v-106z" />
    <glyph glyph-name="afii10104" unicode="&#x457;" horiz-adv-x="275" 
d="M203 0h-130v506h130v-506zM304 606h-111v125h111v-125zM83 606h-111v125h111v-125z" />
    <glyph glyph-name="afii10105" unicode="&#x458;" horiz-adv-x="275" 
d="M203 -46q0 -61 -38.5 -105t-113.5 -44h-74v110h50q46 0 46 47v544h130v-552zM204 610h-133v106h133v-106z" />
    <glyph glyph-name="afii10106" unicode="&#x459;" horiz-adv-x="824" 
d="M664 167q0 29 -18.5 46.5t-50.5 17.5h-100v-129h100q32 0 50.5 17.5t18.5 47.5zM117 521h381v-188h121q77 0 125.5 -46t48.5 -120t-48.5 -120.5t-125.5 -46.5h-251v406h-125v-125q0 -159 -41 -220t-126 -61h-62v115h16q21 0 33 4.5t26.5 22t21 59.5t6.5 109v211z" />
    <glyph glyph-name="afii10107" unicode="&#x45a;" horiz-adv-x="827" 
d="M795 167q0 -74 -48.5 -120.5t-124.5 -46.5h-252v218h-167v-218h-131v521h131v-188h167v188h131v-188h121q77 0 125 -46t48 -120zM666 167q0 29 -18.5 46.5t-50.5 17.5h-100v-129h100q32 0 50.5 17.5t18.5 47.5z" />
    <glyph glyph-name="afii10108" unicode="&#x45b;" horiz-adv-x="573" 
d="M506 0h-130v264q0 49 -25.5 72t-60.5 23q-36 0 -61.5 -23t-25.5 -72v-264h-130v525h-47v100h47v87h130v-87h229v-100h-229v-103q49 54 127 54q77 0 123 -46q53 -53 53 -148v-282z" />
    <glyph glyph-name="afii10109" unicode="&#x45c;" horiz-adv-x="534" 
d="M204 0h-131v521h131v-521zM540 0h-156l-179 273l171 248h152l-184 -243zM426 774l-114 -170h-87l64 170h137z" />
    <glyph glyph-name="uni045D" unicode="&#x45d;" horiz-adv-x="589" 
d="M517 0h-131v318l-183 -318h-131v521h131v-310l183 310h131v-521zM343 604h-87l-114 170h137z" />
    <glyph glyph-name="afii10110" unicode="&#x45e;" horiz-adv-x="494" 
d="M411 722q-2 -75 -48.5 -109t-113.5 -34t-113 34t-49 109h98q4 -62 64 -62t64 62h98zM490 521l-223 -605q-21 -56 -56.5 -81.5t-94.5 -25.5h-51v117h30q29 0 42 9.5t23 37.5l22 64l-178 484h137l108 -322l104 322h137z" />
    <glyph glyph-name="afii10193" unicode="&#x45f;" horiz-adv-x="573" 
d="M501 0h-154v-128h-123v128h-152v521h131v-406h167v406h131v-521z" />
    <glyph glyph-name="afii10146" unicode="&#x462;" horiz-adv-x="651" 
d="M617 222q0 -98 -64 -160t-167 -62h-280v528h-69v106h69v78h139v-78h116v-106h-116v-84h141q104 0 167.5 -62t63.5 -160zM478 222q0 44 -28 71t-75 27h-130v-196h130q47 0 75 27t28 71z" />
    <glyph glyph-name="afii10194" unicode="&#x463;" horiz-adv-x="553" 
d="M520 167q0 -74 -48.5 -120.5t-124.5 -46.5h-251v400h-59v82h59v39h131v-39h89v-82h-89v-67h120q77 0 125 -46t48 -120zM323 231h-100v-129h100q31 0 49.5 17.5t18.5 47.5q0 29 -18.5 46.5t-49.5 17.5z" />
    <glyph glyph-name="afii10147" unicode="&#x472;" horiz-adv-x="644" 
d="M585 356q0 -120 -12 -179t-61 -108q-75 -75 -190 -75q-114 0 -191 75q-49 49 -60.5 107.5t-11.5 179.5t11.5 179.5t60.5 107.5q77 75 191 75q115 0 190 -75q49 -49 61 -108t12 -179zM411 157q18 19 25.5 48.5t8.5 94.5h-247q2 -65 9.5 -94t24.5 -49q36 -39 90 -39
q55 0 89 39zM232 556q-17 -19 -24.5 -47.5t-8.5 -89.5h246q-2 61 -9.5 89.5t-24.5 47.5q-33 38 -89 38q-55 0 -90 -38z" />
    <glyph glyph-name="afii10195" unicode="&#x473;" 
d="M492 261q0 -75 -12.5 -121.5t-46.5 -81.5q-60 -64 -162 -64q-101 0 -161 64q-34 35 -46.5 81.5t-12.5 121.5q0 74 12.5 120.5t46.5 81.5q60 64 161 64q102 0 162 -64q34 -35 46.5 -81.5t12.5 -120.5zM332 134q24 24 29 86h-179q3 -60 29 -86q23 -23 60 -23q38 0 61 23z
M211 387q-24 -24 -29 -78h178q-3 52 -28 78q-23 23 -61 23q-37 0 -60 -23z" />
    <glyph glyph-name="afii10148" unicode="&#x474;" horiz-adv-x="581" 
d="M290 248l106 344q16 52 57.5 86t101.5 34h85v-124h-44q-59 0 -74 -45l-180 -543h-104l-235 712h144z" />
    <glyph glyph-name="afii10196" unicode="&#x475;" horiz-adv-x="493" 
d="M429 357l-131 -357h-102l-192 521h137l106 -322l70 215q35 107 151 107h51v-117h-25q-28 0 -41 -9.5t-24 -37.5z" />
    <glyph glyph-name="afii10050" unicode="&#x490;" horiz-adv-x="561" 
d="M534 588h-309v-588h-139v712h314v158h134v-282z" />
    <glyph glyph-name="afii10098" unicode="&#x491;" horiz-adv-x="434" 
d="M421 406h-215v-406h-130v521h222v128h123v-243z" />
    <glyph glyph-name="uni0492" unicode="&#x492;" horiz-adv-x="581" 
d="M554 588h-309v-176h116v-106h-116v-306h-139v306h-69v106h69v300h448v-124z" />
    <glyph glyph-name="uni0493" unicode="&#x493;" horiz-adv-x="455" 
d="M316 245h-89v-245h-130v245h-60v82h60v194h345v-115h-215v-79h89v-82z" />
    <glyph glyph-name="uni0496" unicode="&#x496;" horiz-adv-x="941" 
d="M923 712l-233 -334l172 -254h85v-282h-134v158h-34l-238 373l218 339h164zM162 0h-168l257 378l-233 334h164l218 -339zM540 0h-139v712h139v-712z" />
    <glyph glyph-name="uni0497" unicode="&#x497;" horiz-adv-x="763" 
d="M758 521l-171 -243l106 -163h76v-243h-123v128h-29l-169 273l161 248h149zM147 0h-153l183 278l-171 243h149l160 -248zM447 0h-131v521h131v-521z" />
    <glyph glyph-name="uni049A" unicode="&#x49a;" horiz-adv-x="640" 
d="M621 712l-239 -334l176 -254h87v-282h-134v158h-36l-250 373l230 339h166zM224 0h-139v712h139v-712z" />
    <glyph glyph-name="uni049B" unicode="&#x49b;" horiz-adv-x="533" 
d="M540 -128h-123v128h-33l-179 273l171 248h152l-184 -243l115 -163h81v-243zM204 0h-131v521h131v-521z" />
    <glyph glyph-name="uni049C" unicode="&#x49c;" horiz-adv-x="721" 
d="M725 0h-167l-171 301h-27v-138h-92v138h-44v-301h-139v712h139v-287h44v138h92v-138h27l151 287h163l-199 -346z" />
    <glyph glyph-name="uni049D" unicode="&#x49d;" horiz-adv-x="609" 
d="M615 0h-155l-101 211h-29v-117h-91v117h-36v-211h-130v521h130v-202h36v117h91v-117h24l98 202h152l-134 -244z" />
    <glyph glyph-name="uni04A2" unicode="&#x4a2;" horiz-adv-x="685" 
d="M602 712v-588h64v-282h-134v158h-69v298h-241v-298h-139v712h139v-291h241v291h139z" />
    <glyph glyph-name="uni04A3" unicode="&#x4a3;" horiz-adv-x="573" 
d="M501 521v-406h57v-243h-123v128h-65v209h-167v-209h-131v521h131v-197h167v197h131z" />
    <glyph glyph-name="uni04AE" unicode="&#x4ae;" horiz-adv-x="572" 
d="M569 712l-214 -420v-292h-138v292l-214 420h151l133 -287l131 287h151z" />
    <glyph glyph-name="uni04AF" unicode="&#x4af;" horiz-adv-x="494" 
d="M490 521l-179 -506v-206h-129v206l-178 506h138l106 -340l104 340h138z" />
    <glyph glyph-name="uni04B0" unicode="&#x4b0;" horiz-adv-x="572" 
d="M569 712l-214 -420h94v-106h-94v-186h-138v186h-92v106h92l-214 420h151l133 -287l131 287h151z" />
    <glyph glyph-name="uni04B1" unicode="&#x4b1;" horiz-adv-x="494" 
d="M490 521l-179 -506h77v-82h-77v-124h-129v124h-73v82h73l-178 506h138l106 -340l104 340h138z" />
    <glyph glyph-name="uni04B2" unicode="&#x4b2;" horiz-adv-x="603" 
d="M583 712l-207 -347l146 -241h76v-282h-134v158h-25l-138 248l-137 -248h-159l221 365l-207 347h158l124 -230l125 230h157z" />
    <glyph glyph-name="uni04B3" unicode="&#x4b3;" horiz-adv-x="527" 
d="M508 521l-173 -255l102 -151h78v-243h-123v128h-33l-96 156l-95 -156h-156l180 266l-173 255h156l88 -149l89 149h156z" />
    <glyph glyph-name="uni04B6" unicode="&#x4b6;" horiz-adv-x="649" 
d="M565 712v-588h65v-282h-134v158h-69v267q-117 -19 -181 -19q-75 0 -128.5 45t-53.5 128v291h139v-255q0 -85 89 -85q62 0 135 15v325h138z" />
    <glyph glyph-name="uni04B7" unicode="&#x4b7;" horiz-adv-x="548" 
d="M476 521v-406h58v-243h-123v128h-65v183q-79 -14 -142 -14q-64 0 -105 38t-41 104v210h130v-174q0 -63 64 -63q25 0 94 9v228h130z" />
    <glyph glyph-name="uni04B8" unicode="&#x4b8;" horiz-adv-x="664" 
d="M371 111h-99v137h-19q-78 0 -133.5 45t-55.5 128v291h139v-255q0 -37 17.5 -55.5t51.5 -25.5v134h99v-134q38 3 70 11v325h139v-712h-139v267q-32 -7 -70 -11v-145z" />
    <glyph glyph-name="uni04B9" unicode="&#x4b9;" horiz-adv-x="564" 
d="M315 55h-80v114h-14q-71 0 -117 38t-46 104v210h130v-174q0 -44 47 -57v108h80v-111q22 1 47 7v227h130v-521h-130v183q-27 -6 -47 -8v-120z" />
    <glyph glyph-name="uni04BA" unicode="&#x4ba;" horiz-adv-x="648" 
d="M83 712h138v-267q117 19 181 19q75 0 128.5 -45t53.5 -128v-291h-139v255q0 85 -89 85q-62 0 -135 -15v-325h-138v712z" />
    <glyph glyph-name="uni04BB" unicode="&#x4bb;" horiz-adv-x="548" 
d="M72 521h130v-183q79 14 142 14q64 0 105 -38t41 -104v-210h-130v174q0 63 -64 63q-25 0 -94 -9v-228h-130v521z" />
    <glyph glyph-name="uni04C0" unicode="&#x4c0;" horiz-adv-x="305" 
d="M222 0h-139v712h139v-712z" />
    <glyph glyph-name="uni04CF" unicode="&#x4cf;" horiz-adv-x="266" 
d="M198 0h-130v712h130v-712z" />
    <glyph glyph-name="uni04D8" unicode="&#x4d8;" horiz-adv-x="649" 
d="M590 356q0 -121 -11.5 -180t-60.5 -107q-77 -75 -190 -75q-124 0 -201 81q-38 40 -53 89t-15 128v104h391q-1 73 -8 105.5t-26 54.5q-33 38 -88 38q-104 0 -128 -104h-140q15 98 83 163t185 65q113 0 190 -75q47 -47 59.5 -107.5t12.5 -179.5zM449 279h-252v-26
q0 -59 32 -95q35 -40 99 -40q56 0 88 37q17 18 24 44t9 80z" />
    <glyph glyph-name="afii10846" unicode="&#x4d9;" horiz-adv-x="548" 
d="M47 301h326q0 52 -30 84t-84 32q-40 0 -65.5 -11.5t-52.5 -37.5l-79 77q42 43 86.5 62.5t111.5 19.5q50 0 90.5 -12.5t75.5 -41.5t55 -83t20 -130q0 -125 -62 -195.5t-165 -70.5q-107 0 -167 69.5t-60 182.5v55zM175 212q1 -34 12 -56q24 -54 87 -54t87 54q11 22 12 56
h-198z" />
    <glyph glyph-name="uni04E2" unicode="&#x4e2;" horiz-adv-x="706" 
d="M623 0h-139v457l-277 -457h-124v712h139v-456l277 456h124v-712zM194 793v88h317v-88h-317z" />
    <glyph glyph-name="uni04E3" unicode="&#x4e3;" horiz-adv-x="589" 
d="M517 0h-131v318l-183 -318h-131v521h131v-310l183 310h131v-521zM453 623h-317v88h317v-88z" />
    <glyph glyph-name="uni04E8" unicode="&#x4e8;" horiz-adv-x="644" 
d="M585 356q0 -120 -12 -179t-61 -108q-75 -75 -190 -75q-114 0 -191 75q-49 49 -60.5 107.5t-11.5 179.5t11.5 179.5t60.5 107.5q77 75 191 75q115 0 190 -75q49 -49 61 -108t12 -179zM411 157q18 19 25.5 48.5t8.5 94.5h-247q2 -65 9.5 -94t24.5 -49q36 -39 90 -39
q55 0 89 39zM232 556q-17 -19 -24.5 -47.5t-8.5 -89.5h246q-2 61 -9.5 89.5t-24.5 47.5q-33 38 -89 38q-55 0 -90 -38z" />
    <glyph glyph-name="uni04E9" unicode="&#x4e9;" 
d="M492 261q0 -75 -12.5 -121.5t-46.5 -81.5q-60 -64 -162 -64q-101 0 -161 64q-34 35 -46.5 81.5t-12.5 121.5q0 74 12.5 120.5t46.5 81.5q60 64 161 64q102 0 162 -64q34 -35 46.5 -81.5t12.5 -120.5zM332 134q24 24 29 86h-179q3 -60 29 -86q23 -23 60 -23q38 0 61 23z
M211 387q-24 -24 -29 -78h178q-3 52 -28 78q-23 23 -61 23q-37 0 -60 -23z" />
    <glyph glyph-name="uni04EE" unicode="&#x4ee;" horiz-adv-x="581" 
d="M577 712l-252 -592q-51 -120 -159 -120h-85v124h56q54 0 74 45l21 49l-228 494h145l149 -343l135 343h144zM141 793v88h317v-88h-317z" />
    <glyph glyph-name="uni04EF" unicode="&#x4ef;" horiz-adv-x="494" 
d="M490 521l-223 -605q-21 -56 -56.5 -81.5t-94.5 -25.5h-51v117h30q29 0 42 9.5t23 37.5l22 64l-178 484h137l108 -322l104 322h137zM406 623h-317v88h317v-88z" />
    <glyph glyph-name="Wgrave" unicode="&#x1e80;" horiz-adv-x="887" 
d="M881 712l-191 -712h-116l-131 432l-131 -432h-116l-190 712h145l110 -449l130 449h104l130 -449l111 449h145zM488 781h-87l-114 170h137z" />
    <glyph glyph-name="wgrave" unicode="&#x1e81;" horiz-adv-x="759" 
d="M755 521l-159 -521h-107l-109 327l-109 -327h-107l-160 521h138l84 -322l106 322h95l107 -322l84 322h137zM424 604h-87l-114 170h137z" />
    <glyph glyph-name="Wacute" unicode="&#x1e82;" horiz-adv-x="887" 
d="M881 712l-191 -712h-116l-131 432l-131 -432h-116l-190 712h145l110 -449l130 449h104l130 -449l111 449h145zM600 951l-114 -170h-87l64 170h137z" />
    <glyph glyph-name="wacute" unicode="&#x1e83;" horiz-adv-x="759" 
d="M755 521l-159 -521h-107l-109 327l-109 -327h-107l-160 521h138l84 -322l106 322h95l107 -322l84 322h137zM537 774l-114 -170h-87l64 170h137z" />
    <glyph glyph-name="Wdieresis" unicode="&#x1e84;" horiz-adv-x="887" 
d="M881 712l-191 -712h-116l-131 432l-131 -432h-116l-190 712h145l110 -449l130 449h104l130 -449l111 449h145zM609 783h-111v125h111v-125zM388 783h-111v125h111v-125z" />
    <glyph glyph-name="wdieresis" unicode="&#x1e85;" horiz-adv-x="759" 
d="M755 521l-159 -521h-107l-109 327l-109 -327h-107l-160 521h138l84 -322l106 322h95l107 -322l84 322h137zM545 606h-111v125h111v-125zM324 606h-111v125h111v-125z" />
    <glyph glyph-name="uni1E8A" unicode="&#x1e8a;" horiz-adv-x="603" 
d="M598 0h-159l-138 248l-137 -248h-159l221 365l-207 347h158l124 -230l125 230h157l-207 -347zM244 789v116h115v-116h-115z" />
    <glyph glyph-name="uni1E8B" unicode="&#x1e8b;" horiz-adv-x="527" 
d="M515 0h-156l-96 156l-95 -156h-156l180 266l-173 255h156l88 -149l89 149h156l-173 -255zM206 612v115h115v-115h-115z" />
    <glyph glyph-name="Ygrave" unicode="&#x1ef2;" horiz-adv-x="572" 
d="M569 712l-214 -420v-292h-138v292l-214 420h151l133 -287l131 287h151zM332 781h-87l-114 170h137z" />
    <glyph glyph-name="ygrave" unicode="&#x1ef3;" horiz-adv-x="494" 
d="M490 521l-223 -605q-17 -45 -39 -67q-40 -40 -112 -40h-51v117h30q28 0 41.5 9.5t23.5 37.5l22 64l-178 484h137l108 -322l104 322h137zM283 604h-87l-114 170h137z" />
    <glyph glyph-name="uni2007" unicode="&#x2007;" 
 />
    <glyph glyph-name="uni2008" unicode="&#x2008;" horiz-adv-x="285" 
 />
    <glyph glyph-name="uni200B" unicode="&#x200b;" horiz-adv-x="0" 
 />
    <glyph glyph-name="endash" unicode="&#x2013;" 
d="M493 225h-443v121h443v-121z" />
    <glyph glyph-name="emdash" unicode="&#x2014;" horiz-adv-x="1027" 
d="M968 226h-909v125h909v-125z" />
    <glyph glyph-name="afii00208" unicode="&#x2015;" horiz-adv-x="1027" 
d="M968 226h-909v125h909v-125z" />
    <glyph glyph-name="quoteleft" unicode="&#x2018;" horiz-adv-x="273" 
d="M204 589h-136v123l136 105v-228z" />
    <glyph glyph-name="quoteright" unicode="&#x2019;" horiz-adv-x="273" 
d="M204 588l-136 -103v227h136v-124z" />
    <glyph glyph-name="quotesinglbase" unicode="&#x201a;" horiz-adv-x="271" 
d="M204 0l-136 -104v228h136v-124z" />
    <glyph glyph-name="quotedblleft" unicode="&#x201c;" horiz-adv-x="482" 
d="M414 589h-136v123l136 105v-228zM203 589h-135v123l135 105v-228z" />
    <glyph glyph-name="quotedblright" unicode="&#x201d;" horiz-adv-x="482" 
d="M414 588l-136 -103v227h136v-124zM203 588l-135 -103v227h135v-124z" />
    <glyph glyph-name="quotedblbase" unicode="&#x201e;" horiz-adv-x="485" 
d="M414 0l-136 -104v228h136v-124zM203 0l-135 -104v228h135v-124z" />
    <glyph glyph-name="dagger" unicode="&#x2020;" horiz-adv-x="579" 
d="M522 410h-168v-410h-130v410h-167v117h167v185h130v-185h168v-117z" />
    <glyph glyph-name="daggerdbl" unicode="&#x2021;" horiz-adv-x="579" 
d="M522 -6h-168v-185h-130v185h-167v117h167v299h-167v117h167v185h130v-185h168v-117h-168v-299h168v-117z" />
    <glyph glyph-name="bullet" unicode="&#x2022;" horiz-adv-x="493" 
d="M409 334q0 -68 -47.5 -115.5t-115.5 -47.5t-115.5 47.5t-47.5 115.5t47.5 115.5t115.5 47.5t115.5 -47.5t47.5 -115.5z" />
    <glyph glyph-name="ellipsis" unicode="&#x2026;" horiz-adv-x="846" 
d="M210 0h-142v141h142v-141zM493 0h-141v141h141v-141zM778 0h-141v141h141v-141z" />
    <glyph glyph-name="perthousand" unicode="&#x2030;" horiz-adv-x="1211" 
d="M1158 131q0 -65 -41.5 -101t-103.5 -36t-103.5 36t-41.5 101v99q0 65 41.5 101t103.5 36t103.5 -36t41.5 -101v-99zM796 131q0 -65 -41.5 -101t-103.5 -36t-103.5 36t-41.5 101v99q0 65 41.5 101t103.5 36t103.5 -36t41.5 -101v-99zM342 482q0 -65 -41.5 -101t-103.5 -36
t-103.5 36t-41.5 101v99q0 65 41.5 101t103.5 36t103.5 -36t41.5 -101v-99zM644 712l-337 -712h-102l337 712h102zM1064 134v92q0 57 -51 57t-51 -57v-91q0 -57 51 -57t51 56zM702 135v91q0 57 -51 57t-51 -57v-91q0 -57 51 -57t51 57zM248 486v91q0 57 -51 57t-51 -57v-91
q0 -57 51 -57t51 57z" />
    <glyph glyph-name="guilsinglleft" unicode="&#x2039;" horiz-adv-x="350" 
d="M283 27l-249 248l249 248v-155l-94 -93l94 -93v-155z" />
    <glyph glyph-name="guilsinglright" unicode="&#x203a;" horiz-adv-x="350" 
d="M316 275l-249 -248v155l95 93l-95 93v155z" />
    <glyph glyph-name="fraction" unicode="&#x2044;" horiz-adv-x="208" 
d="M323 712l-337 -712h-101l337 712h101z" />
    <glyph glyph-name="uni2070" unicode="&#x2070;" horiz-adv-x="332" 
d="M302 414q0 -62 -39.5 -97.5t-96.5 -35.5q-56 0 -96 35.5t-40 97.5v170q0 61 40 96.5t96 35.5q57 0 96.5 -35t39.5 -97v-170zM208 412v172q0 22 -12 35t-30 13t-29.5 -12.5t-11.5 -35.5v-172q0 -22 11.5 -34t29.5 -12t30 12t12 34z" />
    <glyph glyph-name="uni2074" unicode="&#x2074;" horiz-adv-x="332" 
d="M317 342h-33v-57h-90v57h-176v89l143 281h103l-144 -281h74v62h90v-62h33v-89z" />
    <glyph glyph-name="uni2075" unicode="&#x2075;" horiz-adv-x="332" 
d="M305 429q0 -73 -39 -112q-36 -36 -98 -36q-66 0 -100 36q-32 32 -37 95h94q5 -46 43 -46q20 0 30 12q13 13 13 51q0 64 -43 64q-34 0 -42 -30h-87v249h257v-85h-171v-73q23 18 58 18q53 0 83 -30q39 -39 39 -113z" />
    <glyph glyph-name="uni2076" unicode="&#x2076;" horiz-adv-x="332" 
d="M305 418q0 -64 -40.5 -100.5t-100.5 -36.5t-100 36t-40 101q0 40 36 115l88 179h103l-85 -169q8 3 25 3q44 0 79 -35t35 -93zM210 418q0 25 -12.5 39t-33.5 14q-20 0 -32.5 -14t-12.5 -39t12.5 -39.5t32.5 -14.5t33 14.5t13 39.5z" />
    <glyph glyph-name="uni2077" unicode="&#x2077;" horiz-adv-x="332" 
d="M311 628l-135 -343h-94l134 342h-108v-69h-86v154h289v-84z" />
    <glyph glyph-name="uni2078" unicode="&#x2078;" horiz-adv-x="332" 
d="M308 412q0 -63 -40 -97t-102 -34t-102 34t-40 97q0 56 49 93q-44 35 -44 85q0 58 40 92t97 34t97.5 -34t40.5 -92q0 -51 -45 -85q49 -37 49 -93zM214 414q0 20 -14 34.5t-34 14.5t-34 -14.5t-14 -34.5t14 -34t34 -14t34 14t14 34zM209 588q0 18 -12 30.5t-31 12.5
t-31 -12.5t-12 -30.5q0 -19 12.5 -32t30.5 -13q19 0 31 13t12 32z" />
    <glyph glyph-name="uni2079" unicode="&#x2079;" horiz-adv-x="332" 
d="M308 579q0 -41 -36 -115l-88 -179h-103l85 169q-7 -3 -25 -3q-44 0 -79 35t-35 93q0 64 40.5 100.5t100.5 36.5t100 -36t40 -101zM214 580q0 23 -13 37t-33 14t-33 -14t-13 -37t13 -38t33 -15q19 0 32.5 14.5t13.5 38.5z" />
    <glyph glyph-name="uni2080" unicode="&#x2080;" horiz-adv-x="332" 
d="M302 -21q0 -62 -39.5 -97.5t-96.5 -35.5q-56 0 -96 35.5t-40 97.5v170q0 61 40 96.5t96 35.5q57 0 96.5 -35t39.5 -97v-170zM208 -23v172q0 22 -12 35t-30 13t-29.5 -12.5t-11.5 -35.5v-172q0 -22 11.5 -34t29.5 -12t30 12t12 34z" />
    <glyph glyph-name="uni2081" unicode="&#x2081;" horiz-adv-x="332" 
d="M239 -150h-95v321l-90 -78v106l90 78h95v-427z" />
    <glyph glyph-name="uni2082" unicode="&#x2082;" horiz-adv-x="332" 
d="M306 -150h-272v85l156 171q22 23 22 47q0 20 -11 31.5t-31 11.5q-42 0 -42 -44h-94q0 60 38.5 94.5t97.5 34.5q60 0 98 -34.5t38 -93.5q0 -30 -12 -51.5t-40 -52.5l-105 -114h157v-85z" />
    <glyph glyph-name="uni2083" unicode="&#x2083;" horiz-adv-x="332" 
d="M310 -23q0 -63 -40.5 -97t-100.5 -34q-59 0 -100 33t-41 99h94q0 -23 13 -35.5t34 -12.5t34 13t13 37q0 21 -13.5 34.5t-35.5 13.5h-13v81h13q22 0 33 12.5t11 30.5q0 21 -12 32.5t-30 11.5t-30 -11t-12 -31h-94q0 58 39 92.5t97 34.5q59 0 97.5 -35.5t38.5 -90.5
q0 -57 -45 -84q50 -32 50 -94z" />
    <glyph glyph-name="uni2084" unicode="&#x2084;" horiz-adv-x="332" 
d="M317 -93h-33v-57h-90v57h-176v89l143 281h103l-144 -281h74v62h90v-62h33v-89z" />
    <glyph glyph-name="uni2085" unicode="&#x2085;" horiz-adv-x="332" 
d="M305 -6q0 -73 -39 -112q-36 -36 -98 -36q-66 0 -100 36q-32 32 -37 95h94q5 -46 43 -46q20 0 30 12q13 13 13 51q0 64 -43 64q-34 0 -42 -30h-87v249h257v-85h-171v-73q23 18 58 18q53 0 83 -30q39 -39 39 -113z" />
    <glyph glyph-name="uni2086" unicode="&#x2086;" horiz-adv-x="332" 
d="M305 -17q0 -64 -40.5 -100.5t-100.5 -36.5t-100 36t-40 101q0 40 36 115l88 179h103l-85 -169q8 3 25 3q44 0 79 -35t35 -93zM210 -17q0 25 -12.5 39t-33.5 14q-20 0 -32.5 -14t-12.5 -39t12.5 -39.5t32.5 -14.5t33 14.5t13 39.5z" />
    <glyph glyph-name="uni2087" unicode="&#x2087;" horiz-adv-x="332" 
d="M311 193l-135 -343h-94l134 342h-108v-69h-86v154h289v-84z" />
    <glyph glyph-name="uni2088" unicode="&#x2088;" horiz-adv-x="332" 
d="M308 -23q0 -63 -40 -97t-102 -34t-102 34t-40 97q0 56 49 93q-44 35 -44 85q0 58 40 92t97 34t97.5 -34t40.5 -92q0 -51 -45 -85q49 -37 49 -93zM214 -21q0 20 -14 34.5t-34 14.5t-34 -14.5t-14 -34.5t14 -34t34 -14t34 14t14 34zM209 153q0 18 -12 30.5t-31 12.5
t-31 -12.5t-12 -30.5q0 -19 12.5 -32t30.5 -13q19 0 31 13t12 32z" />
    <glyph glyph-name="uni2089" unicode="&#x2089;" horiz-adv-x="332" 
d="M308 144q0 -42 -36 -115l-88 -179h-103l85 169q-7 -3 -25 -3q-44 0 -79 35t-35 93q0 64 40.5 100.5t100.5 36.5t100 -36t40 -101zM214 145q0 23 -13 37t-33 14t-33 -14t-13 -37t13 -38t33 -15q19 0 32.5 14.5t13.5 38.5z" />
    <glyph glyph-name="Euro" unicode="&#x20ac;" horiz-adv-x="684" 
d="M632 219q-18 -109 -88.5 -167t-172.5 -58q-115 0 -191 76q-59 59 -68 167h-73v83h69v75h-69v83h73q9 105 68 164q76 76 191 76q103 0 173 -58t88 -167h-141q-24 101 -120 101q-56 0 -88 -37q-24 -27 -29 -79h148v-83h-155v-75h155v-83h-149q7 -58 30 -82q32 -37 88 -37
q97 0 121 101h140z" />
    <glyph glyph-name="uni20B4" unicode="&#x20b4;" horiz-adv-x="675" 
d="M584 478h52v-83h-77q-11 -19 -25 -33q-29 -28 -69 -42h171v-83h-407q-4 -13 -4 -31q0 -88 126 -88q112 0 172 60l90 -90q-51 -51 -113 -72.5t-147 -21.5q-115 0 -189.5 57.5t-74.5 158.5q0 18 1 27h-51v83h74q13 24 31 41q23 21 53 34h-158v83h406q6 14 6 29
q0 39 -28.5 64.5t-81.5 25.5q-95 0 -146 -49l-88 87q86 83 230 83q114 0 181 -59.5t67 -156.5q0 -5 -0.5 -12.5t-0.5 -11.5z" />
    <glyph glyph-name="afii61352" unicode="&#x2116;" horiz-adv-x="965" 
d="M568 0h-115l-254 456v-456h-130v712h115l254 -456v456h130v-712zM915 225h-290v93h290v-93zM820 538q0 66 -17 84q-10 12 -32 12q-23 0 -33 -12q-17 -17 -17 -84t17 -84q13 -13 33 -13q19 0 32 13q17 16 17 84zM921 534q0 -98 -41 -139q-42 -44 -109 -44t-109 44
q-41 41 -41 139t41 140q41 43 109 43t109 -43q41 -44 41 -140z" />
    <glyph glyph-name="trademark" unicode="&#x2122;" horiz-adv-x="924" 
d="M860 285h-95v252l-80 -157h-84l-80 157v-252h-95v427h95l122 -228l122 228h95v-427zM360 627h-110v-342h-95v342h-110v85h315v-85z" />
    <glyph glyph-name="Omega" unicode="&#x2126;" horiz-adv-x="644" 
d="M585 356q0 -121 -23 -178q-13 -31 -36 -54h59v-124h-219v110q37 18 53 43q27 38 27 196q0 101 -7 142t-28 64q-34 39 -89 39q-54 0 -90 -39q-20 -23 -27 -64.5t-7 -141.5q0 -159 26 -196q18 -27 54 -43v-110h-219v124h59q-24 22 -37 54q-22 57 -22 178t11.5 179.5
t60.5 107.5q77 75 191 75q115 0 190 -75q49 -49 61 -108t12 -179z" />
    <glyph glyph-name="uni2150" unicode="&#x2150;" horiz-adv-x="872" 
d="M239 285h-95v321l-90 -78v106l90 78h95v-427zM655 712l-337 -712h-101l337 712h101zM851 343l-135 -343h-94l134 342h-108v-69h-86v154h289v-84z" />
    <glyph glyph-name="uni2151" unicode="&#x2151;" horiz-adv-x="872" 
d="M239 285h-95v321l-90 -78v106l90 78h95v-427zM655 712l-337 -712h-101l337 712h101zM848 294q0 -42 -36 -115l-88 -179h-103l85 169q-7 -3 -25 -3q-44 0 -79 35t-35 93q0 64 40.5 100.5t100.5 36.5t100 -36t40 -101zM754 295q0 23 -13 37t-33 14t-33 -14t-13 -37t13 -38
t33 -15q19 0 32.5 14.5t13.5 38.5z" />
    <glyph glyph-name="uni2152" unicode="&#x2152;" horiz-adv-x="1204" 
d="M239 285h-95v321l-90 -78v106l90 78h95v-427zM655 712l-337 -712h-101l337 712h101zM779 0h-95v321l-90 -78v106l90 78h95v-427zM1174 129q0 -62 -39.5 -97.5t-96.5 -35.5q-56 0 -96 35.5t-40 97.5v170q0 61 40 96.5t96 35.5q57 0 96.5 -35t39.5 -97v-170zM1080 127v172
q0 22 -12 35t-30 13t-29.5 -12.5t-11.5 -35.5v-172q0 -22 11.5 -34t29.5 -12t30 12t12 34z" />
    <glyph glyph-name="onethird" unicode="&#x2153;" horiz-adv-x="872" 
d="M239 285h-95v321l-90 -78v106l90 78h95v-427zM655 712l-337 -712h-101l337 712h101zM850 127q0 -63 -40.5 -97t-100.5 -34q-59 0 -100 33t-41 99h94q0 -23 13 -35.5t34 -12.5t34 13t13 37q0 21 -13.5 34.5t-35.5 13.5h-13v81h13q22 0 33 12.5t11 30.5q0 21 -12 32.5
t-30 11.5t-30 -11t-12 -31h-94q0 58 39 92.5t97 34.5q59 0 97.5 -35.5t38.5 -90.5q0 -57 -45 -84q50 -32 50 -94z" />
    <glyph glyph-name="twothirds" unicode="&#x2154;" horiz-adv-x="872" 
d="M306 285h-272v85l156 171q22 23 22 47q0 20 -11 31.5t-31 11.5q-42 0 -42 -44h-94q0 60 38.5 94.5t97.5 34.5q60 0 98 -34.5t38 -93.5q0 -30 -12 -51.5t-40 -52.5l-105 -114h157v-85zM655 712l-337 -712h-101l337 712h101zM850 127q0 -63 -40.5 -97t-100.5 -34
q-59 0 -100 33t-41 99h94q0 -23 13 -35.5t34 -12.5t34 13t13 37q0 21 -13.5 34.5t-35.5 13.5h-13v81h13q22 0 33 12.5t11 30.5q0 21 -12 32.5t-30 11.5t-30 -11t-12 -31h-94q0 58 39 92.5t97 34.5q59 0 97.5 -35.5t38.5 -90.5q0 -57 -45 -84q50 -32 50 -94z" />
    <glyph glyph-name="uni2155" unicode="&#x2155;" horiz-adv-x="872" 
d="M239 285h-95v321l-90 -78v106l90 78h95v-427zM655 712l-337 -712h-101l337 712h101zM845 144q0 -73 -39 -112q-36 -36 -98 -36q-66 0 -100 36q-32 32 -37 95h94q5 -46 43 -46q20 0 30 12q13 13 13 51q0 64 -43 64q-34 0 -42 -30h-87v249h257v-85h-171v-73q23 18 58 18
q53 0 83 -30q39 -39 39 -113z" />
    <glyph glyph-name="uni2156" unicode="&#x2156;" horiz-adv-x="872" 
d="M306 285h-272v85l156 171q22 23 22 47q0 20 -11 31.5t-31 11.5q-42 0 -42 -44h-94q0 60 38.5 94.5t97.5 34.5q60 0 98 -34.5t38 -93.5q0 -30 -12 -51.5t-40 -52.5l-105 -114h157v-85zM655 712l-337 -712h-101l337 712h101zM845 144q0 -73 -39 -112q-36 -36 -98 -36
q-66 0 -100 36q-32 32 -37 95h94q5 -46 43 -46q20 0 30 12q13 13 13 51q0 64 -43 64q-34 0 -42 -30h-87v249h257v-85h-171v-73q23 18 58 18q53 0 83 -30q39 -39 39 -113z" />
    <glyph glyph-name="uni2157" unicode="&#x2157;" horiz-adv-x="872" 
d="M310 412q0 -63 -40.5 -97t-100.5 -34q-59 0 -100 33t-41 99h94q0 -23 13 -35.5t34 -12.5t34 13t13 37q0 21 -13.5 34.5t-35.5 13.5h-13v81h13q22 0 33 12.5t11 30.5q0 21 -12 32.5t-30 11.5t-30 -11t-12 -31h-94q0 58 39 92.5t97 34.5q59 0 97.5 -35.5t38.5 -90.5
q0 -57 -45 -84q50 -32 50 -94zM655 712l-337 -712h-101l337 712h101zM845 144q0 -73 -39 -112q-36 -36 -98 -36q-66 0 -100 36q-32 32 -37 95h94q5 -46 43 -46q20 0 30 12q13 13 13 51q0 64 -43 64q-34 0 -42 -30h-87v249h257v-85h-171v-73q23 18 58 18q53 0 83 -30
q39 -39 39 -113z" />
    <glyph glyph-name="uni2158" unicode="&#x2158;" horiz-adv-x="872" 
d="M317 342h-33v-57h-90v57h-176v89l143 281h103l-144 -281h74v62h90v-62h33v-89zM655 712l-337 -712h-101l337 712h101zM845 144q0 -73 -39 -112q-36 -36 -98 -36q-66 0 -100 36q-32 32 -37 95h94q5 -46 43 -46q20 0 30 12q13 13 13 51q0 64 -43 64q-34 0 -42 -30h-87v249
h257v-85h-171v-73q23 18 58 18q53 0 83 -30q39 -39 39 -113z" />
    <glyph glyph-name="uni2159" unicode="&#x2159;" horiz-adv-x="872" 
d="M239 285h-95v321l-90 -78v106l90 78h95v-427zM655 712l-337 -712h-101l337 712h101zM845 133q0 -64 -40.5 -100.5t-100.5 -36.5t-100 36t-40 101q0 40 36 115l88 179h103l-85 -169q8 3 25 3q44 0 79 -35t35 -93zM750 133q0 25 -12.5 39t-33.5 14q-20 0 -32.5 -14
t-12.5 -39t12.5 -39.5t32.5 -14.5t33 14.5t13 39.5z" />
    <glyph glyph-name="uni215A" unicode="&#x215a;" horiz-adv-x="872" 
d="M305 429q0 -73 -39 -112q-36 -36 -98 -36q-66 0 -100 36q-32 32 -37 95h94q5 -46 43 -46q20 0 30 12q13 13 13 51q0 64 -43 64q-34 0 -42 -30h-87v249h257v-85h-171v-73q23 18 58 18q53 0 83 -30q39 -39 39 -113zM655 712l-337 -712h-101l337 712h101zM845 133
q0 -64 -40.5 -100.5t-100.5 -36.5t-100 36t-40 101q0 40 36 115l88 179h103l-85 -169q8 3 25 3q44 0 79 -35t35 -93zM750 133q0 25 -12.5 39t-33.5 14q-20 0 -32.5 -14t-12.5 -39t12.5 -39.5t32.5 -14.5t33 14.5t13 39.5z" />
    <glyph glyph-name="oneeighth" unicode="&#x215b;" horiz-adv-x="872" 
d="M239 285h-95v321l-90 -78v106l90 78h95v-427zM655 712l-337 -712h-101l337 712h101zM848 127q0 -63 -40 -97t-102 -34t-102 34t-40 97q0 56 49 93q-44 35 -44 85q0 58 40 92t97 34t97.5 -34t40.5 -92q0 -51 -45 -85q49 -37 49 -93zM754 129q0 20 -14 34.5t-34 14.5
t-34 -14.5t-14 -34.5t14 -34t34 -14t34 14t14 34zM749 303q0 18 -12 30.5t-31 12.5t-31 -12.5t-12 -30.5q0 -19 12.5 -32t30.5 -13q19 0 31 13t12 32z" />
    <glyph glyph-name="threeeighths" unicode="&#x215c;" horiz-adv-x="872" 
d="M310 412q0 -63 -40.5 -97t-100.5 -34q-59 0 -100 33t-41 99h94q0 -23 13 -35.5t34 -12.5t34 13t13 37q0 21 -13.5 34.5t-35.5 13.5h-13v81h13q22 0 33 12.5t11 30.5q0 21 -12 32.5t-30 11.5t-30 -11t-12 -31h-94q0 58 39 92.5t97 34.5q59 0 97.5 -35.5t38.5 -90.5
q0 -57 -45 -84q50 -32 50 -94zM655 712l-337 -712h-101l337 712h101zM848 127q0 -63 -40 -97t-102 -34t-102 34t-40 97q0 56 49 93q-44 35 -44 85q0 58 40 92t97 34t97.5 -34t40.5 -92q0 -51 -45 -85q49 -37 49 -93zM754 129q0 20 -14 34.5t-34 14.5t-34 -14.5t-14 -34.5
t14 -34t34 -14t34 14t14 34zM749 303q0 18 -12 30.5t-31 12.5t-31 -12.5t-12 -30.5q0 -19 12.5 -32t30.5 -13q19 0 31 13t12 32z" />
    <glyph glyph-name="fiveeighths" unicode="&#x215d;" horiz-adv-x="872" 
d="M305 429q0 -73 -39 -112q-36 -36 -98 -36q-66 0 -100 36q-32 32 -37 95h94q5 -46 43 -46q20 0 30 12q13 13 13 51q0 64 -43 64q-34 0 -42 -30h-87v249h257v-85h-171v-73q23 18 58 18q53 0 83 -30q39 -39 39 -113zM655 712l-337 -712h-101l337 712h101zM848 127
q0 -63 -40 -97t-102 -34t-102 34t-40 97q0 56 49 93q-44 35 -44 85q0 58 40 92t97 34t97.5 -34t40.5 -92q0 -51 -45 -85q49 -37 49 -93zM754 129q0 20 -14 34.5t-34 14.5t-34 -14.5t-14 -34.5t14 -34t34 -14t34 14t14 34zM749 303q0 18 -12 30.5t-31 12.5t-31 -12.5
t-12 -30.5q0 -19 12.5 -32t30.5 -13q19 0 31 13t12 32z" />
    <glyph glyph-name="seveneighths" unicode="&#x215e;" horiz-adv-x="872" 
d="M311 628l-135 -343h-94l134 342h-108v-69h-86v154h289v-84zM655 712l-337 -712h-101l337 712h101zM848 127q0 -63 -40 -97t-102 -34t-102 34t-40 97q0 56 49 93q-44 35 -44 85q0 58 40 92t97 34t97.5 -34t40.5 -92q0 -51 -45 -85q49 -37 49 -93zM754 129q0 20 -14 34.5
t-34 14.5t-34 -14.5t-14 -34.5t14 -34t34 -14t34 14t14 34zM749 303q0 18 -12 30.5t-31 12.5t-31 -12.5t-12 -30.5q0 -19 12.5 -32t30.5 -13q19 0 31 13t12 32z" />
    <glyph glyph-name="uni215F" unicode="&#x215f;" horiz-adv-x="540" 
d="M239 285h-95v321l-90 -78v106l90 78h95v-427zM655 712l-337 -712h-101l337 712h101z" />
    <glyph glyph-name="uni2189" unicode="&#x2189;" horiz-adv-x="872" 
d="M302 414q0 -62 -39.5 -97.5t-96.5 -35.5q-56 0 -96 35.5t-40 97.5v170q0 61 40 96.5t96 35.5q57 0 96.5 -35t39.5 -97v-170zM208 412v172q0 22 -12 35t-30 13t-29.5 -12.5t-11.5 -35.5v-172q0 -22 11.5 -34t29.5 -12t30 12t12 34zM655 712l-337 -712h-101l337 712h101z
M850 127q0 -63 -40.5 -97t-100.5 -34q-59 0 -100 33t-41 99h94q0 -23 13 -35.5t34 -12.5t34 13t13 37q0 21 -13.5 34.5t-35.5 13.5h-13v81h13q22 0 33 12.5t11 30.5q0 21 -12 32.5t-30 11.5t-30 -11t-12 -31h-94q0 58 39 92.5t97 34.5q59 0 97.5 -35.5t38.5 -90.5
q0 -57 -45 -84q50 -32 50 -94z" />
    <glyph glyph-name="arrowleft" unicode="&#x2190;" horiz-adv-x="1027" 
d="M436 -100l-386 385l386 385h164l-327 -324h704v-123h-704l327 -323h-164z" />
    <glyph glyph-name="arrowup" unicode="&#x2191;" horiz-adv-x="1027" 
d="M899 200l-324 327v-705h-122v705l-324 -327v164l385 385l385 -385v-164z" />
    <glyph glyph-name="arrowright" unicode="&#x2192;" horiz-adv-x="1027" 
d="M429 -100l327 324h-705v122h705l-327 324h164l385 -385l-385 -385h-164z" />
    <glyph glyph-name="arrowdown" unicode="&#x2193;" horiz-adv-x="1027" 
d="M898 208l-385 -386l-385 386v164l324 -327v704h123v-704l323 327v-164z" />
    <glyph glyph-name="uni2196" unicode="&#x2196;" horiz-adv-x="1027" 
d="M884 1l-87 -87l-497 498l1 -460l-116 116v545h546l116 -116l-460 2z" />
    <glyph glyph-name="uni2197" unicode="&#x2197;" horiz-adv-x="1027" 
d="M841 69l-116 -116l2 459l-498 -498l-87 87l498 498l-460 -2l116 116h545v-544z" />
    <glyph glyph-name="uni2198" unicode="&#x2198;" horiz-adv-x="1027" 
d="M850 -63h-545l-115 115l459 -2l-498 498l87 87l498 -498l-2 459l116 -116v-543z" />
    <glyph glyph-name="uni2199" unicode="&#x2199;" horiz-adv-x="1027" 
d="M874 548l-497 -497l460 1l-116 -115l-546 -1l1 545l116 116l-2 -459l497 497z" />
    <glyph glyph-name="partialdiff" unicode="&#x2202;" horiz-adv-x="555" 
d="M482 254q0 -72 -12.5 -117.5t-44.5 -80.5q-58 -62 -156 -62q-97 0 -155 62q-33 35 -45.5 80.5t-12.5 117.5q0 73 12.5 118.5t45.5 80.5q56 60 150 60q55 0 87 -29v27q0 35 -25 66t-79 31q-61 0 -102 -40l-81 82q39 38 83 53t106 15q111 0 170 -65t59 -172v-227zM352 254
q0 91 -27 120q-22 22 -56 22t-56 -22q-27 -29 -27 -120q0 -92 27 -121q22 -22 56 -22t56 22q27 29 27 121z" />
    <glyph glyph-name="Delta" unicode="&#x2206;" horiz-adv-x="634" 
d="M631 0h-628l260 712h108zM450 117l-130 385l-134 -385h264z" />
    <glyph glyph-name="product" unicode="&#x220f;" horiz-adv-x="685" 
d="M602 -191h-139v828h-241v-828h-139v951h519v-951z" />
    <glyph glyph-name="summation" unicode="&#x2211;" horiz-adv-x="552" 
d="M515 -191h-475v110l189 376l-186 355v110h468v-124h-306l141 -279v-129l-146 -295h315v-124z" />
    <glyph glyph-name="minus" unicode="&#x2212;" 
d="M493 225h-443v121h443v-121z" />
    <glyph glyph-name="uni2219" unicode="&#x2219;" 
d="M434 334q0 -68 -48 -115.5t-115 -47.5t-115 47.5t-48 115.5t48 115.5t115 47.5t115 -47.5t48 -115.5z" />
    <glyph glyph-name="radical" unicode="&#x221a;" horiz-adv-x="596" 
d="M566 588h-92l-194 -588h-105l-172 521h141l84 -273l143 464h195v-124z" />
    <glyph glyph-name="infinity" unicode="&#x221e;" horiz-adv-x="851" 
d="M796 284q0 -82 -50 -135t-140 -53q-98 0 -181 94q-83 -94 -180 -94q-90 0 -140 53t-50 135t50 136t140 54q96 0 180 -95q84 95 181 95q90 0 140 -54t50 -136zM337 281q-19 23 -30 34.5t-28 21.5t-34 10q-27 0 -45.5 -18t-18.5 -48t18.5 -47.5t45.5 -17.5q17 0 34 10
t28.5 21.5t29.5 33.5zM670 281q0 30 -19 47.5t-46 17.5q-24 0 -43.5 -15.5t-47.5 -49.5q19 -23 30 -34t27.5 -21t33.5 -10q27 0 46 17.5t19 47.5z" />
    <glyph glyph-name="integral" unicode="&#x222b;" horiz-adv-x="490" 
d="M433 615h-49q-71 0 -71 -71v-549q0 -86 -52 -133.5t-139 -47.5h-65v110h49q71 0 71 70v549q0 86 52 134t139 48h65v-110z" />
    <glyph glyph-name="approxequal" unicode="&#x2248;" horiz-adv-x="606" 
d="M569 393q-47 -47 -83.5 -66.5t-81.5 -19.5q-55 0 -117 33q-46 24 -82 24q-44 0 -86 -42l-82 82q48 48 83.5 67t80.5 19q55 0 117 -33q48 -25 81 -25q44 0 87 43zM569 167q-48 -48 -83.5 -67t-80.5 -19q-55 0 -117 33q-48 25 -81 25q-44 0 -87 -43l-83 82q47 47 84 66.5
t82 19.5q54 0 116 -33q46 -24 82 -24q44 0 86 42z" />
    <glyph glyph-name="notequal" unicode="&#x2260;" horiz-adv-x="602" 
d="M552 116h-320l-103 -129l-79 62l55 67h-55v122h149l78 95h-227v122h320l103 129l79 -62l-55 -67h55v-122h-148l-78 -95h226v-122z" />
    <glyph glyph-name="lessequal" unicode="&#x2264;" 
d="M475 175l-406 187v114l406 186v-137l-241 -106l241 -107v-137zM475 -42l-406 187v137l406 -187v-137z" />
    <glyph glyph-name="greaterequal" unicode="&#x2265;" 
d="M475 362l-406 -187v137l241 107l-241 106v137l406 -186v-114zM475 145l-406 -187v137l406 187v-137z" />
    <glyph glyph-name="dotmath" unicode="&#x22c5;" 
d="M346 212h-149v148h149v-148z" />
    <glyph glyph-name="lozenge" unicode="&#x25ca;" horiz-adv-x="636" 
d="M581 341l-263 -367l-263 367l263 366zM435 341l-117 164l-117 -164l117 -165z" />
    <glyph glyph-name="fi" unicode="&#xfb01;" horiz-adv-x="606" 
d="M315 407h-96v-407h-130v407h-54v99h54v65q0 61 39 105t113 44h74v-110h-51q-45 0 -45 -47v-57h96v-99zM534 0h-130v506h130v-506zM535 610h-133v106h133v-106z" />
    <glyph glyph-name="fl" unicode="&#xfb02;" horiz-adv-x="659" 
d="M315 407h-96v-407h-130v407h-54v99h54v65q0 61 39 105t113 44h74v-110h-51q-45 0 -45 -47v-57h96v-99zM628 0h-74q-75 0 -113.5 44t-38.5 105v563h130v-555q0 -47 46 -47h50v-110z" />
    <glyph glyph-name="uniFEFF" unicode="&#xfeff;" horiz-adv-x="0" 
 />
    <glyph glyph-name="i.latn_TRK" horiz-adv-x="275" 
d="M203 0h-130v506h130v-506zM204 610h-133v106h133v-106z" />
    <glyph glyph-name="Ldot.latn_CAT" horiz-adv-x="575" 
d="M545 0h-462v712h139v-588h323v-124zM380 300v116h115v-116h-115z" />
    <glyph glyph-name="ldot.latn_CAT" horiz-adv-x="414" 
d="M294 0h-74q-75 0 -113.5 44t-38.5 105v563h130v-555q0 -47 46 -47h50v-110zM282 228v115h115v-115h-115z" />
    <glyph glyph-name="zero.numr" horiz-adv-x="332" 
d="M302 414q0 -62 -39.5 -97.5t-96.5 -35.5q-56 0 -96 35.5t-40 97.5v170q0 61 40 96.5t96 35.5q57 0 96.5 -35t39.5 -97v-170zM208 412v172q0 22 -12 35t-30 13t-29.5 -12.5t-11.5 -35.5v-172q0 -22 11.5 -34t29.5 -12t30 12t12 34z" />
    <glyph glyph-name="one.numr" horiz-adv-x="332" 
d="M239 285h-95v321l-90 -78v106l90 78h95v-427z" />
    <glyph glyph-name="two.numr" horiz-adv-x="332" 
d="M306 285h-272v85l156 171q22 23 22 47q0 20 -11 31.5t-31 11.5q-42 0 -42 -44h-94q0 60 38.5 94.5t97.5 34.5q60 0 98 -34.5t38 -93.5q0 -30 -12 -51.5t-40 -52.5l-105 -114h157v-85z" />
    <glyph glyph-name="three.numr" horiz-adv-x="332" 
d="M310 412q0 -63 -40.5 -97t-100.5 -34q-59 0 -100 33t-41 99h94q0 -23 13 -35.5t34 -12.5t34 13t13 37q0 21 -13.5 34.5t-35.5 13.5h-13v81h13q22 0 33 12.5t11 30.5q0 21 -12 32.5t-30 11.5t-30 -11t-12 -31h-94q0 58 39 92.5t97 34.5q59 0 97.5 -35.5t38.5 -90.5
q0 -57 -45 -84q50 -32 50 -94z" />
    <glyph glyph-name="four.numr" horiz-adv-x="332" 
d="M317 342h-33v-57h-90v57h-176v89l143 281h103l-144 -281h74v62h90v-62h33v-89z" />
    <glyph glyph-name="five.numr" horiz-adv-x="332" 
d="M305 429q0 -73 -39 -112q-36 -36 -98 -36q-66 0 -100 36q-32 32 -37 95h94q5 -46 43 -46q20 0 30 12q13 13 13 51q0 64 -43 64q-34 0 -42 -30h-87v249h257v-85h-171v-73q23 18 58 18q53 0 83 -30q39 -39 39 -113z" />
    <glyph glyph-name="six.numr" horiz-adv-x="332" 
d="M305 418q0 -64 -40.5 -100.5t-100.5 -36.5t-100 36t-40 101q0 40 36 115l88 179h103l-85 -169q8 3 25 3q44 0 79 -35t35 -93zM210 418q0 25 -12.5 39t-33.5 14q-20 0 -32.5 -14t-12.5 -39t12.5 -39.5t32.5 -14.5t33 14.5t13 39.5z" />
    <glyph glyph-name="seven.numr" horiz-adv-x="332" 
d="M311 628l-135 -343h-94l134 342h-108v-69h-86v154h289v-84z" />
    <glyph glyph-name="eight.numr" horiz-adv-x="332" 
d="M308 412q0 -63 -40 -97t-102 -34t-102 34t-40 97q0 56 49 93q-44 35 -44 85q0 58 40 92t97 34t97.5 -34t40.5 -92q0 -51 -45 -85q49 -37 49 -93zM214 414q0 20 -14 34.5t-34 14.5t-34 -14.5t-14 -34.5t14 -34t34 -14t34 14t14 34zM209 588q0 18 -12 30.5t-31 12.5
t-31 -12.5t-12 -30.5q0 -19 12.5 -32t30.5 -13q19 0 31 13t12 32z" />
    <glyph glyph-name="nine.numr" horiz-adv-x="332" 
d="M308 579q0 -41 -36 -115l-88 -179h-103l85 169q-7 -3 -25 -3q-44 0 -79 35t-35 93q0 64 40.5 100.5t100.5 36.5t100 -36t40 -101zM214 580q0 23 -13 37t-33 14t-33 -14t-13 -37t13 -38t33 -15q19 0 32.5 14.5t13.5 38.5z" />
    <glyph glyph-name="zero.dnom" horiz-adv-x="332" 
d="M302 129q0 -62 -39.5 -97.5t-96.5 -35.5q-56 0 -96 35.5t-40 97.5v170q0 61 40 96.5t96 35.5q57 0 96.5 -35t39.5 -97v-170zM208 127v172q0 22 -12 35t-30 13t-29.5 -12.5t-11.5 -35.5v-172q0 -22 11.5 -34t29.5 -12t30 12t12 34z" />
    <glyph glyph-name="one.dnom" horiz-adv-x="332" 
d="M239 0h-95v321l-90 -78v106l90 78h95v-427z" />
    <glyph glyph-name="two.dnom" horiz-adv-x="332" 
d="M306 0h-272v85l156 171q22 23 22 47q0 20 -11 31.5t-31 11.5q-42 0 -42 -44h-94q0 60 38.5 94.5t97.5 34.5q60 0 98 -34.5t38 -93.5q0 -30 -12 -51.5t-40 -52.5l-105 -114h157v-85z" />
    <glyph glyph-name="three.dnom" horiz-adv-x="332" 
d="M310 127q0 -63 -40.5 -97t-100.5 -34q-59 0 -100 33t-41 99h94q0 -23 13 -35.5t34 -12.5t34 13t13 37q0 21 -13.5 34.5t-35.5 13.5h-13v81h13q22 0 33 12.5t11 30.5q0 21 -12 32.5t-30 11.5t-30 -11t-12 -31h-94q0 58 39 92.5t97 34.5q59 0 97.5 -35.5t38.5 -90.5
q0 -57 -45 -84q50 -32 50 -94z" />
    <glyph glyph-name="four.dnom" horiz-adv-x="332" 
d="M317 57h-33v-57h-90v57h-176v89l143 281h103l-144 -281h74v62h90v-62h33v-89z" />
    <glyph glyph-name="five.dnom" horiz-adv-x="332" 
d="M305 144q0 -73 -39 -112q-36 -36 -98 -36q-66 0 -100 36q-32 32 -37 95h94q5 -46 43 -46q20 0 30 12q13 13 13 51q0 64 -43 64q-34 0 -42 -30h-87v249h257v-85h-171v-73q23 18 58 18q53 0 83 -30q39 -39 39 -113z" />
    <glyph glyph-name="six.dnom" horiz-adv-x="332" 
d="M305 133q0 -64 -40.5 -100.5t-100.5 -36.5t-100 36t-40 101q0 40 36 115l88 179h103l-85 -169q8 3 25 3q44 0 79 -35t35 -93zM210 133q0 25 -12.5 39t-33.5 14q-20 0 -32.5 -14t-12.5 -39t12.5 -39.5t32.5 -14.5t33 14.5t13 39.5z" />
    <glyph glyph-name="seven.dnom" horiz-adv-x="332" 
d="M311 343l-135 -343h-94l134 342h-108v-69h-86v154h289v-84z" />
    <glyph glyph-name="eight.dnom" horiz-adv-x="332" 
d="M308 127q0 -63 -40 -97t-102 -34t-102 34t-40 97q0 56 49 93q-44 35 -44 85q0 58 40 92t97 34t97.5 -34t40.5 -92q0 -51 -45 -85q49 -37 49 -93zM214 129q0 20 -14 34.5t-34 14.5t-34 -14.5t-14 -34.5t14 -34t34 -14t34 14t14 34zM209 303q0 18 -12 30.5t-31 12.5
t-31 -12.5t-12 -30.5q0 -19 12.5 -32t30.5 -13q19 0 31 13t12 32z" />
    <glyph glyph-name="nine.dnom" horiz-adv-x="332" 
d="M308 294q0 -42 -36 -115l-88 -179h-103l85 169q-7 -3 -25 -3q-44 0 -79 35t-35 93q0 64 40.5 100.5t100.5 36.5t100 -36t40 -101zM214 295q0 23 -13 37t-33 14t-33 -14t-13 -37t13 -38t33 -15q19 0 32.5 14.5t13.5 38.5z" />
    <glyph glyph-name="space.frac" horiz-adv-x="46" 
 />
    <glyph glyph-name="zero.osf" horiz-adv-x="544" 
d="M489 206q0 -98 -63 -155t-154 -57t-154 57t-63 155v185q0 98 63 155t154 57t154 -57t63 -155v-185zM359 207v182q0 44 -24 70.5t-63 26.5t-63 -26.5t-24 -70.5v-182q0 -44 24 -70t63 -26t63 26t24 70z" />
    <glyph glyph-name="one.osf" horiz-adv-x="438" 
d="M329 0h-130v457l-146 -126v140l146 126h130v-597z" />
    <glyph glyph-name="two.osf" horiz-adv-x="548" 
d="M490 0h-447v117l233 199q71 61 71 108q0 36 -23.5 59t-62.5 23q-36 0 -61.5 -22t-25.5 -66h-130q0 93 62 149t155 56q94 0 155 -54.5t61 -142.5q0 -52 -30.5 -94t-96.5 -100l-129 -115h269v-117z" />
    <glyph glyph-name="three.osf" horiz-adv-x="535" 
d="M486 91q0 -102 -64.5 -157.5t-161.5 -55.5q-95 0 -160.5 52.5t-66.5 157.5h130q1 -46 28.5 -69.5t68.5 -23.5q43 0 69.5 26t26.5 73q0 45 -26.5 71.5t-73.5 26.5h-19v113h19q45 0 67.5 25t22.5 65q0 43 -25 67t-62 24t-61.5 -23t-26.5 -63h-130q2 93 64 148t154 55
q95 0 156 -57t61 -147q0 -102 -82 -146q92 -49 92 -162z" />
    <glyph glyph-name="four.osf" horiz-adv-x="590" 
d="M550 30h-80v-153h-124v153h-307v123l244 488h139l-243 -488h167v147h124v-147h80v-123z" />
    <glyph glyph-name="five.osf" horiz-adv-x="551" 
d="M499 125q0 -65 -13 -108t-50 -80q-58 -58 -157 -58q-102 0 -159 57q-50 50 -58 148h130q11 -88 87 -88q39 0 62 23q28 28 28 106q0 128 -87 128q-67 0 -86 -58h-119v402h406v-117h-288v-153q38 36 107 36q85 0 133 -48q64 -64 64 -190z" />
    <glyph glyph-name="six.osf" horiz-adv-x="549" 
d="M508 225q0 -107 -65.5 -169t-167.5 -62t-168 60.5t-66 167.5q0 60 16 110.5t53 116.5l155 279h139l-170 -297q30 15 76 15q83 0 140.5 -59.5t57.5 -161.5zM378 223q0 52 -28.5 84.5t-75.5 32.5q-46 0 -74.5 -31.5t-28.5 -85.5t28.5 -85.5t74.5 -31.5t75 31.5t29 85.5z
" />
    <glyph glyph-name="seven.osf" horiz-adv-x="553" 
d="M518 480l-263 -598h-140l263 598h-209v-112h-124v229h473v-117z" />
    <glyph glyph-name="eight.osf" horiz-adv-x="560" 
d="M508 207q0 -100 -64.5 -156.5t-163.5 -56.5t-163.5 56.5t-64.5 156.5t90 160q-80 56 -80 148t63 147.5t155 55.5t155 -55.5t63 -147.5t-80 -148q90 -60 90 -160zM378 209q0 41 -28.5 70t-69.5 29t-69.5 -29t-28.5 -70t28.5 -69.5t69.5 -28.5t69.5 28.5t28.5 69.5z
M368 511q0 38 -25 64t-63 26t-63 -26t-25 -64q0 -39 25 -64.5t63 -25.5t63 25.5t25 64.5z" />
    <glyph glyph-name="nine.osf" horiz-adv-x="549" 
d="M508 375q0 -59 -16 -110t-53 -117l-154 -279h-140l170 297q-30 -15 -76 -15q-83 0 -140.5 59.5t-57.5 161.5q0 107 65.5 169t167.5 62t168 -60.5t66 -167.5zM378 374q0 54 -28.5 85.5t-74.5 31.5t-75 -31.5t-29 -85.5q0 -52 28.5 -84.5t75.5 -32.5q46 0 74.5 31.5
t28.5 85.5z" />
    <glyph glyph-name="zero.lf" 
d="M488 206q0 -98 -62.5 -155t-153.5 -57t-154 57t-63 155v300q0 98 63 155t154 57t153.5 -57t62.5 -155v-300zM358 207v297q0 45 -23.5 71t-62.5 26t-63 -26.5t-24 -70.5v-297q0 -44 24 -70t63 -26t62.5 26t23.5 70z" />
    <glyph glyph-name="one.lf" horiz-adv-x="430" 
d="M328 0h-130v572l-145 -126v140l145 126h130v-712z" />
    <glyph glyph-name="two.lf" horiz-adv-x="527" 
d="M476 0h-433v117l266 309q37 44 37 86q0 40 -22.5 64.5t-63.5 24.5q-37 0 -62 -21.5t-25 -69.5h-130q0 95 61.5 151.5t155.5 56.5q96 0 156 -56t60 -151q0 -48 -17 -81t-59 -82l-199 -231h275v-117z" />
    <glyph glyph-name="three.lf" horiz-adv-x="534" 
d="M486 206q0 -102 -64.5 -157t-161.5 -55q-95 0 -160.5 52.5t-66.5 157.5h130q1 -46 28.5 -69.5t68.5 -23.5q43 0 69.5 26t26.5 73q0 45 -26.5 71.5t-73.5 26.5h-19v113h19q45 0 67.5 24.5t22.5 64.5q0 43 -25 67t-62 24t-61.5 -23t-26.5 -63h-130q2 93 64 148t154 55
q95 0 156 -57t61 -147q0 -102 -82 -146q92 -49 92 -162z" />
    <glyph glyph-name="four.lf" horiz-adv-x="560" 
d="M520 101h-65v-101h-125v101h-291v123l244 488h142l-244 -488h149v133h125v-133h65v-123z" />
    <glyph glyph-name="five.lf" horiz-adv-x="550" 
d="M498 240q0 -65 -13 -108t-50 -80q-58 -58 -157 -58q-102 0 -159 57q-51 51 -58 148h130q11 -88 87 -88q39 0 62 23q28 28 28 106q0 128 -87 128q-67 0 -86 -58h-119v402h406v-117h-288v-153q38 36 107 36q85 0 133 -48q64 -64 64 -190z" />
    <glyph glyph-name="six.lf" horiz-adv-x="524" 
d="M485 216q0 -103 -62.5 -162.5t-159.5 -59.5t-159.5 58.5t-62.5 161.5q0 68 60 190l150 308h142l-148 -294q22 9 53 9q76 0 131.5 -58t55.5 -153zM355 215q0 47 -25.5 75.5t-66.5 28.5t-66.5 -28t-25.5 -76t25.5 -76t66.5 -28t66.5 28t25.5 76z" />
    <glyph glyph-name="seven.lf" horiz-adv-x="531" 
d="M496 595l-231 -595h-141l231 595h-188v-112h-124v229h453v-117z" />
    <glyph glyph-name="eight.lf" horiz-adv-x="560" 
d="M508 207q0 -100 -64.5 -156.5t-163.5 -56.5t-163.5 56.5t-64.5 156.5q0 101 89 160q-80 56 -80 148t63.5 147.5t155.5 55.5t155 -55.5t63 -147.5t-80 -148q90 -60 90 -160zM378 209q0 41 -28.5 70t-69.5 29t-69.5 -29t-28.5 -70t28.5 -69.5t69.5 -28.5t69.5 28.5
t28.5 69.5zM368 511q0 38 -25 64t-63 26t-63.5 -26t-25.5 -64q0 -39 25.5 -64.5t63.5 -25.5t63 25.5t25 64.5z" />
    <glyph glyph-name="nine.lf" horiz-adv-x="524" 
d="M483 498q0 -70 -59 -190l-151 -308h-141l148 294q-22 -9 -53 -9q-76 0 -132 58t-56 153q0 103 62.5 162.5t159.5 59.5t159.5 -58.5t62.5 -161.5zM353 497q0 48 -25.5 76t-66.5 28t-66.5 -28t-25.5 -76q0 -47 25.5 -75.5t66.5 -28.5t66.5 28t25.5 76z" />
    <glyph glyph-name="zero.tosf" 
d="M489 206q0 -98 -63 -155t-154 -57t-154 57t-63 155v185q0 98 63 155t154 57t154 -57t63 -155v-185zM359 207v182q0 44 -24 70.5t-63 26.5t-63 -26.5t-24 -70.5v-182q0 -44 24 -70t63 -26t63 26t24 70z" />
    <glyph glyph-name="one.tosf" 
d="M379 0h-130v457l-146 -126v140l146 126h130v-597z" />
    <glyph glyph-name="two.tosf" 
d="M499 0h-447v117l233 199q71 61 71 108q0 36 -23.5 59t-62.5 23q-36 0 -61.5 -22t-25.5 -66h-130q0 93 62 149t155 56q94 0 155 -54.5t61 -142.5q0 -52 -30.5 -94t-96.5 -100l-129 -115h269v-117z" />
    <glyph glyph-name="three.tosf" 
d="M495 91q0 -102 -64.5 -157.5t-161.5 -55.5q-95 0 -160.5 52.5t-66.5 157.5h130q1 -46 28.5 -69.5t68.5 -23.5q43 0 69.5 26t26.5 73q0 45 -26.5 71.5t-73.5 26.5h-19v113h19q45 0 67.5 25t22.5 65q0 43 -25 67t-62 24t-61.5 -23t-26.5 -63h-130q2 93 64 148t154 55
q95 0 156 -57t61 -147q0 -102 -82 -146q92 -49 92 -162z" />
    <glyph glyph-name="four.tosf" 
d="M515 30h-65v-153h-125v153h-291v123l244 488h142l-244 -488h149v133h125v-133h65v-123z" />
    <glyph glyph-name="five.tosf" 
d="M493 125q0 -65 -13 -108t-50 -80q-58 -58 -157 -58q-102 0 -159 57q-50 50 -58 148h130q11 -88 87 -88q39 0 62 23q28 28 28 106q0 128 -87 128q-67 0 -86 -58h-119v402h406v-117h-288v-153q38 36 107 36q85 0 133 -48q64 -64 64 -190z" />
    <glyph glyph-name="six.tosf" 
d="M506 225q0 -107 -65.5 -169t-167.5 -62t-168 60.5t-66 167.5q0 60 16 110.5t53 116.5l155 279h139l-170 -297q30 15 76 15q83 0 140.5 -59.5t57.5 -161.5zM376 223q0 52 -28.5 84.5t-75.5 32.5q-46 0 -74.5 -31.5t-28.5 -85.5t28.5 -85.5t74.5 -31.5t75 31.5t29 85.5z
" />
    <glyph glyph-name="seven.tosf" 
d="M501 480l-231 -595h-141l231 595h-188v-112h-124v229h453v-117z" />
    <glyph glyph-name="eight.tosf" 
d="M500 207q0 -100 -64.5 -156.5t-163.5 -56.5t-163.5 56.5t-64.5 156.5t90 160q-80 56 -80 148t63 147.5t155 55.5t155 -55.5t63 -147.5t-80 -148q90 -60 90 -160zM370 209q0 41 -28.5 70t-69.5 29t-69.5 -29t-28.5 -70t28.5 -69.5t69.5 -28.5t69.5 28.5t28.5 69.5z
M360 511q0 38 -25 64t-63 26t-63 -26t-25 -64q0 -39 25 -64.5t63 -25.5t63 25.5t25 64.5z" />
    <glyph glyph-name="nine.tosf" 
d="M504 375q0 -59 -16 -110t-53 -117l-154 -279h-140l170 297q-30 -15 -76 -15q-83 0 -140.5 59.5t-57.5 161.5q0 107 65.5 169t167.5 62t168 -60.5t66 -167.5zM374 374q0 54 -28.5 85.5t-74.5 31.5t-75 -31.5t-29 -85.5q0 -52 28.5 -84.5t75.5 -32.5q46 0 74.5 31.5
t28.5 85.5z" />
    <glyph glyph-name="uni2007.tosf" 
 />
    <glyph glyph-name="hyphen.case" horiz-adv-x="426" 
d="M367 295h-308v121h308v-121z" />
    <glyph glyph-name="exclamdown.case" horiz-adv-x="347" 
d="M236 0h-161l32 489h97zM224 579h-137v133h137v-133z" />
    <glyph glyph-name="guillemotleft.case" horiz-adv-x="628" 
d="M562 108l-250 248l250 248v-155l-96 -93l96 -93v-155zM283 108l-249 248l249 248v-155l-94 -93l94 -93v-155z" />
    <glyph glyph-name="uni00AD.case" horiz-adv-x="426" 
d="M367 295h-308v121h308v-121z" />
    <glyph glyph-name="guillemotright.case" horiz-adv-x="628" 
d="M595 356l-250 -248v155l94 93l-94 93v155zM316 356l-249 -248v155l95 93l-95 93v155z" />
    <glyph glyph-name="questiondown.case" horiz-adv-x="523" 
d="M457 195q0 -91 -60.5 -146t-150.5 -55q-88 0 -149 54t-61 146q0 60 49 125l74 99q18 23 18 51v20h130v-30q0 -54 -38 -104l-74 -95q-29 -38 -29 -67q0 -36 21.5 -59t58.5 -23q38 0 59.5 24t21.5 60h130zM311 579h-138v133h138v-133z" />
    <glyph glyph-name="endash.case" 
d="M493 295h-443v121h443v-121z" />
    <glyph glyph-name="emdash.case" horiz-adv-x="1027" 
d="M968 293h-909v125h909v-125z" />
    <glyph glyph-name="afii00208.case" horiz-adv-x="1027" 
d="M968 293h-909v125h909v-125z" />
    <glyph glyph-name="guilsinglleft.case" horiz-adv-x="350" 
d="M283 108l-249 248l249 248v-155l-94 -93l94 -93v-155z" />
    <glyph glyph-name="guilsinglright.case" horiz-adv-x="350" 
d="M316 356l-249 -248v155l95 93l-95 93v155z" />
    <glyph glyph-name="caroncomma.ss01" 
d="M690 629l-113 -88v206h113v-118z" />
    <glyph glyph-name="commaaccent.ss01" horiz-adv-x="279" 
d="M196 -133q0 -44 -31 -72.5t-81 -28.5v64q18 0 28.5 11t10.5 26t-10.5 26t-28.5 11v64q51 0 81.5 -28.5t30.5 -72.5z" />
    <glyph glyph-name="commaturn.ss01" horiz-adv-x="279" 
d="M193 579q-51 0 -81.5 29t-30.5 72q0 44 30.5 72.5t81.5 28.5v-64q-17 0 -28 -10.5t-11 -26.5q0 -15 11 -26t28 -11v-64z" />
    <glyph glyph-name="exclam.ss01" horiz-adv-x="347" 
d="M273 712l-33 -489h-96l-32 489h161zM271 75q0 -32 -23.5 -55t-55.5 -23t-55 23t-23 55t23 55.5t55 23.5t55.5 -23.5t23.5 -55.5z" />
    <glyph glyph-name="period.ss01" horiz-adv-x="295" 
d="M235 84q0 -36 -26 -61.5t-62 -25.5t-61.5 25.5t-25.5 61.5t25.5 61.5t61.5 25.5t62 -25.5t26 -61.5z" />
    <glyph glyph-name="colon.ss01" horiz-adv-x="319" 
d="M259 349q0 -36 -25.5 -61.5t-61.5 -25.5t-61.5 25.5t-25.5 61.5t25.5 62t61.5 26t61.5 -26t25.5 -62zM259 84q0 -36 -25.5 -61.5t-61.5 -25.5t-61.5 25.5t-25.5 61.5t25.5 61.5t61.5 25.5t61.5 -25.5t25.5 -61.5z" />
    <glyph glyph-name="semicolon.ss01" horiz-adv-x="309" 
d="M243 -55l-142 -110v307h142v-197zM259 349q0 -36 -25.5 -61.5t-61.5 -25.5t-61.5 25.5t-25.5 61.5t25.5 62t61.5 26t61.5 -26t25.5 -62z" />
    <glyph glyph-name="question.ss01" horiz-adv-x="523" 
d="M487 518q0 -60 -49 -125l-74 -98q-18 -23 -18 -51v-21h-130v30q0 54 38 104l74 95q29 38 29 67q0 36 -22 59t-59 23q-38 0 -59 -23.5t-21 -59.5h-130q0 91 60 145.5t150 54.5q89 0 150 -54t61 -146zM360 75q0 -32 -23.5 -55t-55.5 -23t-55 23t-23 55t23 55.5t55 23.5
t55.5 -23.5t23.5 -55.5z" />
    <glyph glyph-name="at.ss01" horiz-adv-x="970" 
d="M919 338q0 -123 -85.5 -212t-217.5 -89h-104l10 47q-50 -53 -113 -53q-66 0 -103 38t-37 97q0 38 12 95q15 74 31.5 116t50.5 72q46 41 118 41t106 -52l9 46h119l-74 -370q85 5 133.5 70t48.5 154q0 125 -82 200t-218 75q-153 0 -258 -103.5t-105 -254.5
q0 -166 98.5 -261t269.5 -95h75l-16 -83h-76q-203 0 -327.5 122.5t-124.5 316.5q0 191 133.5 319.5t330.5 128.5q177 0 286.5 -102t109.5 -263zM558 322q0 32 -16 48t-42 16q-31 0 -54 -20q-32 -29 -47 -105q-6 -30 -6 -62t16 -48t41 -16q34 0 56 21q29 26 45 105q7 35 7 61
z" />
    <glyph glyph-name="C.ss01" horiz-adv-x="562" 
d="M519 76q-82 -82 -198 -82q-113 0 -190 75q-49 49 -60.5 107.5t-11.5 179.5t11.5 179.5t60.5 107.5q77 75 190 75q116 0 198 -82l-92 -92q-27 26 -49.5 38t-56.5 12q-56 0 -88 -37q-20 -23 -27.5 -62.5t-7.5 -138.5t7.5 -138.5t27.5 -62.5q32 -37 88 -37q34 0 56.5 12
t49.5 38z" />
    <glyph glyph-name="G.ss01" horiz-adv-x="637" 
d="M585 294q0 -79 -14.5 -129.5t-51.5 -88.5q-80 -82 -198 -82q-113 0 -190 75q-49 49 -60.5 107.5t-11.5 179.5t11.5 179.5t60.5 107.5q77 75 190 75q72 0 120 -21t98 -70l-95 -95q-34 34 -59.5 48t-63.5 14q-54 0 -89 -38q-20 -23 -27 -62t-7 -138q0 -100 7 -139t27 -62
q34 -37 89 -37q58 0 95 40q31 35 31 97v24h-126v117h264v-102z" />
    <glyph glyph-name="i.ss01" horiz-adv-x="275" 
d="M203 0h-130v506h130v-506zM219 668q0 -34 -23.5 -58t-57.5 -24t-58 24t-24 58t24 57.5t58 23.5t57.5 -23.5t23.5 -57.5z" />
    <glyph glyph-name="j.ss01" horiz-adv-x="275" 
d="M203 -46q0 -61 -38.5 -105t-113.5 -44h-74v110h50q46 0 46 47v544h130v-552zM219 668q0 -34 -23.5 -58t-57.5 -24t-58 24t-24 58t24 57.5t58 23.5t57.5 -23.5t23.5 -57.5z" />
    <glyph glyph-name="exclamdown.ss01" horiz-adv-x="347" 
d="M264 -191h-161l32 489h96zM262 446q0 -32 -23.5 -55.5t-55.5 -23.5t-55 23.5t-23 55.5t23 55t55 23t55.5 -23t23.5 -55z" />
    <glyph glyph-name="dieresis.ss01" horiz-adv-x="500" 
d="M430 667q0 -28 -19.5 -47.5t-47.5 -19.5t-47.5 19.5t-19.5 47.5t19.5 47.5t47.5 19.5t47.5 -19.5t19.5 -47.5zM204 667q0 -28 -19.5 -47.5t-47.5 -19.5t-47.5 19.5t-19.5 47.5t19.5 47.5t47.5 19.5t47.5 -19.5t19.5 -47.5z" />
    <glyph glyph-name="periodcentered.ss01" horiz-adv-x="295" 
d="M235 284q0 -36 -26 -61.5t-62 -25.5t-61.5 25.5t-25.5 61.5t25.5 62t61.5 26t62 -26t26 -62z" />
    <glyph glyph-name="cedilla.ss01" horiz-adv-x="500" 
d="M326 -133q0 -44 -31 -72.5t-81 -28.5v64q18 0 28.5 11t10.5 26t-10.5 26t-28.5 11v64q51 0 81.5 -28.5t30.5 -72.5z" />
    <glyph glyph-name="questiondown.ss01" horiz-adv-x="523" 
d="M478 4q0 -91 -60.5 -146t-150.5 -55q-88 0 -149 54t-61 146q0 60 49 125l74 99q18 23 18 51v20h130v-30q0 -54 -38 -104l-74 -95q-29 -38 -29 -67q0 -36 21.5 -59t58.5 -23q38 0 59.5 24t21.5 60h130zM341 446q0 -32 -23 -55.5t-55 -23.5t-55.5 23.5t-23.5 55.5t23.5 55
t55.5 23t55 -23t23 -55z" />
    <glyph glyph-name="Adieresis.ss01" horiz-adv-x="638" 
d="M633 0h-145l-42 126h-253l-43 -126h-145l259 712h109zM409 243l-87 259l-90 -259h177zM497 844q0 -28 -19.5 -47.5t-47.5 -19.5t-47.5 19.5t-19.5 47.5t19.5 47.5t47.5 19.5t47.5 -19.5t19.5 -47.5zM271 844q0 -28 -19.5 -47.5t-47.5 -19.5t-47.5 19.5t-19.5 47.5
t19.5 47.5t47.5 19.5t47.5 -19.5t19.5 -47.5z" />
    <glyph glyph-name="Ccedilla.ss01" horiz-adv-x="562" 
d="M519 76q-82 -82 -198 -82q-113 0 -190 75q-49 49 -60.5 107.5t-11.5 179.5t11.5 179.5t60.5 107.5q77 75 190 75q116 0 198 -82l-92 -92q-27 26 -49.5 38t-56.5 12q-56 0 -88 -37q-20 -23 -27.5 -62.5t-7.5 -138.5t7.5 -138.5t27.5 -62.5q32 -37 88 -37q34 0 56.5 12
t49.5 38zM368 -133q0 -44 -31 -72.5t-81 -28.5v64q18 0 28.5 11t10.5 26t-10.5 26t-28.5 11v64q51 0 81.5 -28.5t30.5 -72.5z" />
    <glyph glyph-name="Edieresis.ss01" horiz-adv-x="605" 
d="M552 0h-469v712h469v-124h-330v-167h281v-124h-281v-173h330v-124zM490 844q0 -28 -19.5 -47.5t-47.5 -19.5t-47.5 19.5t-19.5 47.5t19.5 47.5t47.5 19.5t47.5 -19.5t19.5 -47.5zM264 844q0 -28 -19.5 -47.5t-47.5 -19.5t-47.5 19.5t-19.5 47.5t19.5 47.5t47.5 19.5
t47.5 -19.5t19.5 -47.5z" />
    <glyph glyph-name="Idieresis.ss01" horiz-adv-x="305" 
d="M222 0h-139v712h139v-712zM336 844q0 -28 -19.5 -47.5t-47.5 -19.5t-47.5 19.5t-19.5 47.5t19.5 47.5t47.5 19.5t47.5 -19.5t19.5 -47.5zM110 844q0 -28 -19.5 -47.5t-47.5 -19.5t-47.5 19.5t-19.5 47.5t19.5 47.5t47.5 19.5t47.5 -19.5t19.5 -47.5z" />
    <glyph glyph-name="Odieresis.ss01" horiz-adv-x="644" 
d="M585 356q0 -120 -12 -179t-61 -108q-75 -75 -190 -75q-116 0 -191 75q-49 49 -60.5 107.5t-11.5 179.5t11.5 179.5t60.5 107.5q75 75 191 75q115 0 190 -75q49 -49 61 -108t12 -179zM446 356q0 99 -7.5 138t-27.5 62q-33 38 -89 38q-55 0 -90 -38q-20 -23 -27 -62
t-7 -138t7 -137.5t27 -61.5q36 -39 90 -39q55 0 89 39q20 24 27.5 62.5t7.5 136.5zM502 844q0 -28 -19.5 -47.5t-47.5 -19.5t-47.5 19.5t-19.5 47.5t19.5 47.5t47.5 19.5t47.5 -19.5t19.5 -47.5zM276 844q0 -28 -19.5 -47.5t-47.5 -19.5t-47.5 19.5t-19.5 47.5t19.5 47.5
t47.5 19.5t47.5 -19.5t19.5 -47.5z" />
    <glyph glyph-name="Udieresis.ss01" horiz-adv-x="668" 
d="M596 244q0 -111 -75 -180.5t-187 -69.5t-187 69.5t-75 180.5v468h139v-463q0 -61 33 -96t90 -35t90.5 35t33.5 96v463h138v-468zM514 844q0 -28 -19.5 -47.5t-47.5 -19.5t-47.5 19.5t-19.5 47.5t19.5 47.5t47.5 19.5t47.5 -19.5t19.5 -47.5zM288 844q0 -28 -19.5 -47.5
t-47.5 -19.5t-47.5 19.5t-19.5 47.5t19.5 47.5t47.5 19.5t47.5 -19.5t19.5 -47.5z" />
    <glyph glyph-name="adieresis.ss01" horiz-adv-x="534" 
d="M467 0h-127v45q-27 -27 -55.5 -38.5t-72.5 -11.5q-87 0 -133 46q-43 45 -43 117q0 66 46 108.5t134 42.5h121v26q0 43 -23 62.5t-74 19.5q-61 0 -100 -45l-82 81q38 42 79.5 58t107.5 16q222 0 222 -184v-343zM337 192v28h-99q-77 0 -77 -60q0 -59 79 -59q51 0 77 25
q20 17 20 66zM441 667q0 -28 -19.5 -47.5t-47.5 -19.5t-47.5 19.5t-19.5 47.5t19.5 47.5t47.5 19.5t47.5 -19.5t19.5 -47.5zM215 667q0 -28 -19.5 -47.5t-47.5 -19.5t-47.5 19.5t-19.5 47.5t19.5 47.5t47.5 19.5t47.5 -19.5t19.5 -47.5z" />
    <glyph glyph-name="ccedilla.ss01" horiz-adv-x="480" 
d="M452 65q-68 -71 -172 -71q-33 0 -64 7.5t-62.5 26t-54.5 48t-37.5 77t-14.5 108.5t14.5 108.5t37.5 76.5t54.5 48t62.5 26t64 7q105 0 172 -70l-88 -88q-38 41 -84 41t-74 -34q-29 -36 -29 -115q0 -80 29 -116q28 -34 74 -34t84 41zM326 -133q0 -44 -31 -72.5t-81 -28.5
v64q18 0 28.5 11t10.5 26t-10.5 26t-28.5 11v64q51 0 81.5 -28.5t30.5 -72.5z" />
    <glyph glyph-name="edieresis.ss01" horiz-adv-x="548" 
d="M501 220h-326q0 -52 30 -84t84 -32q40 0 65.5 11.5t52.5 37.5l79 -77q-42 -43 -86.5 -62.5t-111.5 -19.5q-50 0 -90.5 12.5t-75.5 41.5t-55 83t-20 130q0 125 62 195.5t165 70.5q107 0 167 -69.5t60 -182.5v-55zM373 309q-1 34 -12 56q-24 54 -87 54t-87 -54
q-11 -22 -12 -56h198zM457 667q0 -28 -19.5 -47.5t-47.5 -19.5t-47.5 19.5t-19.5 47.5t19.5 47.5t47.5 19.5t47.5 -19.5t19.5 -47.5zM231 667q0 -28 -19.5 -47.5t-47.5 -19.5t-47.5 19.5t-19.5 47.5t19.5 47.5t47.5 19.5t47.5 -19.5t19.5 -47.5z" />
    <glyph glyph-name="idieresis.ss01" horiz-adv-x="275" 
d="M203 0h-130v506h130v-506zM319 667q0 -28 -19.5 -47.5t-47.5 -19.5t-47.5 19.5t-19.5 47.5t19.5 47.5t47.5 19.5t47.5 -19.5t19.5 -47.5zM93 667q0 -28 -19.5 -47.5t-47.5 -19.5t-47.5 19.5t-19.5 47.5t19.5 47.5t47.5 19.5t47.5 -19.5t19.5 -47.5z" />
    <glyph glyph-name="odieresis.ss01" 
d="M492 261q0 -75 -12.5 -121.5t-46.5 -81.5q-62 -64 -162 -64q-99 0 -161 64q-34 36 -46.5 82.5t-12.5 120.5t12.5 120t46.5 82q62 64 161 64q102 0 162 -64q34 -36 46.5 -82t12.5 -120zM362 261q0 97 -30 126q-23 23 -61 23q-37 0 -60 -23q-30 -29 -30 -126q0 -98 30 -127
q23 -23 60 -23q38 0 61 23q30 29 30 127zM452 667q0 -28 -19.5 -47.5t-47.5 -19.5t-47.5 19.5t-19.5 47.5t19.5 47.5t47.5 19.5t47.5 -19.5t19.5 -47.5zM226 667q0 -28 -19.5 -47.5t-47.5 -19.5t-47.5 19.5t-19.5 47.5t19.5 47.5t47.5 19.5t47.5 -19.5t19.5 -47.5z" />
    <glyph glyph-name="divide.ss01" 
d="M497 225h-451v121h451v-121zM359 79q0 -36 -25.5 -62t-61.5 -26t-62 26t-26 62t26 61.5t62 25.5t61.5 -25.5t25.5 -61.5zM359 492q0 -36 -25.5 -61.5t-61.5 -25.5t-62 25.5t-26 61.5t26 62t62 26t61.5 -26t25.5 -62z" />
    <glyph glyph-name="udieresis.ss01" horiz-adv-x="573" 
d="M500 0h-127v48q-51 -54 -130 -54q-77 0 -123 46q-53 53 -53 148v333h130v-315q0 -49 25.5 -72t60.5 -23q36 0 61.5 23t25.5 72v315h130v-521zM463 667q0 -28 -19.5 -47.5t-47.5 -19.5t-47.5 19.5t-19.5 47.5t19.5 47.5t47.5 19.5t47.5 -19.5t19.5 -47.5zM237 667
q0 -28 -19.5 -47.5t-47.5 -19.5t-47.5 19.5t-19.5 47.5t19.5 47.5t47.5 19.5t47.5 -19.5t19.5 -47.5z" />
    <glyph glyph-name="ydieresis.ss01" horiz-adv-x="494" 
d="M490 521l-223 -605q-17 -45 -39 -67q-40 -40 -112 -40h-51v117h30q28 0 41.5 9.5t23.5 37.5l22 64l-178 484h137l108 -322l104 322h137zM424 667q0 -28 -19.5 -47.5t-47.5 -19.5t-47.5 19.5t-19.5 47.5t19.5 47.5t47.5 19.5t47.5 -19.5t19.5 -47.5zM198 667
q0 -28 -19.5 -47.5t-47.5 -19.5t-47.5 19.5t-19.5 47.5t19.5 47.5t47.5 19.5t47.5 -19.5t19.5 -47.5z" />
    <glyph glyph-name="Aogonek.ss01" horiz-adv-x="638" 
d="M633 0h-145l-42 126h-253l-43 -126h-145l259 712h109zM409 243l-87 259l-90 -259h177zM620 -234q-51 0 -81.5 28.5t-30.5 72.5t30.5 72.5t81.5 28.5v-64q-18 0 -28.5 -11t-10.5 -26t10.5 -26t28.5 -11v-64z" />
    <glyph glyph-name="aogonek.ss01" horiz-adv-x="534" 
d="M467 0h-127v45q-27 -27 -55.5 -38.5t-72.5 -11.5q-87 0 -133 46q-43 45 -43 117q0 66 46 108.5t134 42.5h121v26q0 43 -23 62.5t-74 19.5q-61 0 -100 -45l-82 81q38 42 79.5 58t107.5 16q222 0 222 -184v-343zM337 192v28h-99q-77 0 -77 -60q0 -59 79 -59q51 0 77 25
q20 17 20 66zM453 -234q-51 0 -81.5 28.5t-30.5 72.5t30.5 72.5t81.5 28.5v-64q-17 0 -28 -11t-11 -26t11 -26t28 -11v-64z" />
    <glyph glyph-name="Cacute.ss01" horiz-adv-x="562" 
d="M519 76q-82 -82 -198 -82q-113 0 -190 75q-49 49 -60.5 107.5t-11.5 179.5t11.5 179.5t60.5 107.5q77 75 190 75q116 0 198 -82l-92 -92q-27 26 -49.5 38t-56.5 12q-56 0 -88 -37q-20 -23 -27.5 -62.5t-7.5 -138.5t7.5 -138.5t27.5 -62.5q32 -37 88 -37q34 0 56.5 12
t49.5 38zM447 951l-114 -170h-87l64 170h137z" />
    <glyph glyph-name="Ccircumflex.ss01" horiz-adv-x="562" 
d="M519 76q-82 -82 -198 -82q-113 0 -190 75q-49 49 -60.5 107.5t-11.5 179.5t11.5 179.5t60.5 107.5q77 75 190 75q116 0 198 -82l-92 -92q-27 26 -49.5 38t-56.5 12q-56 0 -88 -37q-20 -23 -27.5 -62.5t-7.5 -138.5t7.5 -138.5t27.5 -62.5q32 -37 88 -37q34 0 56.5 12
t49.5 38zM506 781h-101l-83 91l-83 -91h-101l132 169h104z" />
    <glyph glyph-name="Cdotaccent.ss01" horiz-adv-x="562" 
d="M520 76q-82 -82 -198 -82q-113 0 -190 75q-49 49 -60.5 107.5t-11.5 179.5t11.5 179.5t60.5 107.5q77 75 190 75q116 0 198 -82l-92 -92q-27 26 -49.5 38t-56.5 12q-56 0 -88 -37q-20 -23 -27.5 -62.5t-7.5 -138.5t7.5 -138.5t27.5 -62.5q32 -37 88 -37q34 0 56.5 12
t49.5 38zM400 847q0 -28 -19.5 -48t-47.5 -20t-47.5 20t-19.5 47q0 28 19.5 48t47.5 20t47.5 -19.5t19.5 -47.5z" />
    <glyph glyph-name="cdotaccent.ss01" horiz-adv-x="480" 
d="M452 65q-68 -71 -172 -71q-33 0 -64 7.5t-62.5 26t-54.5 48t-37.5 77t-14.5 108.5t14.5 108.5t37.5 76.5t54.5 48t62.5 26t64 7q105 0 172 -70l-88 -88q-38 41 -84 41t-74 -34q-29 -36 -29 -115q0 -80 29 -116q28 -34 74 -34t84 41zM347 672q0 -28 -20 -47.5t-47 -19.5
q-28 0 -48 19.5t-20 47.5t19.5 47.5t47.5 19.5t48 -19.5t20 -47.5z" />
    <glyph glyph-name="Ccaron.ss01" horiz-adv-x="562" 
d="M519 76q-82 -82 -198 -82q-113 0 -190 75q-49 49 -60.5 107.5t-11.5 179.5t11.5 179.5t60.5 107.5q77 75 190 75q116 0 198 -82l-92 -92q-27 26 -49.5 38t-56.5 12q-56 0 -88 -37q-20 -23 -27.5 -62.5t-7.5 -138.5t7.5 -138.5t27.5 -62.5q32 -37 88 -37q34 0 56.5 12
t49.5 38zM506 950l-132 -169h-104l-132 169h101l83 -90l83 90h101z" />
    <glyph glyph-name="dcaron.ss01" horiz-adv-x="560" 
d="M488 0h-127v49q-49 -55 -129 -55q-82 0 -127 47q-34 35 -44 87t-10 133q0 80 10 132t44 87q45 47 126 47q80 0 127 -52v237h130v-712zM358 261q0 73 -17.5 111t-71.5 38q-28 0 -46.5 -11t-27 -33t-11.5 -45.5t-3 -59.5t3 -59.5t11.5 -46t27 -33.5t46.5 -11t46.5 11
t27.5 33t12 46.5t3 59.5zM690 629l-113 -88v206h113v-118z" />
    <glyph glyph-name="Edotaccent.ss01" horiz-adv-x="605" 
d="M552 0h-469v712h469v-124h-330v-167h281v-124h-281v-173h330v-124zM373 847q0 -28 -19.5 -48t-47.5 -20t-47.5 20t-19.5 47q0 28 19.5 48t47.5 20t47.5 -19.5t19.5 -47.5z" />
    <glyph glyph-name="edotaccent.ss01" horiz-adv-x="548" 
d="M501 220h-326q0 -52 30 -84t84 -32q40 0 65.5 11.5t52.5 37.5l79 -77q-42 -43 -86.5 -62.5t-111.5 -19.5q-50 0 -90.5 12.5t-75.5 41.5t-55 83t-20 130q0 125 62 195.5t165 70.5q107 0 167 -69.5t60 -182.5v-55zM373 309q-1 34 -12 56q-24 54 -87 54t-87 -54
q-11 -22 -12 -56h198zM346 672q0 -28 -20 -47.5t-47 -19.5q-28 0 -48 19.5t-20 47.5t19.5 47.5t47.5 19.5t48 -19.5t20 -47.5z" />
    <glyph glyph-name="Eogonek.ss01" horiz-adv-x="605" 
d="M552 0h-469v712h469v-124h-330v-167h281v-124h-281v-173h330v-124zM532 -234q-51 0 -81.5 28.5t-30.5 72.5t30.5 72.5t81.5 28.5v-64q-18 0 -28.5 -11t-10.5 -26t10.5 -26t28.5 -11v-64z" />
    <glyph glyph-name="eogonek.ss01" horiz-adv-x="548" 
d="M501 220h-326q0 -52 30 -84t84 -32q40 0 65.5 11.5t52.5 37.5l79 -77q-42 -43 -86.5 -62.5t-111.5 -19.5q-50 0 -90.5 12.5t-75.5 41.5t-55 83t-20 130q0 125 62 195.5t165 70.5q107 0 167 -69.5t60 -182.5v-55zM373 309q-1 34 -12 56q-24 54 -87 54t-87 -54
q-11 -22 -12 -56h198zM450 -234q-51 0 -81.5 28.5t-30.5 72.5t30.5 72.5t81.5 28.5v-64q-18 0 -28.5 -11t-10.5 -26t10.5 -26t28.5 -11v-64z" />
    <glyph glyph-name="Gcircumflex.ss01" horiz-adv-x="637" 
d="M585 294q0 -79 -14.5 -129.5t-51.5 -88.5q-80 -82 -198 -82q-113 0 -190 75q-49 49 -60.5 107.5t-11.5 179.5t11.5 179.5t60.5 107.5q77 75 190 75q72 0 120 -21t98 -70l-95 -95q-34 34 -59.5 48t-63.5 14q-54 0 -89 -38q-20 -23 -27 -62t-7 -138q0 -100 7 -139t27 -62
q34 -37 89 -37q58 0 95 40q31 35 31 97v24h-126v117h264v-102zM505 781h-101l-83 91l-83 -91h-101l132 169h104z" />
    <glyph glyph-name="Gbreve.ss01" horiz-adv-x="637" 
d="M585 294q0 -79 -14.5 -129.5t-51.5 -88.5q-80 -82 -198 -82q-113 0 -190 75q-49 49 -60.5 107.5t-11.5 179.5t11.5 179.5t60.5 107.5q77 75 190 75q72 0 120 -21t98 -70l-95 -95q-34 34 -59.5 48t-63.5 14q-54 0 -89 -38q-20 -23 -27 -62t-7 -138q0 -100 7 -139t27 -62
q34 -37 89 -37q58 0 95 40q31 35 31 97v24h-126v117h264v-102zM485 930q-4 -77 -49 -114t-115 -37t-115.5 37t-48.5 114h87q7 -60 77 -60t77 60h87z" />
    <glyph glyph-name="Gdotaccent.ss01" horiz-adv-x="637" 
d="M585 294q0 -79 -14.5 -129.5t-51.5 -88.5q-80 -82 -198 -82q-113 0 -190 75q-49 49 -60.5 107.5t-11.5 179.5t11.5 179.5t60.5 107.5q77 75 190 75q72 0 120 -21t98 -70l-95 -95q-34 34 -59.5 48t-63.5 14q-54 0 -89 -38q-20 -23 -27 -62t-7 -138q0 -100 7 -139t27 -62
q34 -37 89 -37q58 0 95 40q31 35 31 97v24h-126v117h264v-102zM399 847q0 -28 -19.5 -48t-47.5 -20t-47.5 20t-19.5 47q0 28 19.5 48t47.5 20t47.5 -19.5t19.5 -47.5z" />
    <glyph glyph-name="gdotaccent.ss01" horiz-adv-x="555" 
d="M482 19q0 -95 -62.5 -155.5t-166.5 -60.5q-62 0 -106 15t-83 53l81 82q41 -40 102 -40q54 0 79.5 31.5t25.5 76.5v53q-47 -52 -124 -52q-78 0 -124 46q-34 34 -43.5 80.5t-9.5 126.5t9.5 126t43.5 80q46 46 125 46q77 0 127 -55v49h126v-502zM352 275q0 63 -17 99t-69 36
q-28 0 -45.5 -10.5t-26 -31.5t-11 -42t-2.5 -51t2.5 -51t10.5 -42t26 -32t46 -11t46 11t26 32t11 42t3 51zM322 672q0 -28 -20 -47.5t-47 -19.5q-28 0 -48 19.5t-20 47.5t19.5 47.5t47.5 19.5t48 -19.5t20 -47.5z" />
    <glyph glyph-name="Gcommaaccent.ss01" horiz-adv-x="637" 
d="M585 294q0 -79 -14.5 -129.5t-51.5 -88.5q-80 -82 -198 -82q-113 0 -190 75q-49 49 -60.5 107.5t-11.5 179.5t11.5 179.5t60.5 107.5q77 75 190 75q72 0 120 -21t98 -70l-95 -95q-34 34 -59.5 48t-63.5 14q-54 0 -89 -38q-20 -23 -27 -62t-7 -138q0 -100 7 -139t27 -62
q34 -37 89 -37q58 0 95 40q31 35 31 97v24h-126v117h264v-102zM372 -133q0 -44 -31 -72.5t-81 -28.5v64q18 0 28.5 11t10.5 26t-10.5 26t-28.5 11v64q51 0 81.5 -28.5t30.5 -72.5z" />
    <glyph glyph-name="gcommaaccent.ss01" horiz-adv-x="555" 
d="M482 19q0 -95 -62.5 -155.5t-166.5 -60.5q-62 0 -106 15t-83 53l81 82q41 -40 102 -40q54 0 79.5 31.5t25.5 76.5v53q-47 -52 -124 -52q-78 0 -124 46q-34 34 -43.5 80.5t-9.5 126.5t9.5 126t43.5 80q46 46 125 46q77 0 127 -55v49h126v-502zM352 275q0 63 -17 99t-69 36
q-28 0 -45.5 -10.5t-26 -31.5t-11 -42t-2.5 -51t2.5 -51t10.5 -42t26 -32t46 -11t46 11t26 32t11 42t3 51zM333 579q-51 0 -81.5 29t-30.5 72q0 44 30.5 72.5t81.5 28.5v-64q-17 0 -28 -10.5t-11 -26.5q0 -15 11 -26t28 -11v-64z" />
    <glyph glyph-name="Iogonek.ss01" horiz-adv-x="305" 
d="M222 0h-139v712h139v-712zM212 -234q-51 0 -81.5 28.5t-30.5 72.5t30.5 72.5t81.5 28.5v-64q-18 0 -28.5 -11t-10.5 -26t10.5 -26t28.5 -11v-64z" />
    <glyph glyph-name="iogonek.ss01" horiz-adv-x="275" 
d="M203 0h-130v506h130v-506zM219 668q0 -34 -23.5 -58t-57.5 -24t-58 24t-24 58t24 57.5t58 23.5t57.5 -23.5t23.5 -57.5zM193 -234q-51 0 -81.5 28.5t-30.5 72.5t30.5 72.5t81.5 28.5v-64q-17 0 -28 -11t-11 -26t11 -26t28 -11v-64z" />
    <glyph glyph-name="Idotaccent.ss01" horiz-adv-x="305" 
d="M222 0h-139v712h139v-712zM221 847q0 -28 -19.5 -48t-47.5 -20t-47.5 20t-19.5 47q0 28 19.5 48t47.5 20t47.5 -19.5t19.5 -47.5z" />
    <glyph glyph-name="ij.ss01" horiz-adv-x="550" 
d="M203 0h-130v506h130v-506zM219 668q0 -34 -23.5 -58t-57.5 -24t-58 24t-24 58t24 57.5t58 23.5t57.5 -23.5t23.5 -57.5zM478 -46q0 -61 -38.5 -105t-113.5 -44h-74v110h50q46 0 46 47v544h130v-552zM494 668q0 -34 -23.5 -58t-57.5 -24t-58 24t-24 58t24 57.5t58 23.5
t57.5 -23.5t23.5 -57.5z" />
    <glyph glyph-name="Kcommaaccent.ss01" horiz-adv-x="665" 
d="M659 0h-162l-183 324l-92 -110v-214h-139v712h139v-310l251 310h169l-236 -283zM399 -133q0 -44 -31 -72.5t-81 -28.5v64q17 0 28 11t11 26t-11 26t-28 11v64q51 0 81.5 -28.5t30.5 -72.5z" />
    <glyph glyph-name="kcommaaccent.ss01" horiz-adv-x="559" 
d="M547 0h-161l-128 217l-55 -62v-155h-130v712h130v-404l173 213h157l-186 -210zM344 -133q0 -44 -31 -72.5t-81 -28.5v64q18 0 28.5 11t10.5 26t-10.5 26t-28.5 11v64q51 0 81.5 -28.5t30.5 -72.5z" />
    <glyph glyph-name="Lcommaaccent.ss01" horiz-adv-x="575" 
d="M545 0h-462v712h139v-588h323v-124zM376 -133q0 -44 -31 -72.5t-81 -28.5v64q18 0 28.5 11t10.5 26t-10.5 26t-28.5 11v64q51 0 81.5 -28.5t30.5 -72.5z" />
    <glyph glyph-name="lcommaaccent.ss01" horiz-adv-x="325" 
d="M294 0h-74q-75 0 -113.5 44t-38.5 105v563h130v-555q0 -47 46 -47h50v-110zM242 -133q0 -44 -31 -72.5t-81 -28.5v64q18 0 28.5 11t10.5 26t-10.5 26t-28.5 11v64q51 0 81.5 -28.5t30.5 -72.5z" />
    <glyph glyph-name="Lcaron.ss01" horiz-adv-x="575" 
d="M545 0h-462v712h139v-588h323v-124zM452 594l-113 -88v206h113v-118z" />
    <glyph glyph-name="lcaron.ss01" horiz-adv-x="325" 
d="M294 0h-74q-75 0 -113.5 44t-38.5 105v563h130v-555q0 -47 46 -47h50v-110zM401 629l-113 -88v206h113v-118z" />
    <glyph glyph-name="Ldot.ss01" horiz-adv-x="575" 
d="M504 359q0 -28 -19.5 -48t-47.5 -20t-47.5 20t-19.5 47q0 28 19.5 48t47.5 20t47.5 -19.5t19.5 -47.5zM545 0h-462v712h139v-588h323v-124z" />
    <glyph glyph-name="ldot.ss01" horiz-adv-x="409" 
d="M294 0h-74q-75 0 -113.5 44t-38.5 105v563h130v-555q0 -47 46 -47h50v-110zM405 286q0 -28 -20 -47.5t-47 -19.5q-28 0 -48 19.5t-20 47.5t19.5 47.5t47.5 19.5t48 -19.5t20 -47.5z" />
    <glyph glyph-name="Ncommaaccent.ss01" horiz-adv-x="711" 
d="M628 0h-124l-282 437v-437h-139v712h124l282 -436v436h139v-712zM405 -133q0 -44 -31 -72.5t-81 -28.5v64q17 0 28 11t11 26t-11 26t-28 11v64q51 0 81.5 -28.5t30.5 -72.5z" />
    <glyph glyph-name="ncommaaccent.ss01" horiz-adv-x="573" 
d="M506 0h-130v315q0 49 -25.5 72t-60.5 23q-36 0 -61.5 -23t-25.5 -72v-315h-130v521h127v-48q51 54 130 54q77 0 123 -46q53 -53 53 -148v-333zM352 -133q0 -44 -31 -72.5t-81 -28.5v64q18 0 28.5 11t10.5 26t-10.5 26t-28.5 11v64q51 0 81.5 -28.5t30.5 -72.5z" />
    <glyph glyph-name="Rcommaaccent.ss01" horiz-adv-x="654" 
d="M622 0h-161l-139 284h-100v-284h-139v712h279q106 0 168.5 -63t62.5 -155q0 -71 -37 -119t-93 -68zM454 494q0 42 -28 68t-73 26h-131v-188h131q45 0 73 26t28 68zM382 -133q0 -44 -31 -72.5t-81 -28.5v64q18 0 28.5 11t10.5 26t-10.5 26t-28.5 11v64q51 0 81.5 -28.5
t30.5 -72.5z" />
    <glyph glyph-name="rcommaaccent.ss01" horiz-adv-x="455" 
d="M454 478l-98 -99q-31 31 -69 31q-33 0 -58.5 -25t-25.5 -71v-314h-130v521h127v-50q20 24 55.5 40t75.5 16q74 0 123 -49zM206 -133q0 -44 -31 -72.5t-81 -28.5v64q18 0 28.5 11t10.5 26t-10.5 26t-28.5 11v64q51 0 81.5 -28.5t30.5 -72.5z" />
    </font>
</defs>
</svg>
