<?xml version="1.0" standalone="no"?>
<!DOCTYPE svg PUBLIC "-//W3C//DTD SVG 1.1//EN" "http://www.w3.org/Graphics/SVG/1.1/DTD/svg11.dtd" >
<svg>
<metadata>
Created by FontForge 20120731 at Thu Sep 13 11:38:08 2018
 By www
2010 published by FontShop International GmbH
</metadata>
<defs>
<font id="ClanWebW03-NewsItalic" horiz-adv-x="598" >
  <font-face 
    font-family="ClanWebW03-NewsItalic"
    font-weight="450"
    font-style="italic"
    font-stretch="normal"
    units-per-em="1000"
    panose-1="2 11 6 4 3 1 1 2 1 2"
    ascent="800"
    descent="-200"
    x-height="595"
    cap-height="750"
    bbox="-177 -232 1154 960"
    underline-thickness="50"
    underline-position="-75"
    slope="-8"
    unicode-range="U+0020-FEFF"
  />
<missing-glyph horiz-adv-x="604" 
d="M25 750h554v-750h-554v750zM521 58v634h-438v-634h438z" />
    <glyph glyph-name="f_j.liga" unicode="fj" horiz-adv-x="620" 
d="M496 94q-9 -63 -30 -107.5t-53.5 -74t-76.5 -45t-98 -21.5l2 67q36 6 63 17.5t46.5 32t31.5 52t18 78.5l59 425h-232l-72 -518h-97l72 518h-87l14 73h84q8 58 26.5 99t51 66t80.5 36.5t116 11.5l-3 -71q-38 0 -67.5 -5t-51 -20t-35.5 -43t-20 -74h245q20 0 42 2t43 5z
M543 799q56 0 56 -40q0 -31 -18 -44.5t-52 -13.5q-28 0 -42 8.5t-14 29.5q0 60 70 60z" />
    <glyph glyph-name="f_l.liga" unicode="fl" horiz-adv-x="593" 
d="M56 591h84q9 59 29.5 99.5t56 66t86.5 36.5t120 11q45 0 80 -3.5t62 -8.5l-111 -792h-97l103 736q-20 3 -45 3q-47 0 -80.5 -8t-55 -26t-34 -46t-17.5 -68h144l-12 -67h-142l-73 -524h-97l73 524h-87z" />
    <glyph glyph-name="f_i.liga" unicode="fi" horiz-adv-x="620" 
d="M56 591h84q8 58 26.5 99t51 66t80.5 36.5t116 11.5l-3 -69q-38 0 -67.5 -5t-51 -20.5t-35.5 -44t-20 -74.5h248q22 0 41.5 2t40.5 5l-84 -598h-97l73 524h-232l-73 -524h-97l73 524h-87zM543 799q56 0 56 -40q0 -31 -18 -44.5t-52 -13.5q-28 0 -42 8.5t-14 29.5
q0 60 70 60z" />
    <glyph glyph-name=".notdef" horiz-adv-x="604" 
d="M25 750h554v-750h-554v750zM521 58v634h-438v-634h438z" />
    <glyph glyph-name="glyph1" horiz-adv-x="0" 
 />
    <glyph glyph-name="glyph1" horiz-adv-x="0" 
 />
    <glyph glyph-name="glyph2" horiz-adv-x="324" 
 />
    <glyph glyph-name="space" unicode=" " horiz-adv-x="324" 
 />
    <glyph glyph-name="exclam" unicode="!" horiz-adv-x="304" 
d="M91 199l62 551h105l-94 -551h-73zM116 97q29 0 42 -12t13 -33q0 -29 -17.5 -46t-52.5 -17q-27 0 -40.5 9t-13.5 31q0 32 17 50t52 18z" />
    <glyph glyph-name="quotedbl" unicode="&#x22;" horiz-adv-x="379" 
d="M387 770l-53 -236h-64l19 236h98zM207 770l-53 -236h-64l19 236h98z" />
    <glyph glyph-name="numbersign" unicode="#" horiz-adv-x="650" 
d="M171 292l50 172h-141l10 70h150l58 216h77l-59 -216h114l59 216h75l-59 -216h107l-10 -70h-115l-50 -172h140l-10 -69h-147l-62 -223h-75l60 223h-114l-60 -223h-77l61 223h-107l10 69h115zM248 292h114l50 172h-114z" />
    <glyph glyph-name="dollar" unicode="$" horiz-adv-x="650" 
d="M436 759q43 -4 79.5 -13t58.5 -20l-20 -82q-32 12 -67 20.5t-71 12.5l-62 -250q34 -13 67 -28t59.5 -37t42.5 -52t16 -72q0 -128 -77.5 -189t-214.5 -63l-21 -70l-57 5l17 68q-52 5 -98 17.5t-76 32.5l25 87q36 -23 78 -38t90 -21l69 285q-36 13 -70.5 28t-61.5 36
t-43.5 49.5t-16.5 68.5q0 53 20.5 94.5t59 71t92 45.5t119.5 17l17 66l62 -4zM259 65q90 1 141 36.5t51 107.5q0 24 -10.5 43t-28 33.5t-41 26t-49.5 22.5zM358 680q-47 0 -81 -10.5t-56 -27.5t-33 -40.5t-11 -49.5q0 -21 10 -37t27.5 -28.5t40.5 -22.5t49 -19z" />
    <glyph glyph-name="percent" unicode="%" horiz-adv-x="713" 
d="M248 763q60 0 91 -27.5t31 -93.5q0 -60 -12 -103t-34.5 -71t-54 -41t-70.5 -13q-63 0 -93.5 29.5t-30.5 93.5q0 11 1 24t3 27q13 93 52.5 134t116.5 41zM240 707q-20 0 -35.5 -5t-26.5 -18.5t-19 -36.5t-13 -58q-2 -13 -3 -24t-1 -21q0 -42 16.5 -57.5t48.5 -15.5
q19 0 34.5 5.5t26.5 19t18.5 36t12.5 57.5q2 14 3 25.5t1 21.5q0 41 -15.5 56t-47.5 15zM621 696l-487 -683l-52 40l487 683zM520 343q61 0 92 -28.5t31 -95.5q0 -60 -12.5 -103t-35.5 -70.5t-54.5 -40.5t-70.5 -13q-63 0 -93 29t-30 93q0 12 1 25t3 27q13 93 52.5 135
t116.5 42zM512 285q-20 0 -35 -5.5t-26.5 -19t-19.5 -36.5t-13 -58q-2 -14 -3 -25t-1 -21q0 -42 16.5 -56.5t48.5 -14.5q19 0 34 5.5t26.5 18.5t19 35.5t12.5 57.5q2 14 3 26t1 22q0 42 -15.5 56.5t-47.5 14.5z" />
    <glyph glyph-name="ampersand" unicode="&#x26;" horiz-adv-x="695" 
d="M366 762q75 0 116 -32t41 -83q0 -39 -19 -72.5t-49.5 -63t-68.5 -55.5t-76 -51q29 -46 68 -93.5t83 -92.5q29 39 50.5 81.5t34.5 82.5h83q-11 -43 -38.5 -101.5t-72.5 -115.5q31 -27 62.5 -51t63.5 -44l-46 -81q-35 22 -71 49t-71 59q-51 -48 -115 -79.5t-139 -31.5
q-50 0 -84.5 13t-56 34.5t-31.5 51t-10 62.5q0 48 15 87.5t39.5 72.5t56.5 61t67 52q-21 41 -33 79t-12 71q0 39 13.5 73.5t40 60.5t66.5 41.5t93 15.5zM402 150q-48 48 -90.5 99.5t-74.5 102.5q-48 -38 -82 -83.5t-34 -103.5q0 -47 29 -72t78 -25q47 0 91 22.5t83 59.5z
M354 693q-21 0 -41 -8t-35 -23t-24 -36.5t-9 -48.5q0 -23 8 -49.5t22 -56.5q30 19 57.5 38t48.5 38.5t33.5 41t12.5 45.5q0 28 -19.5 43.5t-53.5 15.5z" />
    <glyph glyph-name="quotesingle" unicode="'" horiz-adv-x="208" 
d="M211 770l-53 -236h-64l19 236h98z" />
    <glyph glyph-name="parenleft" unicode="(" horiz-adv-x="333" 
d="M392 792q-101 -115 -159.5 -262t-58.5 -314q0 -99 23 -184.5t65 -157.5l-79 -5q-49 67 -75 156t-26 193q0 90 16.5 171.5t47 154t73.5 136t95 117.5z" />
    <glyph glyph-name="parenright" unicode=")" horiz-adv-x="333" 
d="M143 797q49 -72 75 -157t26 -187q0 -86 -17 -169t-47.5 -158t-73.5 -140.5t-94 -116.5l-75 5q47 56 86 121.5t67.5 138.5t44.5 153t16 166q0 96 -22.5 181t-64.5 158z" />
    <glyph glyph-name="asterisk" unicode="*" horiz-adv-x="360" 
d="M267 792l-10 -113l110 29l11 -46l-112 -38l54 -95l-43 -29l-62 92l-91 -93l-35 28l80 97l-101 38l24 46l103 -29l23 113h49z" />
    <glyph glyph-name="plus" unicode="+" 
d="M339 297v-183h-86v183h-182v83h182v188h86v-188h186v-83h-186z" />
    <glyph glyph-name="comma" unicode="," horiz-adv-x="251" 
d="M89 105q28 0 41.5 -14t13.5 -40q0 -20 -9.5 -44t-25 -49.5t-36 -50.5t-41.5 -47l-30 19q16 26 31.5 53.5t26.5 56.5q-20 0 -31 11.5t-11 31.5q0 31 18.5 52t52.5 21z" />
    <glyph glyph-name="hyphen" unicode="-" horiz-adv-x="405" 
d="M338 374l-9 -67h-266l9 67h266z" />
    <glyph glyph-name="period" unicode="." horiz-adv-x="253" 
d="M91 106q55 0 55 -46q0 -33 -18 -52t-53 -19q-57 0 -57 44q0 35 18 54t55 19z" />
    <glyph glyph-name="slash" unicode="/" horiz-adv-x="442" 
d="M498 795l-473 -922h-81l471 922h83z" />
    <glyph glyph-name="zero" unicode="0" horiz-adv-x="650" 
d="M595 374q-15 -104 -40.5 -177.5t-64.5 -119.5t-93 -67t-124 -21q-116 0 -170.5 57.5t-54.5 189.5q0 30 3 64.5t8 73.5q15 107 40.5 180.5t64.5 119t92.5 65.5t125.5 20q57 0 99.5 -13t70 -42t41 -75.5t13.5 -113.5q0 -31 -3 -66t-8 -75zM496 375q12 81 12 137q0 49 -9 81
t-26 51t-43 26.5t-59 7.5q-44 0 -78 -13t-59.5 -46.5t-44 -92.5t-31.5 -151q-12 -83 -12 -138q0 -50 9 -82t26.5 -51.5t43 -27t59.5 -7.5q43 0 77 13t59.5 47.5t44 93.5t31.5 152z" />
    <glyph glyph-name="one" unicode="1" horiz-adv-x="650" 
d="M138 68h134l72 517q2 11 3.5 20.5t4.5 19.5l-2 2q-8 -6 -17 -11.5t-17 -10.5l-138 -81v83l234 145h60l-96 -684h128l-9 -68h-366z" />
    <glyph glyph-name="two" unicode="2" horiz-adv-x="650" 
d="M378 758q109 0 165 -44.5t56 -124.5q0 -64 -31.5 -124.5t-87.5 -121.5t-134 -124.5t-172 -133.5v-3h361l-14 -82h-485l8 64q85 72 166 138.5t143.5 129t100.5 121t38 114.5q0 46 -33 76.5t-109 30.5q-54 0 -106 -21t-97 -53l-17 75q48 36 112 59.5t136 23.5z" />
    <glyph glyph-name="three" unicode="3" horiz-adv-x="650" 
d="M371 758q106 0 163 -40.5t57 -117.5q0 -80 -42.5 -128.5t-108.5 -70.5v-2q60 -15 92 -49.5t32 -92.5q0 -59 -20.5 -108t-60.5 -84t-97.5 -54.5t-132.5 -19.5t-127.5 17.5t-88.5 43.5l31 75q41 -27 87.5 -42t106.5 -15q49 0 87 14t64 38.5t39.5 57.5t13.5 72
q0 57 -50.5 84t-170.5 27l9 70q130 0 186 38.5t56 110.5q0 49 -37 72t-105 23q-62 0 -112.5 -19.5t-97.5 -53.5l-15 72q45 34 107.5 58t134.5 24z" />
    <glyph glyph-name="four" unicode="4" horiz-adv-x="650" 
d="M482 165l-23 -165h-93l23 165h-348v61l400 524h123l-71 -505h94l-14 -80h-91zM462 624q3 19 8 41l-2 1q-5 -8 -11.5 -17t-12.5 -17l-266 -355q-13 -18 -25 -30l1 -2h249z" />
    <glyph glyph-name="five" unicode="5" horiz-adv-x="650" 
d="M582 665h-334l-40 -178q-2 -10 -4.5 -20t-5.5 -19l1 -1q37 13 75 19t76 6q105 0 158.5 -41.5t53.5 -127.5q0 -11 -1 -23t-3 -24q-18 -129 -92 -197t-208 -68q-67 0 -118.5 16t-92.5 45l30 76q40 -27 82 -42.5t100 -15.5q91 0 138.5 44.5t59.5 132.5q3 18 3 35
q0 59 -36.5 85.5t-111.5 26.5q-49 0 -97 -11.5t-83 -28.5l-33 37l81 359h410z" />
    <glyph glyph-name="six" unicode="6" horiz-adv-x="650" 
d="M367 477q106 0 156.5 -42t50.5 -128q0 -11 -1 -23t-3 -26q-19 -134 -93.5 -200.5t-199.5 -66.5q-54 0 -96 13t-70.5 42t-43 75t-14.5 113q0 52 9 118q29 207 123 307t247 100q47 0 86 -7t77 -23l-20 -79q-35 14 -67 20t-74 6q-110 0 -174.5 -63.5t-90.5 -198.5l1 -1
q43 30 94 47t103 17zM337 405q-21 0 -45 -5.5t-48 -15t-45.5 -23.5t-37.5 -32q-4 -28 -5.5 -52t-1.5 -45q0 -88 32.5 -125t101.5 -37q155 0 182 189q3 19 3 36q0 57 -33 83.5t-103 26.5z" />
    <glyph glyph-name="seven" unicode="7" horiz-adv-x="650" 
d="M635 670l-410 -670h-115l404 627q10 16 23 32l-1 2h-428l19 88h519z" />
    <glyph glyph-name="eight" unicode="8" horiz-adv-x="650" 
d="M382 758q109 0 160 -38.5t51 -113.5q0 -71 -36 -125t-104 -87v-2q25 -10 46 -22.5t37 -30.5t25 -42t9 -55q0 -17 -3 -36q-15 -109 -88.5 -162t-204.5 -53q-122 0 -179.5 43.5t-57.5 128.5q0 81 43.5 140.5t121.5 92.5v2q-38 20 -61.5 52t-23.5 86q0 102 66 162t199 60z
M283 362q-32 -15 -59 -32.5t-47 -40t-31 -50.5t-11 -64q0 -54 35.5 -81t117.5 -27q37 0 70.5 8.5t58 27t39 48t14.5 70.5q0 33 -16.5 54.5t-42.5 37t-60 26.5t-68 23zM372 685q-77 0 -118.5 -35.5t-41.5 -103.5q0 -29 13.5 -48.5t35.5 -33.5t51 -24t61 -19q66 29 97 68.5
t31 98.5q0 48 -31.5 72.5t-97.5 24.5z" />
    <glyph glyph-name="nine" unicode="9" horiz-adv-x="650" 
d="M369 758q110 0 169 -63t59 -191q0 -21 -1.5 -43.5t-5.5 -47.5q-16 -113 -46 -193t-75 -131t-104.5 -74.5t-134.5 -23.5q-53 0 -92 8t-78 27l26 76q35 -15 69 -22.5t78 -7.5q52 0 93 16.5t71.5 51t52.5 89t36 130.5l-2 2q-42 -31 -89 -45t-101 -14q-110 0 -161.5 48
t-51.5 131q0 63 19 114.5t56 87.5t90.5 55.5t122.5 19.5zM495 447q2 17 3 33.5t1 30.5q0 90 -38 129t-105 39q-82 0 -129.5 -46.5t-47.5 -137.5q0 -57 34 -87.5t108 -30.5q50 0 94.5 16t79.5 54z" />
    <glyph glyph-name="colon" unicode=":" horiz-adv-x="253" 
d="M156 564q55 0 55 -46q0 -33 -18.5 -52t-53.5 -19q-56 0 -56 44q0 35 18 54t55 19zM91 106q55 0 55 -46q0 -33 -18 -52t-53 -19q-57 0 -57 44q0 35 18 54t55 19z" />
    <glyph glyph-name="semicolon" unicode=";" horiz-adv-x="257" 
d="M160 564q55 0 55 -46q0 -33 -18.5 -52t-53.5 -19q-56 0 -56 44q0 35 18 54t55 19zM91 105q28 0 41.5 -14t13.5 -40q0 -20 -9.5 -44t-25 -49.5t-36 -50.5t-41.5 -47l-30 19q16 26 31.5 53.5t26.5 56.5q-20 0 -31 11.5t-11 31.5q0 31 18.5 52t52.5 21z" />
    <glyph glyph-name="less" unicode="&#x3c;" 
d="M243 355q-9 -5 -18.5 -9.5t-18.5 -7.5v-2q9 -3 18.5 -7.5t18.5 -9.5l264 -131v-88l-418 214v45l418 220v-91z" />
    <glyph glyph-name="equal" unicode="=" 
d="M76 390v72h444v-72h-444zM76 209v72h444v-72h-444z" />
    <glyph glyph-name="greater" unicode="&#x3e;" 
d="M89 188l264 130q8 5 18 9t19 8v2q-9 4 -19 8t-18 9l-264 134v91l418 -220v-45l-418 -214v88z" />
    <glyph glyph-name="question" unicode="?" horiz-adv-x="514" 
d="M314 762q97 0 143.5 -38t46.5 -108q0 -48 -16 -88.5t-44.5 -75t-68.5 -63t-89 -52.5l-25 -138h-76l18 170q45 25 81.5 50t63 51t40.5 56t14 66q0 45 -29.5 66t-82.5 21q-54 0 -100.5 -19.5t-84.5 -51.5l-27 71q43 36 104.5 59.5t131.5 23.5zM210 97q29 0 41.5 -11.5
t12.5 -32.5q0 -30 -17.5 -47t-51.5 -17q-28 0 -41.5 9t-13.5 31q0 32 17.5 50t52.5 18z" />
    <glyph glyph-name="at" unicode="@" horiz-adv-x="864" 
d="M477 568q61 0 84 -43h2l19 36l55 -4l-82 -260q-5 -15 -7.5 -29t-2.5 -26q0 -26 14 -43t46 -17q54 0 97 54t59 169q2 17 3.5 33.5t1.5 32.5q0 57 -16 105t-48.5 82.5t-81 54t-112.5 19.5q-98 0 -174 -40.5t-127.5 -107t-78 -153t-26.5 -178.5q0 -69 17.5 -125t54 -96
t92.5 -61.5t132 -21.5q57 0 103 8.5t83.5 22.5t67 32t52.5 36l16 -49q-57 -44 -138 -74t-190 -30q-170 0 -260.5 91.5t-90.5 258.5q0 102 31.5 199.5t92 173.5t149.5 122.5t203 46.5q74 0 131.5 -22.5t97 -63.5t60 -98.5t20.5 -126.5q0 -17 -1.5 -34.5t-3.5 -35.5
q-11 -75 -34.5 -129t-55 -89.5t-69 -52t-76.5 -16.5q-44 0 -70.5 19.5t-32.5 57.5l-2 1q-28 -35 -65.5 -56.5t-82.5 -21.5q-51 0 -81 31t-30 96q0 60 21.5 118t57 103.5t81.5 73t95 27.5zM531 465q-13 37 -60 37q-30 0 -60 -21t-54 -55t-39 -77t-15 -87q0 -75 61 -75
q18 0 36 9t33.5 24.5t28 37t19.5 47.5z" />
    <glyph glyph-name="A" unicode="A" horiz-adv-x="712" 
d="M492 185h-325l-88 -185h-111l380 750h125l172 -750h-118zM398 674q-3 -9 -7 -18.5t-9 -18.5l-178 -373h273l-71 370q-2 11 -3.5 20.5t-2.5 19.5h-2z" />
    <glyph glyph-name="B" unicode="B" horiz-adv-x="688" 
d="M428 750q201 0 201 -151q0 -43 -11 -76.5t-29.5 -58.5t-43.5 -41t-52 -25v-2q55 -13 85 -48t30 -96q0 -18 -3 -39q-14 -101 -77 -157t-193 -56h-289l105 750h277zM158 80h189q34 0 63 8.5t50 28.5t32.5 53t11.5 82q0 52 -30 77t-93 25h-185zM206 425h180q66 0 102.5 38
t36.5 117q0 48 -27.5 68.5t-84.5 20.5h-172z" />
    <glyph glyph-name="C" unicode="C" horiz-adv-x="607" 
d="M446 762q23 0 47 -2.5t46 -7t41.5 -11t34.5 -13.5l-24 -83q-27 14 -66.5 23t-84.5 9q-60 0 -105 -15t-77 -49.5t-53 -91t-33 -139.5q-9 -63 -9 -112q0 -56 12 -93.5t36 -61t60.5 -33.5t85.5 -10q46 0 86 9.5t75 26.5l2 -78q-38 -18 -88 -31t-101 -13q-142 0 -209.5 67.5
t-67.5 212.5q0 53 9 116q28 195 120 287.5t263 92.5z" />
    <glyph glyph-name="D" unicode="D" horiz-adv-x="739" 
d="M410 750q145 0 213 -61.5t68 -199.5q0 -50 -9 -111q-15 -102 -45 -174t-76.5 -117.5t-110 -66t-144.5 -20.5h-260l105 750h259zM163 87h153q55 0 97.5 12.5t73.5 45.5t52 89.5t33 143.5q5 30 6.5 56.5t1.5 49.5q0 51 -11 85.5t-33.5 55.5t-57 29.5t-81.5 8.5h-153z" />
    <glyph glyph-name="E" unicode="E" horiz-adv-x="624" 
d="M540 84l-14 -84h-480l105 750h463l-9 -85h-361l-33 -235h309l-11 -78h-309l-38 -268h378z" />
    <glyph glyph-name="F" unicode="F" horiz-adv-x="594" 
d="M244 663l-34 -243h302l-13 -82h-301l-47 -338h-105l106 750h462l-10 -87h-360z" />
    <glyph glyph-name="G" unicode="G" horiz-adv-x="679" 
d="M568 28q-42 -19 -101 -30.5t-120 -11.5q-152 0 -223 66t-71 209q0 50 9 112q14 103 44.5 176.5t79.5 121t116.5 70t156.5 22.5q53 0 104.5 -10t89.5 -27l-24 -84q-37 17 -81.5 26.5t-95.5 9.5q-63 0 -110 -14.5t-81 -50t-56 -94t-34 -146.5q-9 -62 -9 -109
q0 -53 11.5 -90t35.5 -59.5t60.5 -32.5t86.5 -10q70 0 127 21l42 304h95z" />
    <glyph glyph-name="H" unicode="H" horiz-adv-x="754" 
d="M503 0l48 346h-352l-48 -346h-105l105 750h105l-45 -318h352l45 318h104l-105 -750h-104z" />
    <glyph glyph-name="I" unicode="I" horiz-adv-x="324" 
d="M164 750h107l-105 -750h-107z" />
    <glyph glyph-name="J" unicode="J" horiz-adv-x="547" 
d="M435 252q-10 -72 -33.5 -122t-60.5 -81.5t-87 -45.5t-114 -14q-44 0 -85 10.5t-68 29.5l19 80q26 -20 62 -28.5t71 -8.5q83 0 129.5 40t60.5 139l70 499h106z" />
    <glyph glyph-name="K" unicode="K" horiz-adv-x="705" 
d="M499 0l-192 351h-107l-49 -351h-105l105 750h105l-45 -319h108l275 319h124l-308 -354l219 -396h-130z" />
    <glyph glyph-name="L" unicode="L" horiz-adv-x="574" 
d="M512 86l-16 -86h-450l105 750h105l-93 -664h349z" />
    <glyph glyph-name="M" unicode="M" horiz-adv-x="917" 
d="M270 750l147 -570q3 -12 5 -21t4 -19h2q7 18 18 36l312 574h118l-105 -750h-95l76 544q2 10 4 20.5t5 20.5l-2 1l-315 -586h-74l-150 581h-2q-1 -10 -1.5 -20.5t-2.5 -20.5l-75 -540h-93l105 750h119z" />
    <glyph glyph-name="N" unicode="N" horiz-adv-x="759" 
d="M538 0l-316 593h-2q-1 -10 -1.5 -20.5t-2.5 -20.5l-77 -552h-93l105 750h95l300 -573h2q0 21 3 41l74 532h93l-105 -750h-75z" />
    <glyph glyph-name="O" unicode="O" horiz-adv-x="743" 
d="M685 375q-15 -104 -42 -177.5t-71 -120.5t-106 -69t-146 -22q-140 0 -204 62.5t-64 202.5q0 28 2.5 58.5t7.5 65.5q14 103 41.5 176.5t72 120t107 68.5t146.5 22q139 0 202.5 -61.5t63.5 -198.5q0 -29 -2.5 -60.5t-7.5 -66.5zM576 375q5 37 8 68.5t3 57.5q0 51 -10 84.5
t-31 54t-53 29t-76 8.5q-55 0 -95.5 -13.5t-70 -48t-48.5 -93t-32 -147.5q-5 -36 -7.5 -66.5t-2.5 -56.5q0 -52 10.5 -86.5t31.5 -55.5t53 -29.5t76 -8.5q55 0 95 14t69 48.5t48.5 93t31.5 147.5z" />
    <glyph glyph-name="P" unicode="P" horiz-adv-x="654" 
d="M402 750q122 0 178 -42.5t56 -134.5q0 -143 -72.5 -215t-226.5 -72h-146l-40 -286h-105l105 750h251zM202 365h146q43 0 74 8.5t51.5 26.5t32.5 47t18 70q3 22 3 42q0 60 -33.5 84.5t-103.5 24.5h-146z" />
    <glyph glyph-name="Q" unicode="Q" horiz-adv-x="743" 
d="M685 375q-12 -89 -34.5 -156.5t-56.5 -114t-81 -73.5t-108 -36l147 -120l-133 -29l-119 140q-129 4 -188.5 67.5t-59.5 197.5q0 28 2.5 58.5t7.5 65.5q14 103 41.5 176.5t72 120t107 68.5t146.5 22q139 0 202.5 -61.5t63.5 -198.5q0 -29 -2.5 -60.5t-7.5 -66.5zM576 375
q5 37 8 68.5t3 57.5q0 51 -10 84.5t-31 54t-53 29t-76 8.5q-55 0 -95.5 -13.5t-70 -48t-48.5 -93t-32 -147.5q-5 -36 -7.5 -66.5t-2.5 -56.5q0 -52 10.5 -86.5t31.5 -55.5t53 -29.5t76 -8.5q55 0 95 14t69 48.5t48.5 93t31.5 147.5z" />
    <glyph glyph-name="R" unicode="R" horiz-adv-x="664" 
d="M407 750q109 0 162 -40.5t53 -125.5q0 -111 -49.5 -172t-129.5 -74l150 -338h-124l-125 320h-149l-44 -320h-105l105 750h256zM206 396h147q35 0 64.5 9t51 29.5t33.5 54t12 83.5q0 54 -28.5 75.5t-89.5 21.5h-151z" />
    <glyph glyph-name="S" unicode="S" horiz-adv-x="570" 
d="M362 762q55 0 105 -10t88 -30l-26 -81q-42 17 -84 26.5t-89 9.5q-45 0 -77.5 -11t-53 -29t-30.5 -42t-10 -50q0 -36 24 -57.5t60 -37t78 -30t78 -36t60 -54t24 -85.5q0 -60 -21 -107.5t-59 -81.5t-91.5 -52t-118.5 -18t-117.5 15.5t-94.5 41.5l26 85q42 -27 90 -42
t106 -15q81 0 129.5 40t48.5 112q0 37 -24 60t-60 39.5t-78.5 31t-78.5 35.5t-60 52.5t-24 82.5q0 49 18 92.5t53.5 75.5t87.5 51t121 19z" />
    <glyph glyph-name="T" unicode="T" horiz-adv-x="584" 
d="M387 663l-93 -663h-105l93 663h-223l15 87h546l-9 -87h-224z" />
    <glyph glyph-name="U" unicode="U" horiz-adv-x="737" 
d="M643 271q-21 -149 -104 -217t-222 -68q-122 0 -187 52.5t-65 166.5q0 15 1.5 31.5t3.5 34.5l67 479h104l-68 -482q-2 -14 -3 -26.5t-1 -23.5q0 -75 39.5 -110t120.5 -35q94 0 144.5 46.5t64.5 148.5l68 482h104z" />
    <glyph glyph-name="V" unicode="V" horiz-adv-x="694" 
d="M729 750l-372 -750h-120l-161 750h115l114 -614q2 -10 3.5 -20t2.5 -20h2q4 9 7.5 18.5t8.5 18.5l290 617h110z" />
    <glyph glyph-name="W" unicode="W" horiz-adv-x="1012" 
d="M621 750l59 -614q1 -10 1.5 -20.5t0.5 -20.5h2q2 9 5.5 19t7.5 20l219 616h104l-286 -750h-128l-55 613q-1 10 -2 20.5t-1 20.5h-2q-2 -10 -6 -20t-7 -19l-226 -615h-128l-76 750h108l45 -616q1 -10 1.5 -20.5t0.5 -20.5h2q3 9 6 19t7 19l233 619h115z" />
    <glyph glyph-name="X" unicode="X" horiz-adv-x="699" 
d="M426 388l186 -388h-121l-131 292q-9 17 -15 38h-2q-5 -8 -10.5 -17t-11.5 -17l-211 -296h-123l290 392l-177 358h126l120 -265q5 -9 8.5 -18.5t6.5 -18.5h2q5 8 11 16.5t12 16.5l196 269h120z" />
    <glyph glyph-name="Y" unicode="Y" horiz-adv-x="672" 
d="M195 750l129 -364q3 -10 6.5 -20t5.5 -19h2q4 8 9.5 17.5t10.5 17.5l233 368h116l-331 -494l-35 -256h-107l35 256l-193 494h119z" />
    <glyph glyph-name="Z" unicode="Z" horiz-adv-x="618" 
d="M-3 0l8 64l455 569q12 15 26 29l-1 2h-383l16 86h501l-10 -73l-447 -560q-12 -15 -26 -29l1 -2h391l-14 -86h-517z" />
    <glyph glyph-name="bracketleft" unicode="[" horiz-adv-x="328" 
d="M155 795h231l-9 -66h-143l-111 -792h143l-9 -65h-231z" />
    <glyph glyph-name="backslash" unicode="\" horiz-adv-x="385" 
d="M148 795l173 -922h-79l-174 922h80z" />
    <glyph glyph-name="bracketright" unicode="]" horiz-adv-x="328" 
d="M166 -128h-230l9 65h143l111 792h-144l9 66h231z" />
    <glyph glyph-name="asciicircum" unicode="^" horiz-adv-x="650" 
d="M344 733l-178 -271h-82l227 342h68l224 -342h-80z" />
    <glyph glyph-name="underscore" unicode="_" horiz-adv-x="429" 
d="M347 -46l-8 -58h-379l8 58h379z" />
    <glyph glyph-name="grave" unicode="`" horiz-adv-x="399" 
d="M255 662l-90 143h117l48 -143h-75z" />
    <glyph glyph-name="a" unicode="a" horiz-adv-x="601" 
d="M391 604q25 0 45 -1.5t37.5 -3t34.5 -3t37 -1.5h13l-83 -595h-76v84l-2 1q-38 -48 -88.5 -71.5t-108.5 -23.5q-85 0 -128 46t-43 149q0 96 25.5 173t72.5 132t114 84.5t150 29.5zM232 67q70 0 119 50.5t62 138.5l38 266q-17 2 -33.5 3.5t-37.5 1.5q-103 0 -165.5 -65
t-80.5 -194q-6 -44 -6 -76q0 -69 26 -97t78 -28z" />
    <glyph glyph-name="b" unicode="b" horiz-adv-x="605" 
d="M391 605q80 0 123 -46t43 -155q0 -105 -21 -183t-60 -129t-94.5 -76.5t-124.5 -25.5q-64 0 -120.5 19t-98.5 50l103 732l98 6l-33 -234q-2 -10 -3.5 -21t-3.5 -19l1 -1q38 42 86.5 62.5t104.5 20.5zM356 527q-34 0 -64 -12.5t-54 -36t-40.5 -57.5t-22.5 -76l-34 -242
q23 -17 54 -26.5t66 -9.5q40 0 71 12.5t54 40t39 71.5t25 108q4 27 6 50.5t2 43.5q0 39 -7 65t-20 41t-32 21.5t-43 6.5z" />
    <glyph glyph-name="c" unicode="c" horiz-adv-x="492" 
d="M333 605q45 0 81 -8.5t68 -27.5l-36 -68q-26 12 -50.5 17.5t-59.5 5.5q-83 0 -132.5 -54.5t-65.5 -174.5q-6 -47 -6 -81q0 -83 33 -115t92 -32q43 0 76.5 14t62.5 40l26 -58q-40 -37 -86.5 -55t-107.5 -18q-91 0 -143 51t-52 167q0 21 1.5 43.5t5.5 48.5q21 153 95.5 229
t197.5 76z" />
    <glyph glyph-name="d" unicode="d" horiz-adv-x="603" 
d="M338 605q35 0 65.5 -4t56.5 -12l29 202l98 6l-112 -797h-74l-3 39q-1 10 -1 20v21l-2 1q-38 -46 -88.5 -68.5t-108.5 -22.5q-81 0 -124 45.5t-43 154.5q0 105 22 183t62.5 129.5t97 77t125.5 25.5zM232 67q70 0 119 50.5t62 138.5l36 254q-42 16 -108 16
q-86 0 -136.5 -57.5t-67.5 -181.5q-4 -26 -5.5 -47.5t-1.5 -40.5q0 -38 7 -63.5t20 -40.5t32 -21.5t43 -6.5z" />
    <glyph glyph-name="e" unicode="e" horiz-adv-x="518" 
d="M330 605q42 0 73.5 -9t52 -25.5t31 -39t10.5 -48.5q0 -45 -20 -81.5t-63.5 -65t-113.5 -48.5t-170 -32q-1 -11 -1.5 -21t-0.5 -20q0 -83 34 -115t99 -32q95 0 161 55l26 -58q-38 -34 -92 -54.5t-122 -20.5q-46 0 -83 12t-63.5 38.5t-40.5 68.5t-14 102q0 20 1.5 42.5
t5.5 46.5q21 152 94 228.5t196 76.5zM319 532q-76 0 -119 -52t-61 -158q76 9 128 23t83.5 33t45.5 42t14 49q0 27 -22 45t-69 18z" />
    <glyph glyph-name="f" unicode="f" horiz-adv-x="369" 
d="M56 591h84q8 58 26.5 99t51 66t80.5 36.5t116 11.5l-4 -69q-37 0 -66.5 -5t-51 -20.5t-35.5 -44t-20 -74.5h158l-14 -67h-154l-73 -524h-97l73 524h-87z" />
    <glyph glyph-name="g" unicode="g" horiz-adv-x="599" 
d="M486 99q-10 -69 -34.5 -117.5t-61.5 -78.5t-85.5 -43.5t-105.5 -13.5q-45 0 -88.5 10t-78.5 27l21 72q34 -16 69 -25t70 -9q40 0 73 8.5t58.5 28.5t42 54t23.5 85l3 19l-2 1q-30 -42 -73.5 -62.5t-98.5 -20.5q-39 0 -70.5 9.5t-54 32t-34.5 58.5t-12 89q0 87 23 157.5
t66 120t105.5 76.5t140.5 27q45 0 80 -4.5t71 -4.5h23zM252 109q66 0 109 45.5t55 131.5l33 238q-17 2 -33.5 3t-40.5 1q-50 0 -92 -20t-72.5 -58t-47.5 -92.5t-17 -124.5q0 -35 7 -59t20.5 -38.5t33.5 -20.5t45 -6z" />
    <glyph glyph-name="h" unicode="h" horiz-adv-x="609" 
d="M395 0l52 375q2 14 3 27.5t1 24.5q0 54 -24 75.5t-72 21.5q-70 0 -119 -48t-61 -134l-48 -342h-97l111 790l98 7l-33 -232q-2 -10 -3.5 -20.5t-3.5 -19.5l1 -1q35 39 83 60t107 21q159 0 159 -166q0 -14 -1.5 -29.5t-3.5 -32.5l-52 -377h-97z" />
    <glyph glyph-name="i" unicode="i" horiz-adv-x="270" 
d="M37 0l83 592l98 6l-84 -598h-97zM194 799q56 0 56 -40q0 -31 -18 -44.5t-52 -13.5q-28 0 -42 8.5t-14 29.5q0 60 70 60z" />
    <glyph glyph-name="j" unicode="j" horiz-adv-x="293" 
d="M169 94q-9 -63 -30 -107.5t-53 -74t-75.5 -45t-97.5 -21.5l1 67q36 6 62.5 17.5t45.5 32t31 52t19 78.5l70 499l98 6zM214 799q56 0 56 -40q0 -31 -18 -44.5t-52 -13.5q-28 0 -42 8.5t-14 29.5q0 60 70 60z" />
    <glyph glyph-name="k" unicode="k" horiz-adv-x="603" 
d="M30 0l111 790l98 7l-40 -285q-2 -11 -3.5 -21t-3.5 -19l2 -1q48 66 108.5 100t124.5 34q65 0 94.5 -29.5t29.5 -80.5q0 -36 -13 -71t-38 -67t-61.5 -60t-84.5 -49q29 -76 79 -124t116 -59l-22 -73q-50 3 -95.5 24.5t-82 59t-63 89.5t-39.5 117q51 15 89.5 36.5t64.5 46.5
t39 52t13 53q0 23 -14 38.5t-48 15.5q-37 0 -74.5 -21t-69.5 -60.5t-56 -96.5t-34 -129l-30 -217h-97z" />
    <glyph glyph-name="l" unicode="l" horiz-adv-x="257" 
d="M30 0l111 790l98 7l-112 -797h-97z" />
    <glyph glyph-name="m" unicode="m" horiz-adv-x="897" 
d="M406 367q2 17 3.5 31.5t1.5 27.5q0 53 -20 75t-61 22q-63 0 -105.5 -48.5t-54.5 -133.5l-47 -341h-97l83 592l76 6v-79l2 -1q33 42 78.5 64.5t101.5 22.5q112 0 134 -105l2 -1q33 51 82 78.5t111 27.5q141 0 141 -165q0 -33 -6 -73l-51 -367h-97l51 367q2 17 3.5 32
t1.5 28q0 52 -19.5 73.5t-60.5 21.5q-65 0 -106.5 -50.5t-54.5 -141.5l-46 -330h-97z" />
    <glyph glyph-name="n" unicode="n" horiz-adv-x="604" 
d="M442 374q2 14 3 27.5t1 24.5q0 54 -23.5 76t-71.5 22q-71 0 -120 -48t-61 -134l-48 -342h-97l83 592l77 6l1 -44v-20q0 -10 -1 -20l2 -1q35 45 85.5 68.5t112.5 23.5q159 0 159 -164q0 -14 -1.5 -30.5t-3.5 -33.5l-52 -377h-97z" />
    <glyph glyph-name="o" unicode="o" horiz-adv-x="587" 
d="M318 528q-39 0 -68.5 -12t-51 -39t-36.5 -71.5t-24 -110.5q-4 -28 -6 -52t-2 -44q0 -77 29.5 -106t91.5 -29q39 0 69 12t52 39.5t37 72.5t24 111q4 26 5.5 49t1.5 43q0 78 -29.5 107.5t-92.5 29.5zM331 605q110 0 159 -49.5t49 -158.5q0 -23 -2 -48t-6 -53
q-11 -79 -33 -137t-57.5 -95.5t-85 -55.5t-116.5 -18q-109 0 -158.5 49.5t-49.5 157.5q0 23 2 48t6 54q11 79 33 137t57 95.5t85 55.5t117 18z" />
    <glyph glyph-name="p" unicode="p" horiz-adv-x="601" 
d="M386 605q81 0 124 -46t43 -155q0 -24 -1.5 -51t-6.5 -57q-22 -156 -89 -231t-177 -75q-47 0 -85 11t-67 31l-25 -179h-97l104 740l76 6l-1 -49q0 -10 -0.5 -20t-0.5 -20l2 -1q38 48 89.5 72t111.5 24zM352 527q-34 0 -64 -12.5t-54 -36t-40.5 -57t-22.5 -76.5l-33 -238
q22 -18 53 -29t68 -11q79 0 124 54.5t63 177.5q4 27 6 50t2 43q0 77 -27 106t-75 29z" />
    <glyph glyph-name="q" unicode="q" horiz-adv-x="601" 
d="M391 604q26 0 46 -1.5t38.5 -3t38 -3t44.5 -1.5l-104 -742h-97l25 178q2 10 3.5 20t3.5 20l-2 2q-37 -42 -85 -62.5t-102 -20.5q-85 0 -128 46t-43 149q0 96 25.5 173t72.5 132t114 84.5t150 29.5zM232 66q70 0 119 51t62 139l38 267q-17 2 -34 3t-37 1
q-103 0 -165.5 -64.5t-80.5 -194.5q-6 -42 -6 -75q0 -69 26 -98t78 -29z" />
    <glyph glyph-name="r" unicode="r" horiz-adv-x="439" 
d="M378 604q21 0 40 -3.5t31 -10.5l-27 -90q-14 7 -29 9.5t-34 2.5q-36 0 -68.5 -15.5t-59 -46.5t-45 -76.5t-26.5 -106.5l-37 -267h-97l83 592l77 6l-4 -118l2 -1q38 65 87.5 95t106.5 30z" />
    <glyph glyph-name="s" unicode="s" horiz-adv-x="485" 
d="M300 605q41 0 82.5 -9.5t71.5 -28.5l-37 -68q-29 14 -63 21.5t-69 7.5q-54 0 -89.5 -25.5t-35.5 -64.5q0 -27 19 -44t48 -30.5t62.5 -26.5t62.5 -31t48 -44t19 -67q0 -6 -0.5 -12t-1.5 -12q-6 -40 -22.5 -73t-44 -57t-68 -37t-94.5 -13q-55 0 -103 17t-80 44l32 68
q29 -26 70.5 -40t83.5 -14q66 0 99.5 32t33.5 77q0 29 -19 48t-48 33.5t-62.5 27.5t-62.5 31t-48 44t-19 66q0 41 16.5 74t47 56.5t74 36.5t97.5 13z" />
    <glyph glyph-name="t" unicode="t" horiz-adv-x="412" 
d="M62 592h86l37 155l78 12l-23 -167h164l-16 -73h-159l-46 -327q-3 -23 -3 -41q0 -44 17 -62.5t50 -18.5q20 0 41.5 7t41.5 19l2 -68q-23 -15 -54.5 -25t-66.5 -10q-64 0 -96.5 33.5t-32.5 105.5q0 13 1 27t3 30l46 330h-85z" />
    <glyph glyph-name="u" unicode="u" horiz-adv-x="593" 
d="M503 196q-14 -100 -78 -153.5t-181 -53.5q-103 0 -153 43.5t-50 122.5q0 20 3 41l56 396l98 6l-57 -401q-1 -8 -1.5 -14.5t-0.5 -12.5q0 -101 116 -101q133 0 151 128l56 398h97z" />
    <glyph glyph-name="v" unicode="v" horiz-adv-x="589" 
d="M531 609q8 -29 13 -60t5 -66q0 -82 -19.5 -150.5t-49.5 -123t-68 -96t-75 -69t-69.5 -41t-51.5 -13.5q-22 0 -49 15.5t-50.5 49.5t-39.5 87t-16 127q0 23 2 48.5t6 53.5l31 221l98 6l-32 -227q-5 -30 -6.5 -57t-1.5 -50q0 -50 7.5 -85t19 -57.5t25 -33t25.5 -10.5
q20 0 56.5 28t72 80.5t62 128t26.5 170.5q0 56 -12 100z" />
    <glyph glyph-name="w" unicode="w" horiz-adv-x="892" 
d="M834 609q8 -29 13 -60t5 -66q0 -81 -17.5 -149t-46 -122.5t-63.5 -96t-69.5 -69.5t-65 -42t-49.5 -14q-16 0 -35.5 11t-38 35t-33.5 61.5t-22 90.5h-1q-27 -51 -58 -88.5t-60.5 -61.5t-54.5 -36t-40 -12q-19 0 -43 16t-45 49.5t-35 85.5t-14 124q0 24 1.5 51t6.5 56
l31 220l98 6l-32 -226q-9 -65 -9 -113q0 -47 6.5 -80.5t16 -55.5t21 -32t22.5 -10t36 19.5t53 59t52.5 98t35.5 136.5l28 199h97l-31 -221q-5 -31 -6.5 -58t-1.5 -51q0 -48 7 -82.5t17.5 -56.5t23.5 -32.5t25 -10.5q15 0 47.5 25.5t65.5 76.5t58 126.5t25 175.5
q0 56 -12 100z" />
    <glyph glyph-name="x" unicode="x" horiz-adv-x="604" 
d="M-25 0l249 312l-147 281l112 5l94 -202q5 -9 9 -18.5t7 -18.5h2q5 8 11 16.5t12 16.5l154 203h106l-228 -292l154 -303h-112l-101 218q-5 9 -8.5 18.5t-7.5 18.5h-2q-5 -8 -11 -16.5t-12 -16.5l-171 -222h-110z" />
    <glyph glyph-name="y" unicode="y" horiz-adv-x="584" 
d="M561 595q-32 -121 -78 -232.5t-106 -208t-133.5 -174t-161.5 -129.5l-33 70q53 35 91.5 70t72.5 79l-154 520l107 8l107 -403q6 -22 9 -40h2q55 88 101.5 198t79.5 242h96z" />
    <glyph glyph-name="z" unicode="z" horiz-adv-x="542" 
d="M157 106q-7 -8 -13 -15t-13 -14l1 -2h316l-13 -75h-426l8 64l352 426q6 8 12.5 14.5t13.5 14.5l-1 2h-301l13 74h409l-9 -65z" />
    <glyph glyph-name="braceleft" unicode="{" horiz-adv-x="371" 
d="M265 439q-5 -35 -24.5 -61.5t-51.5 -40.5v-2q24 -11 36 -32.5t12 -49.5v-10q0 -5 -1 -10q-4 -30 -10 -55.5t-12 -49.5t-11.5 -48.5t-9.5 -53.5q-1 -5 -1 -10v-9q0 -31 19 -48t68 -17h30l-9 -69h-25q-95 0 -135 29.5t-40 84.5q0 7 0.5 13.5t1.5 13.5q4 31 11 58t14 53.5
t13.5 53t10.5 55.5q1 5 1 14q0 28 -17.5 45.5t-46.5 21.5l6 41q34 5 57.5 27t28.5 55q4 29 4 55l1 53l2 54q1 27 6 57q5 34 18.5 60.5t39 44.5t63.5 27.5t91 9.5h25l-10 -70h-30q-55 0 -80 -22t-30 -61q-4 -29 -5 -53.5t-2 -48.5t-2.5 -49.5t-5.5 -55.5z" />
    <glyph glyph-name="bar" unicode="|" horiz-adv-x="282" 
d="M102 813h76v-990h-76v990z" />
    <glyph glyph-name="braceright" unicode="}" horiz-adv-x="371" 
d="M99 233q5 35 24.5 61.5t52.5 40.5v2q-26 11 -37.5 32.5t-11.5 49.5v10q0 5 1 10q4 30 10 55.5t12 49.5t12 48.5t10 53.5q1 5 1 9v10q0 30 -20 47t-68 17h-30l10 70h25q95 0 134.5 -30t39.5 -85q0 -7 -0.5 -13.5t-1.5 -13.5q-5 -30 -11.5 -57t-13.5 -53.5t-13.5 -53
t-10.5 -55.5q-1 -3 -1 -7v-6q0 -28 17 -46.5t49 -22.5l-6 -41q-35 -4 -59 -26t-29 -55q-4 -29 -5 -55.5t-1.5 -53t-1.5 -53.5t-5 -58q-5 -34 -18.5 -60t-39 -44t-63 -27.5t-90.5 -9.5h-24l9 69h29q54 0 80 22t31 62q4 29 5 53.5t2 48.5t2 49.5t5 55.5z" />
    <glyph glyph-name="asciitilde" unicode="~" horiz-adv-x="650" 
d="M132 628q17 142 130 142q28 0 54.5 -11t51.5 -24.5t48.5 -24.5t47.5 -11q32 0 48.5 16t24.5 44h58q-8 -72 -41 -107.5t-89 -35.5q-28 0 -54 11t-51 24.5t-48.5 24.5t-46.5 11q-30 0 -48 -15.5t-26 -43.5h-59z" />
    <glyph glyph-name="uni00A0" unicode="&#xa0;" horiz-adv-x="324" 
 />
    <glyph glyph-name="exclamdown" unicode="&#xa1;" horiz-adv-x="303" 
d="M206 464l-71 -599h-104l98 599h77zM193 668q28 0 42 -9.5t14 -32.5q0 -32 -18.5 -48.5t-52.5 -16.5q-29 0 -41.5 11t-12.5 31q0 30 17 47.5t52 17.5z" />
    <glyph glyph-name="cent" unicode="&#xa2;" horiz-adv-x="650" 
d="M471 731l-27 -129q54 -8 99 -33l-36 -68q-26 12 -50.5 17.5t-59.5 5.5q-83 0 -132.5 -54.5t-65.5 -174.5q-6 -47 -6 -81q0 -83 33 -115t92 -32q43 0 76.5 14t62.5 40l26 -58q-32 -29 -67 -46.5t-79 -23.5l-27 -135h-77l26 134q-77 7 -121 58.5t-44 158.5q0 20 1.5 43
t5.5 48q20 145 87.5 220.5t179.5 83.5l27 127h76z" />
    <glyph glyph-name="sterling" unicode="&#xa3;" horiz-adv-x="650" 
d="M88 412h52q-3 24 -6.5 47t-3.5 48q0 49 16 94.5t52 81t93.5 56.5t140.5 21q56 0 101.5 -10.5t79.5 -27.5l-26 -82q-28 15 -69.5 25t-87.5 10q-57 0 -95 -14t-61 -38.5t-32.5 -57t-9.5 -69.5q0 -21 2.5 -41.5t4.5 -42.5h262l-10 -73h-244v-28q0 -171 -105 -233l1 -2
q50 10 101.5 13.5t114.5 3.5q54 0 104 -3.5t98 -8.5l-18 -87q-64 7 -121 10.5t-120 3.5q-72 0 -137.5 -3t-146.5 -10l7 83q34 11 58 34t39 54t22 67t7 73v17q0 8 -1 16h-68z" />
    <glyph glyph-name="currency" unicode="&#xa4;" horiz-adv-x="650" 
d="M348 538q27 0 51 -7.5t43 -21.5l80 69l43 -51l-79 -69q8 -17 13 -35t5 -38q0 -33 -11 -63.5t-31 -55.5l56 -66l-58 -51l-56 64q-48 -31 -106 -31q-55 0 -96 30l-73 -63l-44 50l74 65q-16 34 -16 71q0 35 12.5 66.5t34.5 58.5l-57 67l58 50l57 -67q47 28 100 28zM339 475
q-26 0 -49.5 -10.5t-41.5 -28.5t-28.5 -41.5t-10.5 -49.5q0 -42 27 -69t71 -27q26 0 49.5 10t41.5 27.5t28.5 41t10.5 50.5q0 42 -27 69.5t-71 27.5z" />
    <glyph glyph-name="yen" unicode="&#xa5;" horiz-adv-x="650" 
d="M245 335l-154 415h116l105 -374q3 -10 5.5 -20.5t4.5 -19.5h2q5 8 9.5 17.5t9.5 18.5l212 378h113l-264 -415h107l-9 -59h-131l-7 -51h131l-8 -58h-131l-23 -167h-110l23 167h-133l8 58h133l7 51h-133l9 59h108z" />
    <glyph glyph-name="brokenbar" unicode="&#xa6;" horiz-adv-x="282" 
d="M102 813h76v-439h-76v439zM102 274h76v-444h-76v444z" />
    <glyph glyph-name="section" unicode="&#xa7;" horiz-adv-x="563" 
d="M359 788q49 0 100 -12t85 -35l-20 -69q-39 23 -81.5 33.5t-88.5 10.5q-65 0 -102 -25.5t-37 -68.5q0 -27 22 -47t55.5 -38.5t72 -37.5t72 -44t55.5 -58t22 -79q0 -24 -6.5 -49t-21 -48t-37.5 -43t-56 -34v-2q29 -21 47.5 -47t18.5 -61q0 -42 -17.5 -75t-49.5 -56t-77 -35
t-100 -12q-49 0 -99 12t-84 35l19 69q38 -23 80.5 -33.5t88.5 -10.5q65 0 101.5 24.5t36.5 68.5q0 27 -22 47.5t-55 39t-72 37.5t-72 44t-55 58t-22 79q0 49 28 97t93 76v2q-29 21 -47.5 47t-18.5 61q0 42 17.5 75t49.5 56.5t77 35.5t100 12zM249 457q-48 -17 -71 -46
t-23 -63q0 -28 15.5 -50.5t40 -41.5t55 -36t61.5 -34q48 17 70 46.5t22 64.5q0 27 -15 49t-39.5 41t-55 36t-60.5 34z" />
    <glyph glyph-name="dieresis" unicode="&#xa8;" horiz-adv-x="369" 
d="M169 797q41 0 41 -36q0 -29 -14 -42.5t-40 -13.5q-20 0 -30.5 7.5t-10.5 25.5q0 28 14 43.5t40 15.5zM331 797q41 0 41 -36q0 -29 -14 -42.5t-40 -13.5q-20 0 -31 7.5t-11 26.5q0 27 14.5 42.5t40.5 15.5z" />
    <glyph glyph-name="copyright" unicode="&#xa9;" horiz-adv-x="904" 
d="M511 771q74 0 136.5 -26t108 -71.5t71 -107.5t25.5 -133q0 -90 -38 -171.5t-100.5 -142.5t-144 -97t-168.5 -36q-75 0 -137.5 26t-108.5 71t-71.5 106.5t-25.5 133.5q0 90 37.5 171.5t100 143t144.5 97.5t171 36zM503 719q-78 0 -149 -31.5t-124.5 -85t-85.5 -123.5
t-32 -147q0 -62 21.5 -115.5t60.5 -94t93 -63.5t120 -23q76 0 147 31.5t126 85t87.5 124.5t32.5 150q0 61 -22 114.5t-61.5 93t-94 62t-119.5 22.5zM499 634q49 0 87 -14t60 -33l-17 -66q-23 14 -56 23.5t-64 9.5q-48 0 -86.5 -16t-65.5 -43.5t-41 -65.5t-14 -82
q0 -66 40.5 -107t118.5 -41q38 0 74 11.5t65 29.5v-32q0 -16 1 -32q-32 -23 -78.5 -40.5t-95.5 -17.5q-51 0 -92.5 16t-71 44.5t-45 69t-15.5 88.5q0 57 21 110.5t59.5 95t93 67t122.5 25.5z" />
    <glyph glyph-name="ordfeminine" unicode="&#xaa;" horiz-adv-x="469" 
d="M342 821q34 0 56 -3.5t48 -3.5h23l-61 -435h-66q-1 15 -1 32v29l-2 1q-27 -35 -63 -52t-77 -17q-63 0 -95.5 34.5t-32.5 108.5q0 68 19 124t54 96.5t85 63t113 22.5zM228 438q45 0 79 33.5t42 91.5l27 192q-10 1 -20.5 1.5t-21.5 0.5q-79 0 -127.5 -60t-48.5 -174
q0 -46 17.5 -65.5t52.5 -19.5z" />
    <glyph glyph-name="guillemotleft" unicode="&#xab;" horiz-adv-x="626" 
d="M339 326l178 -122l-10 -73l-265 191l1 9l319 191l-10 -73zM119 326l178 -122l-10 -73l-265 191l1 9l316 191l-7 -73z" />
    <glyph glyph-name="logicalnot" unicode="&#xac;" horiz-adv-x="650" 
d="M111 300v81h427v-236h-81v155h-346z" />
    <glyph glyph-name="uni00AD" unicode="&#xad;" horiz-adv-x="405" 
d="M338 374l-9 -67h-266l9 67h266z" />
    <glyph glyph-name="registered" unicode="&#xae;" horiz-adv-x="449" 
d="M293 837q33 0 61.5 -12t49.5 -32.5t32.5 -49t11.5 -61.5q0 -41 -17 -78t-45.5 -65t-65.5 -44.5t-77 -16.5q-34 0 -63 12t-50 33t-32.5 49t-11.5 60q0 42 17 79t46 65t66 44.5t78 16.5zM289 807q-33 0 -64.5 -13.5t-55.5 -37t-38.5 -54.5t-14.5 -66q0 -27 10 -50.5
t27 -40.5t41 -27t53 -10q33 0 63.5 14t54.5 37t38 54t14 66q0 27 -9.5 50.5t-26.5 41t-40.5 27t-51.5 9.5zM291 762q38 0 54 -13.5t16 -36.5t-12 -42t-35 -26l33 -83h-47l-28 79h-43l-11 -79h-43l29 201h87zM234 669h49q17 0 26.5 10t9.5 24q0 25 -32 25h-45z" />
    <glyph glyph-name="macron" unicode="&#xaf;" horiz-adv-x="377" 
d="M383 712h-284l8 58h284z" />
    <glyph glyph-name="degree" unicode="&#xb0;" horiz-adv-x="353" 
d="M93 687q4 27 17 50.5t33 41t45 28t52 10.5q50 0 81.5 -32t31.5 -80q0 -29 -12.5 -56t-33 -47t-47.5 -32t-56 -12q-24 0 -44.5 8.5t-35.5 23.5t-23.5 35.5t-8.5 43.5v9q0 4 1 9zM141 687q-1 -4 -1 -11q0 -30 20 -50.5t52 -20.5q18 0 35 7.5t30 20.5t20.5 30t7.5 37
q0 30 -19.5 50t-50.5 20q-37 0 -63 -24.5t-31 -58.5z" />
    <glyph glyph-name="plusminus" unicode="&#xb1;" horiz-adv-x="650" 
d="M365 343v-166h-86v166h-177v78h177v178h86v-178h182v-78h-182zM101 67v69h443v-69h-443z" />
    <glyph glyph-name="uni00B2" unicode="&#xb2;" horiz-adv-x="354" 
d="M257 897q63 0 93 -25.5t30 -67.5q0 -35 -16.5 -65.5t-46 -59.5t-70.5 -59t-89 -63v-3h189l-8 -56h-276l6 45q48 38 90.5 71.5t74.5 64t51 58.5t19 55q0 20 -16 34.5t-55 14.5q-30 0 -58 -10.5t-54 -27.5l-10 52q30 18 67 30t79 12z" />
    <glyph glyph-name="uni00B3" unicode="&#xb3;" horiz-adv-x="354" 
d="M254 897q62 0 95 -22.5t33 -65.5q0 -42 -22.5 -66t-57.5 -35v-2q32 -8 48.5 -26t16.5 -48q0 -63 -45 -101t-130 -38q-41 0 -70 8t-55 24l23 50q23 -14 49.5 -22t59.5 -8q51 0 75.5 25t24.5 60q0 28 -25.5 40t-88.5 12l7 47q68 0 96 17.5t28 49.5q0 47 -73 47
q-35 0 -63 -9t-54 -27l-11 48q26 18 62.5 30t76.5 12z" />
    <glyph glyph-name="acute" unicode="&#xb4;" horiz-adv-x="399" 
d="M408 805l-134 -143h-76l92 143h118z" />
    <glyph glyph-name="uni00B5" unicode="&#xb5;" horiz-adv-x="621" 
d="M227 -7q-34 0 -64 13t-46 48h-2q-5 -53 -8.5 -102t-6.5 -97l-96 -8l105 748h96l-56 -400q-2 -9 -2 -17v-15q0 -45 22.5 -69t70.5 -24q31 0 62.5 11.5t57.5 33t44.5 52.5t23.5 69l50 359h96l-83 -593l-72 -6v94l-2 1q-33 -45 -82.5 -71.5t-107.5 -26.5z" />
    <glyph glyph-name="paragraph" unicode="&#xb6;" horiz-adv-x="666" 
d="M117 -151l91 645q-59 2 -94 29.5t-35 80.5q0 31 11.5 58t33 46.5t53 30.5t71.5 11h425l-16 -77h-76l-116 -824h-87l116 824h-174l-116 -824h-87z" />
    <glyph glyph-name="periodcentered" unicode="&#xb7;" horiz-adv-x="284" 
d="M149 402q55 0 55 -46q0 -33 -18 -52t-53 -19q-57 0 -57 44q0 35 18 54t55 19z" />
    <glyph glyph-name="cedilla" unicode="&#xb8;" horiz-adv-x="399" 
d="M139 5h66l-65 -196h-93z" />
    <glyph glyph-name="uni00B9" unicode="&#xb9;" horiz-adv-x="272" 
d="M227 498h-70l37 269q2 10 3.5 20.5t4.5 19.5l-2 2q-16 -12 -35 -22l-60 -34l2 59l129 82h46z" />
    <glyph glyph-name="ordmasculine" unicode="&#xba;" horiz-adv-x="458" 
d="M445 596q-9 -61 -25.5 -103.5t-42 -69.5t-61.5 -39t-84 -12q-81 0 -119.5 35t-38.5 118q0 32 6 71q9 61 26 103.5t43 69.5t62.5 39.5t83.5 12.5q81 0 118.5 -35t37.5 -117q0 -33 -6 -73zM167 596q-3 -20 -4 -36t-1 -30q0 -51 19 -71t60 -20q26 0 45 7.5t33.5 25.5
t24 48.5t15.5 75.5q3 20 4 36t1 30q0 51 -19 70.5t-60 19.5q-26 0 -45.5 -7.5t-33.5 -25.5t-23.5 -48t-15.5 -75z" />
    <glyph glyph-name="guillemotright" unicode="&#xbb;" horiz-adv-x="626" 
d="M51 204l211 122l-176 123l10 73l265 -191l-1 -9l-319 -191zM271 204l211 122l-176 123l10 73l265 -191l-1 -9l-319 -191z" />
    <glyph glyph-name="onequarter" unicode="&#xbc;" horiz-adv-x="930" 
d="M207 356h-70l37 269q2 10 3.5 20.5t4.5 19.5l-2 2q-16 -12 -35 -22l-60 -34l2 59l129 82h46zM777 750l-610 -750h-72l610 750h72zM827 82l-11 -82h-64l11 82h-207v40l231 272h84l-37 -260h47l-9 -52h-45zM797 295q3 19 8 41l-2 1q-6 -8 -13 -16.5t-13 -16.5l-115 -139
q-13 -17 -27 -29l1 -2h135z" />
    <glyph glyph-name="onehalf" unicode="&#xbd;" horiz-adv-x="915" 
d="M207 356h-70l37 269q2 10 3.5 20.5t4.5 19.5l-2 2q-16 -12 -35 -22l-60 -34l2 59l129 82h46zM777 750l-610 -750h-72l610 750h72zM748 399q63 0 93 -25.5t30 -67.5q0 -35 -16.5 -65.5t-46 -59.5t-70.5 -59t-89 -63v-3h189l-8 -56h-276l6 45q48 38 90.5 71.5t74.5 64
t51 58.5t19 55q0 20 -16 34.5t-55 14.5q-30 0 -58 -10.5t-54 -27.5l-10 52q30 18 67 30t79 12z" />
    <glyph glyph-name="threequarters" unicode="&#xbe;" horiz-adv-x="1012" 
d="M234 755q62 0 95 -22.5t33 -65.5q0 -42 -22.5 -66t-57.5 -35v-2q32 -8 48.5 -26t16.5 -48q0 -63 -45 -101t-130 -38q-41 0 -70 8t-55 24l23 50q23 -14 49.5 -22t59.5 -8q51 0 75.5 25t24.5 60q0 28 -25.5 40t-88.5 12l7 47q68 0 96 17.5t28 49.5q0 47 -73 47
q-35 0 -63 -9t-54 -27l-11 48q26 18 62.5 30t76.5 12zM859 750l-610 -750h-72l610 750h72zM909 82l-11 -82h-64l11 82h-207v40l231 272h84l-37 -260h47l-9 -52h-45zM879 295q3 19 8 41l-2 1q-6 -8 -13 -16.5t-13 -16.5l-115 -139q-13 -17 -27 -29l1 -2h135z" />
    <glyph glyph-name="questiondown" unicode="&#xbf;" horiz-adv-x="490" 
d="M192 -101q-97 0 -144 38t-47 107q0 48 15.5 88.5t43.5 74.5t68 63t90 54l24 137h78l-18 -170q-45 -26 -81.5 -50.5t-62.5 -50.5t-40 -55.5t-14 -65.5q0 -45 29.5 -65.5t82.5 -20.5q54 0 99.5 19t84.5 51l27 -72q-43 -36 -104.5 -59t-130.5 -23zM310 671q56 0 56 -41
q0 -32 -17.5 -49.5t-53.5 -17.5q-56 0 -56 43q0 65 71 65z" />
    <glyph glyph-name="Agrave" unicode="&#xc0;" horiz-adv-x="712" 
d="M492 185h-325l-88 -185h-111l380 750h125l172 -750h-118zM398 674q-3 -9 -7 -18.5t-9 -18.5l-178 -373h273l-71 370q-2 11 -3.5 20.5t-2.5 19.5h-2zM380 796l-103 116h120l64 -116h-81z" />
    <glyph glyph-name="Aacute" unicode="&#xc1;" horiz-adv-x="712" 
d="M492 185h-325l-88 -185h-111l380 750h125l172 -750h-118zM398 674q-3 -9 -7 -18.5t-9 -18.5l-178 -373h273l-71 370q-2 11 -3.5 20.5t-2.5 19.5h-2zM588 912l-146 -116h-81l97 116h130z" />
    <glyph glyph-name="Acircumflex" unicode="&#xc2;" horiz-adv-x="712" 
d="M492 185h-325l-88 -185h-111l380 750h125l172 -750h-118zM398 674q-3 -9 -7 -18.5t-9 -18.5l-178 -373h273l-71 370q-2 11 -3.5 20.5t-2.5 19.5h-2zM474 913l99 -117h-91l-63 80l-87 -80h-90l129 117h103z" />
    <glyph glyph-name="Atilde" unicode="&#xc3;" horiz-adv-x="712" 
d="M492 185h-325l-88 -185h-111l380 750h125l172 -750h-118zM398 674q-3 -9 -7 -18.5t-9 -18.5l-178 -373h273l-71 370q-2 11 -3.5 20.5t-2.5 19.5h-2zM271 798q10 46 36 75t66 29q22 0 38.5 -10t30.5 -21.5t26 -21.5t26 -10q31 0 45 49h46q-10 -47 -35.5 -75.5t-65.5 -28.5
q-21 0 -37.5 9.5t-30.5 21.5t-27 21.5t-26 9.5q-15 0 -25.5 -13.5t-18.5 -34.5h-48z" />
    <glyph glyph-name="Adieresis" unicode="&#xc4;" horiz-adv-x="712" 
d="M492 185h-325l-88 -185h-111l380 750h125l172 -750h-118zM398 674q-3 -9 -7 -18.5t-9 -18.5l-178 -373h273l-71 370q-2 11 -3.5 20.5t-2.5 19.5h-2zM332 892q41 0 41 -35q0 -26 -14 -40t-40 -14q-40 0 -40 32q0 27 13.5 42t39.5 15zM525 892q41 0 41 -35q0 -26 -14 -40
t-40 -14q-41 0 -41 32q0 27 14 42t40 15z" />
    <glyph glyph-name="Aring" unicode="&#xc5;" horiz-adv-x="712" 
d="M427 885q47 0 69.5 -18t22.5 -49q0 -54 -44 -79l170 -739h-118l-35 185h-325l-88 -185h-111l374 737q-26 16 -26 51q0 42 26.5 69.5t84.5 27.5zM398 674q-3 -9 -7 -18.5t-9 -18.5l-178 -373h273l-71 370q-2 11 -3.5 20.5t-2.5 19.5h-2zM423 842q-29 0 -42 -13.5
t-13 -35.5q0 -14 10 -21.5t34 -7.5q26 0 40 12t14 33q0 15 -10 24t-33 9z" />
    <glyph glyph-name="AE" unicode="&#xc6;" horiz-adv-x="1057" 
d="M665 665l-10 -236h297l-11 -77h-289l-12 -268h331l-13 -84h-426l8 185h-302l-121 -185h-125l522 750h538l-9 -85h-378zM563 681q-4 -8 -10 -17l-12 -18l-251 -382h254l17 375q1 11 1.5 20.5t2.5 20.5z" />
    <glyph glyph-name="Ccedilla" unicode="&#xc7;" horiz-adv-x="607" 
d="M291 -12q-121 9 -179 76.5t-58 201.5q0 53 9 116q28 195 120 287.5t263 92.5q23 0 47 -2.5t46 -7t41.5 -11t34.5 -13.5l-24 -83q-27 14 -66.5 23t-84.5 9q-60 0 -105 -15t-77 -49.5t-53 -91t-33 -139.5q-9 -63 -9 -112q0 -56 12 -93.5t36 -61t60.5 -33.5t85.5 -10
q46 0 86 9.5t75 26.5l2 -78q-32 -16 -74.5 -27.5t-86.5 -14.5l-59 -179h-93z" />
    <glyph glyph-name="Egrave" unicode="&#xc8;" horiz-adv-x="624" 
d="M540 84l-14 -84h-480l105 750h463l-9 -85h-361l-33 -235h309l-11 -78h-309l-38 -268h378zM367 796l-103 116h120l64 -116h-81z" />
    <glyph glyph-name="Eacute" unicode="&#xc9;" horiz-adv-x="624" 
d="M540 84l-14 -84h-480l105 750h463l-9 -85h-361l-33 -235h309l-11 -78h-309l-38 -268h378zM552 912l-146 -116h-81l97 116h130z" />
    <glyph glyph-name="Ecircumflex" unicode="&#xca;" horiz-adv-x="624" 
d="M540 84l-14 -84h-480l105 750h463l-9 -85h-361l-33 -235h309l-11 -78h-309l-38 -268h378zM461 913l99 -117h-91l-63 80l-87 -80h-90l129 117h103z" />
    <glyph glyph-name="Edieresis" unicode="&#xcb;" horiz-adv-x="624" 
d="M540 84l-14 -84h-480l105 750h463l-9 -85h-361l-33 -235h309l-11 -78h-309l-38 -268h378zM308 892q41 0 41 -35q0 -26 -14 -40t-40 -14q-40 0 -40 32q0 27 13.5 42t39.5 15zM501 892q41 0 41 -35q0 -26 -14 -40t-40 -14q-41 0 -41 32q0 27 14 42t40 15z" />
    <glyph glyph-name="Igrave" unicode="&#xcc;" horiz-adv-x="324" 
d="M164 750h107l-105 -750h-107zM197 796l-103 116h120l64 -116h-81z" />
    <glyph glyph-name="Iacute" unicode="&#xcd;" horiz-adv-x="324" 
d="M164 750h107l-105 -750h-107zM397 912l-146 -116h-81l97 116h130z" />
    <glyph glyph-name="Icircumflex" unicode="&#xce;" horiz-adv-x="324" 
d="M164 750h107l-105 -750h-107zM292 913l99 -117h-91l-63 80l-87 -80h-90l129 117h103z" />
    <glyph glyph-name="Idieresis" unicode="&#xcf;" horiz-adv-x="324" 
d="M164 750h107l-105 -750h-107zM141 892q41 0 41 -35q0 -26 -14 -40t-40 -14q-40 0 -40 32q0 27 13.5 42t39.5 15zM334 892q41 0 41 -35q0 -26 -14 -40t-40 -14q-41 0 -41 32q0 27 14 42t40 15z" />
    <glyph glyph-name="Eth" unicode="&#xd0;" horiz-adv-x="746" 
d="M418 750q145 0 213 -61.5t68 -199.5q0 -50 -9 -111q-15 -102 -45 -174t-76.5 -117.5t-110 -66t-144.5 -20.5h-260l50 362h-71l9 61h71l46 327h259zM218 423h104l-9 -61h-104l-38 -275h153q55 0 97.5 12.5t73.5 45.5t52 89.5t33 143.5q5 30 6.5 56.5t1.5 49.5
q0 51 -11 85.5t-33.5 55.5t-57 29.5t-81.5 8.5h-153z" />
    <glyph glyph-name="Ntilde" unicode="&#xd1;" horiz-adv-x="759" 
d="M538 0l-316 593h-2q-1 -10 -1.5 -20.5t-2.5 -20.5l-77 -552h-93l105 750h95l300 -573h2q0 21 3 41l74 532h93l-105 -750h-75zM291 798q10 46 36 75t66 29q22 0 38.5 -10t30.5 -21.5t26 -21.5t26 -10q31 0 45 49h46q-10 -47 -35.5 -75.5t-65.5 -28.5q-21 0 -37.5 9.5
t-30.5 21.5t-27 21.5t-26 9.5q-15 0 -25.5 -13.5t-18.5 -34.5h-48z" />
    <glyph glyph-name="Ograve" unicode="&#xd2;" horiz-adv-x="743" 
d="M685 375q-15 -104 -42 -177.5t-71 -120.5t-106 -69t-146 -22q-140 0 -204 62.5t-64 202.5q0 28 2.5 58.5t7.5 65.5q14 103 41.5 176.5t72 120t107 68.5t146.5 22q139 0 202.5 -61.5t63.5 -198.5q0 -29 -2.5 -60.5t-7.5 -66.5zM576 375q5 37 8 68.5t3 57.5q0 51 -10 84.5
t-31 54t-53 29t-76 8.5q-55 0 -95.5 -13.5t-70 -48t-48.5 -93t-32 -147.5q-5 -36 -7.5 -66.5t-2.5 -56.5q0 -52 10.5 -86.5t31.5 -55.5t53 -29.5t76 -8.5q55 0 95 14t69 48.5t48.5 93t31.5 147.5zM416 796l-103 116h120l64 -116h-81z" />
    <glyph glyph-name="Oacute" unicode="&#xd3;" horiz-adv-x="743" 
d="M685 375q-15 -104 -42 -177.5t-71 -120.5t-106 -69t-146 -22q-140 0 -204 62.5t-64 202.5q0 28 2.5 58.5t7.5 65.5q14 103 41.5 176.5t72 120t107 68.5t146.5 22q139 0 202.5 -61.5t63.5 -198.5q0 -29 -2.5 -60.5t-7.5 -66.5zM576 375q5 37 8 68.5t3 57.5q0 51 -10 84.5
t-31 54t-53 29t-76 8.5q-55 0 -95.5 -13.5t-70 -48t-48.5 -93t-32 -147.5q-5 -36 -7.5 -66.5t-2.5 -56.5q0 -52 10.5 -86.5t31.5 -55.5t53 -29.5t76 -8.5q55 0 95 14t69 48.5t48.5 93t31.5 147.5zM597 912l-146 -116h-81l97 116h130z" />
    <glyph glyph-name="Ocircumflex" unicode="&#xd4;" horiz-adv-x="743" 
d="M685 375q-15 -104 -42 -177.5t-71 -120.5t-106 -69t-146 -22q-140 0 -204 62.5t-64 202.5q0 28 2.5 58.5t7.5 65.5q14 103 41.5 176.5t72 120t107 68.5t146.5 22q139 0 202.5 -61.5t63.5 -198.5q0 -29 -2.5 -60.5t-7.5 -66.5zM576 375q5 37 8 68.5t3 57.5q0 51 -10 84.5
t-31 54t-53 29t-76 8.5q-55 0 -95.5 -13.5t-70 -48t-48.5 -93t-32 -147.5q-5 -36 -7.5 -66.5t-2.5 -56.5q0 -52 10.5 -86.5t31.5 -55.5t53 -29.5t76 -8.5q55 0 95 14t69 48.5t48.5 93t31.5 147.5zM502 913l99 -117h-91l-63 80l-87 -80h-90l129 117h103z" />
    <glyph glyph-name="Otilde" unicode="&#xd5;" horiz-adv-x="743" 
d="M685 375q-15 -104 -42 -177.5t-71 -120.5t-106 -69t-146 -22q-140 0 -204 62.5t-64 202.5q0 28 2.5 58.5t7.5 65.5q14 103 41.5 176.5t72 120t107 68.5t146.5 22q139 0 202.5 -61.5t63.5 -198.5q0 -29 -2.5 -60.5t-7.5 -66.5zM576 375q5 37 8 68.5t3 57.5q0 51 -10 84.5
t-31 54t-53 29t-76 8.5q-55 0 -95.5 -13.5t-70 -48t-48.5 -93t-32 -147.5q-5 -36 -7.5 -66.5t-2.5 -56.5q0 -52 10.5 -86.5t31.5 -55.5t53 -29.5t76 -8.5q55 0 95 14t69 48.5t48.5 93t31.5 147.5zM273 798q10 46 36 75t66 29q22 0 38.5 -10t30.5 -21.5t26 -21.5t26 -10
q31 0 45 49h46q-10 -47 -35.5 -75.5t-65.5 -28.5q-21 0 -37.5 9.5t-30.5 21.5t-27 21.5t-26 9.5q-15 0 -25.5 -13.5t-18.5 -34.5h-48z" />
    <glyph glyph-name="Odieresis" unicode="&#xd6;" horiz-adv-x="743" 
d="M685 375q-15 -104 -42 -177.5t-71 -120.5t-106 -69t-146 -22q-140 0 -204 62.5t-64 202.5q0 28 2.5 58.5t7.5 65.5q14 103 41.5 176.5t72 120t107 68.5t146.5 22q139 0 202.5 -61.5t63.5 -198.5q0 -29 -2.5 -60.5t-7.5 -66.5zM576 375q5 37 8 68.5t3 57.5q0 51 -10 84.5
t-31 54t-53 29t-76 8.5q-55 0 -95.5 -13.5t-70 -48t-48.5 -93t-32 -147.5q-5 -36 -7.5 -66.5t-2.5 -56.5q0 -52 10.5 -86.5t31.5 -55.5t53 -29.5t76 -8.5q55 0 95 14t69 48.5t48.5 93t31.5 147.5zM351 892q41 0 41 -35q0 -26 -14 -40t-40 -14q-40 0 -40 32q0 27 13.5 42
t39.5 15zM544 892q41 0 41 -35q0 -26 -14 -40t-40 -14q-41 0 -41 32q0 27 14 42t40 15z" />
    <glyph glyph-name="multiply" unicode="&#xd7;" 
d="M446 131l-147 147l-148 -147l-56 56l147 148l-148 147l57 57l148 -148l147 148l57 -57l-148 -147l146 -148z" />
    <glyph glyph-name="Oslash" unicode="&#xd8;" horiz-adv-x="743" 
d="M3 31l73 78q-23 55 -23 142q0 28 2 58.5t7 65.5q14 103 41.5 176.5t72 120t107 68.5t146.5 22q77 0 129 -18t84 -56l72 73l46 -46l-84 -85q19 -51 19 -130q0 -28 -2.5 -59t-7.5 -66q-15 -104 -42.5 -177.5t-71 -120.5t-105.5 -69t-146 -22q-145 0 -208 67l-63 -68z
M174 375q-5 -35 -7.5 -64.5t-2.5 -55.5q0 -17 1 -33t3 -30l397 414q-19 37 -55.5 51.5t-93.5 14.5q-54 0 -94 -13.5t-69 -47.5t-48 -91.5t-31 -144.5zM574 375q5 35 7.5 65t2.5 56q0 14 -0.5 29t-0.5 23l-395 -411q20 -33 55 -46.5t89 -13.5q55 0 95 14t68.5 48t47.5 91.5
t31 144.5z" />
    <glyph glyph-name="Ugrave" unicode="&#xd9;" horiz-adv-x="737" 
d="M643 271q-21 -149 -104 -217t-222 -68q-122 0 -187 52.5t-65 166.5q0 15 1.5 31.5t3.5 34.5l67 479h104l-68 -482q-2 -14 -3 -26.5t-1 -23.5q0 -75 39.5 -110t120.5 -35q94 0 144.5 46.5t64.5 148.5l68 482h104zM408 796l-103 116h120l64 -116h-81z" />
    <glyph glyph-name="Uacute" unicode="&#xda;" horiz-adv-x="737" 
d="M643 271q-21 -149 -104 -217t-222 -68q-122 0 -187 52.5t-65 166.5q0 15 1.5 31.5t3.5 34.5l67 479h104l-68 -482q-2 -14 -3 -26.5t-1 -23.5q0 -75 39.5 -110t120.5 -35q94 0 144.5 46.5t64.5 148.5l68 482h104zM593 912l-146 -116h-81l97 116h130z" />
    <glyph glyph-name="Ucircumflex" unicode="&#xdb;" horiz-adv-x="737" 
d="M643 271q-21 -149 -104 -217t-222 -68q-122 0 -187 52.5t-65 166.5q0 15 1.5 31.5t3.5 34.5l67 479h104l-68 -482q-2 -14 -3 -26.5t-1 -23.5q0 -75 39.5 -110t120.5 -35q94 0 144.5 46.5t64.5 148.5l68 482h104zM497 913l99 -117h-91l-63 80l-87 -80h-90l129 117h103z
" />
    <glyph glyph-name="Udieresis" unicode="&#xdc;" horiz-adv-x="737" 
d="M643 271q-21 -149 -104 -217t-222 -68q-122 0 -187 52.5t-65 166.5q0 15 1.5 31.5t3.5 34.5l67 479h104l-68 -482q-2 -14 -3 -26.5t-1 -23.5q0 -75 39.5 -110t120.5 -35q94 0 144.5 46.5t64.5 148.5l68 482h104zM347 892q41 0 41 -35q0 -26 -14 -40t-40 -14q-40 0 -40 32
q0 27 13.5 42t39.5 15zM540 892q41 0 41 -35q0 -26 -14 -40t-40 -14q-41 0 -41 32q0 27 14 42t40 15z" />
    <glyph glyph-name="Yacute" unicode="&#xdd;" horiz-adv-x="672" 
d="M195 750l129 -364q3 -10 6.5 -20t5.5 -19h2q4 8 9.5 17.5t10.5 17.5l233 368h116l-331 -494l-35 -256h-107l35 256l-193 494h119zM563 912l-146 -116h-81l97 116h130z" />
    <glyph glyph-name="Thorn" unicode="&#xde;" horiz-adv-x="653" 
d="M364 618q133 0 193.5 -42.5t60.5 -136.5q0 -13 -1 -26.5t-3 -27.5q-8 -58 -29.5 -101.5t-59.5 -72.5t-93.5 -43.5t-132.5 -14.5h-127l-21 -153h-105l105 750h105l-19 -132h127zM182 232h128q46 0 80 7.5t58 25t38.5 47t20.5 74.5q3 21 3 38q0 62 -37.5 86.5t-119.5 24.5
h-128z" />
    <glyph glyph-name="germandbls" unicode="&#xdf;" horiz-adv-x="636" 
d="M108 504q17 125 85.5 192t186.5 67q37 0 67.5 -9.5t52 -26t33 -39t11.5 -49.5q0 -43 -24.5 -75.5t-54.5 -58t-54.5 -45.5t-24.5 -37q0 -12 14 -23t34.5 -23.5t44.5 -28t44.5 -36t34.5 -47t14 -61.5q0 -49 -20 -88.5t-54 -67t-80 -42.5t-98 -15q-38 0 -80 9.5t-68 30.5
l18 80q22 -18 55.5 -28t70.5 -10q31 0 59.5 7.5t49.5 22.5t33.5 37t12.5 52q0 28 -14 48.5t-35.5 37.5t-46.5 31.5t-46.5 29t-35.5 31t-14 37.5q0 30 26.5 56t58.5 51.5t58.5 52.5t26.5 61q0 26 -22 42t-61 16q-135 0 -159 -173l-59 -418q-9 -63 -30 -107.5t-53.5 -74
t-76 -45t-97.5 -21.5l2 67q36 6 62.5 17.5t45.5 32t31.5 52t18.5 78.5z" />
    <glyph glyph-name="agrave" unicode="&#xe0;" horiz-adv-x="601" 
d="M391 604q25 0 45 -1.5t37.5 -3t34.5 -3t37 -1.5h13l-83 -595h-76v84l-2 1q-38 -48 -88.5 -71.5t-108.5 -23.5q-85 0 -128 46t-43 149q0 96 25.5 173t72.5 132t114 84.5t150 29.5zM232 67q70 0 119 50.5t62 138.5l38 266q-17 2 -33.5 3.5t-37.5 1.5q-103 0 -165.5 -65
t-80.5 -194q-6 -44 -6 -76q0 -69 26 -97t78 -28zM385 662l-90 143h117l48 -143h-75z" />
    <glyph glyph-name="aacute" unicode="&#xe1;" horiz-adv-x="601" 
d="M391 604q25 0 45 -1.5t37.5 -3t34.5 -3t37 -1.5h13l-83 -595h-76v84l-2 1q-38 -48 -88.5 -71.5t-108.5 -23.5q-85 0 -128 46t-43 149q0 96 25.5 173t72.5 132t114 84.5t150 29.5zM232 67q70 0 119 50.5t62 138.5l38 266q-17 2 -33.5 3.5t-37.5 1.5q-103 0 -165.5 -65
t-80.5 -194q-6 -44 -6 -76q0 -69 26 -97t78 -28zM546 805l-134 -143h-76l92 143h118z" />
    <glyph glyph-name="acircumflex" unicode="&#xe2;" horiz-adv-x="601" 
d="M391 604q25 0 45 -1.5t37.5 -3t34.5 -3t37 -1.5h13l-83 -595h-76v84l-2 1q-38 -48 -88.5 -71.5t-108.5 -23.5q-85 0 -128 46t-43 149q0 96 25.5 173t72.5 132t114 84.5t150 29.5zM232 67q70 0 119 50.5t62 138.5l38 266q-17 2 -33.5 3.5t-37.5 1.5q-103 0 -165.5 -65
t-80.5 -194q-6 -44 -6 -76q0 -69 26 -97t78 -28zM436 805l85 -143h-75l-58 105l-86 -105h-74l122 143h86z" />
    <glyph glyph-name="atilde" unicode="&#xe3;" horiz-adv-x="601" 
d="M391 604q25 0 45 -1.5t37.5 -3t34.5 -3t37 -1.5h13l-83 -595h-76v84l-2 1q-38 -48 -88.5 -71.5t-108.5 -23.5q-85 0 -128 46t-43 149q0 96 25.5 173t72.5 132t114 84.5t150 29.5zM232 67q70 0 119 50.5t62 138.5l38 266q-17 2 -33.5 3.5t-37.5 1.5q-103 0 -165.5 -65
t-80.5 -194q-6 -44 -6 -76q0 -69 26 -97t78 -28zM460 672q-22 0 -37.5 10.5t-28 23t-23.5 23t-25 10.5q-16 0 -26.5 -14.5t-18.5 -42.5h-56q11 54 39.5 85t66.5 31q22 0 37.5 -10.5t28 -23t23.5 -23t25 -10.5q28 0 45 57h56q-12 -54 -40 -85t-66 -31z" />
    <glyph glyph-name="adieresis" unicode="&#xe4;" horiz-adv-x="601" 
d="M391 604q25 0 45 -1.5t37.5 -3t34.5 -3t37 -1.5h13l-83 -595h-76v84l-2 1q-38 -48 -88.5 -71.5t-108.5 -23.5q-85 0 -128 46t-43 149q0 96 25.5 173t72.5 132t114 84.5t150 29.5zM232 67q70 0 119 50.5t62 138.5l38 266q-17 2 -33.5 3.5t-37.5 1.5q-103 0 -165.5 -65
t-80.5 -194q-6 -44 -6 -76q0 -69 26 -97t78 -28zM323 797q41 0 41 -36q0 -29 -14 -42.5t-40 -13.5q-20 0 -30.5 7.5t-10.5 25.5q0 28 14 43.5t40 15.5zM485 797q41 0 41 -36q0 -29 -14 -42.5t-40 -13.5q-20 0 -31 7.5t-11 26.5q0 27 14.5 42.5t40.5 15.5z" />
    <glyph glyph-name="aring" unicode="&#xe5;" horiz-adv-x="601" 
d="M391 604q25 0 45 -1.5t37.5 -3t34.5 -3t37 -1.5h13l-83 -595h-76v84l-2 1q-38 -48 -88.5 -71.5t-108.5 -23.5q-85 0 -128 46t-43 149q0 96 25.5 173t72.5 132t114 84.5t150 29.5zM232 67q70 0 119 50.5t62 138.5l38 266q-17 2 -33.5 3.5t-37.5 1.5q-103 0 -165.5 -65
t-80.5 -194q-6 -44 -6 -76q0 -69 26 -97t78 -28zM394 824q46 0 69.5 -19t23.5 -49q0 -43 -30.5 -67t-84.5 -24q-45 0 -68.5 16.5t-23.5 49.5q0 42 29 67.5t85 25.5zM390 786q-29 0 -44.5 -14.5t-15.5 -34.5q0 -16 11 -25.5t37 -9.5q27 0 43.5 12.5t16.5 35.5q0 16 -11.5 26
t-36.5 10z" />
    <glyph glyph-name="ae" unicode="&#xe6;" horiz-adv-x="898" 
d="M385 604q49 0 84.5 -7t63.5 -15l-6 -48l2 -1q63 72 180 72q83 0 125 -34.5t42 -91.5q0 -42 -20 -78.5t-63.5 -65t-113.5 -49t-169 -32.5q-1 -11 -1.5 -21t-0.5 -20q0 -41 8.5 -69t25.5 -45t41.5 -24t56.5 -7q97 0 161 55l27 -58q-38 -34 -92 -54.5t-123 -20.5
q-74 0 -120.5 33t-60.5 110h-2q-36 -73 -97.5 -108t-134.5 -35q-84 0 -126.5 45.5t-42.5 147.5q0 103 27 182t74.5 132t112.5 80t142 27zM232 67q34 0 64 12.5t54 35.5t40 56.5t22 75.5l39 277q-16 2 -33 4t-37 2q-58 0 -104.5 -22t-79.5 -64.5t-50.5 -105.5t-17.5 -144
q0 -70 25 -98.5t78 -28.5zM704 533q-74 0 -119.5 -50t-65.5 -161q78 9 130 24t83 33.5t44 41t13 48.5q0 28 -20 46t-65 18z" />
    <glyph glyph-name="ccedilla" unicode="&#xe7;" horiz-adv-x="492" 
d="M208 -9q-83 5 -129 56.5t-46 161.5q0 20 1.5 43t5.5 48q21 153 95.5 229t197.5 76q45 0 81 -8.5t68 -27.5l-36 -68q-26 12 -50.5 17.5t-59.5 5.5q-83 0 -132.5 -54.5t-65.5 -174.5q-6 -47 -6 -81q0 -83 33 -115t92 -32q43 0 76.5 14t62.5 40l26 -58q-61 -58 -145 -70
l-61 -184h-93z" />
    <glyph glyph-name="egrave" unicode="&#xe8;" horiz-adv-x="518" 
d="M330 605q42 0 73.5 -9t52 -25.5t31 -39t10.5 -48.5q0 -45 -20 -81.5t-63.5 -65t-113.5 -48.5t-170 -32q-1 -11 -1.5 -21t-0.5 -20q0 -83 34 -115t99 -32q95 0 161 55l26 -58q-38 -34 -92 -54.5t-122 -20.5q-46 0 -83 12t-63.5 38.5t-40.5 68.5t-14 102q0 20 1.5 42.5
t5.5 46.5q21 152 94 228.5t196 76.5zM319 532q-76 0 -119 -52t-61 -158q76 9 128 23t83.5 33t45.5 42t14 49q0 27 -22 45t-69 18zM316 662l-90 143h117l48 -143h-75z" />
    <glyph glyph-name="eacute" unicode="&#xe9;" horiz-adv-x="518" 
d="M330 605q42 0 73.5 -9t52 -25.5t31 -39t10.5 -48.5q0 -45 -20 -81.5t-63.5 -65t-113.5 -48.5t-170 -32q-1 -11 -1.5 -21t-0.5 -20q0 -83 34 -115t99 -32q95 0 161 55l26 -58q-38 -34 -92 -54.5t-122 -20.5q-46 0 -83 12t-63.5 38.5t-40.5 68.5t-14 102q0 20 1.5 42.5
t5.5 46.5q21 152 94 228.5t196 76.5zM319 532q-76 0 -119 -52t-61 -158q76 9 128 23t83.5 33t45.5 42t14 49q0 27 -22 45t-69 18zM486 805l-134 -143h-76l92 143h118z" />
    <glyph glyph-name="ecircumflex" unicode="&#xea;" horiz-adv-x="518" 
d="M330 605q42 0 73.5 -9t52 -25.5t31 -39t10.5 -48.5q0 -45 -20 -81.5t-63.5 -65t-113.5 -48.5t-170 -32q-1 -11 -1.5 -21t-0.5 -20q0 -83 34 -115t99 -32q95 0 161 55l26 -58q-38 -34 -92 -54.5t-122 -20.5q-46 0 -83 12t-63.5 38.5t-40.5 68.5t-14 102q0 20 1.5 42.5
t5.5 46.5q21 152 94 228.5t196 76.5zM319 532q-76 0 -119 -52t-61 -158q76 9 128 23t83.5 33t45.5 42t14 49q0 27 -22 45t-69 18zM389 805l85 -143h-75l-58 105l-86 -105h-74l122 143h86z" />
    <glyph glyph-name="edieresis" unicode="&#xeb;" horiz-adv-x="518" 
d="M330 605q42 0 73.5 -9t52 -25.5t31 -39t10.5 -48.5q0 -45 -20 -81.5t-63.5 -65t-113.5 -48.5t-170 -32q-1 -11 -1.5 -21t-0.5 -20q0 -83 34 -115t99 -32q95 0 161 55l26 -58q-38 -34 -92 -54.5t-122 -20.5q-46 0 -83 12t-63.5 38.5t-40.5 68.5t-14 102q0 20 1.5 42.5
t5.5 46.5q21 152 94 228.5t196 76.5zM319 532q-76 0 -119 -52t-61 -158q76 9 128 23t83.5 33t45.5 42t14 49q0 27 -22 45t-69 18zM261 797q41 0 41 -36q0 -29 -14 -42.5t-40 -13.5q-20 0 -30.5 7.5t-10.5 25.5q0 28 14 43.5t40 15.5zM423 797q41 0 41 -36q0 -29 -14 -42.5
t-40 -13.5q-20 0 -31 7.5t-11 26.5q0 27 14.5 42.5t40.5 15.5z" />
    <glyph glyph-name="igrave" unicode="&#xec;" horiz-adv-x="270" 
d="M37 0l83 592l98 5l-83 -597h-98zM150 662l-90 143h117l48 -143h-75z" />
    <glyph glyph-name="iacute" unicode="&#xed;" horiz-adv-x="270" 
d="M37 0l83 592l98 5l-83 -597h-98zM347 805l-134 -143h-76l92 143h118z" />
    <glyph glyph-name="icircumflex" unicode="&#xee;" horiz-adv-x="270" 
d="M37 0l83 592l98 5l-83 -597h-98zM243 805l85 -143h-75l-58 105l-86 -105h-74l122 143h86z" />
    <glyph glyph-name="idieresis" unicode="&#xef;" horiz-adv-x="270" 
d="M37 0l83 592l98 5l-83 -597h-98zM117 797q41 0 41 -36q0 -29 -14 -42.5t-40 -13.5q-20 0 -30.5 7.5t-10.5 25.5q0 28 14 43.5t40 15.5zM279 797q41 0 41 -36q0 -29 -14 -42.5t-40 -13.5q-20 0 -31 7.5t-11 26.5q0 27 14.5 42.5t40.5 15.5z" />
    <glyph glyph-name="eth" unicode="&#xf0;" horiz-adv-x="615" 
d="M431 709q60 -64 98 -147t38 -176q0 -13 -1 -26.5t-3 -27.5q-13 -93 -37 -158t-61 -105.5t-88.5 -59t-118.5 -18.5q-54 0 -96 10t-71.5 34.5t-45 65t-15.5 100.5q0 20 2 41t5 44q20 143 86 211.5t187 68.5q83 0 138 -38l2 1q-32 76 -88 135l-95 -63l-33 36l92 61
q-20 17 -42 32.5t-46 29.5l73 45q43 -25 84 -61l91 61l30 -40zM323 489q-42 0 -73 -11.5t-53.5 -36t-36.5 -64t-22 -94.5q-6 -44 -6 -76q0 -41 9 -68t26 -43.5t41.5 -23t56.5 -6.5q81 0 127.5 56.5t65.5 187.5q3 24 3 45q0 66 -33.5 100t-104.5 34z" />
    <glyph glyph-name="ntilde" unicode="&#xf1;" horiz-adv-x="604" 
d="M442 374q2 14 3 27.5t1 24.5q0 54 -23.5 76t-71.5 22q-71 0 -120 -48t-61 -134l-48 -342h-97l83 592l77 6l1 -44v-20q0 -10 -1 -20l2 -1q35 45 85.5 68.5t112.5 23.5q159 0 159 -164q0 -14 -1.5 -30.5t-3.5 -33.5l-52 -377h-97zM416 672q-22 0 -37.5 10.5t-28 23
t-23.5 23t-25 10.5q-16 0 -26.5 -14.5t-18.5 -42.5h-56q11 54 39.5 85t66.5 31q22 0 37.5 -10.5t28 -23t23.5 -23t25 -10.5q28 0 45 57h56q-12 -54 -40 -85t-66 -31z" />
    <glyph glyph-name="ograve" unicode="&#xf2;" horiz-adv-x="587" 
d="M318 528q-39 0 -68.5 -12t-51 -39t-36.5 -71.5t-24 -110.5q-4 -28 -6 -52t-2 -44q0 -77 29.5 -106t91.5 -29q39 0 69 12t52 39.5t37 72.5t24 111q4 26 5.5 49t1.5 43q0 78 -29.5 107.5t-92.5 29.5zM331 605q110 0 159 -49.5t49 -158.5q0 -23 -2 -48t-6 -53
q-11 -79 -33 -137t-57.5 -95.5t-85 -55.5t-116.5 -18q-109 0 -158.5 49.5t-49.5 157.5q0 23 2 48t6 54q11 79 33 137t57 95.5t85 55.5t117 18zM323 662l-90 143h117l48 -143h-75z" />
    <glyph glyph-name="oacute" unicode="&#xf3;" horiz-adv-x="587" 
d="M318 528q-39 0 -68.5 -12t-51 -39t-36.5 -71.5t-24 -110.5q-4 -28 -6 -52t-2 -44q0 -77 29.5 -106t91.5 -29q39 0 69 12t52 39.5t37 72.5t24 111q4 26 5.5 49t1.5 43q0 78 -29.5 107.5t-92.5 29.5zM331 605q110 0 159 -49.5t49 -158.5q0 -23 -2 -48t-6 -53
q-11 -79 -33 -137t-57.5 -95.5t-85 -55.5t-116.5 -18q-109 0 -158.5 49.5t-49.5 157.5q0 23 2 48t6 54q11 79 33 137t57 95.5t85 55.5t117 18zM490 805l-134 -143h-76l92 143h118z" />
    <glyph glyph-name="ocircumflex" unicode="&#xf4;" horiz-adv-x="587" 
d="M318 528q-39 0 -68.5 -12t-51 -39t-36.5 -71.5t-24 -110.5q-4 -28 -6 -52t-2 -44q0 -77 29.5 -106t91.5 -29q39 0 69 12t52 39.5t37 72.5t24 111q4 26 5.5 49t1.5 43q0 78 -29.5 107.5t-92.5 29.5zM331 605q110 0 159 -49.5t49 -158.5q0 -23 -2 -48t-6 -53
q-11 -79 -33 -137t-57.5 -95.5t-85 -55.5t-116.5 -18q-109 0 -158.5 49.5t-49.5 157.5q0 23 2 48t6 54q11 79 33 137t57 95.5t85 55.5t117 18zM402 805l85 -143h-75l-58 105l-86 -105h-74l122 143h86z" />
    <glyph glyph-name="otilde" unicode="&#xf5;" horiz-adv-x="587" 
d="M318 528q-39 0 -68.5 -12t-51 -39t-36.5 -71.5t-24 -110.5q-4 -28 -6 -52t-2 -44q0 -77 29.5 -106t91.5 -29q39 0 69 12t52 39.5t37 72.5t24 111q4 26 5.5 49t1.5 43q0 78 -29.5 107.5t-92.5 29.5zM331 605q110 0 159 -49.5t49 -158.5q0 -23 -2 -48t-6 -53
q-11 -79 -33 -137t-57.5 -95.5t-85 -55.5t-116.5 -18q-109 0 -158.5 49.5t-49.5 157.5q0 23 2 48t6 54q11 79 33 137t57 95.5t85 55.5t117 18zM408 672q-22 0 -37.5 10.5t-28 23t-23.5 23t-25 10.5q-16 0 -26.5 -14.5t-18.5 -42.5h-56q11 54 39.5 85t66.5 31
q22 0 37.5 -10.5t28 -23t23.5 -23t25 -10.5q28 0 45 57h56q-12 -54 -40 -85t-66 -31z" />
    <glyph glyph-name="odieresis" unicode="&#xf6;" horiz-adv-x="587" 
d="M318 528q-39 0 -68.5 -12t-51 -39t-36.5 -71.5t-24 -110.5q-4 -28 -6 -52t-2 -44q0 -77 29.5 -106t91.5 -29q39 0 69 12t52 39.5t37 72.5t24 111q4 26 5.5 49t1.5 43q0 78 -29.5 107.5t-92.5 29.5zM331 605q110 0 159 -49.5t49 -158.5q0 -23 -2 -48t-6 -53
q-11 -79 -33 -137t-57.5 -95.5t-85 -55.5t-116.5 -18q-109 0 -158.5 49.5t-49.5 157.5q0 23 2 48t6 54q11 79 33 137t57 95.5t85 55.5t117 18zM275 797q41 0 41 -36q0 -29 -14 -42.5t-40 -13.5q-20 0 -30.5 7.5t-10.5 25.5q0 28 14 43.5t40 15.5zM437 797q41 0 41 -36
q0 -29 -14 -42.5t-40 -13.5q-20 0 -31 7.5t-11 26.5q0 27 14.5 42.5t40.5 15.5z" />
    <glyph glyph-name="divide" unicode="&#xf7;" 
d="M364 502q0 -52 -67 -52q-31 0 -49 11.5t-18 40.5q0 26 18 39.5t49 13.5q67 0 67 -53zM63 296v86h469v-86h-469zM364 176q0 -52 -67 -52q-31 0 -49 11.5t-18 40.5q0 26 18 39.5t49 13.5q67 0 67 -53z" />
    <glyph glyph-name="oslash" unicode="&#xf8;" horiz-adv-x="587" 
d="M331 605q115 0 165 -56l45 49l37 -38l-54 -60q15 -42 15 -101q0 -23 -2 -48.5t-6 -54.5q-11 -79 -33 -137t-57.5 -95.5t-85 -55.5t-116.5 -18q-115 0 -163 54l-46 -48l-38 38l54 58q-16 41 -16 101q0 47 9 106q11 79 32.5 137t57 95.5t85.5 55.5t117 18zM433 299
q3 26 5 52t2 65l-299 -293q13 -33 40 -46t70 -13q39 0 69 12t52 39.5t37 72.5t24 111zM318 528q-39 0 -68.5 -12t-51 -39t-36.5 -71.5t-24 -110.5q-4 -27 -6 -53.5t-2 -64.5l298 292q-14 32 -40.5 45.5t-69.5 13.5z" />
    <glyph glyph-name="ugrave" unicode="&#xf9;" horiz-adv-x="593" 
d="M503 196q-14 -100 -78 -153.5t-181 -53.5q-103 0 -153 43.5t-50 122.5q0 20 3 41l56 396l98 6l-57 -401q-1 -8 -1.5 -14.5t-0.5 -12.5q0 -101 116 -101q133 0 151 128l56 398h97zM328 662l-90 143h117l48 -143h-75z" />
    <glyph glyph-name="uacute" unicode="&#xfa;" horiz-adv-x="593" 
d="M503 196q-14 -100 -78 -153.5t-181 -53.5q-103 0 -153 43.5t-50 122.5q0 20 3 41l56 396l98 6l-57 -401q-1 -8 -1.5 -14.5t-0.5 -12.5q0 -101 116 -101q133 0 151 128l56 398h97zM495 805l-134 -143h-76l92 143h118z" />
    <glyph glyph-name="ucircumflex" unicode="&#xfb;" horiz-adv-x="593" 
d="M503 196q-14 -100 -78 -153.5t-181 -53.5q-103 0 -153 43.5t-50 122.5q0 20 3 41l56 396l98 6l-57 -401q-1 -8 -1.5 -14.5t-0.5 -12.5q0 -101 116 -101q133 0 151 128l56 398h97zM401 805l85 -143h-75l-58 105l-86 -105h-74l122 143h86z" />
    <glyph glyph-name="udieresis" unicode="&#xfc;" horiz-adv-x="593" 
d="M503 196q-14 -100 -78 -153.5t-181 -53.5q-103 0 -153 43.5t-50 122.5q0 20 3 41l56 396l98 6l-57 -401q-1 -8 -1.5 -14.5t-0.5 -12.5q0 -101 116 -101q133 0 151 128l56 398h97zM274 797q41 0 41 -36q0 -29 -14 -42.5t-40 -13.5q-20 0 -30.5 7.5t-10.5 25.5
q0 28 14 43.5t40 15.5zM436 797q41 0 41 -36q0 -29 -14 -42.5t-40 -13.5q-20 0 -31 7.5t-11 26.5q0 27 14.5 42.5t40.5 15.5z" />
    <glyph glyph-name="yacute" unicode="&#xfd;" horiz-adv-x="584" 
d="M561 595q-32 -121 -78 -232.5t-106 -208t-133.5 -174t-161.5 -129.5l-33 70q53 35 91.5 70t72.5 79l-154 520l107 8l107 -403q6 -22 9 -40h2q55 88 101.5 198t79.5 242h96zM489 805l-134 -143h-76l92 143h118z" />
    <glyph glyph-name="thorn" unicode="&#xfe;" horiz-adv-x="605" 
d="M391 605q80 0 123 -46t43 -155q0 -24 -1.5 -50.5t-6.5 -57.5q-22 -156 -89 -230.5t-177 -74.5q-47 0 -85 11.5t-67 31.5l-25 -181h-97l132 937l98 7l-33 -234q-2 -11 -3.5 -21.5t-3.5 -18.5l1 -1q38 42 86.5 62.5t104.5 20.5zM356 527q-34 0 -64 -12.5t-54 -36.5
t-40.5 -58t-22.5 -76l-33 -236q22 -19 53 -29.5t68 -10.5q80 0 125 54t62 177q4 26 5.5 49t1.5 43q0 78 -26.5 107t-74.5 29z" />
    <glyph glyph-name="ydieresis" unicode="&#xff;" horiz-adv-x="584" 
d="M561 595q-32 -121 -78 -232.5t-106 -208t-133.5 -174t-161.5 -129.5l-33 70q53 35 91.5 70t72.5 79l-154 520l107 8l107 -403q6 -22 9 -40h2q55 88 101.5 198t79.5 242h96zM276 797q41 0 41 -36q0 -29 -14 -42.5t-40 -13.5q-20 0 -30.5 7.5t-10.5 25.5q0 28 14 43.5
t40 15.5zM438 797q41 0 41 -36q0 -29 -14 -42.5t-40 -13.5q-20 0 -31 7.5t-11 26.5q0 27 14.5 42.5t40.5 15.5z" />
    <glyph glyph-name="dotlessi" unicode="&#x131;" horiz-adv-x="270" 
d="M37 0l83 592l98 5l-83 -597h-98z" />
    <glyph glyph-name="IJ" unicode="&#x132;" horiz-adv-x="871" 
d="M164 750h107l-105 -750h-107zM759 252q-10 -72 -33.5 -122t-60.5 -81.5t-87 -45.5t-114 -14q-44 0 -85 10.5t-68 29.5l19 80q26 -20 62 -28.5t71 -8.5q83 0 129.5 40t60.5 139l70 499h106z" />
    <glyph glyph-name="ij" unicode="&#x133;" horiz-adv-x="563" 
d="M37 0l83 592l98 6l-84 -598h-97zM194 799q56 0 56 -40q0 -31 -18 -44.5t-52 -13.5q-28 0 -42 8.5t-14 29.5q0 60 70 60zM439 94q-9 -63 -30 -107.5t-53 -74t-75.5 -45t-97.5 -21.5l1 67q36 6 62.5 17.5t45.5 32t31 52t19 78.5l70 499l98 6zM484 799q56 0 56 -40
q0 -31 -18 -44.5t-52 -13.5q-28 0 -42 8.5t-14 29.5q0 60 70 60z" />
    <glyph glyph-name="Lslash" unicode="&#x141;" horiz-adv-x="601" 
d="M539 86l-16 -86h-450l41 298l-82 -37l3 80l91 40l52 369h105l-46 -326l223 100l-3 -83l-232 -103l-35 -252h349z" />
    <glyph glyph-name="lslash" unicode="&#x142;" horiz-adv-x="351" 
d="M53 445l94 46l42 299l98 7l-37 -265l99 50l-9 -76l-101 -51l-64 -455h-97l58 413l-92 -46z" />
    <glyph glyph-name="OE" unicode="&#x152;" horiz-adv-x="1097" 
d="M529 0l7 52q1 10 3 20.5t4 20.5l-2 1q-42 -57 -102 -82.5t-139 -25.5q-127 0 -187.5 62t-60.5 201q0 28 2.5 59.5t7.5 66.5q14 103 41.5 176.5t70 120t101 68.5t135.5 22t130.5 -23.5t81.5 -77.5l1 1q1 9 1.5 19.5t2.5 20.5l7 48h453l-10 -85h-361l-33 -236h309l-11 -77
h-309l-38 -268h378l-14 -84h-469zM573 375q5 38 8 70t3 59q0 49 -10 82.5t-30 53t-52 28t-75 8.5q-55 0 -95.5 -13.5t-70 -48t-48.5 -92.5t-32 -147q-5 -35 -7.5 -66t-2.5 -57q0 -51 10.5 -85.5t31.5 -55.5t53 -30t76 -9q55 0 94.5 14t68 49t47.5 93t31 147z" />
    <glyph glyph-name="oe" unicode="&#x153;" horiz-adv-x="913" 
d="M331 605q75 0 119 -27t60 -85h2q68 112 212 112q83 0 125 -34.5t42 -91.5q0 -42 -20 -78.5t-63.5 -65t-113.5 -49t-169 -32.5q-1 -11 -1.5 -21t-0.5 -20q0 -41 8.5 -69t25.5 -45t41.5 -24t56.5 -7q96 0 162 55l26 -58q-38 -34 -92 -54.5t-123 -20.5q-66 0 -110 26t-63 86
h-2q-33 -58 -85.5 -85t-128.5 -27q-109 0 -158.5 49.5t-49.5 157.5q0 23 2 48t6 54q11 79 33 137t57 95.5t85 55.5t117 18zM319 527q-39 0 -69 -12t-52 -39t-36.5 -71.5t-23.5 -109.5q-4 -28 -6 -51t-2 -43q0 -77 30 -106.5t92 -29.5q39 0 69 12t51.5 39t36.5 72t24 111
q4 26 5.5 48.5t1.5 42.5q0 77 -30 107t-91 30zM719 532q-74 0 -119.5 -49.5t-65.5 -160.5q79 9 131 23.5t83 33.5t43.5 41t12.5 48q0 29 -20 46.5t-65 17.5z" />
    <glyph glyph-name="Scaron" unicode="&#x160;" horiz-adv-x="570" 
d="M362 762q55 0 105 -10t88 -30l-26 -81q-42 17 -84 26.5t-89 9.5q-45 0 -77.5 -11t-53 -29t-30.5 -42t-10 -50q0 -36 24 -57.5t60 -37t78 -30t78 -36t60 -54t24 -85.5q0 -60 -21 -107.5t-59 -81.5t-91.5 -52t-118.5 -18t-117.5 15.5t-94.5 41.5l26 85q42 -27 90 -42
t106 -15q81 0 129.5 40t48.5 112q0 37 -24 60t-60 39.5t-78.5 31t-78.5 35.5t-60 52.5t-24 82.5q0 49 18 92.5t53.5 75.5t87.5 51t121 19zM319 796l-97 117h90l63 -81l88 81h90l-132 -117h-102z" />
    <glyph glyph-name="scaron" unicode="&#x161;" horiz-adv-x="485" 
d="M300 605q41 0 82.5 -9.5t71.5 -28.5l-37 -68q-29 14 -63 21.5t-69 7.5q-54 0 -89.5 -25.5t-35.5 -64.5q0 -27 19 -44t48 -30.5t62.5 -26.5t62.5 -31t48 -44t19 -67q0 -6 -0.5 -12t-1.5 -12q-6 -40 -22.5 -73t-44 -57t-68 -37t-94.5 -13q-55 0 -103 17t-80 44l32 68
q29 -26 70.5 -40t83.5 -14q66 0 99.5 32t33.5 77q0 29 -19 48t-48 33.5t-62.5 27.5t-62.5 31t-48 44t-19 66q0 41 16.5 74t47 56.5t74 36.5t97.5 13zM257 662l-83 143h75l56 -105l86 105h76l-124 -143h-86z" />
    <glyph glyph-name="Ydieresis" unicode="&#x178;" horiz-adv-x="672" 
d="M195 750l129 -364q3 -10 6.5 -20t5.5 -19h2q4 8 9.5 17.5t10.5 17.5l233 368h116l-331 -494l-35 -256h-107l35 256l-193 494h119zM318 892q41 0 41 -35q0 -26 -14 -40t-40 -14q-40 0 -40 32q0 27 13.5 42t39.5 15zM511 892q41 0 41 -35q0 -26 -14 -40t-40 -14
q-41 0 -41 32q0 27 14 42t40 15z" />
    <glyph glyph-name="Zcaron" unicode="&#x17d;" horiz-adv-x="618" 
d="M-3 0l8 64l455 569q12 15 26 29l-1 2h-383l16 86h501l-10 -73l-447 -560q-12 -15 -26 -29l1 -2h391l-14 -86h-517zM329 796l-97 117h90l63 -81l88 81h90l-132 -117h-102z" />
    <glyph glyph-name="zcaron" unicode="&#x17e;" horiz-adv-x="542" 
d="M157 106q-7 -8 -13 -15t-13 -14l1 -2h316l-13 -75h-426l8 64l352 426q6 8 12.5 14.5t13.5 14.5l-1 2h-301l13 74h409l-9 -65zM266 662l-83 143h75l56 -105l86 105h76l-124 -143h-86z" />
    <glyph glyph-name="longs" unicode="&#x17f;" horiz-adv-x="307" 
d="M56 591h83q9 58 27.5 99t51 66t80.5 36.5t116 11.5l-4 -69q-37 0 -66.5 -5t-51.5 -21t-36 -44.5t-20 -74.5l-69 -496q-9 -63 -30 -107.5t-53.5 -74t-76 -45t-97.5 -21.5l2 67q36 6 63 17.5t46 32t31 52t18 78.5l60 431h-87z" />
    <glyph glyph-name="florin" unicode="&#x192;" horiz-adv-x="410" 
d="M-76 -148l237 671h-63l26 72h63l17 51q21 63 74.5 99.5t131.5 37.5q23 0 44.5 -4t36.5 -9l-30 -61q-11 5 -26 7t-29 2q-79 0 -104 -73l-17 -50h141l-26 -72h-141l-239 -671h-96z" />
    <glyph glyph-name="uni02BB" unicode="&#x2bb;" horiz-adv-x="234" 
d="M148 577q-27 0 -41 14.5t-14 40.5q0 19 9.5 43t25 49.5t36 51t41.5 47.5l30 -20q-17 -26 -32.5 -53.5t-26.5 -56.5q20 0 31.5 -11.5t11.5 -31.5q0 -30 -18.5 -51.5t-52.5 -21.5z" />
    <glyph glyph-name="afii57929" unicode="&#x2bc;" horiz-adv-x="234" 
d="M178 792q27 0 40.5 -14t13.5 -39q0 -21 -9 -45t-24.5 -49t-36 -50.5t-42.5 -47.5l-29 19q16 26 31 53.5t27 56.5q-20 0 -31.5 11.5t-11.5 31.5q0 31 19 52t53 21z" />
    <glyph glyph-name="circumflex" unicode="&#x2c6;" horiz-adv-x="377" 
d="M294 805l85 -143h-75l-58 105l-86 -105h-74l122 143h86z" />
    <glyph glyph-name="caron" unicode="&#x2c7;" horiz-adv-x="377" 
d="M189 662l-83 143h75l56 -105l86 105h76l-124 -143h-86z" />
    <glyph glyph-name="breve" unicode="&#x2d8;" horiz-adv-x="377" 
d="M394 805q-10 -70 -50 -110t-113 -40q-65 0 -95 29t-30 84q0 17 3 37h68q-2 -8 -2 -14v-13q0 -37 17 -55t46 -18q32 0 55.5 24.5t31.5 75.5h69z" />
    <glyph glyph-name="dotaccent" unicode="&#x2d9;" horiz-adv-x="399" 
d="M261 799q56 0 56 -40q0 -31 -18 -44.5t-52 -13.5q-28 0 -42 8.5t-14 29.5q0 60 70 60z" />
    <glyph glyph-name="ring" unicode="&#x2da;" horiz-adv-x="377" 
d="M254 824q46 0 69.5 -19t23.5 -49q0 -43 -30.5 -67t-84.5 -24q-45 0 -68.5 16.5t-23.5 49.5q0 42 29 67.5t85 25.5zM250 786q-29 0 -44.5 -14.5t-15.5 -34.5q0 -16 11 -25.5t37 -9.5q27 0 43.5 12.5t16.5 35.5q0 16 -11.5 26t-36.5 10z" />
    <glyph glyph-name="ogonek" unicode="&#x2db;" horiz-adv-x="399" 
d="M173 -181q-51 0 -73 19.5t-22 48.5q0 42 31 76.5t83 51.5l38 -15q-35 -14 -55 -37t-20 -49q0 -17 12 -27.5t40 -10.5q17 0 32 3.5t30 11.5v-49q-21 -11 -44.5 -17t-51.5 -6z" />
    <glyph glyph-name="tilde" unicode="&#x2dc;" horiz-adv-x="399" 
d="M314 672q-22 0 -37.5 10.5t-28 23t-23.5 23t-25 10.5q-16 0 -26.5 -14.5t-18.5 -42.5h-56q11 54 39.5 85t66.5 31q22 0 37.5 -10.5t28 -23t23.5 -23t25 -10.5q28 0 45 57h56q-12 -54 -40 -85t-66 -31z" />
    <glyph glyph-name="hungarumlaut" unicode="&#x2dd;" horiz-adv-x="377" 
d="M321 805l-129 -143h-64l88 143h105zM483 805l-135 -143h-73l102 143h106z" />
    <glyph glyph-name="Delta" unicode="&#x394;" horiz-adv-x="755" 
d="M662 0h-669l404 754h71zM415 640q-3 -8 -8 -18t-10 -19l-272 -525h421l-121 522q-2 10 -4.5 21t-3.5 19h-2z" />
    <glyph glyph-name="Omega" unicode="&#x3a9;" horiz-adv-x="743" 
d="M428 761q127 0 195.5 -60t68.5 -189q0 -63 -14 -124t-44 -116.5t-76 -104.5t-109 -87v-3h194l-10 -77h-273l15 107q94 66 151 165t57 233q0 91 -40.5 132t-125.5 41q-102 0 -157.5 -59.5t-74.5 -192.5q-2 -15 -3 -30t-1 -29q0 -84 31.5 -149t85.5 -111l-15 -107h-272
l10 77h194l1 3q-74 53 -109 127t-35 159q0 16 1.5 31.5t3.5 32.5q24 170 114.5 250.5t236.5 80.5z" />
    <glyph glyph-name="mu" unicode="&#x3bc;" horiz-adv-x="621" 
d="M227 -7q-34 0 -64 13t-46 48h-2q-5 -53 -8.5 -102t-6.5 -97l-96 -8l105 748h96l-56 -400q-2 -9 -2 -17v-15q0 -45 22.5 -69t70.5 -24q31 0 62.5 11.5t57.5 33t44.5 52.5t23.5 69l50 359h96l-83 -593l-72 -6v94l-2 1q-33 -45 -82.5 -71.5t-107.5 -26.5z" />
    <glyph glyph-name="pi" unicode="&#x3c0;" horiz-adv-x="677" 
d="M463 517h-205l-72 -517h-96l72 516q-32 -2 -54 -7.5t-39 -17.5l-18 70q23 17 62.5 25.5t97.5 8.5h451l-11 -78h-93l-52 -370q-3 -18 -3 -30q0 -29 14.5 -40.5t47.5 -11.5l-10 -69q-42 0 -70 5.5t-45.5 17.5t-25 31t-7.5 47q0 11 1 23.5t3 26.5z" />
    <glyph glyph-name="uni2007" unicode="&#x2007;" horiz-adv-x="650" 
 />
    <glyph glyph-name="uni2008" unicode="&#x2008;" horiz-adv-x="253" 
 />
    <glyph glyph-name="uni200B" unicode="&#x200b;" horiz-adv-x="0" 
 />
    <glyph glyph-name="endash" unicode="&#x2013;" horiz-adv-x="532" 
d="M464 374l-9 -67h-392l9 67h392z" />
    <glyph glyph-name="emdash" unicode="&#x2014;" horiz-adv-x="708" 
d="M641 374l-9 -67h-569l9 67h569z" />
    <glyph glyph-name="quoteleft" unicode="&#x2018;" horiz-adv-x="234" 
d="M148 577q-27 0 -41 14.5t-14 40.5q0 19 9.5 43t25 49.5t36 51t41.5 47.5l30 -20q-17 -26 -32.5 -53.5t-26.5 -56.5q20 0 31.5 -11.5t11.5 -31.5q0 -30 -18.5 -51.5t-52.5 -21.5z" />
    <glyph glyph-name="quoteright" unicode="&#x2019;" horiz-adv-x="234" 
d="M178 792q27 0 40.5 -14t13.5 -39q0 -21 -9 -45t-24.5 -49t-36 -50.5t-42.5 -47.5l-29 19q16 26 31 53.5t27 56.5q-20 0 -31.5 11.5t-11.5 31.5q0 31 19 52t53 21z" />
    <glyph glyph-name="quotesinglbase" unicode="&#x201a;" horiz-adv-x="234" 
d="M81 105q28 0 41.5 -14t13.5 -40q0 -20 -9.5 -44t-25 -49.5t-36 -50.5t-41.5 -47l-30 19q16 26 31.5 53.5t26.5 56.5q-20 0 -31 11.5t-11 31.5q0 31 18.5 52t52.5 21z" />
    <glyph glyph-name="quotedblleft" unicode="&#x201c;" horiz-adv-x="419" 
d="M148 577q-27 0 -41 14.5t-14 40.5q0 19 9.5 43t25 49.5t36 51t41.5 47.5l30 -20q-17 -26 -32.5 -53.5t-26.5 -56.5q20 0 31.5 -11.5t11.5 -31.5q0 -30 -18.5 -51.5t-52.5 -21.5zM334 577q-27 0 -41 14.5t-14 40.5q0 19 9.5 43t25 49.5t36 51t41.5 47.5l30 -20
q-17 -26 -32.5 -53.5t-26.5 -56.5q20 0 31.5 -11.5t11.5 -31.5q0 -30 -18.5 -51.5t-52.5 -21.5z" />
    <glyph glyph-name="quotedblright" unicode="&#x201d;" horiz-adv-x="419" 
d="M178 791q27 0 40.5 -14t13.5 -39q0 -21 -9 -45t-24.5 -49t-36 -50.5t-42.5 -47.5l-29 19q16 26 31 53.5t26 56.5q-20 0 -31 11.5t-11 31.5q0 31 18.5 52t53.5 21zM363 791q27 0 40.5 -14t13.5 -39q0 -21 -9 -45t-24.5 -49t-36 -50.5t-42.5 -47.5l-29 19q16 26 31 53.5
t26 56.5q-20 0 -31 11.5t-11 31.5q0 31 18.5 52t53.5 21z" />
    <glyph glyph-name="quotedblbase" unicode="&#x201e;" horiz-adv-x="419" 
d="M266 105q28 0 41.5 -14t13.5 -40q0 -20 -9.5 -44t-25 -49.5t-36 -50.5t-41.5 -47l-30 19q16 26 31.5 53.5t26.5 56.5q-20 0 -31 11.5t-11 31.5q0 31 18.5 52t52.5 21zM81 105q28 0 41.5 -14t13.5 -40q0 -20 -9.5 -44t-25 -49.5t-36 -50.5t-41.5 -47l-30 19
q16 26 31.5 53.5t26.5 56.5q-20 0 -31 11.5t-11 31.5q0 31 18.5 52t52.5 21z" />
    <glyph glyph-name="dagger" unicode="&#x2020;" horiz-adv-x="501" 
d="M242 593l19 201h96l-35 -201l169 7l-12 -83l-167 6l-87 -667h-96l103 667l-166 -6l12 83z" />
    <glyph glyph-name="daggerdbl" unicode="&#x2021;" horiz-adv-x="501" 
d="M414 53l-167 6l-22 -204h-96l38 204l-166 -6l11 82l165 -6l55 394l-166 -6l12 83l164 -7l19 201h96l-35 -201l169 7l-12 -83l-167 6l-55 -394l168 6z" />
    <glyph glyph-name="bullet" unicode="&#x2022;" horiz-adv-x="407" 
d="M61 322q18 134 154 134q119 0 119 -104q0 -85 -42 -125.5t-115 -40.5q-118 0 -118 103v16q0 8 2 17z" />
    <glyph glyph-name="ellipsis" unicode="&#x2026;" horiz-adv-x="657" 
d="M498 106q55 0 55 -46q0 -33 -18 -52t-53 -19q-57 0 -57 44q0 35 18 54t55 19zM299 106q55 0 55 -46q0 -33 -18 -52t-53 -19q-57 0 -57 44q0 35 18 54t55 19zM91 106q55 0 55 -46q0 -33 -18 -52t-53 -19q-57 0 -57 44q0 35 18 54t55 19z" />
    <glyph glyph-name="perthousand" unicode="&#x2030;" horiz-adv-x="1031" 
d="M248 763q61 0 92 -27.5t31 -94.5q0 -60 -12.5 -103t-35 -70.5t-54 -40.5t-70.5 -13q-63 0 -93.5 29.5t-30.5 93.5q0 11 1 24t3 27q13 93 52 134t117 41zM240 707q-20 0 -35.5 -5t-27 -18.5t-19.5 -36.5t-13 -58q-2 -13 -3 -23.5t-1 -20.5q0 -42 17 -58t49 -16
q19 0 34.5 5.5t27 19t19.5 36t13 57.5q2 14 3 25t1 21q0 42 -16.5 57t-48.5 15zM622 696l-486 -683l-54 40l487 683zM520 343q61 0 92 -28.5t31 -95.5q0 -60 -12.5 -103t-35.5 -70.5t-54.5 -40.5t-70.5 -13q-63 0 -93 29t-30 93q0 12 1 25t3 27q13 93 52 135t117 42z
M513 285q-20 0 -35.5 -5.5t-27.5 -19t-20 -36.5t-13 -58q-2 -13 -3 -24t-1 -21q0 -42 17 -57t49 -15q39 0 61.5 24t32.5 93q2 14 3 25.5t1 21.5q0 42 -16 57t-48 15zM839 343q60 0 91.5 -28.5t31.5 -96.5q0 -119 -48 -172.5t-126 -53.5q-63 0 -92.5 29.5t-29.5 92.5
q0 12 1 25t3 27q13 93 52 135t117 42zM831 285q-20 0 -35.5 -5.5t-27 -19t-19.5 -36.5t-13 -58q-2 -13 -3 -24t-1 -21q0 -42 16.5 -57t48.5 -15q39 0 61.5 24t32.5 93q2 14 3 25.5t1 21.5q0 42 -16 57t-48 15z" />
    <glyph glyph-name="guilsinglleft" unicode="&#x2039;" horiz-adv-x="405" 
d="M137 326l178 -122l-10 -73l-265 191l1 9l319 191l-10 -73z" />
    <glyph glyph-name="guilsinglright" unicode="&#x203a;" horiz-adv-x="405" 
d="M46 204l211 122l-176 123l10 73l265 -191l-1 -9l-319 -191z" />
    <glyph glyph-name="fraction" unicode="&#x2044;" horiz-adv-x="289" 
d="M505 750l-610 -750h-72l610 750h72z" />
    <glyph glyph-name="uni2070" unicode="&#x2070;" horiz-adv-x="369" 
d="M261 898q66 0 98 -32.5t32 -105.5q0 -14 -1.5 -30.5t-3.5 -34.5q-14 -105 -58 -153.5t-124 -48.5q-67 0 -99 33.5t-32 106.5q0 14 1.5 29.5t3.5 32.5q15 108 59 155.5t124 47.5zM253 843q-21 0 -38 -6.5t-30 -23t-23 -45.5t-16 -73q-2 -18 -3.5 -33t-1.5 -28
q0 -51 18 -69t52 -18q21 0 37.5 6.5t29.5 23t22.5 45.5t15.5 73q2 19 3.5 34.5t1.5 28.5q0 50 -17.5 67.5t-50.5 17.5z" />
    <glyph glyph-name="uni2074" unicode="&#x2074;" horiz-adv-x="369" 
d="M336 580l-11 -82h-64l11 82h-207v40l231 272h84l-37 -260h47l-9 -52h-45zM306 793q3 19 8 41l-2 1q-6 -8 -13 -16.5t-13 -16.5l-115 -139q-13 -17 -27 -29l1 -2h135z" />
    <glyph glyph-name="uni2075" unicode="&#x2075;" horiz-adv-x="369" 
d="M381 837h-185l-21 -99q18 5 37.5 7.5t39.5 2.5q121 0 121 -92q0 -78 -44.5 -120.5t-126.5 -42.5q-75 0 -124 30l19 52q26 -15 50 -22.5t57 -7.5q52 0 76 24.5t24 73.5q0 27 -17 41t-58 14q-26 0 -52.5 -5t-45.5 -12l-25 18l45 193h236z" />
    <glyph glyph-name="uni2076" unicode="&#x2076;" horiz-adv-x="369" 
d="M374 827q-20 8 -39 11.5t-45 3.5q-59 0 -90.5 -30t-44.5 -90l1 -1q47 30 102 30q118 0 118 -91q0 -83 -45.5 -125t-121.5 -42q-63 0 -97 31t-34 103q0 67 15.5 118t44 84.5t67.5 50.5t87 17q28 0 50 -4t44 -12zM242 702q-10 0 -23 -2.5t-25.5 -7t-24.5 -10.5t-19 -14
q-3 -23 -3 -40q0 -45 17.5 -64t52.5 -19q37 0 63.5 25t26.5 79q0 26 -15 39.5t-50 13.5z" />
    <glyph glyph-name="uni2077" unicode="&#x2077;" horiz-adv-x="369" 
d="M403 834l-214 -336h-82l200 301q5 8 10.5 15.5t12.5 15.5l-1 2h-227l12 60h297z" />
    <glyph glyph-name="uni2078" unicode="&#x2078;" horiz-adv-x="369" 
d="M204 493q-72 0 -105.5 23.5t-33.5 70.5q0 38 21.5 68.5t63.5 48.5v2q-19 11 -30.5 28t-11.5 43q0 56 38 88t115 32q64 0 93 -21.5t29 -62.5q0 -70 -68 -106v-2q25 -10 41.5 -27.5t16.5 -49.5q0 -67 -44.5 -101t-124.5 -34zM213 544q41 0 65 18t24 47t-26 43.5t-71 28.5
q-29 -14 -50 -34t-21 -51q0 -26 18.5 -39t60.5 -13zM254 848q-37 0 -58.5 -17t-21.5 -47q0 -13 7 -22t19 -15.5t27.5 -11.5t32.5 -10q29 14 43.5 32t14.5 44q0 47 -64 47z" />
    <glyph glyph-name="uni2079" unicode="&#x2079;" horiz-adv-x="369" 
d="M253 898q133 0 133 -135q0 -11 -1 -23.5t-3 -26.5q-15 -116 -66 -168t-136 -52q-34 0 -56 5t-44 14l20 51q20 -9 38.5 -13t44.5 -4q54 0 86.5 31.5t46.5 106.5l-2 2q-20 -17 -46 -25t-55 -8q-66 0 -94 26t-28 70q0 31 10.5 58t31 47.5t50.5 32t70 11.5zM245 845
q-41 0 -64 -22t-23 -64q0 -28 16 -42.5t54 -14.5q25 0 49 8.5t38 24.5q1 9 1.5 16.5t0.5 15.5q0 43 -18.5 60.5t-53.5 17.5z" />
    <glyph glyph-name="uni207A" unicode="&#x207a;" horiz-adv-x="371" 
d="M261 669v-113h-59v113h-111v58h111v114h59v-114h113v-58h-113z" />
    <glyph glyph-name="uni207B" unicode="&#x207b;" horiz-adv-x="371" 
d="M96 674v55h274v-55h-274z" />
    <glyph glyph-name="uni207C" unicode="&#x207c;" horiz-adv-x="371" 
d="M96 734v50h275v-50h-275zM96 619v50h275v-50h-275z" />
    <glyph glyph-name="uni207D" unicode="&#x207d;" horiz-adv-x="210" 
d="M278 919q-51 -61 -81.5 -136t-30.5 -163q0 -51 12 -96t32 -84l-50 -3q-29 35 -43.5 81.5t-14.5 100.5q0 96 33 171.5t93 133.5z" />
    <glyph glyph-name="uni207E" unicode="&#x207e;" horiz-adv-x="210" 
d="M141 924q29 -38 43.5 -82.5t14.5 -98.5q0 -90 -34 -171t-92 -135l-51 3q49 61 80.5 135.5t31.5 165.5q0 51 -11.5 95t-32.5 83z" />
    <glyph glyph-name="uni2080" unicode="&#x2080;" horiz-adv-x="369" 
d="M171 254q66 0 98 -32.5t32 -105.5q0 -14 -1.5 -30.5t-3.5 -34.5q-14 -105 -58 -153.5t-124 -48.5q-67 0 -99 33.5t-32 106.5q0 14 1.5 29.5t3.5 32.5q15 108 59 155.5t124 47.5zM163 199q-21 0 -38 -6.5t-30 -23t-23 -45.5t-16 -73q-2 -18 -3.5 -33t-1.5 -28
q0 -51 18 -69t52 -18q21 0 37.5 6.5t29.5 23t22.5 45.5t15.5 73q2 19 3.5 34.5t1.5 28.5q0 50 -17.5 67.5t-50.5 17.5z" />
    <glyph glyph-name="uni2081" unicode="&#x2081;" horiz-adv-x="272" 
d="M137 -146h-70l37 269q2 10 3.5 20.5t4.5 19.5l-2 2q-16 -12 -35 -22l-60 -34l2 59l129 82h46z" />
    <glyph glyph-name="uni2082" unicode="&#x2082;" horiz-adv-x="354" 
d="M167 253q63 0 93 -25.5t30 -67.5q0 -35 -16.5 -65.5t-46 -59.5t-70.5 -59t-89 -63v-3h189l-8 -56h-276l6 45q48 38 90.5 71.5t74.5 64t51 58.5t19 55q0 20 -16 34.5t-55 14.5q-30 0 -58 -10.5t-54 -27.5l-10 52q30 18 67 30t79 12z" />
    <glyph glyph-name="uni2083" unicode="&#x2083;" horiz-adv-x="354" 
d="M164 253q62 0 95 -22.5t33 -65.5q0 -42 -22.5 -66t-57.5 -35v-2q32 -8 48.5 -26t16.5 -48q0 -63 -45 -101t-130 -38q-41 0 -70 8t-55 24l23 50q23 -14 49.5 -22t59.5 -8q51 0 75.5 25t24.5 60q0 28 -25.5 40t-88.5 12l7 47q68 0 96 17.5t28 49.5q0 47 -73 47
q-35 0 -63 -9t-54 -27l-11 48q26 18 62.5 30t76.5 12z" />
    <glyph glyph-name="uni2084" unicode="&#x2084;" horiz-adv-x="369" 
d="M246 -64l-11 -82h-64l11 82h-207v40l231 272h84l-37 -260h47l-9 -52h-45zM216 149q3 19 8 41l-2 1q-6 -8 -13 -16.5t-13 -16.5l-115 -139q-13 -17 -27 -29l1 -2h135z" />
    <glyph glyph-name="uni2085" unicode="&#x2085;" horiz-adv-x="369" 
d="M291 193h-185l-21 -99q18 5 37.5 7.5t39.5 2.5q121 0 121 -92q0 -78 -44.5 -120.5t-126.5 -42.5q-75 0 -124 30l19 52q26 -15 50 -22.5t57 -7.5q52 0 76 24.5t24 73.5q0 27 -17 41t-58 14q-26 0 -52.5 -5t-45.5 -12l-25 18l45 193h236z" />
    <glyph glyph-name="uni2086" unicode="&#x2086;" horiz-adv-x="369" 
d="M284 183q-20 8 -39 11.5t-45 3.5q-59 0 -90.5 -30t-44.5 -90l1 -1q47 30 102 30q118 0 118 -91q0 -83 -45.5 -125t-121.5 -42q-63 0 -97 31t-34 103q0 67 15.5 118t44 84.5t67.5 50.5t87 17q28 0 50 -4t44 -12zM152 58q-10 0 -23 -2.5t-25.5 -7t-24.5 -10.5t-19 -14
q-3 -23 -3 -40q0 -45 17.5 -64t52.5 -19q37 0 63.5 25t26.5 79q0 26 -15 39.5t-50 13.5z" />
    <glyph glyph-name="uni2087" unicode="&#x2087;" horiz-adv-x="369" 
d="M313 190l-214 -336h-82l200 301q5 8 10.5 15.5t12.5 15.5l-1 2h-227l12 60h297z" />
    <glyph glyph-name="uni2088" unicode="&#x2088;" horiz-adv-x="369" 
d="M114 -151q-72 0 -105.5 23.5t-33.5 70.5q0 38 21.5 68.5t63.5 48.5v2q-19 11 -30.5 28t-11.5 43q0 56 38 88t115 32q64 0 93 -21.5t29 -62.5q0 -70 -68 -106v-2q25 -10 41.5 -27.5t16.5 -49.5q0 -67 -44.5 -101t-124.5 -34zM123 -100q41 0 65 18t24 47t-26 43.5t-71 28.5
q-29 -14 -50 -34t-21 -51q0 -26 18.5 -39t60.5 -13zM164 204q-37 0 -58.5 -17t-21.5 -47q0 -13 7 -22t19 -15.5t27.5 -11.5t32.5 -10q29 14 43.5 32t14.5 44q0 47 -64 47z" />
    <glyph glyph-name="uni2089" unicode="&#x2089;" horiz-adv-x="369" 
d="M163 254q133 0 133 -135q0 -11 -1 -23.5t-3 -26.5q-15 -116 -66 -168t-136 -52q-34 0 -56 5t-44 14l20 51q20 -9 38.5 -13t44.5 -4q54 0 86.5 31.5t46.5 106.5l-2 2q-20 -17 -46 -25t-55 -8q-66 0 -94 26t-28 70q0 31 10.5 58t31 47.5t50.5 32t70 11.5zM155 201
q-41 0 -64 -22t-23 -64q0 -28 16 -42.5t54 -14.5q25 0 49 8.5t38 24.5q1 9 1.5 16.5t0.5 15.5q0 43 -18.5 60.5t-53.5 17.5z" />
    <glyph glyph-name="uni208A" unicode="&#x208a;" horiz-adv-x="371" 
d="M171 25v-113h-59v113h-111v58h111v114h59v-114h113v-58h-113z" />
    <glyph glyph-name="uni208B" unicode="&#x208b;" horiz-adv-x="371" 
d="M6 30v55h274v-55h-274z" />
    <glyph glyph-name="uni208C" unicode="&#x208c;" horiz-adv-x="371" 
d="M6 90v50h275v-50h-275zM6 -25v50h275v-50h-275z" />
    <glyph glyph-name="uni208D" unicode="&#x208d;" horiz-adv-x="210" 
d="M188 275q-51 -61 -81.5 -136t-30.5 -163q0 -51 12 -96t32 -84l-50 -3q-29 35 -43.5 81.5t-14.5 100.5q0 96 33 171.5t93 133.5z" />
    <glyph glyph-name="uni208E" unicode="&#x208e;" horiz-adv-x="210" 
d="M51 280q29 -38 43.5 -82.5t14.5 -98.5q0 -90 -34 -171t-92 -135l-51 3q49 61 80.5 135.5t31.5 165.5q0 51 -11.5 95t-32.5 83z" />
    <glyph glyph-name="franc" unicode="&#x20a3;" horiz-adv-x="650" 
d="M87 179l80 571h467l-10 -87h-365l-33 -236h286l-12 -81h-286l-23 -167h92l-10 -66h-92l-15 -113h-104l15 113h-87l10 66h87z" />
    <glyph glyph-name="lira" unicode="&#x20a4;" horiz-adv-x="650" 
d="M99 459h36q-3 21 -3 45q0 50 15.5 96.5t51 82t92.5 56.5t140 21q57 0 103 -10.5t80 -27.5l-26 -82q-29 15 -70.5 25t-87.5 10q-57 0 -94.5 -14.5t-60.5 -39.5t-32.5 -58.5t-9.5 -70.5q0 -8 0.5 -16.5t0.5 -16.5h288l-8 -57h-272q2 -15 3 -30t2 -31h258l-7 -55h-250
q-10 -151 -105 -207l1 -2q51 9 102 12.5t114 3.5q54 0 103.5 -3.5t98.5 -8.5l-18 -87q-64 7 -121 10.5t-120 3.5q-72 0 -137.5 -3t-146.5 -10l6 83q33 10 56 31t38 48.5t23 60.5t10 68h-70l5 55h64q-1 17 -3 32t-4 29h-49z" />
    <glyph glyph-name="peseta" unicode="&#x20a7;" horiz-adv-x="650" 
d="M582 490q-20 -104 -85 -154.5t-188 -50.5h-133l-40 -285h-97l68 490h-61l8 51h61l29 209h230q113 0 165.5 -40.5t52.5 -133.5q0 -8 -0.5 -17t-1.5 -18h59l-8 -51h-59zM212 541h279q0 5 0.5 10t0.5 10q0 61 -31.5 85t-97.5 24h-133zM319 362q34 0 61 6t47 20.5t34 39
t22 62.5h-279l-18 -128h133z" />
    <glyph glyph-name="Euro" unicode="&#x20ac;" horiz-adv-x="650" 
d="M477 289h-258q0 -118 47 -168.5t147 -50.5q45 0 90 13t86 36l-1 -74q-42 -26 -96 -40t-114 -14q-137 0 -200 67t-63 207q0 6 0.5 12t0.5 12h-89l8 54h84q3 31 9 63h-84l7 56h88q37 141 126.5 217.5t227.5 76.5q54 0 100 -9.5t77 -26.5l-33 -78q-31 15 -62.5 22t-73.5 7
q-101 0 -164.5 -52.5t-93.5 -156.5h310l-21 -56h-301q-6 -32 -9 -63h277z" />
    <glyph glyph-name="trademark" unicode="&#x2122;" horiz-adv-x="666" 
d="M586 495l24 172q2 10 4 20.5t5 20.5l-2 1l-116 -214h-45l-57 213h-2q-1 -10 -1.5 -20.5t-2.5 -20.5l-24 -172h-50l39 275h75l46 -174q2 -10 4.5 -20t4.5 -20h2q3 8 8 17t10 19l96 178h71l-39 -275h-50zM227 721l-32 -226h-59l32 226h-85l7 49h228l-7 -49h-84z" />
    <glyph glyph-name="uni2126" unicode="&#x2126;" horiz-adv-x="743" 
d="M428 761q127 0 195.5 -60t68.5 -189q0 -63 -14 -124t-44 -116.5t-76 -104.5t-109 -87v-3h194l-10 -77h-273l15 107q94 66 151 165t57 233q0 91 -40.5 132t-125.5 41q-102 0 -157.5 -59.5t-74.5 -192.5q-2 -15 -3 -30t-1 -29q0 -84 31.5 -149t85.5 -111l-15 -107h-272
l10 77h194l1 3q-74 53 -109 127t-35 159q0 16 1.5 31.5t3.5 32.5q24 170 114.5 250.5t236.5 80.5z" />
    <glyph glyph-name="uni2150" unicode="&#x2150;" horiz-adv-x="930" 
d="M207 356h-70l37 269q2 10 3.5 20.5t4.5 19.5l-2 2q-16 -12 -35 -22l-60 -34l2 59l129 82h46zM777 750l-610 -750h-72l610 750h72zM894 336l-214 -336h-82l200 301q5 8 10.5 15.5t12.5 15.5l-1 2h-227l12 60h297z" />
    <glyph glyph-name="uni2151" unicode="&#x2151;" horiz-adv-x="930" 
d="M207 356h-70l37 269q2 10 3.5 20.5t4.5 19.5l-2 2q-16 -12 -35 -22l-60 -34l2 59l129 82h46zM777 750l-610 -750h-72l610 750h72zM744 400q133 0 133 -135q0 -11 -1 -23.5t-3 -26.5q-15 -116 -66 -168t-136 -52q-34 0 -56 5t-44 14l20 51q20 -9 38.5 -13t44.5 -4
q54 0 86.5 31.5t46.5 106.5l-2 2q-20 -17 -46 -25t-55 -8q-66 0 -94 26t-28 70q0 31 10.5 58t31 47.5t50.5 32t70 11.5zM736 347q-41 0 -64 -22t-23 -64q0 -28 16 -42.5t54 -14.5q25 0 49 8.5t38 24.5q1 9 1.5 16.5t0.5 15.5q0 43 -18.5 60.5t-53.5 17.5z" />
    <glyph glyph-name="uni2152" unicode="&#x2152;" horiz-adv-x="1202" 
d="M207 356h-70l37 269q2 10 3.5 20.5t4.5 19.5l-2 2q-16 -12 -35 -22l-60 -34l2 59l129 82h46zM777 750l-610 -750h-72l610 750h72zM718 0h-70l37 269q2 10 3.5 20.5t4.5 19.5l-2 2q-16 -12 -35 -22l-60 -34l2 59l129 82h46zM1024 400q66 0 98 -32.5t32 -105.5
q0 -14 -1.5 -30.5t-3.5 -34.5q-14 -105 -58 -153.5t-124 -48.5q-67 0 -99 33.5t-32 106.5q0 14 1.5 29.5t3.5 32.5q15 108 59 155.5t124 47.5zM1016 345q-21 0 -38 -6.5t-30 -23t-23 -45.5t-16 -73q-2 -18 -3.5 -33t-1.5 -28q0 -51 18 -69t52 -18q21 0 37.5 6.5t29.5 23
t22.5 45.5t15.5 73q2 19 3.5 34.5t1.5 28.5q0 50 -17.5 67.5t-50.5 17.5z" />
    <glyph glyph-name="onethird" unicode="&#x2153;" horiz-adv-x="915" 
d="M207 356h-70l37 269q2 10 3.5 20.5t4.5 19.5l-2 2q-16 -12 -35 -22l-60 -34l2 59l129 82h46zM777 750l-610 -750h-72l610 750h72zM745 399q62 0 95 -22.5t33 -65.5q0 -42 -22.5 -66t-57.5 -35v-2q32 -8 48.5 -26t16.5 -48q0 -63 -45 -101t-130 -38q-41 0 -70 8t-55 24
l23 50q23 -14 49.5 -22t59.5 -8q51 0 75.5 25t24.5 60q0 28 -25.5 40t-88.5 12l7 47q68 0 96 17.5t28 49.5q0 47 -73 47q-35 0 -63 -9t-54 -27l-11 48q26 18 62.5 30t76.5 12z" />
    <glyph glyph-name="twothirds" unicode="&#x2154;" horiz-adv-x="997" 
d="M237 755q63 0 93 -25.5t30 -67.5q0 -35 -16.5 -65.5t-46 -59.5t-70.5 -59t-89 -63v-3h189l-8 -56h-276l6 45q48 38 90.5 71.5t74.5 64t51 58.5t19 55q0 20 -16 34.5t-55 14.5q-30 0 -58 -10.5t-54 -27.5l-10 52q30 18 67 30t79 12zM859 750l-610 -750h-72l610 750h72z
M827 399q62 0 95 -22.5t33 -65.5q0 -42 -22.5 -66t-57.5 -35v-2q32 -8 48.5 -26t16.5 -48q0 -63 -45 -101t-130 -38q-41 0 -70 8t-55 24l23 50q23 -14 49.5 -22t59.5 -8q51 0 75.5 25t24.5 60q0 28 -25.5 40t-88.5 12l7 47q68 0 96 17.5t28 49.5q0 47 -73 47q-35 0 -63 -9
t-54 -27l-11 48q26 18 62.5 30t76.5 12z" />
    <glyph glyph-name="uni2155" unicode="&#x2155;" horiz-adv-x="930" 
d="M207 356h-70l37 269q2 10 3.5 20.5t4.5 19.5l-2 2q-16 -12 -35 -22l-60 -34l2 59l129 82h46zM777 750l-610 -750h-72l610 750h72zM872 339h-185l-21 -99q18 5 37.5 7.5t39.5 2.5q121 0 121 -92q0 -78 -44.5 -120.5t-126.5 -42.5q-75 0 -124 30l19 52q26 -15 50 -22.5
t57 -7.5q52 0 76 24.5t24 73.5q0 27 -17 41t-58 14q-26 0 -52.5 -5t-45.5 -12l-25 18l45 193h236z" />
    <glyph glyph-name="uni2156" unicode="&#x2156;" horiz-adv-x="1012" 
d="M237 755q63 0 93 -25.5t30 -67.5q0 -35 -16.5 -65.5t-46 -59.5t-70.5 -59t-89 -63v-3h189l-8 -56h-276l6 45q48 38 90.5 71.5t74.5 64t51 58.5t19 55q0 20 -16 34.5t-55 14.5q-30 0 -58 -10.5t-54 -27.5l-10 52q30 18 67 30t79 12zM859 750l-610 -750h-72l610 750h72z
M954 339h-185l-21 -99q18 5 37.5 7.5t39.5 2.5q121 0 121 -92q0 -78 -44.5 -120.5t-126.5 -42.5q-75 0 -124 30l19 52q26 -15 50 -22.5t57 -7.5q52 0 76 24.5t24 73.5q0 27 -17 41t-58 14q-26 0 -52.5 -5t-45.5 -12l-25 18l45 193h236z" />
    <glyph glyph-name="uni2157" unicode="&#x2157;" horiz-adv-x="1012" 
d="M234 755q62 0 95 -22.5t33 -65.5q0 -42 -22.5 -66t-57.5 -35v-2q32 -8 48.5 -26t16.5 -48q0 -63 -45 -101t-130 -38q-41 0 -70 8t-55 24l23 50q23 -14 49.5 -22t59.5 -8q51 0 75.5 25t24.5 60q0 28 -25.5 40t-88.5 12l7 47q68 0 96 17.5t28 49.5q0 47 -73 47
q-35 0 -63 -9t-54 -27l-11 48q26 18 62.5 30t76.5 12zM859 750l-610 -750h-72l610 750h72zM954 339h-185l-21 -99q18 5 37.5 7.5t39.5 2.5q121 0 121 -92q0 -78 -44.5 -120.5t-126.5 -42.5q-75 0 -124 30l19 52q26 -15 50 -22.5t57 -7.5q52 0 76 24.5t24 73.5q0 27 -17 41
t-58 14q-26 0 -52.5 -5t-45.5 -12l-25 18l45 193h236z" />
    <glyph glyph-name="uni2158" unicode="&#x2158;" horiz-adv-x="1027" 
d="M316 438l-11 -82h-64l11 82h-207v40l231 272h84l-37 -260h47l-9 -52h-45zM286 651q3 19 8 41l-2 1q-6 -8 -13 -16.5t-13 -16.5l-115 -139q-13 -17 -27 -29l1 -2h135zM874 750l-610 -750h-72l610 750h72zM969 339h-185l-21 -99q18 5 37.5 7.5t39.5 2.5q121 0 121 -92
q0 -78 -44.5 -120.5t-126.5 -42.5q-75 0 -124 30l19 52q26 -15 50 -22.5t57 -7.5q52 0 76 24.5t24 73.5q0 27 -17 41t-58 14q-26 0 -52.5 -5t-45.5 -12l-25 18l45 193h236z" />
    <glyph glyph-name="uni2159" unicode="&#x2159;" horiz-adv-x="930" 
d="M207 356h-70l37 269q2 10 3.5 20.5t4.5 19.5l-2 2q-16 -12 -35 -22l-60 -34l2 59l129 82h46zM777 750l-610 -750h-72l610 750h72zM865 329q-20 8 -39 11.5t-45 3.5q-59 0 -90.5 -30t-44.5 -90l1 -1q47 30 102 30q118 0 118 -91q0 -83 -45.5 -125t-121.5 -42q-63 0 -97 31
t-34 103q0 67 15.5 118t44 84.5t67.5 50.5t87 17q28 0 50 -4t44 -12zM733 204q-10 0 -23 -2.5t-25.5 -7t-24.5 -10.5t-19 -14q-3 -23 -3 -40q0 -45 17.5 -64t52.5 -19q37 0 63.5 25t26.5 79q0 26 -15 39.5t-50 13.5z" />
    <glyph glyph-name="uni215A" unicode="&#x215a;" horiz-adv-x="1027" 
d="M361 695h-185l-21 -99q18 5 37.5 7.5t39.5 2.5q121 0 121 -92q0 -78 -44.5 -120.5t-126.5 -42.5q-75 0 -124 30l19 52q26 -15 50 -22.5t57 -7.5q52 0 76 24.5t24 73.5q0 27 -17 41t-58 14q-26 0 -52.5 -5t-45.5 -12l-25 18l45 193h236zM874 750l-610 -750h-72l610 750h72
zM962 329q-20 8 -39 11.5t-45 3.5q-59 0 -90.5 -30t-44.5 -90l1 -1q47 30 102 30q118 0 118 -91q0 -83 -45.5 -125t-121.5 -42q-63 0 -97 31t-34 103q0 67 15.5 118t44 84.5t67.5 50.5t87 17q28 0 50 -4t44 -12zM830 204q-10 0 -23 -2.5t-25.5 -7t-24.5 -10.5t-19 -14
q-3 -23 -3 -40q0 -45 17.5 -64t52.5 -19q37 0 63.5 25t26.5 79q0 26 -15 39.5t-50 13.5z" />
    <glyph glyph-name="oneeighth" unicode="&#x215b;" horiz-adv-x="930" 
d="M207 356h-70l37 269q2 10 3.5 20.5t4.5 19.5l-2 2q-16 -12 -35 -22l-60 -34l2 59l129 82h46zM777 750l-610 -750h-72l610 750h72zM695 -5q-72 0 -105.5 23.5t-33.5 70.5q0 38 21.5 68.5t63.5 48.5v2q-19 11 -30.5 28t-11.5 43q0 56 38 88t115 32q64 0 93 -21.5t29 -62.5
q0 -70 -68 -106v-2q25 -10 41.5 -27.5t16.5 -49.5q0 -67 -44.5 -101t-124.5 -34zM704 46q41 0 65 18t24 47t-26 43.5t-71 28.5q-29 -14 -50 -34t-21 -51q0 -26 18.5 -39t60.5 -13zM745 350q-37 0 -58.5 -17t-21.5 -47q0 -13 7 -22t19 -15.5t27.5 -11.5t32.5 -10
q29 14 43.5 32t14.5 44q0 47 -64 47z" />
    <glyph glyph-name="threeeighths" unicode="&#x215c;" horiz-adv-x="1012" 
d="M234 755q62 0 95 -22.5t33 -65.5q0 -42 -22.5 -66t-57.5 -35v-2q32 -8 48.5 -26t16.5 -48q0 -63 -45 -101t-130 -38q-41 0 -70 8t-55 24l23 50q23 -14 49.5 -22t59.5 -8q51 0 75.5 25t24.5 60q0 28 -25.5 40t-88.5 12l7 47q68 0 96 17.5t28 49.5q0 47 -73 47
q-35 0 -63 -9t-54 -27l-11 48q26 18 62.5 30t76.5 12zM859 750l-610 -750h-72l610 750h72zM777 -5q-72 0 -105.5 23.5t-33.5 70.5q0 38 21.5 68.5t63.5 48.5v2q-19 11 -30.5 28t-11.5 43q0 56 38 88t115 32q64 0 93 -21.5t29 -62.5q0 -70 -68 -106v-2q25 -10 41.5 -27.5
t16.5 -49.5q0 -67 -44.5 -101t-124.5 -34zM786 46q41 0 65 18t24 47t-26 43.5t-71 28.5q-29 -14 -50 -34t-21 -51q0 -26 18.5 -39t60.5 -13zM827 350q-37 0 -58.5 -17t-21.5 -47q0 -13 7 -22t19 -15.5t27.5 -11.5t32.5 -10q29 14 43.5 32t14.5 44q0 47 -64 47z" />
    <glyph glyph-name="fiveeighths" unicode="&#x215d;" horiz-adv-x="1027" 
d="M361 695h-185l-21 -99q18 5 37.5 7.5t39.5 2.5q121 0 121 -92q0 -78 -44.5 -120.5t-126.5 -42.5q-75 0 -124 30l19 52q26 -15 50 -22.5t57 -7.5q52 0 76 24.5t24 73.5q0 27 -17 41t-58 14q-26 0 -52.5 -5t-45.5 -12l-25 18l45 193h236zM874 750l-610 -750h-72l610 750h72
zM792 -5q-72 0 -105.5 23.5t-33.5 70.5q0 38 21.5 68.5t63.5 48.5v2q-19 11 -30.5 28t-11.5 43q0 56 38 88t115 32q64 0 93 -21.5t29 -62.5q0 -70 -68 -106v-2q25 -10 41.5 -27.5t16.5 -49.5q0 -67 -44.5 -101t-124.5 -34zM801 46q41 0 65 18t24 47t-26 43.5t-71 28.5
q-29 -14 -50 -34t-21 -51q0 -26 18.5 -39t60.5 -13zM842 350q-37 0 -58.5 -17t-21.5 -47q0 -13 7 -22t19 -15.5t27.5 -11.5t32.5 -10q29 14 43.5 32t14.5 44q0 47 -64 47z" />
    <glyph glyph-name="seveneighths" unicode="&#x215e;" horiz-adv-x="1027" 
d="M383 692l-214 -336h-82l200 301q5 8 10.5 15.5t12.5 15.5l-1 2h-227l12 60h297zM874 750l-610 -750h-72l610 750h72zM792 -5q-72 0 -105.5 23.5t-33.5 70.5q0 38 21.5 68.5t63.5 48.5v2q-19 11 -30.5 28t-11.5 43q0 56 38 88t115 32q64 0 93 -21.5t29 -62.5
q0 -70 -68 -106v-2q25 -10 41.5 -27.5t16.5 -49.5q0 -67 -44.5 -101t-124.5 -34zM801 46q41 0 65 18t24 47t-26 43.5t-71 28.5q-29 -14 -50 -34t-21 -51q0 -26 18.5 -39t60.5 -13zM842 350q-37 0 -58.5 -17t-21.5 -47q0 -13 7 -22t19 -15.5t27.5 -11.5t32.5 -10
q29 14 43.5 32t14.5 44q0 47 -64 47z" />
    <glyph glyph-name="uni215F" unicode="&#x215f;" horiz-adv-x="561" 
d="M207 356h-70l37 269q2 10 3.5 20.5t4.5 19.5l-2 2q-16 -12 -35 -22l-60 -34l2 59l129 82h46zM777 750l-610 -750h-72l610 750h72z" />
    <glyph glyph-name="uni2189" unicode="&#x2189;" horiz-adv-x="978" 
d="M241 756q66 0 98 -32.5t32 -105.5q0 -14 -1.5 -30.5t-3.5 -34.5q-14 -105 -58 -153.5t-124 -48.5q-67 0 -99 33.5t-32 106.5q0 14 1.5 29.5t3.5 32.5q15 108 59 155.5t124 47.5zM233 701q-21 0 -38 -6.5t-30 -23t-23 -45.5t-16 -73q-2 -18 -3.5 -33t-1.5 -28
q0 -51 18 -69t52 -18q21 0 37.5 6.5t29.5 23t22.5 45.5t15.5 73q2 19 3.5 34.5t1.5 28.5q0 50 -17.5 67.5t-50.5 17.5zM840 750l-610 -750h-72l610 750h72zM808 399q62 0 95 -22.5t33 -65.5q0 -42 -22.5 -66t-57.5 -35v-2q32 -8 48.5 -26t16.5 -48q0 -63 -45 -101t-130 -38
q-41 0 -70 8t-55 24l23 50q23 -14 49.5 -22t59.5 -8q51 0 75.5 25t24.5 60q0 28 -25.5 40t-88.5 12l7 47q68 0 96 17.5t28 49.5q0 47 -73 47q-35 0 -63 -9t-54 -27l-11 48q26 18 62.5 30t76.5 12z" />
    <glyph glyph-name="partialdiff" unicode="&#x2202;" horiz-adv-x="632" 
d="M352 561q51 0 90 -16t65 -43l2 1q-2 91 -42.5 134.5t-124.5 43.5q-62 0 -109 -17t-89 -49l-17 64q49 36 105 58t135 22q48 0 90 -15t73.5 -46.5t49.5 -81.5t18 -119q0 -38 -6 -83q-13 -90 -44 -168t-78.5 -135.5t-110.5 -90.5t-138 -33q-100 0 -147.5 48t-47.5 136
q0 13 1 27t3 28q11 79 38.5 141t68.5 105t95.5 66t119.5 23zM483 374q1 5 1 14q0 19 -7.5 38t-23.5 33t-39.5 23t-54.5 9q-91 0 -152 -68.5t-79 -201.5q-3 -23 -3 -42q0 -119 117 -119q48 0 88.5 25.5t71.5 69t51.5 100.5t29.5 119z" />
    <glyph glyph-name="uni2206" unicode="&#x2206;" horiz-adv-x="755" 
d="M662 0h-669l404 754h71zM415 640q-3 -8 -8 -18t-10 -19l-272 -525h421l-121 522q-2 10 -4.5 21t-3.5 19h-2z" />
    <glyph glyph-name="product" unicode="&#x220f;" horiz-adv-x="745" 
d="M154 -152v826l-89 7l-2 69h622l-2 -68l-89 -7v-827h-89v820h-261v-820h-90z" />
    <glyph glyph-name="summation" unicode="&#x2211;" horiz-adv-x="703" 
d="M262 -7l-49 -59l2 -3h439l-2 -83h-559v57l306 404l-306 380v61h542l2 -84h-417l-1 -2l51 -60l230 -285v-22z" />
    <glyph glyph-name="minus" unicode="&#x2212;" 
d="M70 297l12 84h440l-12 -84h-440z" />
    <glyph glyph-name="uni2219" unicode="&#x2219;" 
d="M163 322q18 134 154 134q119 0 119 -104q0 -85 -42 -125.5t-115 -40.5q-118 0 -118 103v16q0 8 2 17z" />
    <glyph glyph-name="radical" unicode="&#x221a;" horiz-adv-x="586" 
d="M27 493h154l64 -353l3 -21q2 -9 3 -19h2q3 9 6.5 19t7.5 19l274 657h102l-344 -795h-115l-84 411h-85z" />
    <glyph glyph-name="infinity" unicode="&#x221e;" horiz-adv-x="742" 
d="M531 167q-57 0 -95.5 24t-67.5 66q-12 -19 -26.5 -35.5t-33 -28.5t-42.5 -19t-54 -7q-35 0 -65.5 12t-52.5 35t-34.5 57t-12.5 78q0 40 10.5 73.5t31.5 58t51.5 38t69.5 13.5q56 0 95 -24t68 -67q12 19 26.5 35.5t33 29t42.5 19.5t55 7q35 0 65 -12t52 -35.5t34.5 -58
t12.5 -78.5q0 -40 -10.5 -73t-31.5 -57t-51.5 -37.5t-69.5 -13.5zM528 450q-26 0 -44.5 -10.5t-32.5 -27.5t-25.5 -40t-22.5 -47q23 -38 51.5 -59.5t72.5 -21.5q43 0 65.5 29.5t22.5 73.5q0 50 -25 76.5t-62 26.5zM214 249q25 0 43 10t32 27.5t25.5 40t22.5 46.5
q-23 38 -50.5 59.5t-71.5 21.5q-43 0 -66 -29.5t-23 -73.5q0 -50 25.5 -76t62.5 -26z" />
    <glyph glyph-name="integral" unicode="&#x222b;" horiz-adv-x="318" 
d="M207 37q0 -100 -48.5 -147.5t-151.5 -47.5l-2 65q56 2 81 32t25 96v574q0 93 49.5 141t149.5 50l2 -67q-51 0 -77.5 -31t-26.5 -94z" />
    <glyph glyph-name="approxequal" unicode="&#x2248;" horiz-adv-x="650" 
d="M434 361q-30 0 -58.5 8.5t-56 19t-54.5 19t-52 8.5q-32 0 -58.5 -9t-52.5 -26v74q24 15 51.5 24t59.5 9q29 0 57.5 -8.5t56 -19t54.5 -19t53 -8.5q32 0 59.5 9.5t53.5 25.5v-73q-24 -15 -52.5 -24.5t-60.5 -9.5zM434 185q-30 0 -58.5 8.5t-56 19t-54.5 19t-52 8.5
q-32 0 -58.5 -9t-52.5 -26v73q24 15 51.5 24.5t59.5 9.5q29 0 57.5 -8.5t56 -19t54.5 -19t53 -8.5q32 0 59.5 9t53.5 26v-73q-24 -16 -52.5 -25t-60.5 -9z" />
    <glyph glyph-name="notequal" unicode="&#x2260;" horiz-adv-x="650" 
d="M475 556l-48 -94h120v-72h-157l-56 -109h213v-72h-249l-65 -127l-64 29l50 98h-117v72h154l56 109h-210v72h247l63 123z" />
    <glyph glyph-name="lessequal" unicode="&#x2264;" horiz-adv-x="650" 
d="M204 404q-9 -4 -19.5 -7t-19.5 -6v-2q9 -2 19 -5.5t20 -6.5l337 -116v-87l-442 174v86l442 181v-89zM103 52v73h438v-73h-438z" />
    <glyph glyph-name="greaterequal" unicode="&#x2265;" horiz-adv-x="650" 
d="M99 261l336 116q9 3 19 6.5t20 5.5v2q-10 3 -19.5 6t-19.5 7l-336 122v89l442 -181v-86l-442 -174v87zM99 52v73h437v-73h-437z" />
    <glyph glyph-name="dotmath" unicode="&#x22c5;" 
d="M308 402q55 0 55 -46q0 -33 -18 -52t-53 -19q-57 0 -57 44q0 35 18 54t55 19z" />
    <glyph glyph-name="lozenge" unicode="&#x25ca;" horiz-adv-x="613" 
d="M306 654l278 -324l-278 -324l-277 324zM306 128l175 202l-175 204l-174 -204z" />
    <glyph glyph-name="uniFB01" unicode="&#xfb01;" horiz-adv-x="620" 
d="M56 591h84q8 58 26.5 99t51 66t80.5 36.5t116 11.5l-3 -69q-38 0 -67.5 -5t-51 -20.5t-35.5 -44t-20 -74.5h248q22 0 41.5 2t40.5 5l-84 -598h-97l73 524h-232l-73 -524h-97l73 524h-87zM543 799q56 0 56 -40q0 -31 -18 -44.5t-52 -13.5q-28 0 -42 8.5t-14 29.5
q0 60 70 60z" />
    <glyph glyph-name="uniFB02" unicode="&#xfb02;" horiz-adv-x="593" 
d="M56 591h84q9 59 29.5 99.5t56 66t86.5 36.5t120 11q45 0 80 -3.5t62 -8.5l-111 -792h-97l103 736q-20 3 -45 3q-47 0 -80.5 -8t-55 -26t-34 -46t-17.5 -68h144l-12 -67h-142l-73 -524h-97l73 524h-87z" />
    <glyph glyph-name="uniFEFF" unicode="&#xfeff;" horiz-adv-x="0" 
 />
    <glyph glyph-name="dollar.dnom" horiz-adv-x="320" 
d="M236 462l-17 -78q41 -4 76 -18l-17 -51q-24 8 -45.5 12.5t-46.5 4.5q-44 0 -63 -17t-19 -39q0 -16 12.5 -25t31.5 -15t41.5 -12.5t41.5 -16.5t31.5 -26t12.5 -43q0 -54 -34 -87t-91 -40l-15 -76h-56l15 75q-27 2 -50.5 8.5t-41.5 18.5l17 53q24 -16 48.5 -22.5t55.5 -6.5
q38 0 61 16t23 45q0 16 -12.5 25.5t-31.5 16.5t-40.5 13.5t-40.5 17t-31.5 26t-12.5 41.5q0 45 30.5 80t94.5 42l17 78h56z" />
    <glyph glyph-name="dollar.pnum" horiz-adv-x="601" 
d="M445 823l-16 -64q40 -4 76 -13t59 -20l-20 -80q-29 11 -64 19.5t-71 12.5l-63 -254q34 -13 67 -28t58.5 -36.5t41 -51.5t15.5 -72q0 -63 -19.5 -109t-56.5 -76.5t-90 -45.5t-119 -16l-22 -72l-56 4l17 70q-48 5 -93.5 16.5t-77.5 31.5l25 84q35 -21 77 -35t87 -19l68 285
q-34 13 -67 28.5t-59.5 36t-42.5 48.5t-16 68q0 53 20 94.5t57 70.5t90 44.5t118 17.5l19 65zM254 66q87 1 137.5 35.5t50.5 107.5q0 25 -10 43.5t-27 33.5t-40 27t-49 23zM354 681q-46 0 -80 -10.5t-56 -28.5t-32.5 -41.5t-10.5 -50.5q0 -21 9.5 -37t26.5 -29t39.5 -23
t48.5 -19z" />
    <glyph glyph-name="dollar.oldstyle.pnum" horiz-adv-x="489" 
d="M371 731l-27 -129q30 -4 58.5 -12.5t50.5 -22.5l-37 -68q-29 14 -63 21.5t-69 7.5q-54 0 -89.5 -25.5t-35.5 -64.5q0 -27 19 -44t48 -30.5t62.5 -26.5t62.5 -31t48 -44t19 -67q0 -81 -49 -136t-137 -65l-27 -140h-77l28 139q-47 5 -86.5 20.5t-65.5 38.5l32 68
q29 -26 70.5 -40t83.5 -14q66 0 99.5 32t33.5 77q0 29 -19 48t-48 33.5t-62.5 27.5t-62.5 31t-48 44t-19 66q0 76 54.5 123.5t149.5 55.5l26 127h77z" />
    <glyph glyph-name="dollar.oldstyle" 
d="M496 175q-11 -74 -63 -125t-155 -61l-27 -138h-83l28 138q-49 4 -90.5 17.5t-72.5 36.5l26 80q36 -29 88.5 -43.5t101.5 -14.5q73 0 110 32.5t37 78.5q0 29 -23 46t-57 29.5t-74 23t-74 27.5t-57 43t-23 69q0 79 58 129.5t163 58.5l29 134h82l-29 -134q36 -4 70 -12.5
t65 -22.5l-21 -79q-83 36 -170 36q-64 0 -103.5 -25t-39.5 -67q0 -28 22.5 -43.5t56.5 -27t74 -21.5t74 -27t56.5 -43.5t22.5 -70.5q0 -5 -0.5 -11t-1.5 -13z" />
    <glyph glyph-name="s.aalt" horiz-adv-x="534" 
d="M326 659q51 0 97.5 -9t81.5 -27l-23 -74q-40 16 -79.5 24.5t-83.5 8.5q-40 0 -69 -9.5t-47.5 -25t-27.5 -35.5t-9 -41q0 -31 22.5 -49t56 -31t73 -25t73 -30.5t56 -47.5t22.5 -76q0 -51 -19 -92t-54 -70t-84 -45t-109 -16t-109.5 13t-87.5 37l26 77q39 -25 83.5 -38
t98.5 -13q73 0 116.5 34t43.5 92q0 32 -22.5 51.5t-56 33t-73 26t-73 30.5t-56 46t-22.5 73q0 42 16 80t48 66.5t79.5 45t111.5 16.5z" />
    <glyph glyph-name="eight.oldstyle.pnum" horiz-adv-x="603" 
d="M250 -10q-120 0 -175 39t-55 112q0 65 38 114t106 77v2q-33 17 -53.5 43.5t-20.5 70.5q0 86 61.5 137.5t189.5 51.5q106 0 154.5 -35.5t48.5 -99.5q0 -60 -31 -103t-87 -69v-2q22 -8 41 -19t33 -26.5t22 -35.5t8 -47q0 -104 -75 -157t-205 -53zM262 63q36 0 67 7t53.5 22
t35.5 38t13 55q0 28 -16 45.5t-42.5 30t-59.5 21t-66 18.5q-28 -11 -52 -25t-42 -31.5t-28 -40t-10 -49.5q0 -45 34 -68t113 -23zM330 566q-77 0 -112 -28.5t-35 -79.5q0 -19 8 -33t26.5 -26t49.5 -22t76 -22q59 23 86 53.5t27 75.5q0 40 -29 61t-97 21z" />
    <glyph glyph-name="eight.pnum" horiz-adv-x="625" 
d="M261 -9q-122 0 -179.5 43.5t-57.5 128.5q0 81 43.5 140.5t121.5 92.5v2q-37 20 -60.5 52t-23.5 86q0 102 65.5 162t198.5 60q109 0 160 -38.5t51 -113.5q0 -71 -36 -125t-104 -87v-2q25 -10 46 -22.5t37 -30.5t25 -42t9 -55q0 -17 -3 -36q-15 -109 -88.5 -162t-204.5 -53
zM271 362q-32 -15 -59 -32.5t-47 -40t-31.5 -50.5t-11.5 -64q0 -54 35.5 -81t117.5 -27q37 0 70.5 8.5t58 27t39 47.5t14.5 70q0 30 -10.5 50t-33 35t-58 28t-84.5 29zM358 684q-75 0 -117 -35t-42 -102q0 -29 13.5 -49t35.5 -34t51 -24t61 -19q66 29 97 68.5t31 98.5
q0 48 -31.5 72t-98.5 24z" />
    <glyph glyph-name="eight.oldstyle" 
d="M250 -10q-120 0 -175 38.5t-55 111.5q0 65 37.5 114.5t106.5 77.5v2q-33 17 -53.5 43.5t-20.5 70.5q0 43 15 77.5t46 59.5t78.5 38.5t111.5 13.5q106 0 154.5 -35.5t48.5 -99.5q0 -60 -31 -103t-87 -69v-2q22 -8 41 -19t33 -26.5t22 -35.5t8 -47q0 -104 -75 -157
t-205 -53zM262 63q36 0 67 7t53.5 22t35.5 38t13 55q0 28 -16 45.5t-42.5 30t-59.5 21t-66 18.5q-28 -11 -52 -25t-42 -31.5t-28 -40t-10 -49.5q0 -45 34 -68t113 -23zM329 566q-76 0 -111 -28.5t-35 -79.5q0 -21 9.5 -36t29 -26t50 -21t71.5 -20q58 23 85 53.5t27 75.5
q0 40 -29 61t-97 21z" />
    <glyph glyph-name="A.aalt" horiz-adv-x="663" 
d="M450 158h-298l-79 -158h-105l346 649h115l166 -649h-111zM359 577l-8 -18q-4 -9 -9 -19l-154 -309h246l-66 306q-2 10 -3.5 20t-3.5 20h-2z" />
    <glyph glyph-name="AE.aalt" horiz-adv-x="952" 
d="M585 571l-7 -199h272l-10 -70h-265l-9 -224h303l-12 -78h-393l5 158h-278l-109 -158h-118l476 649h498l-8 -78h-345zM484 581q-5 -9 -11 -17.5t-12 -17.5l-220 -316h231l11 309q1 13 1 21.5t2 19.5z" />
    <glyph glyph-name="B.aalt" horiz-adv-x="623" 
d="M387 649q92 0 137 -33.5t45 -98.5q0 -38 -9.5 -66.5t-26 -50t-37.5 -35.5t-45 -21v-2q51 -11 77.5 -42t26.5 -84q0 -100 -61.5 -158t-186.5 -58h-269l91 649h258zM141 74h177q31 0 57 7.5t44.5 24t28.5 43.5t10 67q0 87 -111 87h-174zM184 370h169q57 0 89 30.5t32 94.5
q0 42 -25 60t-76 18h-161z" />
    <glyph glyph-name="E.aalt" horiz-adv-x="577" 
d="M495 78l-13 -78h-444l91 649h429l-9 -79h-334l-28 -198h286l-10 -70h-286l-32 -224h350z" />
    <glyph glyph-name="oe.aalt" horiz-adv-x="994" 
d="M470 0l6 42q1 10 3 20.5t4 20.5l-2 1q-39 -49 -94.5 -72t-125.5 -23q-118 0 -173.5 55.5t-55.5 176.5q0 23 2 48.5t6 54.5q12 88 36.5 151.5t63 104t92 60t124.5 19.5q69 0 118.5 -20.5t75.5 -66.5l2 1q0 18 3 38l6 38h415l-8 -79h-329l-28 -197h280l-10 -71h-280
l-32 -224h344l-12 -78h-431zM508 324q5 29 6.5 54.5t1.5 47.5q0 44 -9 73.5t-28 47.5t-48 25.5t-69 7.5q-50 0 -87 -12t-63.5 -41.5t-43.5 -78.5t-27 -124q-4 -29 -6 -53.5t-2 -45.5q0 -89 38 -123.5t119 -34.5q50 0 86.5 12.5t62 42t42 79t27.5 123.5z" />
    <glyph glyph-name="F.aalt" horiz-adv-x="555" 
d="M214 569l-28 -203h292l-11 -76h-292l-40 -290h-97l91 649h428l-9 -80h-334z" />
    <glyph glyph-name="g.aalt" horiz-adv-x="620" 
d="M401 660q50 0 98 -9t83 -24l-22 -79q-35 14 -76 23t-88 9q-58 0 -101 -12.5t-73.5 -42.5t-50 -79.5t-29.5 -122.5q-4 -25 -5.5 -46.5t-1.5 -41.5q0 -46 10.5 -77.5t32 -51.5t55 -29t80.5 -9q34 0 63.5 5t55.5 14l36 255h88l-45 -316q-40 -17 -94.5 -27.5t-111.5 -10.5
q-142 0 -207 58.5t-65 183.5q0 21 1.5 44t5.5 49q12 87 39.5 151t71.5 105t106 61t144 20z" />
    <glyph glyph-name="H.aalt" horiz-adv-x="694" 
d="M458 0l41 296h-323l-41 -296h-97l91 649h97l-39 -273h323l39 273h98l-91 -649h-98z" />
    <glyph glyph-name="Euro.oldstyle.pnum" 
d="M417 660q52 0 99.5 -10.5t81.5 -28.5l-36 -72q-27 14 -61.5 22t-72.5 8q-97 0 -150.5 -39t-79.5 -122h307l-26 -50h-293q-5 -18 -7.5 -38.5t-2.5 -36.5h271l-26 -49h-247q1 -96 46.5 -136.5t134.5 -40.5q84 0 156 42l-1 -72q-36 -23 -84.5 -36.5t-105.5 -13.5
q-131 0 -193 63t-62 194h-48l7 49h43q2 21 4.5 39.5t6.5 35.5h-44l7 50h49q34 118 113.5 180t213.5 62z" />
    <glyph glyph-name="Euro.pnum" horiz-adv-x="663" 
d="M464 289h-257q0 -119 46.5 -170t147.5 -51q43 0 87 12t85 35l-1 -71q-42 -25 -95 -38.5t-110 -13.5q-136 0 -198 66.5t-62 206.5q0 6 0.5 12t0.5 12h-87l8 54h83q3 33 9 64h-83l7 55h87q36 142 124.5 218t224.5 76q52 0 97.5 -9t75.5 -26l-31 -74q-32 15 -62 22t-72 7
q-101 0 -164 -54t-93 -160h306l-20 -55h-298q-6 -31 -9 -64h274z" />
    <glyph glyph-name="Euro.oldstyle" 
d="M562 549q-27 14 -61.5 22t-72.5 8q-95 0 -149.5 -39t-80.5 -122h307l-26 -53h-293q-5 -16 -7.5 -36t-2.5 -36h272l-27 -51h-246q2 -94 48 -134.5t132 -40.5q42 0 83 10.5t76 32.5l-4 -73q-36 -23 -84.5 -36.5t-105.5 -13.5q-130 0 -192.5 62t-62.5 193h-48l7 51h43
q2 20 5.5 41.5t5.5 30.5h-44l7 53h49q34 118 113.5 180t213.5 62q52 0 99.5 -10.5t81.5 -28.5z" />
    <glyph glyph-name="C.aalt" horiz-adv-x="557" 
d="M391 660q43 0 86.5 -9.5t71.5 -21.5l-23 -77q-26 12 -63 20.5t-79 8.5q-55 0 -96 -13.5t-70 -43.5t-47.5 -78t-28.5 -117q-4 -26 -5.5 -48t-1.5 -42q0 -96 43.5 -134t135.5 -38q42 0 80 9t71 24l1 -73q-35 -17 -81.5 -27.5t-93.5 -10.5q-131 0 -194 60t-63 187
q0 22 1.5 45t5.5 49q23 166 107.5 248t242.5 82z" />
    <glyph glyph-name="Ccedilla.aalt" horiz-adv-x="557" 
d="M245 -9q-108 10 -159.5 70t-51.5 175q0 22 1.5 45t5.5 49q23 166 107.5 248t242.5 82q43 0 86.5 -9.5t71.5 -21.5l-23 -77q-26 12 -63 20.5t-79 8.5q-55 0 -96 -13.5t-70 -43.5t-47.5 -78t-28.5 -117q-4 -26 -5.5 -48t-1.5 -42q0 -96 43.5 -134t135.5 -38q42 0 80 9
t71 24l1 -73q-32 -15 -72 -25t-82 -12l-60 -181h-92z" />
    <glyph glyph-name="cent.dnom" horiz-adv-x="320" 
d="M282 311q-16 7 -34.5 12t-37.5 5q-68 0 -99 -39t-31 -128q0 -50 23 -71.5t68 -21.5q22 0 42.5 6t39.5 16l-1 -50q-33 -21 -82 -25l-16 -80h-58l18 81q-108 15 -108 136q0 106 43.5 165t128.5 67l16 78h58l-17 -80q17 -2 31.5 -6.5t26.5 -9.5z" />
    <glyph glyph-name="cent.pnum" horiz-adv-x="505" 
d="M414 731l-27 -130q50 -7 95 -32l-36 -68q-26 12 -50.5 17.5t-59.5 5.5q-83 0 -132.5 -54.5t-65.5 -174.5q-6 -47 -6 -81q0 -83 33 -115t92 -32q43 0 76.5 14t62.5 40l26 -58q-32 -29 -67 -46.5t-79 -23.5l-27 -139h-77l27 138q-78 7 -122 58t-44 159q0 20 1.5 43t5.5 48
q20 146 88.5 221.5t181.5 82.5l27 127h77z" />
    <glyph glyph-name="cent.oldstyle.pnum" horiz-adv-x="501" 
d="M413 731l-28 -130q27 -4 51 -11.5t46 -20.5l-36 -68q-26 12 -50.5 17.5t-59.5 5.5q-83 0 -132.5 -54.5t-65.5 -174.5q-6 -47 -6 -81q0 -83 33 -115t92 -32q43 0 76.5 14t62.5 40l26 -58q-31 -29 -66 -46.5t-78 -22.5l-27 -140h-77l26 137q-78 7 -122.5 58t-44.5 159
q0 21 1.5 43.5t5.5 48.5q20 146 88.5 221.5t180.5 82.5l27 127h77z" />
    <glyph glyph-name="cent.oldstyle" 
d="M469 736l-29 -137q34 -3 65 -11t55 -19l-17 -81q-29 14 -66 22.5t-75 8.5q-55 0 -95.5 -13t-68.5 -39.5t-45 -68t-25 -98.5q-2 -17 -3.5 -33t-1.5 -30q0 -91 46 -129.5t130 -38.5q42 0 81.5 9.5t73.5 29.5l-2 -75q-29 -18 -70 -30t-89 -15l-29 -139h-80l29 141
q-195 23 -195 231q0 173 76.5 271t225.5 108l29 136h80z" />
    <glyph glyph-name="D.aalt" horiz-adv-x="670" 
d="M370 649q134 0 195.5 -55.5t61.5 -175.5q0 -21 -1.5 -44t-5.5 -48q-24 -173 -108 -249.5t-232 -76.5h-242l91 649h241zM146 80h143q50 0 88.5 11t66.5 39t46.5 76t28.5 121q3 24 5 45t2 39q0 89 -41.5 123.5t-127.5 34.5h-143z" />
    <glyph glyph-name="Eth.aalt" horiz-adv-x="678" 
d="M377 649q134 0 195.5 -55.5t61.5 -175.5q0 -21 -1.5 -44t-5.5 -48q-24 -173 -108 -249.5t-232 -76.5h-242l43 308h-78l9 65h78l39 276h241zM194 373h131l-9 -65h-131l-32 -228h143q50 0 88.5 11t66.5 39t46.5 76t28.5 121q3 24 5 45t2 39q0 89 -41.5 123.5t-127.5 34.5
h-143z" />
    <glyph glyph-name="i.aalt" horiz-adv-x="299" 
d="M141 649h100l-91 -649h-100z" />
    <glyph glyph-name="one.pnum" horiz-adv-x="475" 
d="M301 0h-104l80 579q2 11 3.5 20.5t4.5 19.5l-2 2q-8 -6 -16.5 -12t-17.5 -11l-135 -83v86l231 151h61z" />
    <glyph glyph-name="one.oldstyle.pnum" horiz-adv-x="468" 
d="M295 0h-99l65 468q2 9 3.5 19.5t4.5 20.5l-2 2q-16 -12 -35 -22l-124 -72v81l216 133h59z" />
    <glyph glyph-name="one.oldstyle" 
d="M69 60h174l58 413q2 10 3.5 20.5t4.5 19.5l-2 2q-8 -5 -17.5 -10.5t-17.5 -10.5l-177 -95v81l268 150h59l-80 -570h158l-8 -60h-431z" />
    <glyph glyph-name="j.aalt" horiz-adv-x="460" 
d="M362 210q-17 -118 -80.5 -170t-158.5 -52q-41 0 -75.5 10t-57.5 28l19 77q20 -17 49 -26.5t58 -9.5q65 0 100.5 34.5t46.5 107.5l62 440h99z" />
    <glyph glyph-name="K.aalt" horiz-adv-x="650" 
d="M453 0l-178 300h-98l-42 -300h-97l91 649h97l-39 -274h102l250 274h115l-282 -306l205 -343h-124z" />
    <glyph glyph-name="L.aalt" horiz-adv-x="531" 
d="M468 80l-14 -80h-416l91 649h97l-80 -569h322z" />
    <glyph glyph-name="Lslash.aalt" horiz-adv-x="551" 
d="M488 80l-14 -80h-416l39 276l-78 -32l5 74l83 34l42 297h97l-37 -259l212 95l-4 -76l-219 -97l-32 -232h322z" />
    <glyph glyph-name="M.aalt" horiz-adv-x="844" 
d="M238 649l140 -487q3 -11 5.5 -20.5t4.5 -18.5h2q7 16 19 36l280 490h108l-91 -649h-89l64 462q2 10 4.5 25t4.5 25l-2 1l-284 -513h-66l-143 504h-2q-1 -10 -1.5 -20.5t-2.5 -20.5l-64 -463h-87l91 649h109z" />
    <glyph glyph-name="N.aalt" horiz-adv-x="699" 
d="M483 0l-288 506l-2 -1q-1 -10 -1.5 -20.5t-2.5 -20.5l-64 -464h-87l91 649h87l280 -491l2 1q0 10 1 20t3 20l63 450h87l-91 -649h-78z" />
    <glyph glyph-name="Oslash.aalt" horiz-adv-x="666" 
d="M-5 25l62 66q-25 50 -25 130q0 23 2 48.5t6 54.5q12 88 37 151t65.5 104t97.5 60.5t135 19.5q131 0 188 -56l63 63l39 -40l-67 -69q25 -50 25 -132q0 -23 -2 -48t-6 -53q-12 -88 -37 -151.5t-65 -104t-97 -60t-135 -19.5q-131 0 -190 56l-57 -60zM513 324q4 29 6 53t2 45
q0 19 -1.5 35.5t-3.5 31.5l-360 -369q19 -29 52 -41t84 -12q50 0 87 12.5t63 42.5t43 79t28 123zM141 324q-4 -28 -6 -52t-2 -45q0 -19 1.5 -35.5t3.5 -30.5l359 369q-19 27 -51.5 38.5t-81.5 11.5q-51 0 -88 -12t-63.5 -41.5t-44 -79t-27.5 -123.5z" />
    <glyph glyph-name="O.aalt" horiz-adv-x="666" 
d="M375 659q131 0 189.5 -55.5t58.5 -176.5q0 -23 -2 -48.5t-6 -54.5q-12 -88 -37 -151.5t-65 -104t-97 -60t-135 -19.5q-130 0 -189.5 56t-59.5 178q0 23 2 48t6 53q12 88 37 151t65.5 104t97.5 60.5t135 19.5zM364 581q-51 0 -88 -12t-63.5 -41.5t-44 -79t-27.5 -124.5
q-4 -28 -6 -52.5t-2 -45.5q0 -45 9.5 -75.5t29 -49.5t50 -27t71.5 -8q50 0 87 12.5t63 42.5t42.5 79.5t27.5 123.5q4 29 6 54t2 47q0 44 -9 74t-28.5 48t-49 26t-70.5 8z" />
    <glyph glyph-name="Q.aalt" horiz-adv-x="681" 
d="M383 659q131 0 189.5 -55.5t58.5 -176.5q0 -23 -2 -48.5t-6 -54.5q-21 -148 -78 -227t-166 -98l133 -111l-117 -18l-125 119q-120 4 -175 60.5t-55 173.5q0 23 2 48t6 53q12 88 37 151t65.5 104t97.5 60.5t135 19.5zM372 581q-51 0 -88 -12t-63.5 -41.5t-44 -79
t-27.5 -124.5q-4 -28 -6 -52.5t-2 -45.5q0 -45 9.5 -75.5t29 -49.5t50 -27t71.5 -8q50 0 87 12.5t63 42.5t42.5 79.5t27.5 123.5q4 29 6 54t2 47q0 44 -9 74t-28.5 48t-49 26t-70.5 8z" />
    <glyph glyph-name="zero.dnom" horiz-adv-x="369" 
d="M191 400q66 0 98 -32.5t32 -105.5q0 -14 -1.5 -30.5t-3.5 -34.5q-14 -105 -58 -153.5t-124 -48.5q-67 0 -99 33.5t-32 106.5q0 14 1.5 29.5t3.5 32.5q15 108 59 155.5t124 47.5zM183 345q-21 0 -38 -6.5t-30 -23t-23 -45.5t-16 -73q-2 -18 -3.5 -33t-1.5 -28
q0 -51 18 -69t52 -18q21 0 37.5 6.5t29.5 23t22.5 45.5t15.5 73q2 19 3.5 34.5t1.5 28.5q0 50 -17.5 67.5t-50.5 17.5z" />
    <glyph glyph-name="zero.pnum" horiz-adv-x="634" 
d="M374 759q57 0 99.5 -13t70 -42t41 -75.5t13.5 -113.5q0 -31 -3 -66t-8 -75q-15 -104 -40.5 -177.5t-64.5 -119.5t-93 -67t-124 -21q-116 0 -170.5 57.5t-54.5 189.5q0 30 3 64.5t8 73.5q15 107 40.5 180.5t64.5 119t92.5 65.5t125.5 20zM363 678q-44 0 -78 -13
t-59.5 -46.5t-44 -92.5t-31.5 -151q-12 -83 -12 -138q0 -50 9 -82.5t26.5 -51.5t43.5 -26.5t60 -7.5q43 0 76.5 13t59 47.5t44 93.5t31.5 152q12 81 12 137q0 49 -9 81t-26 51t-43 26.5t-59 7.5z" />
    <glyph glyph-name="zero.pnum.zero" horiz-adv-x="634" 
d="M322 423q36 0 36 -38q0 -33 -14.5 -47t-35.5 -14q-17 0 -27 7t-10 27q0 33 14 49t37 16zM374 759q57 0 99.5 -13t70 -42t41 -75.5t13.5 -113.5q0 -31 -3 -66t-8 -75q-15 -104 -40.5 -177.5t-64.5 -119.5t-93 -67t-124 -21q-116 0 -170.5 57.5t-54.5 189.5q0 30 3 64.5
t8 73.5q15 107 40.5 180.5t64.5 119t92.5 65.5t125.5 20zM363 678q-44 0 -78 -13t-59.5 -46.5t-44 -92.5t-31.5 -151q-12 -83 -12 -138q0 -50 9 -82.5t26.5 -51.5t43.5 -26.5t60 -7.5q43 0 76.5 13t59 47.5t44 93.5t31.5 152q12 81 12 137q0 49 -9 81t-26 51t-43 26.5
t-59 7.5z" />
    <glyph glyph-name="zero.oldstyle.pnum" horiz-adv-x="626" 
d="M353 638q112 0 166 -52.5t54 -169.5q0 -23 -2 -49t-6 -55q-12 -84 -35.5 -145t-60.5 -100.5t-88.5 -58t-119.5 -18.5q-115 0 -168 53t-53 169q0 23 2 47.5t6 52.5q12 87 35.5 148.5t60.5 101t88.5 58t120.5 18.5zM342 559q-42 0 -74 -11.5t-56.5 -39.5t-41 -75.5
t-26.5 -119.5q-4 -27 -5.5 -50t-1.5 -43q0 -87 34 -119.5t102 -32.5q41 0 73 11.5t55.5 39.5t39.5 75t26 119q4 28 6 52t2 45q0 42 -8.5 71t-25 46t-41.5 24.5t-58 7.5z" />
    <glyph glyph-name="zero.oldstyle.pnum.zero" horiz-adv-x="626" 
d="M353 638q112 0 166 -52.5t54 -169.5q0 -23 -2 -49t-6 -55q-12 -84 -35.5 -145t-60.5 -100.5t-88.5 -58t-119.5 -18.5q-115 0 -168 53t-53 169q0 23 2 47.5t6 52.5q12 87 35.5 148.5t60.5 101t88.5 58t120.5 18.5zM340 553q-42 0 -75 -11.5t-57 -39t-40.5 -73.5
t-26.5 -116q-4 -26 -5.5 -48t-1.5 -42q0 -43 9 -71.5t26 -46t43 -25t61 -7.5q43 0 75.5 11.5t56.5 39t40 73.5t26 116q4 26 6 49t2 43q0 84 -35 116t-104 32zM314 364q36 0 36 -38q0 -33 -14.5 -47t-35.5 -14q-17 0 -27 7t-10 27q0 33 14 49t37 16z" />
    <glyph glyph-name="zero.oldstyle" 
d="M339 638q113 0 166 -52t53 -169q0 -23 -2 -49.5t-6 -55.5q-12 -84 -35.5 -145t-60 -100.5t-88 -58t-119.5 -18.5q-115 0 -168.5 53t-53.5 169q0 23 2 47.5t6 52.5q12 87 36 148.5t61 101t88.5 58t120.5 18.5zM328 559q-42 0 -74 -11.5t-56.5 -39.5t-41 -75.5
t-26.5 -119.5q-4 -27 -5.5 -50.5t-1.5 -43.5q0 -44 8.5 -73t25.5 -46.5t42.5 -25t59.5 -7.5q41 0 73 11.5t55.5 39.5t39.5 75.5t26 119.5q4 28 6 52.5t2 44.5q0 43 -8.5 71.5t-25 45.5t-41.5 24.5t-58 7.5z" />
    <glyph glyph-name="zero.oldstyle.zero" 
d="M298 362q36 0 36 -38q0 -33 -14.5 -47t-35.5 -14q-17 0 -27 7t-10 27q0 33 14 49t37 16zM339 638q113 0 166 -52t53 -169q0 -23 -2 -49.5t-6 -55.5q-12 -84 -35.5 -145t-60 -100.5t-88 -58t-119.5 -18.5q-115 0 -168.5 53t-53.5 169q0 23 2 47.5t6 52.5q12 87 36 148.5
t61 101t88.5 58t120.5 18.5zM328 559q-42 0 -74 -11.5t-56.5 -39.5t-41 -75.5t-26.5 -119.5q-4 -27 -5.5 -50.5t-1.5 -43.5q0 -44 8.5 -73t25.5 -46.5t42.5 -25t59.5 -7.5q41 0 73 11.5t55.5 39.5t39.5 75.5t26 119.5q4 28 6 52.5t2 44.5q0 43 -8.5 71.5t-25 45.5
t-41.5 24.5t-58 7.5z" />
    <glyph glyph-name="zero.zero" horiz-adv-x="650" 
d="M331 423q36 0 36 -38q0 -33 -14.5 -47t-35.5 -14q-17 0 -27 7t-10 27q0 33 14 49t37 16zM595 374q-15 -104 -40.5 -177.5t-64.5 -119.5t-93 -67t-124 -21q-116 0 -170.5 57.5t-54.5 189.5q0 30 3 64.5t8 73.5q15 107 40.5 180.5t64.5 119t92.5 65.5t125.5 20
q57 0 99.5 -13t70 -42t41 -75.5t13.5 -113.5q0 -31 -3 -66t-8 -75zM496 375q12 81 12 137q0 49 -9 81t-26 51t-43 26.5t-59 7.5q-44 0 -78 -13t-59.5 -46.5t-44 -92.5t-31.5 -151q-12 -83 -12 -138q0 -50 9 -82t26.5 -51.5t43 -27t59.5 -7.5q43 0 77 13t59.5 47.5t44 93.5
t31.5 152z" />
    <glyph glyph-name="P.aalt" horiz-adv-x="605" 
d="M362 649q112 0 163.5 -38t51.5 -119q0 -11 -1 -22.5t-3 -24.5q-14 -100 -77 -151t-191 -51h-136l-34 -243h-97l91 649h233zM179 314h136q36 0 63 6t46.5 21t31.5 40t17 64q3 19 3 35q0 53 -30.5 73.5t-94.5 20.5h-136z" />
    <glyph glyph-name="Thorn.aalt" horiz-adv-x="605" 
d="M328 536q123 0 178 -38.5t55 -119.5q0 -121 -69 -185t-221 -64h-118l-18 -129h-97l91 649h97l-16 -113h118zM163 201h118q42 0 72.5 6t52 21t34 40.5t17.5 63.5q3 18 3 33q0 54 -34 75t-109 21h-118z" />
    <glyph glyph-name="R.aalt" horiz-adv-x="623" 
d="M367 649q102 0 150.5 -36.5t48.5 -111.5q0 -91 -44.5 -145t-116.5 -67l138 -289h-118l-115 272h-137l-38 -272h-97l91 649h238zM182 341h137q72 0 108 34.5t36 117.5q0 44 -25.5 63t-82.5 19h-140z" />
    <glyph glyph-name="T.aalt" horiz-adv-x="539" 
d="M349 570l-80 -570h-99l80 570h-205l12 79h506l-9 -79h-205z" />
    <glyph glyph-name="product.aalt" horiz-adv-x="747" 
d="M82 -150l117 829l-88 7l6 64h625l-12 -63l-89 -7l-117 -830h-91l116 824h-260l-116 -824h-91z" />
    <glyph glyph-name="U.aalt" horiz-adv-x="685" 
d="M592 243q-19 -133 -96.5 -194t-204.5 -61q-113 0 -173 47t-60 150q0 14 1 28t3 30l57 406h97l-57 -407q-3 -24 -3 -44q0 -67 36 -98.5t110 -31.5q86 0 132.5 42t59.5 132l57 407h98z" />
    <glyph glyph-name="V.aalt" horiz-adv-x="648" 
d="M667 649l-338 -649h-110l-156 649h110l106 -526q2 -11 4 -21.5t3 -18.5h2q7 18 17 37l258 529h104z" />
    <glyph glyph-name="W.aalt" horiz-adv-x="943" 
d="M568 649l60 -527q2 -11 2 -20.5t1 -20.5h2q3 9 6 19.5t7 19.5l193 529h98l-259 -649h-119l-56 519q-2 14 -2.5 22.5t-0.5 18.5h-2q-2 -10 -6 -19.5t-7 -18.5l-201 -522h-119l-77 649h103l42 -528q1 -10 1.5 -20.5t0.5 -20.5h2q3 9 6.5 19t7.5 19l209 531h108z" />
    <glyph glyph-name="X.aalt" horiz-adv-x="654" 
d="M314 430q5 -8 9 -18t8 -19h2q5 8 11.5 16.5t12.5 16.5l172 223h115l-252 -313l175 -336h-115l-120 245q-5 8 -9 18t-8 19h-2q-5 -8 -11 -16.5t-12 -16.5l-186 -249h-117l264 339l-165 310h120z" />
    <glyph glyph-name="yen.pnum" horiz-adv-x="723" 
d="M280 338l-164 412h119l114 -371q3 -10 6 -20.5t5 -18.5h2l9 18q5 10 10 18l219 374h116l-274 -412h111l-8 -56h-135l-7 -52h136l-8 -55h-136l-24 -175h-113l24 175h-137l8 55h137l7 52h-137l8 56h112z" />
    <glyph glyph-name="yen.oldstyle.pnum" 
d="M215 291l-147 358h106l105 -303q4 -11 6.5 -20.5t5.5 -18.5h2q4 8 9.5 17.5t10.5 17.5l192 307h104l-245 -358h101l-7 -50h-124l-7 -53h124l-7 -48h-124l-19 -140h-102l19 140h-125l7 48h125l7 53h-125l7 50h101z" />
    <glyph glyph-name="yen.oldstyle" 
d="M215 291l-147 358h106l105 -303q4 -11 6.5 -20.5t5.5 -18.5h2q4 8 9.5 17.5t10.5 17.5l192 307h104l-245 -358h101l-7 -50h-124l-7 -53h124l-7 -48h-124l-19 -140h-102l19 140h-125l7 48h125l7 53h-125l7 50h101z" />
    <glyph glyph-name="Y.aalt" horiz-adv-x="629" 
d="M176 649l119 -313q5 -11 8 -20t5 -18h2q5 8 10 16.5t11 17.5l207 317h110l-300 -427l-31 -222h-102l31 222l-183 427h113z" />
    <glyph glyph-name="summation.aalt" horiz-adv-x="704" 
d="M178 -45l-27 -27v-2h443l-13 -76h-560l8 52l366 407l-255 383l8 58h543l-8 -78h-422l-1 -2q6 -8 12 -15.5t11 -15.5l213 -320l-3 -21z" />
    <glyph glyph-name="Z.aalt" horiz-adv-x="579" 
d="M-2 0l8 59l409 480q13 17 27 29l-1 2h-352l15 79h463l-10 -67l-401 -473q-7 -8 -13.5 -15t-13.5 -13l1 -2h359l-13 -79h-478z" />
    <glyph glyph-name="two.pnum" horiz-adv-x="631" 
d="M367 758q109 0 164.5 -44.5t55.5 -124.5q0 -64 -31 -124t-86.5 -120.5t-133 -123.5t-169.5 -133v-3h356l-14 -85h-485l8 64q86 72 166.5 139t143 129.5t100.5 121t38 113.5q0 46 -33 76.5t-109 30.5q-54 0 -106 -21t-97 -53l-17 75q49 36 113 59.5t136 23.5z" />
    <glyph glyph-name="two.oldstyle.pnum" horiz-adv-x="589" 
d="M328 637q106 0 158.5 -41.5t52.5 -110.5q0 -55 -27.5 -104t-78 -97t-120.5 -97t-155 -105v-3h330l-14 -79h-458l8 61q81 60 155.5 114t132 103t91.5 95.5t34 91.5q0 39 -31 65.5t-103 26.5q-51 0 -100.5 -17.5t-92.5 -46.5l-16 71q47 32 107.5 52.5t126.5 20.5z" />
    <glyph glyph-name="two.oldstyle" 
d="M334 637q105 0 157.5 -41.5t52.5 -110.5q0 -56 -27.5 -105t-78 -97t-121.5 -97.5t-158 -106.5v-3h334l-13 -76h-458l8 61q81 60 155.5 114t131.5 103t91 95.5t34 91.5q0 40 -31 65.5t-103 25.5q-51 0 -100.5 -17t-91.5 -46l-17 71q47 32 107.5 52.5t127.5 20.5z" />
    <glyph glyph-name="seven.dnom" horiz-adv-x="369" 
d="M333 336l-214 -336h-82l200 301q5 8 10.5 15.5t12.5 15.5l-1 2h-227l12 60h297z" />
    <glyph glyph-name="seven.pnum" horiz-adv-x="627" 
d="M620 670l-406 -670h-115l401 628q10 16 23 32l-1 2h-422l17 88h514z" />
    <glyph glyph-name="seven.oldstyle.pnum" horiz-adv-x="582" 
d="M559 552l-393 -653h-110l376 609q5 9 10.5 16.5t11.5 15.5l-1 2h-381l19 86h479z" />
    <glyph glyph-name="seven.oldstyle" 
d="M570 552l-393 -653h-109l375 607q5 9 10.5 16.5t11.5 15.5l-1 2h-382l19 88h480z" />
    <glyph glyph-name="three.dnom" horiz-adv-x="354" 
d="M184 399q62 0 95 -22.5t33 -65.5q0 -42 -22.5 -66t-57.5 -35v-2q32 -8 48.5 -26t16.5 -48q0 -63 -45 -101t-130 -38q-41 0 -70 8t-55 24l23 50q23 -14 49.5 -22t59.5 -8q51 0 75.5 25t24.5 60q0 28 -25.5 40t-88.5 12l7 47q68 0 96 17.5t28 49.5q0 47 -73 47
q-35 0 -63 -9t-54 -27l-11 48q26 18 62.5 30t76.5 12z" />
    <glyph glyph-name="three.pnum" horiz-adv-x="631" 
d="M360 758q106 0 163.5 -41t57.5 -118q0 -40 -11.5 -72t-31.5 -56.5t-47.5 -42t-60.5 -27.5v-2q60 -15 92 -49.5t32 -92.5q0 -59 -20.5 -108t-60.5 -84t-97.5 -54.5t-132.5 -19.5t-127.5 17.5t-88.5 43.5l31 75q40 -27 86.5 -42t106.5 -15q49 0 87 14t64.5 38.5t40 58
t13.5 72.5q0 58 -50.5 84t-170.5 26l9 70q130 0 186 38.5t56 109.5q0 49 -37 72.5t-105 23.5q-62 0 -112.5 -19.5t-97.5 -53.5l-16 72q45 34 107.5 58t134.5 24z" />
    <glyph glyph-name="three.oldstyle.pnum" horiz-adv-x="579" 
d="M308 638q52 0 90.5 -10.5t63.5 -29.5t37 -44.5t12 -56.5q0 -61 -32.5 -105.5t-91.5 -66.5v-2q56 -15 81.5 -48t25.5 -81q0 -71 -31.5 -126.5t-89 -95t-138 -61t-177.5 -23.5l2 75q88 2 152 20t106 47.5t62.5 68t20.5 82.5q0 47 -34 72.5t-104 25.5q-16 0 -35 -2t-35 -4
l4 64q65 7 108 19.5t68.5 30t36 40.5t10.5 51q0 36 -29 58.5t-100 22.5q-57 0 -104 -15.5t-90 -44.5l-15 70q41 31 101.5 50t124.5 19z" />
    <glyph glyph-name="three.oldstyle" 
d="M322 638q103 0 152 -39.5t49 -101.5q0 -61 -32 -105.5t-91 -66.5v-2q56 -15 81.5 -48t25.5 -81q0 -71 -31.5 -126.5t-88.5 -95t-137.5 -61t-178.5 -23.5l1 75q88 2 152.5 20t106.5 47.5t62.5 68t20.5 82.5q0 47 -34 72.5t-105 25.5q-15 0 -34.5 -2t-34.5 -4l4 64
q66 7 109 19.5t68.5 30t35.5 40.5t10 51q0 36 -28.5 58.5t-99.5 22.5q-56 0 -104 -15.5t-92 -44.5l-15 70q42 31 103.5 50t124.5 19z" />
    <glyph glyph-name="four.pnum" horiz-adv-x="646" 
d="M479 165l-23 -165h-94l23 165h-347v61l399 524h124l-71 -506h94l-14 -79h-91zM458 624q3 19 8 41l-2 1q-5 -8 -11.5 -17t-12.5 -17l-266 -356q-13 -18 -25 -30l1 -2h249z" />
    <glyph glyph-name="four.oldstyle.pnum" horiz-adv-x="615" 
d="M458 69l-24 -173l-91 -6l25 179h-363v60l425 508l107 -7l-69 -489h89l-14 -72h-85zM440 509q3 19 8 41l-2 1q-5 -8 -12 -16.5t-13 -16.5l-286 -346q-7 -8 -13 -15t-13 -14l1 -2h271z" />
    <glyph glyph-name="four.oldstyle" 
d="M460 143h88l-14 -74h-85l-24 -173l-91 -6l25 179h-364v60l425 508l108 -7zM431 512q3 19 8 41l-2 1q-6 -8 -12 -16.5t-13 -16.5l-286 -347q-7 -8 -13 -15t-13 -14l1 -2h272z" />
    <glyph glyph-name="five.pnum" horiz-adv-x="604" 
d="M565 665h-334l-40 -178q-2 -10 -4.5 -20t-5.5 -19l1 -1q37 13 75 19t76 6q105 0 158.5 -41.5t53.5 -127.5q0 -11 -1 -23t-3 -24q-18 -129 -92 -197t-208 -68q-67 0 -118.5 16t-92.5 45l30 76q40 -27 82 -42.5t100 -15.5q91 0 138.5 44.5t59.5 132.5q3 18 3 35
q0 59 -36.5 85.5t-111.5 26.5q-49 0 -97 -11.5t-83 -28.5l-33 36l81 360h410z" />
    <glyph glyph-name="five.oldstyle.pnum" horiz-adv-x="568" 
d="M515 545h-319l-35 -162q-2 -11 -4.5 -20.5t-5.5 -18.5l1 -1q35 13 71.5 19t74.5 6q100 0 149 -41t49 -115q0 -71 -30.5 -130t-87.5 -101.5t-139 -66.5t-186 -26l3 79q84 1 148 18.5t106.5 47.5t64.5 71t22 89q0 49 -31.5 74t-103.5 25q-54 0 -98.5 -12t-78.5 -29l-31 35
l77 342h391z" />
    <glyph glyph-name="five.oldstyle" 
d="M530 544h-319l-35 -161q-2 -11 -5 -20.5t-5 -18.5l1 -1q70 25 142 25q100 0 151 -41t51 -116q0 -71 -30.5 -129.5t-87.5 -101t-139 -66.5t-185 -26l2 79q82 1 146 18.5t107 46.5t65.5 69t22.5 88q0 100 -143 100q-48 0 -91.5 -11t-77.5 -28l-31 36l77 342h391z" />
    <glyph glyph-name="six.pnum" horiz-adv-x="619" 
d="M419 759q46 0 85 -7t77 -23l-19 -79q-35 14 -67.5 20t-74.5 6q-109 0 -174 -63.5t-91 -199.5l1 -1q42 30 93 47.5t104 17.5q106 0 156.5 -42t50.5 -128q0 -11 -1 -23t-3 -26q-19 -134 -93.5 -200.5t-198.5 -66.5q-54 0 -96 13t-70.5 42t-43.5 75.5t-15 113.5q0 52 9 117
q29 207 123 307t248 100zM323 405q-21 0 -45 -5.5t-48 -15t-45.5 -23.5t-37.5 -32q-4 -27 -5.5 -50.5t-1.5 -44.5q0 -89 32.5 -126t101.5 -37q77 0 123 46.5t60 141.5q3 18 3 35q0 57 -33 84t-104 27z" />
    <glyph glyph-name="six.oldstyle.pnum" horiz-adv-x="593" 
d="M503 667q-144 -5 -233 -74.5t-118 -190.5l1 -1q40 29 86.5 45t96.5 16q197 0 197 -162q0 -11 -1 -23.5t-3 -25.5q-19 -131 -89.5 -195.5t-189.5 -64.5q-51 0 -90.5 13t-67 41t-42 73t-14.5 108q0 130 38.5 226.5t102.5 160t148 96t175 35.5zM263 72q72 0 115 44t56 135
q2 9 2 17v16q0 54 -30.5 80t-96.5 26q-20 0 -43 -5t-45.5 -14.5t-43 -23t-35.5 -29.5q-6 -50 -6 -87q0 -44 8.5 -74.5t24.5 -49.5t39.5 -27t54.5 -8z" />
    <glyph glyph-name="six.oldstyle" 
d="M342 462q196 0 196 -162q0 -11 -1 -23.5t-3 -25.5q-19 -131 -90 -195.5t-189 -64.5q-51 0 -90.5 13t-67.5 41t-42.5 73t-14.5 108q0 130 38.5 226.5t103 160t148 96t174.5 35.5l4 -77q-146 -5 -235 -75t-117 -193l1 -1q40 29 87 46.5t98 17.5zM313 390q-20 0 -43 -5.5
t-45 -15t-42.5 -23.5t-35.5 -30q-6 -50 -6 -88q0 -44 8 -74t24 -48t39.5 -26t54.5 -8q72 0 115.5 44t56.5 135q2 9 2 17v16q0 54 -31 80t-97 26z" />
    <glyph glyph-name="nine.pnum" horiz-adv-x="619" 
d="M357 758q110 0 169 -63t59 -191q0 -21 -1.5 -43.5t-5.5 -47.5q-16 -113 -46 -193t-75 -131t-104.5 -74.5t-134.5 -23.5q-53 0 -92 8t-78 27l25 76q35 -15 69.5 -22.5t77.5 -7.5q53 0 94 16t71.5 50.5t52.5 89t36 131.5l-2 2q-42 -31 -89 -45t-101 -14q-110 0 -161.5 48
t-51.5 131q0 63 19 114.5t56 87.5t90.5 55.5t122.5 19.5zM344 679q-82 0 -129.5 -46.5t-47.5 -137.5q0 -57 34 -87.5t107 -30.5q51 0 95.5 16t79.5 54q2 17 3 33.5t1 30.5q0 90 -38 129t-105 39z" />
    <glyph glyph-name="nine.oldstyle.pnum" horiz-adv-x="584" 
d="M324 637q103 0 158 -54t55 -170q0 -38 -6 -83q-16 -113 -57.5 -195t-102 -136t-136.5 -80.5t-160 -28.5l2 77q63 3 118 22t99.5 54.5t76.5 87.5t49 121l-2 2q-35 -31 -77.5 -46.5t-96.5 -15.5q-91 0 -141 42.5t-50 130.5q0 61 18 111.5t53 86t85 55t115 19.5zM311 557
q-75 0 -117.5 -46t-42.5 -133q0 -109 125 -109q50 0 91.5 19t67.5 60q2 19 3.5 36t1.5 32q0 75 -31 108t-98 33z" />
    <glyph glyph-name="nine.oldstyle" 
d="M331 636q103 0 158 -54t55 -170q0 -37 -6 -82q-16 -113 -57.5 -195t-102 -136t-136.5 -80.5t-161 -28.5l2 77q63 3 118.5 22.5t100 55t77 87.5t49.5 120l-2 2q-71 -60 -175 -60q-90 0 -140.5 42.5t-50.5 129.5q0 61 18 111t53 85.5t85 54.5t115 19zM318 556
q-77 0 -118.5 -46.5t-41.5 -132.5q0 -54 30 -81.5t94 -27.5q51 0 92.5 19t67.5 61q2 19 3.5 35.5t1.5 31.5q0 75 -31 108t-98 33z" />
    <glyph glyph-name="comma.dnom" horiz-adv-x="159" 
d="M37 67q20 0 29.5 -9t9.5 -24q0 -10 -6 -25t-15 -32t-20.5 -33.5t-23.5 -29.5l-25 7q8 15 17.5 33.5t16.5 35.5q-17 0 -25 9t-8 22q0 18 12 32t38 14z" />
    <glyph glyph-name="period.dnom" horiz-adv-x="159" 
d="M38 69q21 0 30 -7.5t9 -24.5q0 -46 -50 -46q-39 0 -39 28q0 50 50 50z" />
    <glyph glyph-name="minus.dnom" horiz-adv-x="371" 
d="M26 176v55h274v-55h-274z" />
    <glyph glyph-name="plus.dnom" horiz-adv-x="371" 
d="M191 171v-113h-59v113h-111v58h111v114h59v-114h113v-58h-113z" />
    <glyph glyph-name="numbersign.oldstyle.pnum" 
d="M129 255l45 145h-123l9 64h132l53 185h77l-54 -185h132l53 185h75l-54 -185h94l-9 -64h-102l-44 -145h125l-8 -63h-134l-54 -192h-75l54 192h-132l-54 -192h-76l53 192h-92l9 63h100zM206 255h131l45 145h-131z" />
    <glyph glyph-name="numbersign.pnum" horiz-adv-x="643" 
d="M161 291l53 174h-144l9 67h154l62 218h79l-63 -218h113l63 218h77l-63 -218h111l-9 -67h-119l-53 -174h146l-9 -69h-156l-63 -222h-76l63 222h-115l-63 -222h-78l63 222h-107l9 69h116zM239 291h114l54 174h-114z" />
    <glyph glyph-name="numbersign.oldstyle" 
d="M130 255l45 145h-124l9 65h133l53 184h76l-54 -184h132l53 184h74l-54 -184h95l-9 -65h-103l-44 -145h126l-8 -66h-136l-53 -189h-74l53 189h-132l-53 -189h-75l52 189h-92l9 66h101zM206 255h131l45 145h-131z" />
    <glyph glyph-name="parenleft.dnom" horiz-adv-x="210" 
d="M208 421q-51 -61 -81.5 -136t-30.5 -163q0 -51 12 -96t32 -84l-50 -3q-29 35 -43.5 81.5t-14.5 100.5q0 96 33 171.5t93 133.5z" />
    <glyph glyph-name="parenright.dnom" horiz-adv-x="210" 
d="M71 426q29 -38 43.5 -82.5t14.5 -98.5q0 -90 -34 -171t-92 -135l-51 3q49 61 80.5 135.5t31.5 165.5q0 51 -11.5 95t-32.5 83z" />
    <glyph glyph-name="sterling.pnum" horiz-adv-x="640" 
d="M79 413h53q-4 23 -7.5 46t-3.5 48q0 49 16 94.5t52 80.5t94.5 56.5t143.5 21.5q57 0 103.5 -11t81.5 -28l-25 -79q-29 15 -71.5 25.5t-88.5 10.5q-56 0 -94.5 -14t-62 -38t-34 -56.5t-10.5 -69.5q0 -22 2.5 -43.5t5.5 -43.5h266l-10 -71h-249v-29q0 -173 -104 -238l1 -2
q51 10 102.5 13.5t114.5 3.5q54 0 104.5 -3.5t100.5 -9.5l-17 -83q-66 7 -124 10.5t-123 3.5q-36 0 -70 -0.5t-68.5 -2t-71 -4t-77.5 -6.5l7 84q35 11 59 34.5t39 54t21.5 66.5t6.5 72q0 9 -0.5 18.5t-0.5 17.5h-68z" />
    <glyph glyph-name="sterling.oldstyle.pnum" horiz-adv-x="551" 
d="M52 358h45q-3 19 -5 36.5t-2 37.5q0 43 13.5 83.5t45.5 72t84 50.5t130 19q51 0 91.5 -9t72.5 -24l-23 -72q-26 13 -64 21.5t-79 8.5q-52 0 -86 -12.5t-53.5 -34t-27.5 -50t-8 -60.5q0 -17 2 -33.5t4 -33.5h236l-9 -64h-221v-18q0 -151 -89 -207l1 -2q45 8 91 11t101 3
q48 0 93 -3.5t88 -8.5l-16 -74q-58 5 -111 8.5t-110 3.5q-32 0 -62 -0.5t-61 -2t-63 -3.5t-69 -5l7 74q31 10 52 30.5t33.5 47t17.5 58t5 63.5v25h-59z" />
    <glyph glyph-name="sterling.oldstyle" 
d="M56 359h47q-3 17 -5.5 34.5t-2.5 36.5q0 43 14 83.5t47 72.5t87.5 51.5t134.5 19.5q53 0 96.5 -9t77.5 -26l-24 -72q-28 14 -68 22.5t-85 8.5q-53 0 -88.5 -12t-56.5 -33t-30 -49t-9 -60q0 -34 6 -68h251l-9 -65h-235v-27q0 -143 -90 -198l1 -2q48 8 96.5 11.5t106.5 3.5
q50 0 97 -3.5t92 -8.5l-15 -75q-61 5 -116 8.5t-115 3.5q-34 0 -65.5 -0.5t-63 -1.5t-65.5 -3.5t-72 -5.5l7 74q32 10 53.5 30t34 46t18 56t5.5 60v16q0 8 -1 16h-61z" />
    <glyph glyph-name="currency.pnum" horiz-adv-x="582" 
d="M111 361q8 56 44 100l-58 68l59 52l58 -69q23 14 49 21.5t53 7.5t50.5 -7.5t42.5 -21.5l80 69l44 -52l-79 -70q8 -17 13 -35t5 -38q0 -33 -11 -64t-31 -56l57 -66l-60 -52l-56 65q-48 -31 -106 -31q-28 0 -52.5 8t-44.5 22l-74 -64l-43 52l74 65q-16 34 -16 71
q0 6 0.5 12t1.5 13zM177 363q-1 -5 -1 -9v-8q0 -42 27 -69.5t71 -27.5q25 0 49 10t42.5 27.5t29.5 41t11 50.5q0 42 -27.5 70t-72.5 28q-24 0 -46 -9t-39.5 -24.5t-29 -36t-14.5 -43.5z" />
    <glyph glyph-name="currency.oldstyle.pnum" 
d="M318 503q52 0 91 -28l77 66l43 -50l-77 -67q17 -32 17 -73q0 -31 -10.5 -60.5t-29.5 -53.5l54 -63l-57 -50l-53 62q-23 -14 -49.5 -22.5t-54.5 -8.5q-54 0 -93 30l-71 -61l-43 50l71 62q-15 28 -15 65q0 35 11 67t33 58l-54 65l57 50l55 -66q47 28 98 28zM309 437
q-25 0 -47.5 -10t-39.5 -27t-27 -39t-10 -47q0 -40 26 -66t68 -26q24 0 46.5 9.5t39.5 26.5t27.5 39t10.5 48q0 39 -26 65.5t-68 26.5z" />
    <glyph glyph-name="currency.oldstyle" 
d="M318 503q52 0 91 -28l77 66l43 -50l-77 -67q17 -32 17 -73q0 -31 -10.5 -60.5t-29.5 -53.5l54 -63l-57 -50l-53 62q-23 -14 -49.5 -22.5t-54.5 -8.5q-54 0 -93 30l-71 -61l-43 50l71 62q-15 28 -15 65q0 35 11 67t33 58l-54 65l57 50l55 -66q47 28 98 28zM309 437
q-25 0 -47.5 -10t-39.5 -27t-27 -39t-10 -47q0 -40 26 -66t68 -26q24 0 46.5 9.5t39.5 26.5t27.5 39t10.5 48q0 39 -26 65.5t-68 26.5z" />
    <glyph glyph-name="infinity.aalt" horiz-adv-x="744" 
d="M235 530q56 0 91.5 -24t58.5 -66q29 38 68.5 64t101.5 26q63 0 103 -38t40 -109q0 -46 -14 -85t-39.5 -67.5t-61 -45t-78.5 -16.5q-56 0 -91.5 23.5t-58.5 65.5q-29 -38 -69 -63.5t-101 -25.5q-63 0 -102.5 37.5t-39.5 107.5q0 46 13.5 85.5t39 68.5t60.5 45.5t79 16.5z
M198 245q25 0 45 10.5t37 28t31.5 40.5t29.5 48q-17 41 -42 63.5t-69 22.5q-24 0 -43.5 -10.5t-33.5 -28t-21.5 -41t-7.5 -49.5q0 -42 21 -63t53 -21zM542 454q-26 0 -45.5 -10.5t-36.5 -28.5t-31.5 -41.5t-29.5 -48.5q17 -39 42 -61.5t69 -22.5q24 0 43.5 10.5t33.5 28
t21.5 41t7.5 49.5q0 40 -21 62t-53 22z" />
    <glyph glyph-name="integral.aalt" horiz-adv-x="319" 
d="M164 38q-14 -100 -69.5 -147.5t-158.5 -47.5l6 61q55 2 83.5 33.5t38.5 97.5l81 574q13 93 69.5 141t158.5 50l-6 -62q-51 -1 -82.5 -33.5t-40.5 -96.5z" />
    <glyph glyph-name="lozenge.aalt" horiz-adv-x="615" 
d="M348 651l234 -322l-325 -322l-232 322zM274 125l206 204l-148 206l-207 -206z" />
    <glyph glyph-name="one.dnom" horiz-adv-x="272" 
d="M157 0h-70l37 269q2 10 3.5 20.5t4.5 19.5l-2 2q-16 -12 -35 -22l-60 -34l2 59l129 82h46z" />
    <glyph glyph-name="two.dnom" horiz-adv-x="354" 
d="M187 399q63 0 93 -25.5t30 -67.5q0 -35 -16.5 -65.5t-46 -59.5t-70.5 -59t-89 -63v-3h189l-8 -56h-276l6 45q48 38 90.5 71.5t74.5 64t51 58.5t19 55q0 20 -16 34.5t-55 14.5q-30 0 -58 -10.5t-54 -27.5l-10 52q30 18 67 30t79 12z" />
    <glyph glyph-name="four.dnom" horiz-adv-x="369" 
d="M266 82l-11 -82h-64l11 82h-207v40l231 272h84l-37 -260h47l-9 -52h-45zM236 295q3 19 8 41l-2 1q-6 -8 -13 -16.5t-13 -16.5l-115 -139q-13 -17 -27 -29l1 -2h135z" />
    <glyph glyph-name="five.dnom" horiz-adv-x="369" 
d="M311 339h-185l-21 -99q18 5 37.5 7.5t39.5 2.5q121 0 121 -92q0 -78 -44.5 -120.5t-126.5 -42.5q-75 0 -124 30l19 52q26 -15 50 -22.5t57 -7.5q52 0 76 24.5t24 73.5q0 27 -17 41t-58 14q-26 0 -52.5 -5t-45.5 -12l-25 18l45 193h236z" />
    <glyph glyph-name="six.dnom" horiz-adv-x="369" 
d="M304 329q-20 8 -39 11.5t-45 3.5q-59 0 -90.5 -30t-44.5 -90l1 -1q47 30 102 30q118 0 118 -91q0 -83 -45.5 -125t-121.5 -42q-63 0 -97 31t-34 103q0 67 15.5 118t44 84.5t67.5 50.5t87 17q28 0 50 -4t44 -12zM172 204q-10 0 -23 -2.5t-25.5 -7t-24.5 -10.5t-19 -14
q-3 -23 -3 -40q0 -45 17.5 -64t52.5 -19q37 0 63.5 25t26.5 79q0 26 -15 39.5t-50 13.5z" />
    <glyph glyph-name="eight.dnom" horiz-adv-x="369" 
d="M134 -5q-72 0 -105.5 23.5t-33.5 70.5q0 38 21.5 68.5t63.5 48.5v2q-19 11 -30.5 28t-11.5 43q0 56 38 88t115 32q64 0 93 -21.5t29 -62.5q0 -70 -68 -106v-2q25 -10 41.5 -27.5t16.5 -49.5q0 -67 -44.5 -101t-124.5 -34zM143 46q41 0 65 18t24 47t-26 43.5t-71 28.5
q-29 -14 -50 -34t-21 -51q0 -26 18.5 -39t60.5 -13zM184 350q-37 0 -58.5 -17t-21.5 -47q0 -13 7 -22t19 -15.5t27.5 -11.5t32.5 -10q29 14 43.5 32t14.5 44q0 47 -64 47z" />
    <glyph glyph-name="nine.dnom" horiz-adv-x="369" 
d="M183 400q133 0 133 -135q0 -11 -1 -23.5t-3 -26.5q-15 -116 -66 -168t-136 -52q-34 0 -56 5t-44 14l20 51q20 -9 38.5 -13t44.5 -4q54 0 86.5 31.5t46.5 106.5l-2 2q-20 -17 -46 -25t-55 -8q-66 0 -94 26t-28 70q0 31 10.5 58t31 47.5t50.5 32t70 11.5zM175 347
q-41 0 -64 -22t-23 -64q0 -28 16 -42.5t54 -14.5q25 0 49 8.5t38 24.5q1 9 1.5 16.5t0.5 15.5q0 43 -18.5 60.5t-53.5 17.5z" />
    <glyph glyph-name="equal.dnom" horiz-adv-x="371" 
d="M26 236v50h275v-50h-275zM26 121v50h275v-50h-275z" />
    <glyph glyph-name="emdash.aalt" horiz-adv-x="707" 
d="M647 415l-10 -67h-569l10 67h569z" />
    <glyph glyph-name="endash.aalt" horiz-adv-x="531" 
d="M470 415l-10 -67h-392l10 67h392z" />
    <glyph glyph-name="hyphen.aalt" horiz-adv-x="405" 
d="M344 415l-10 -67h-266l10 67h266z" />
    <glyph glyph-name="guillemotleft.aalt" horiz-adv-x="626" 
d="M349 373l178 -122l-10 -73l-266 191l2 9l318 191l-10 -73zM129 373l178 -122l-10 -73l-266 191l2 9l316 191l-8 -73z" />
    <glyph glyph-name="guillemotright.aalt" horiz-adv-x="626" 
d="M276 251l211 122l-177 123l10 73l266 -191l-2 -9l-318 -191zM56 251l211 122l-177 123l10 73l266 -191l-2 -9l-318 -191z" />
    <glyph glyph-name="guilsinglleft.aalt" horiz-adv-x="405" 
d="M143 367l178 -122l-10 -73l-265 191l1 9l319 191l-11 -73z" />
    <glyph glyph-name="guilsinglright.aalt" horiz-adv-x="405" 
d="M52 245l211 122l-177 123l11 73l265 -191l-1 -9l-319 -191z" />
    <glyph glyph-name="parenleft.case" horiz-adv-x="333" 
d="M398 833q-101 -115 -159.5 -262t-58.5 -314q0 -99 23 -184.5t65 -157.5l-79 -5q-49 67 -75 156t-26 193q0 90 16.5 171.5t47 154t73 136t94.5 117.5z" />
    <glyph glyph-name="parenright.case" horiz-adv-x="333" 
d="M148 838q50 -72 76 -157t26 -187q0 -86 -17 -169t-47.5 -158t-73.5 -140.5t-94 -116.5l-75 5q47 56 86 121.5t67.5 138.5t44.5 153t16 166q0 96 -22.5 181t-64.5 158z" />
    <glyph glyph-name="bracketleft.aalt" horiz-adv-x="328" 
d="M161 836h231l-9 -66h-143l-112 -792h143l-9 -65h-231z" />
    <glyph glyph-name="bracketright.aalt" horiz-adv-x="328" 
d="M171 -87h-230l9 65h143l112 792h-144l9 66h231z" />
    <glyph glyph-name="braceleft.aalt" horiz-adv-x="371" 
d="M271 480q-5 -35 -25 -61.5t-52 -40.5v-2q25 -12 37 -33.5t12 -50.5v-9q0 -4 -1 -9q-4 -30 -10 -55.5t-12 -49.5t-11.5 -48.5t-9.5 -53.5q-1 -5 -1 -10v-9q0 -31 19 -48t68 -17h30l-10 -69h-25q-95 0 -134.5 29.5t-39.5 84.5q0 6 0.5 12.5t1.5 14.5q4 31 11 58t14 53.5
t13.5 53t10.5 55.5q0 3 0.5 6.5t0.5 6.5q0 28 -17 46t-47 22l5 41q35 5 58.5 27t28.5 55q4 29 4 55l1 53l2 54q1 27 6 57q5 34 18.5 60.5t39 44.5t63.5 27.5t91 9.5h25l-10 -70h-30q-55 0 -80 -22t-30 -61q-4 -29 -5.5 -53.5t-2 -48.5t-2 -49.5t-5.5 -55.5z" />
    <glyph glyph-name="braceright.aalt" horiz-adv-x="371" 
d="M105 274q5 35 24.5 61.5t51.5 40.5v2q-49 23 -49 81q0 5 0.5 10.5t1.5 10.5q4 30 10 55.5t12 49.5t12 48.5t10 53.5q1 5 1 9v9q0 31 -20 48t-68 17h-30l10 70h25q95 0 134.5 -30t39.5 -85q0 -7 -0.5 -13.5t-1.5 -13.5q-5 -30 -11.5 -57t-13.5 -53t-13.5 -52.5
t-10.5 -56.5q-1 -5 -1 -8v-5q0 -28 17 -46.5t48 -22.5l-5 -41q-35 -4 -59 -26t-29 -55q-4 -29 -5 -55.5t-1.5 -53t-1.5 -53.5t-5 -58q-10 -68 -58 -104.5t-154 -36.5h-24l9 69h30q54 0 79.5 22t31.5 62q4 29 5 53.5t2 48.5t2 49.5t5 55.5z" />
    <glyph glyph-name="tilde.case" horiz-adv-x="399" 
d="M114 798q10 46 36 75t66 29q22 0 38.5 -10t30.5 -21.5t26 -21.5t26 -10q31 0 45 49h46q-10 -47 -35.5 -75.5t-65.5 -28.5q-21 0 -37.5 9.5t-30.5 21.5t-27 21.5t-26 9.5q-15 0 -25.5 -13.5t-18.5 -34.5h-48z" />
    <glyph glyph-name="grave.case" horiz-adv-x="399" 
d="M259 796l-103 116h120l64 -116h-81z" />
    <glyph glyph-name="acute.case" horiz-adv-x="399" 
d="M414 912l-146 -116h-81l97 116h130z" />
    <glyph glyph-name="hungarumlaut.case" horiz-adv-x="399" 
d="M302 914l-117 -118h-65l76 118h106zM468 914l-136 -118h-74l102 118h108z" />
    <glyph glyph-name="circumflex.case" horiz-adv-x="399" 
d="M327 913l99 -117h-91l-63 80l-87 -80h-90l129 117h103z" />
    <glyph glyph-name="caron.case" horiz-adv-x="399" 
d="M209 796l-97 117h90l63 -81l88 81h90l-132 -117h-102z" />
    <glyph glyph-name="dieresis.case" horiz-adv-x="399" 
d="M180 892q41 0 41 -35q0 -26 -14 -40t-40 -14q-40 0 -40 32q0 27 13.5 42t39.5 15zM373 892q41 0 41 -35q0 -26 -14 -40t-40 -14q-41 0 -41 32q0 27 14 42t40 15z" />
    <glyph glyph-name="dotaccent.case" horiz-adv-x="399" 
d="M275 893q30 0 43.5 -9t13.5 -28q0 -55 -70 -55q-30 0 -44 7.5t-14 27.5q0 28 16.5 42.5t54.5 14.5z" />
    <glyph glyph-name="macron.case" horiz-adv-x="399" 
d="M406 816h-285l7 50h285z" />
    <glyph glyph-name="breve.case" horiz-adv-x="399" 
d="M434 914q-8 -58 -49.5 -90t-122.5 -32q-73 0 -107.5 25.5t-34.5 73.5q0 5 0.5 11t1.5 12h73q-1 -5 -1 -13q0 -31 21.5 -44.5t53.5 -13.5q36 0 61.5 16.5t30.5 54.5h73z" />
    <glyph glyph-name="ring.case" horiz-adv-x="399" 
d="M272 895q47 0 69.5 -18t22.5 -49q0 -45 -29.5 -69.5t-84.5 -24.5q-89 0 -89 64q0 42 26.5 69.5t84.5 27.5zM268 852q-29 0 -42 -13.5t-13 -35.5q0 -14 10 -21.5t34 -7.5q26 0 40 12t14 33q0 15 -10 24t-33 9z" />
    <glyph glyph-name="ogonek.case" horiz-adv-x="399" 
d="M233 0q-17 0 -31.5 -7.5t-25.5 -19.5t-17.5 -26.5t-6.5 -28.5q0 -20 12.5 -31t41.5 -11q17 0 31 3.5t29 11.5l2 -50q-22 -11 -45.5 -17.5t-51.5 -6.5q-50 0 -74 20t-24 54q0 47 33.5 82.5t86.5 46.5z" />
    <glyph glyph-name="glyph324" horiz-adv-x="399" 
d="M146 -41q29 0 42 -9.5t13 -26.5q0 -13 -8.5 -28t-23 -31t-33.5 -32.5t-39 -31.5l-19 13q14 17 25.5 34.5t19.5 35.5q-43 0 -43 31q0 18 15.5 31.5t50.5 13.5z" />
    <glyph glyph-name="glyph325" horiz-adv-x="399" 
d="M246 668q-23 0 -34.5 10.5t-11.5 27.5q0 12 7.5 27t20 31t28.5 33t33 33l23 -13q-12 -19 -23.5 -36t-21.5 -35q17 -1 26.5 -9.5t9.5 -22.5q0 -19 -14 -32.5t-43 -13.5z" />
    <glyph glyph-name="glyph326" horiz-adv-x="399" 
d="M267 809q23 0 34.5 -11.5t11.5 -28.5q0 -14 -7.5 -29t-20.5 -31t-29 -31.5t-32 -30.5l-23 13q13 18 24 35t20 35q-17 0 -26.5 8.5t-9.5 22.5q0 20 14.5 34t43.5 14z" />
    <glyph glyph-name="bullet.aalt" horiz-adv-x="716" 
d="M365 -13q-28 0 -54 20.5t-48.5 48t-40.5 55t-31 41.5q-22 24 -45 60t-42 80.5t-31 95.5t-12 104q0 56 15.5 105.5t51 87t93.5 59t144 21.5q84 0 142.5 -21t94.5 -57.5t52 -85t16 -103.5q0 -54 -12 -105.5t-30.5 -97t-42 -82.5t-45.5 -61q-13 -14 -31.5 -41.5t-41 -55
t-48.5 -48t-54 -20.5zM366 34q20 0 40 17t38 40t33.5 46t27.5 35q17 19 37 49t36.5 67.5t27.5 81t11 88.5q0 27 -12 46t-40.5 31t-77 17t-120.5 5q-74 0 -123 -5t-77.5 -16.5t-40 -30.5t-11.5 -47q0 -45 11 -88.5t28 -81t37 -67.5t37 -49q11 -12 26.5 -35t33.5 -46t38 -40
t40 -17zM465 206q-47 11 -97 11t-99 -11q-16 17 -29 41.5t-20 50.5q71 -23 146 -23q76 0 145 23q-6 -26 -17.5 -50t-28.5 -42zM326 343q-33 5 -72 14.5t-68 23.5q0 26 6 47.5t22 34.5q28 -32 65 -52t70 -34zM385 377q32 14 69.5 34t66.5 52q14 -13 20 -34.5t6 -47.5
q-27 -14 -66 -23.5t-73 -14.5z" />
    <glyph glyph-name="uni00AD.aalt" horiz-adv-x="405" 
d="M344 415l-10 -67h-266l10 67h266z" />
    <glyph glyph-name="hungarumlaut.c2sc" horiz-adv-x="396" 
d="M334 834l-131 -132h-65l93 132h103zM495 834l-138 -132h-73l107 132h104z" />
    <glyph glyph-name="tilde.c2sc" horiz-adv-x="395" 
d="M314 712q-22 0 -37.5 9.5t-28 20.5t-24 20.5t-25.5 9.5q-29 0 -44 -52h-56q11 48 38 75.5t65 27.5q22 0 37.5 -9.5t28.5 -20.5t24.5 -20.5t25.5 -9.5q15 0 25.5 13t18.5 39h56q-11 -48 -38.5 -75.5t-65.5 -27.5z" />
    <glyph glyph-name="ogonek.c2sc" horiz-adv-x="387" 
d="M219 0q-17 0 -32 -7.5t-26 -19.5t-17 -26.5t-6 -28.5q0 -20 12.5 -30.5t41.5 -10.5q32 0 60 14l2 -50q-22 -11 -45.5 -17.5t-52.5 -6.5q-50 0 -74 20t-24 52q0 24 10 45.5t27 38t40 28.5t49 17z" />
    <glyph glyph-name="ring.c2sc" horiz-adv-x="390" 
d="M262 828q48 0 72 -19.5t24 -50.5q0 -45 -31.5 -70.5t-87.5 -25.5q-47 0 -72 17t-25 52q0 42 30 69.5t90 27.5zM258 788q-31 0 -46.5 -14.5t-15.5 -35.5q0 -17 11.5 -26.5t38.5 -9.5q28 0 44 13.5t16 36.5q0 16 -12 26t-36 10z" />
    <glyph glyph-name="dotaccent.c2sc" horiz-adv-x="379" 
d="M255 822q52 0 52 -37q0 -26 -17 -39.5t-48 -13.5q-26 0 -39 7.5t-13 27.5q0 55 65 55z" />
    <glyph glyph-name="breve.c2sc" horiz-adv-x="390" 
d="M403 830q-9 -64 -48 -100t-113 -36q-66 0 -96 27.5t-30 78.5v14q0 7 2 16h69q-1 -6 -1.5 -12t-0.5 -11q0 -35 17.5 -51t46.5 -16q32 0 55 22t29 68h70z" />
    <glyph glyph-name="caron.c2sc" horiz-adv-x="390" 
d="M201 698l-86 132h79l55 -97l82 97h79l-122 -132h-87z" />
    <glyph glyph-name="circumflex.c2sc" horiz-adv-x="390" 
d="M304 830l86 -132h-78l-56 97l-82 -97h-77l120 132h87z" />
    <glyph glyph-name="Aring.aalt" horiz-adv-x="663" 
d="M389 787q48 0 72 -19.5t24 -50.5q0 -59 -52 -84l162 -633h-111l-34 158h-298l-79 -158h-105l337 632q-36 16 -36 58t30 69.5t90 27.5zM359 577l-8 -18q-4 -9 -9 -19l-154 -309h246l-66 306q-2 10 -3.5 20t-3.5 20h-2zM385 747q-31 0 -46.5 -14.5t-15.5 -35.5
q0 -17 11.5 -26.5t38.5 -9.5q28 0 44 13.5t16 36.5q0 16 -12 26t-36 10z" />
    <glyph glyph-name="questiondown.aalt" horiz-adv-x="528" 
d="M199 -88q-97 0 -144 37t-47 105q0 47 15.5 86.5t43.5 73t68 61.5t89 52l24 129h77l-17 -159q-45 -26 -82 -50t-63 -49.5t-40 -54.5t-14 -64q0 -45 30 -65.5t84 -20.5t99.5 19t85.5 50l27 -68q-43 -36 -104.5 -59t-131.5 -23zM314 663q55 0 55 -41q0 -32 -17.5 -49
t-52.5 -17q-55 0 -55 42q0 65 70 65z" />
    <glyph glyph-name="cedilla.aalt" horiz-adv-x="399" 
d="M139 4h66l-65 -195h-92z" />
    <glyph glyph-name="acute.c2sc" horiz-adv-x="385" 
d="M418 830l-156 -132h-83l116 132h123z" />
    <glyph glyph-name="macron.c2sc" horiz-adv-x="399" 
d="M398 743h-285l7 53h285z" />
    <glyph glyph-name="dieresis.c2sc" horiz-adv-x="399" 
d="M183 817q40 0 40 -32q0 -51 -51 -51q-41 0 -41 32q0 24 14 37.5t38 13.5zM348 817q40 0 40 -32q0 -51 -51 -51q-42 0 -42 32q0 24 14 37.5t39 13.5z" />
    <glyph glyph-name="exclamdown.aalt" horiz-adv-x="303" 
d="M204 456l-66 -550h-103l91 550h78zM193 665q28 0 42 -9.5t14 -32.5q0 -32 -18.5 -48.5t-52.5 -16.5q-29 0 -41.5 11t-12.5 31q0 31 17 48t52 17z" />
    <glyph glyph-name="grave.c2sc" horiz-adv-x="399" 
d="M247 698l-100 132h113l61 -132h-74z" />
    <glyph glyph-name="question.aalt" horiz-adv-x="492" 
d="M289 660q89 0 133 -34.5t44 -96.5q0 -42 -14.5 -77t-41 -64t-63 -53.5t-80.5 -45.5l-22 -114h-70l14 146q42 21 75 41t56 42t35.5 47t12.5 55q0 39 -27 57t-77 18t-90 -16t-78 -46l-25 66q39 32 96 53.5t122 21.5zM199 88q50 0 50 -39q0 -27 -16 -43t-48 -16
q-50 0 -50 37q0 29 16 45t48 16z" />
    <glyph glyph-name="ampersand.aalt" horiz-adv-x="656" 
d="M588 335q-9 -37 -34.5 -87.5t-65.5 -101.5q29 -23 58 -42.5t59 -36.5l-44 -76q-32 19 -66 42t-67 50q-46 -42 -103 -67.5t-124 -25.5q-46 0 -78 11t-51.5 30.5t-28.5 45t-9 54.5q0 41 13 74.5t34.5 61.5t49.5 51t58 43q-17 35 -26.5 67.5t-9.5 62.5q0 35 11.5 65.5
t35 53.5t58.5 36t83 13q71 0 110 -28.5t39 -74.5q0 -35 -17.5 -64t-46 -54t-63.5 -47t-69 -43q27 -39 62.5 -78.5t76.5 -77.5q26 35 46 71.5t31 71.5h78zM224 63q41 0 79 18t73 48q-44 41 -82 84t-68 88q-42 -31 -69.5 -69t-27.5 -87q0 -41 25 -61.5t70 -20.5zM329 594
q-37 0 -64.5 -25t-27.5 -73q0 -21 6.5 -43.5t17.5 -47.5q27 16 51.5 32t43.5 32.5t30 34.5t11 39q0 26 -18 38.5t-50 12.5z" />
    <glyph glyph-name="exclam.aalt" horiz-adv-x="293" 
d="M86 175l53 474h98l-80 -474h-71zM110 88q50 0 50 -39q0 -27 -16 -43t-48 -16q-51 0 -51 37q0 29 16.5 45t48.5 16z" />
    <glyph glyph-name="peseta.oldstyle" 
d="M338 649q105 0 153 -36.5t48 -115.5v-14q0 -7 -1 -15h60l-6 -47h-60q-20 -88 -78.5 -131t-172.5 -43h-124l-34 -247h-92l59 421h-57l6 47h57l26 181h216zM204 579l-16 -111h256q0 5 0.5 9.5t0.5 8.5q0 51 -28.5 72t-88.5 21h-124zM290 313q62 0 98 22.5t50 85.5h-256
l-16 -108h124z" />
    <glyph glyph-name="lira.oldstyle" 
d="M68 397h32q-1 8 -1.5 16t-0.5 17q0 43 14 83.5t47 72.5t87.5 51.5t134.5 19.5q53 0 96.5 -9t76.5 -26l-23 -72q-29 14 -69 23t-84 9q-55 0 -90.5 -13t-56.5 -35.5t-29.5 -52t-8.5 -62.5v-8q0 -5 1 -14h274l-7 -49h-261q2 -14 3.5 -26.5t2.5 -26.5h248l-7 -50h-241
q-6 -66 -26.5 -108t-62.5 -68l1 -2q47 8 95.5 11.5t107.5 3.5q50 0 97 -3.5t92 -8.5l-15 -75q-61 5 -116 8.5t-115 3.5q-33 0 -64.5 -0.5t-63.5 -1.5t-66 -3.5t-72 -5.5l7 74q30 9 50.5 27t33 41.5t19 50.5t8.5 56h-63l5 50h56q-1 14 -3 27l-4 26h-43z" />
    <glyph glyph-name="franc.oldstyle" 
d="M87 158l69 491h437l-8 -79h-346l-28 -200h267l-11 -75h-267l-19 -137h87l-9 -61h-87l-13 -97h-94l13 97h-80l9 61h80z" />
    <glyph glyph-name="peseta.pnum" horiz-adv-x="802" 
d="M260 750q75 0 111.5 -31.5t36.5 -112.5q0 -33 -6 -75q-9 -61 -24.5 -103.5t-40 -69t-59 -38.5t-80.5 -12h-61l-43 -308h-75l105 750h136zM502 404l-43 -309q-1 -5 -1 -8v-7q0 -17 7.5 -24t19.5 -7q5 0 11 2t10 4l-4 -55q-7 -4 -19.5 -6.5t-25.5 -2.5q-33 0 -49.5 17
t-16.5 55q0 7 1.5 21.5t3.5 31.5l40 288h-31l8 56h33l27 106l53 7l-16 -113h60l-8 -56h-60zM188 679l-43 -303h62q25 0 44 6t33 23t23.5 47t16.5 78q6 39 6 65q0 49 -19 66.5t-61 17.5h-62zM732 149q0 -29 -7 -57.5t-22.5 -51.5t-39 -37t-56.5 -14q-22 0 -40.5 6t-29.5 17
l12 59q13 -12 28.5 -17t30.5 -5q26 0 43 23t17 68q0 30 -14 46t-31 31t-31 35t-14 58q0 71 34 113.5t89 42.5q37 0 63 -18l-13 -61q-26 16 -53 16q-24 0 -40.5 -20.5t-16.5 -55.5q0 -27 14 -41.5t31.5 -30.5t31.5 -39.5t14 -66.5z" />
    <glyph glyph-name="lira.pnum" horiz-adv-x="663" 
d="M90 458h36q-3 19 -3 41q0 51 15.5 98t51 83t94 58t144.5 22q57 0 103.5 -11t81.5 -28l-25 -78q-29 15 -71.5 25t-88.5 10q-58 0 -96.5 -14.5t-62 -39t-33 -57t-9.5 -69.5q0 -10 0.5 -20t1.5 -20h291l-8 -56h-276q2 -15 3 -30t2 -31h262l-7 -55h-254q-11 -151 -105 -211
l1 -2q51 10 103 13.5t115 3.5q54 0 104.5 -3.5t100.5 -9.5l-17 -83q-66 7 -124 10.5t-123 3.5q-36 0 -70 -0.5t-68.5 -2t-71 -4t-77.5 -6.5l7 84q31 10 54.5 30.5t39 48t23.5 60.5t8 68h-69l5 55h63q0 17 -2 32t-4 29h-49z" />
    <glyph glyph-name="franc.pnum" horiz-adv-x="618" 
d="M79 179l80 571h462l-9 -87h-360l-34 -237h278l-12 -81h-277l-23 -166h90l-10 -68h-90l-15 -111h-105l15 111h-84l10 68h84z" />
    <glyph glyph-name="peseta.oldstyle.pnum" 
d="M186 649q54 0 79.5 -22.5t25.5 -85.5q0 -17 -2 -37t-5 -43q-8 -56 -19 -92.5t-28.5 -58.5t-42.5 -30.5t-61 -8.5h-47l-38 -271h-58l91 649h105zM363 351l-38 -269q-1 -4 -1 -8v-6q0 -26 20 -26q11 0 16 4l-4 -45q-5 -3 -14.5 -5.5t-18.5 -2.5q-25 0 -39 15t-14 48v12
q0 6 2 14l38 269h-23l7 48h25l22 92l41 7l-13 -99h48l-8 -48h-46zM533 111q-9 -63 -33.5 -91t-65.5 -28q-33 0 -51 18l9 50q8 -9 20 -13t24 -4q20 0 35 19.5t15 60.5q0 25 -11 39t-23.5 27t-23.5 30t-11 49q0 62 28.5 99.5t70.5 37.5q15 0 27 -4.5t21 -11.5l-11 -51
q-20 13 -39 13q-20 0 -33 -18.5t-13 -50.5q0 -23 10.5 -35.5t23 -25.5t23 -30.5t10.5 -49.5v-15q0 -7 -2 -15zM131 591l-38 -266h47q18 0 31 5t23.5 19.5t18 41t13.5 70.5q6 43 6 69q0 38 -13 49.5t-41 11.5h-47z" />
    <glyph glyph-name="lira.oldstyle.pnum" 
d="M381 657q53 0 96.5 -9t76.5 -26l-23 -72q-29 14 -69 23t-84 9q-54 0 -90 -13t-57 -35t-29.5 -51.5t-8.5 -62.5q0 -5 0.5 -11t0.5 -11h274l-6 -48h-261q2 -12 3.5 -27t2.5 -30h247l-7 -48h-240q-6 -66 -26.5 -108t-63.5 -68l1 -2q48 8 96 11.5t107 3.5q50 0 97 -3.5
t92 -8.5l-15 -75q-61 5 -116 8.5t-115 3.5q-33 0 -64.5 -0.5t-63.5 -1.5t-66 -3.5t-72 -5.5l7 74q30 9 50.5 27t33 41.5t19 50.5t8.5 56h-63l5 48h57q-1 14 -3 28t-4 29h-43l3 48h32q-1 8 -1.5 15t-0.5 15q0 43 14 84t46.5 73.5t87 52t135.5 19.5z" />
    <glyph glyph-name="franc.oldstyle.pnum" 
d="M87 158l69 491h437l-8 -79h-346l-28 -200h267l-11 -75h-267l-19 -137h87l-9 -61h-87l-13 -97h-94l13 97h-80l9 61h80z" />
    <glyph glyph-name="uniFB02.aalt" horiz-adv-x="1086" 
d="M214 569l-28 -203h292l-11 -76h-292l-40 -290h-97l91 649h428l-9 -80h-334zM1023 80l-14 -80h-416l91 649h97l-80 -569h322z" />
    <glyph glyph-name="uniFB01.aalt" horiz-adv-x="854" 
d="M214 569l-28 -203h292l-11 -76h-292l-40 -290h-97l91 649h428l-9 -80h-334zM696 649h100l-91 -649h-100z" />
    <glyph glyph-name="longs.aalt" horiz-adv-x="534" 
d="M326 659q51 0 97.5 -9t81.5 -27l-23 -74q-40 16 -79.5 24.5t-83.5 8.5q-40 0 -69 -9.5t-47.5 -25t-27.5 -35.5t-9 -41q0 -31 22.5 -49t56 -31t73 -25t73 -30.5t56 -47.5t22.5 -76q0 -51 -19 -92t-54 -70t-84 -45t-109 -16t-109.5 13t-87.5 37l26 77q39 -25 83.5 -38
t98.5 -13q73 0 116.5 34t43.5 92q0 32 -22.5 51.5t-56 33t-73 26t-73 30.5t-56 46t-22.5 73q0 42 16 80t48 66.5t79.5 45t111.5 16.5z" />
    <glyph glyph-name="zcaron.aalt" horiz-adv-x="579" 
d="M-2 0l8 59l409 480q13 17 27 29l-1 2h-352l15 79h463l-10 -67l-401 -473q-7 -8 -13.5 -15t-13.5 -13l1 -2h359l-13 -79h-478zM296 698l-86 132h79l55 -97l82 97h79l-122 -132h-87z" />
    <glyph glyph-name="scaron.aalt" horiz-adv-x="534" 
d="M326 659q51 0 97.5 -9t81.5 -27l-23 -74q-40 16 -79.5 24.5t-83.5 8.5q-40 0 -69 -9.5t-47.5 -25t-27.5 -35.5t-9 -41q0 -31 22.5 -49t56 -31t73 -25t73 -30.5t56 -47.5t22.5 -76q0 -51 -19 -92t-54 -70t-84 -45t-109 -16t-109.5 13t-87.5 37l26 77q39 -25 83.5 -38
t98.5 -13q73 0 116.5 34t43.5 92q0 32 -22.5 51.5t-56 33t-73 26t-73 30.5t-56 46t-22.5 73q0 42 16 80t48 66.5t79.5 45t111.5 16.5zM292 698l-86 132h79l55 -97l82 97h79l-122 -132h-87z" />
    <glyph glyph-name="ij.aalt" horiz-adv-x="759" 
d="M141 649h100l-91 -649h-100zM661 210q-17 -118 -80.5 -170t-158.5 -52q-41 0 -75.5 10t-57.5 28l19 77q20 -17 49 -26.5t58 -9.5q65 0 100.5 34.5t46.5 107.5l62 440h99z" />
    <glyph glyph-name="dotlessi.aalt" horiz-adv-x="299" 
d="M141 649h100l-91 -649h-100z" />
    <glyph glyph-name="Ydieresis.aalt" horiz-adv-x="629" 
d="M176 649l119 -313q5 -11 8 -20t5 -18h2q5 8 10 16.5t11 17.5l207 317h110l-300 -427l-31 -222h-102l31 222l-183 427h113zM295 817q40 0 40 -32q0 -51 -51 -51q-41 0 -41 32q0 24 14 37.5t38 13.5zM460 817q40 0 40 -32q0 -51 -51 -51q-42 0 -42 32q0 24 14 37.5t39 13.5
z" />
    <glyph glyph-name="yacute.aalt" horiz-adv-x="629" 
d="M176 649l119 -313q5 -11 8 -20t5 -18h2q5 8 10 16.5t11 17.5l207 317h110l-300 -427l-31 -222h-102l31 222l-183 427h113zM535 830l-156 -132h-83l116 132h123z" />
    <glyph glyph-name="udieresis.aalt" horiz-adv-x="685" 
d="M592 243q-19 -133 -96.5 -194t-204.5 -61q-113 0 -173 47t-60 150q0 14 1 28t3 30l57 406h97l-57 -407q-3 -24 -3 -44q0 -67 36 -98.5t110 -31.5q86 0 132.5 42t59.5 132l57 407h98zM322 817q40 0 40 -32q0 -51 -51 -51q-41 0 -41 32q0 24 14 37.5t38 13.5zM487 817
q40 0 40 -32q0 -51 -51 -51q-42 0 -42 32q0 24 14 37.5t39 13.5z" />
    <glyph glyph-name="ucircumflex.aalt" horiz-adv-x="685" 
d="M592 243q-19 -133 -96.5 -194t-204.5 -61q-113 0 -173 47t-60 150q0 14 1 28t3 30l57 406h97l-57 -407q-3 -24 -3 -44q0 -67 36 -98.5t110 -31.5q86 0 132.5 42t59.5 132l57 407h98zM447 830l86 -132h-78l-56 97l-82 -97h-77l120 132h87z" />
    <glyph glyph-name="uacute.aalt" horiz-adv-x="685" 
d="M592 243q-19 -133 -96.5 -194t-204.5 -61q-113 0 -173 47t-60 150q0 14 1 28t3 30l57 406h97l-57 -407q-3 -24 -3 -44q0 -67 36 -98.5t110 -31.5q86 0 132.5 42t59.5 132l57 407h98zM562 830l-156 -132h-83l116 132h123z" />
    <glyph glyph-name="ugrave.aalt" horiz-adv-x="685" 
d="M592 243q-19 -133 -96.5 -194t-204.5 -61q-113 0 -173 47t-60 150q0 14 1 28t3 30l57 406h97l-57 -407q-3 -24 -3 -44q0 -67 36 -98.5t110 -31.5q86 0 132.5 42t59.5 132l57 407h98zM369 698l-100 132h113l61 -132h-74z" />
    <glyph glyph-name="odieresis.aalt" horiz-adv-x="666" 
d="M375 659q131 0 189.5 -55.5t58.5 -176.5q0 -23 -2 -48.5t-6 -54.5q-12 -88 -37 -151.5t-65 -104t-97 -60t-135 -19.5q-130 0 -189.5 56t-59.5 178q0 23 2 48t6 53q12 88 37 151t65.5 104t97.5 60.5t135 19.5zM364 581q-51 0 -88 -12t-63.5 -41.5t-44 -79t-27.5 -124.5
q-4 -28 -6 -52.5t-2 -45.5q0 -45 9.5 -75.5t29 -49.5t50 -27t71.5 -8q50 0 87 12.5t63 42.5t42.5 79.5t27.5 123.5q4 29 6 54t2 47q0 44 -9 74t-28.5 48t-49 26t-70.5 8zM319 817q40 0 40 -32q0 -51 -51 -51q-41 0 -41 32q0 24 14 37.5t38 13.5zM484 817q40 0 40 -32
q0 -51 -51 -51q-42 0 -42 32q0 24 14 37.5t39 13.5z" />
    <glyph glyph-name="otilde.aalt" horiz-adv-x="666" 
d="M375 659q131 0 189.5 -55.5t58.5 -176.5q0 -23 -2 -48.5t-6 -54.5q-12 -88 -37 -151.5t-65 -104t-97 -60t-135 -19.5q-130 0 -189.5 56t-59.5 178q0 23 2 48t6 53q12 88 37 151t65.5 104t97.5 60.5t135 19.5zM364 581q-51 0 -88 -12t-63.5 -41.5t-44 -79t-27.5 -124.5
q-4 -28 -6 -52.5t-2 -45.5q0 -45 9.5 -75.5t29 -49.5t50 -27t71.5 -8q50 0 87 12.5t63 42.5t42.5 79.5t27.5 123.5q4 29 6 54t2 47q0 44 -9 74t-28.5 48t-49 26t-70.5 8zM452 712q-22 0 -37.5 9.5t-28 20.5t-24 20.5t-25.5 9.5q-29 0 -44 -52h-56q11 48 38 75.5t65 27.5
q22 0 37.5 -9.5t28.5 -20.5t24.5 -20.5t25.5 -9.5q15 0 25.5 13t18.5 39h56q-11 -48 -38.5 -75.5t-65.5 -27.5z" />
    <glyph glyph-name="ocircumflex.aalt" horiz-adv-x="666" 
d="M375 659q131 0 189.5 -55.5t58.5 -176.5q0 -23 -2 -48.5t-6 -54.5q-12 -88 -37 -151.5t-65 -104t-97 -60t-135 -19.5q-130 0 -189.5 56t-59.5 178q0 23 2 48t6 53q12 88 37 151t65.5 104t97.5 60.5t135 19.5zM364 581q-51 0 -88 -12t-63.5 -41.5t-44 -79t-27.5 -124.5
q-4 -28 -6 -52.5t-2 -45.5q0 -45 9.5 -75.5t29 -49.5t50 -27t71.5 -8q50 0 87 12.5t63 42.5t42.5 79.5t27.5 123.5q4 29 6 54t2 47q0 44 -9 74t-28.5 48t-49 26t-70.5 8zM447 830l86 -132h-78l-56 97l-82 -97h-77l120 132h87z" />
    <glyph glyph-name="oacute.aalt" horiz-adv-x="666" 
d="M375 659q131 0 189.5 -55.5t58.5 -176.5q0 -23 -2 -48.5t-6 -54.5q-12 -88 -37 -151.5t-65 -104t-97 -60t-135 -19.5q-130 0 -189.5 56t-59.5 178q0 23 2 48t6 53q12 88 37 151t65.5 104t97.5 60.5t135 19.5zM364 581q-51 0 -88 -12t-63.5 -41.5t-44 -79t-27.5 -124.5
q-4 -28 -6 -52.5t-2 -45.5q0 -45 9.5 -75.5t29 -49.5t50 -27t71.5 -8q50 0 87 12.5t63 42.5t42.5 79.5t27.5 123.5q4 29 6 54t2 47q0 44 -9 74t-28.5 48t-49 26t-70.5 8zM564 830l-156 -132h-83l116 132h123z" />
    <glyph glyph-name="ograve.aalt" horiz-adv-x="666" 
d="M375 659q131 0 189.5 -55.5t58.5 -176.5q0 -23 -2 -48.5t-6 -54.5q-12 -88 -37 -151.5t-65 -104t-97 -60t-135 -19.5q-130 0 -189.5 56t-59.5 178q0 23 2 48t6 53q12 88 37 151t65.5 104t97.5 60.5t135 19.5zM364 581q-51 0 -88 -12t-63.5 -41.5t-44 -79t-27.5 -124.5
q-4 -28 -6 -52.5t-2 -45.5q0 -45 9.5 -75.5t29 -49.5t50 -27t71.5 -8q50 0 87 12.5t63 42.5t42.5 79.5t27.5 123.5q4 29 6 54t2 47q0 44 -9 74t-28.5 48t-49 26t-70.5 8zM366 698l-100 132h113l61 -132h-74z" />
    <glyph glyph-name="ntilde.aalt" horiz-adv-x="699" 
d="M483 0l-288 506l-2 -1q-1 -10 -1.5 -20.5t-2.5 -20.5l-64 -464h-87l91 649h87l280 -491l2 1q0 10 1 20t3 20l63 450h87l-91 -649h-78zM468 712q-22 0 -37.5 9.5t-28 20.5t-24 20.5t-25.5 9.5q-29 0 -44 -52h-56q11 48 38 75.5t65 27.5q22 0 37.5 -9.5t28.5 -20.5
t24.5 -20.5t25.5 -9.5q15 0 25.5 13t18.5 39h56q-11 -48 -38.5 -75.5t-65.5 -27.5z" />
    <glyph glyph-name="idieresis.aalt" horiz-adv-x="299" 
d="M141 649h100l-91 -649h-100zM131 817q40 0 40 -32q0 -51 -51 -51q-41 0 -41 32q0 24 14 37.5t38 13.5zM296 817q40 0 40 -32q0 -51 -51 -51q-42 0 -42 32q0 24 14 37.5t39 13.5z" />
    <glyph glyph-name="icircumflex.aalt" horiz-adv-x="299" 
d="M141 649h100l-91 -649h-100zM257 830l86 -132h-78l-56 97l-82 -97h-77l120 132h87z" />
    <glyph glyph-name="iacute.aalt" horiz-adv-x="299" 
d="M141 649h100l-91 -649h-100zM390 830l-156 -132h-83l116 132h123z" />
    <glyph glyph-name="igrave.aalt" horiz-adv-x="299" 
d="M141 649h100l-91 -649h-100zM171 698l-100 132h113l61 -132h-74z" />
    <glyph glyph-name="edieresis.aalt" horiz-adv-x="577" 
d="M495 78l-13 -78h-444l91 649h429l-9 -79h-334l-28 -198h286l-10 -70h-286l-32 -224h350zM285 817q40 0 40 -32q0 -51 -51 -51q-41 0 -41 32q0 24 14 37.5t38 13.5zM450 817q40 0 40 -32q0 -51 -51 -51q-42 0 -42 32q0 24 14 37.5t39 13.5z" />
    <glyph glyph-name="ecircumflex.aalt" horiz-adv-x="577" 
d="M495 78l-13 -78h-444l91 649h429l-9 -79h-334l-28 -198h286l-10 -70h-286l-32 -224h350zM418 830l86 -132h-78l-56 97l-82 -97h-77l120 132h87z" />
    <glyph glyph-name="eacute.aalt" horiz-adv-x="577" 
d="M495 78l-13 -78h-444l91 649h429l-9 -79h-334l-28 -198h286l-10 -70h-286l-32 -224h350zM517 830l-156 -132h-83l116 132h123z" />
    <glyph glyph-name="egrave.aalt" horiz-adv-x="577" 
d="M495 78l-13 -78h-444l91 649h429l-9 -79h-334l-28 -198h286l-10 -70h-286l-32 -224h350zM340 698l-100 132h113l61 -132h-74z" />
    <glyph glyph-name="adieresis.aalt" horiz-adv-x="663" 
d="M450 158h-298l-79 -158h-105l346 649h115l166 -649h-111zM359 577l-8 -18q-4 -9 -9 -19l-154 -309h246l-66 306q-2 10 -3.5 20t-3.5 20h-2zM301 817q40 0 40 -32q0 -51 -51 -51q-41 0 -41 32q0 24 14 37.5t38 13.5zM466 817q40 0 40 -32q0 -51 -51 -51q-42 0 -42 32
q0 24 14 37.5t39 13.5z" />
    <glyph glyph-name="atilde.aalt" horiz-adv-x="663" 
d="M450 158h-298l-79 -158h-105l346 649h115l166 -649h-111zM359 577l-8 -18q-4 -9 -9 -19l-154 -309h246l-66 306q-2 10 -3.5 20t-3.5 20h-2zM435 712q-22 0 -37.5 9.5t-28 20.5t-24 20.5t-25.5 9.5q-29 0 -44 -52h-56q11 48 38 75.5t65 27.5q22 0 37.5 -9.5t28.5 -20.5
t24.5 -20.5t25.5 -9.5q15 0 25.5 13t18.5 39h56q-11 -48 -38.5 -75.5t-65.5 -27.5z" />
    <glyph glyph-name="acircumflex.aalt" horiz-adv-x="663" 
d="M450 158h-298l-79 -158h-105l346 649h115l166 -649h-111zM359 577l-8 -18q-4 -9 -9 -19l-154 -309h246l-66 306q-2 10 -3.5 20t-3.5 20h-2zM433 830l86 -132h-78l-56 97l-82 -97h-77l120 132h87z" />
    <glyph glyph-name="aacute.aalt" horiz-adv-x="663" 
d="M450 158h-298l-79 -158h-105l346 649h115l166 -649h-111zM359 577l-8 -18q-4 -9 -9 -19l-154 -309h246l-66 306q-2 10 -3.5 20t-3.5 20h-2zM576 830l-156 -132h-83l116 132h123z" />
    <glyph glyph-name="agrave.aalt" horiz-adv-x="663" 
d="M450 158h-298l-79 -158h-105l346 649h115l166 -649h-111zM359 577l-8 -18q-4 -9 -9 -19l-154 -309h246l-66 306q-2 10 -3.5 20t-3.5 20h-2zM358 698l-100 132h113l61 -132h-74z" />
    <glyph glyph-name="germandbls.aalt" horiz-adv-x="1068" 
d="M326 659q51 0 97.5 -9t81.5 -27l-23 -74q-40 16 -79.5 24.5t-83.5 8.5q-40 0 -69 -9.5t-47.5 -25t-27.5 -35.5t-9 -41q0 -31 22.5 -49t56 -31t73 -25t73 -30.5t56 -47.5t22.5 -76q0 -51 -19 -92t-54 -70t-84 -45t-109 -16t-109.5 13t-87.5 37l26 77q39 -25 83.5 -38
t98.5 -13q73 0 116.5 34t43.5 92q0 32 -22.5 51.5t-56 33t-73 26t-73 30.5t-56 46t-22.5 73q0 42 16 80t48 66.5t79.5 45t111.5 16.5zM860 659q51 0 97.5 -9t81.5 -27l-23 -74q-40 16 -79.5 24.5t-83.5 8.5q-40 0 -69 -9.5t-47.5 -25t-27.5 -35.5t-9 -41q0 -31 22.5 -49
t56 -31t73 -25t73 -30.5t56 -47.5t22.5 -76q0 -51 -19 -92t-54 -70t-84 -45t-109 -16t-109.5 13t-87.5 37l26 77q39 -25 83.5 -38t98.5 -13q73 0 116.5 34t43.5 92q0 32 -22.5 51.5t-56 33t-73 26t-73 30.5t-56 46t-22.5 73q0 42 16 80t48 66.5t79.5 45t111.5 16.5z" />
    <glyph glyph-name="glyph413" horiz-adv-x="1086" 
d="M214 569l-28 -203h292l-11 -76h-292l-40 -290h-97l91 649h428l-9 -80h-334zM1023 80l-14 -80h-416l91 649h97l-80 -569h322z" />
    <glyph glyph-name="glyph414" horiz-adv-x="854" 
d="M214 569l-28 -203h292l-11 -76h-292l-40 -290h-97l91 649h428l-9 -80h-334zM696 649h100l-91 -649h-100z" />
    <glyph glyph-name="uni2007.aalt" 
 />
    <glyph glyph-name="space.aalt" horiz-adv-x="64" 
 />
    <glyph glyph-name="minus.numr" horiz-adv-x="371" 
d="M76 532v55h274v-55h-274z" />
    <glyph glyph-name="cent.numr" horiz-adv-x="320" 
d="M332 667q-16 7 -34.5 12t-37.5 5q-68 0 -99 -39t-31 -128q0 -50 23 -71.5t68 -21.5q22 0 42.5 6t39.5 16l-1 -50q-33 -21 -82 -25l-16 -80h-58l18 81q-108 15 -108 136q0 106 43.5 165t128.5 67l16 78h58l-17 -80q17 -2 31.5 -6.5t26.5 -9.5z" />
    <glyph glyph-name="equal.numr" horiz-adv-x="371" 
d="M76 592v50h275v-50h-275zM76 477v50h275v-50h-275z" />
    <glyph glyph-name="nine.numr" horiz-adv-x="369" 
d="M233 756q133 0 133 -135q0 -11 -1 -23.5t-3 -26.5q-15 -116 -66 -168t-136 -52q-34 0 -56 5t-44 14l20 51q20 -9 38.5 -13t44.5 -4q54 0 86.5 31.5t46.5 106.5l-2 2q-20 -17 -46 -25t-55 -8q-66 0 -94 26t-28 70q0 31 10.5 58t31 47.5t50.5 32t70 11.5zM225 703
q-41 0 -64 -22t-23 -64q0 -28 16 -42.5t54 -14.5q25 0 49 8.5t38 24.5q1 9 1.5 16.5t0.5 15.5q0 43 -18.5 60.5t-53.5 17.5z" />
    <glyph glyph-name="eight.numr" horiz-adv-x="369" 
d="M184 351q-72 0 -105.5 23.5t-33.5 70.5q0 38 21.5 68.5t63.5 48.5v2q-19 11 -30.5 28t-11.5 43q0 56 38 88t115 32q64 0 93 -21.5t29 -62.5q0 -70 -68 -106v-2q25 -10 41.5 -27.5t16.5 -49.5q0 -67 -44.5 -101t-124.5 -34zM193 402q41 0 65 18t24 47t-26 43.5t-71 28.5
q-29 -14 -50 -34t-21 -51q0 -26 18.5 -39t60.5 -13zM234 706q-37 0 -58.5 -17t-21.5 -47q0 -13 7 -22t19 -15.5t27.5 -11.5t32.5 -10q29 14 43.5 32t14.5 44q0 47 -64 47z" />
    <glyph glyph-name="seven.numr" horiz-adv-x="369" 
d="M383 692l-214 -336h-82l200 301q5 8 10.5 15.5t12.5 15.5l-1 2h-227l12 60h297z" />
    <glyph glyph-name="six.numr" horiz-adv-x="369" 
d="M354 685q-20 8 -39 11.5t-45 3.5q-59 0 -90.5 -30t-44.5 -90l1 -1q47 30 102 30q118 0 118 -91q0 -83 -45.5 -125t-121.5 -42q-63 0 -97 31t-34 103q0 67 15.5 118t44 84.5t67.5 50.5t87 17q28 0 50 -4t44 -12zM222 560q-10 0 -23 -2.5t-25.5 -7t-24.5 -10.5t-19 -14
q-3 -23 -3 -40q0 -45 17.5 -64t52.5 -19q37 0 63.5 25t26.5 79q0 26 -15 39.5t-50 13.5z" />
    <glyph glyph-name="five.numr" horiz-adv-x="369" 
d="M361 695h-185l-21 -99q18 5 37.5 7.5t39.5 2.5q121 0 121 -92q0 -78 -44.5 -120.5t-126.5 -42.5q-75 0 -124 30l19 52q26 -15 50 -22.5t57 -7.5q52 0 76 24.5t24 73.5q0 27 -17 41t-58 14q-26 0 -52.5 -5t-45.5 -12l-25 18l45 193h236z" />
    <glyph glyph-name="four.numr" horiz-adv-x="369" 
d="M316 438l-11 -82h-64l11 82h-207v40l231 272h84l-37 -260h47l-9 -52h-45zM286 651q3 19 8 41l-2 1q-6 -8 -13 -16.5t-13 -16.5l-115 -139q-13 -17 -27 -29l1 -2h135z" />
    <glyph glyph-name="three.numr" horiz-adv-x="354" 
d="M234 755q62 0 95 -22.5t33 -65.5q0 -42 -22.5 -66t-57.5 -35v-2q32 -8 48.5 -26t16.5 -48q0 -63 -45 -101t-130 -38q-41 0 -70 8t-55 24l23 50q23 -14 49.5 -22t59.5 -8q51 0 75.5 25t24.5 60q0 28 -25.5 40t-88.5 12l7 47q68 0 96 17.5t28 49.5q0 47 -73 47
q-35 0 -63 -9t-54 -27l-11 48q26 18 62.5 30t76.5 12z" />
    <glyph glyph-name="two.numr" horiz-adv-x="354" 
d="M237 755q63 0 93 -25.5t30 -67.5q0 -35 -16.5 -65.5t-46 -59.5t-70.5 -59t-89 -63v-3h189l-8 -56h-276l6 45q48 38 90.5 71.5t74.5 64t51 58.5t19 55q0 20 -16 34.5t-55 14.5q-30 0 -58 -10.5t-54 -27.5l-10 52q30 18 67 30t79 12z" />
    <glyph glyph-name="one.numr" horiz-adv-x="272" 
d="M207 356h-70l37 269q2 10 3.5 20.5t4.5 19.5l-2 2q-16 -12 -35 -22l-60 -34l2 59l129 82h46z" />
    <glyph glyph-name="zero.numr" horiz-adv-x="369" 
d="M241 756q66 0 98 -32.5t32 -105.5q0 -14 -1.5 -30.5t-3.5 -34.5q-14 -105 -58 -153.5t-124 -48.5q-67 0 -99 33.5t-32 106.5q0 14 1.5 29.5t3.5 32.5q15 108 59 155.5t124 47.5zM233 701q-21 0 -38 -6.5t-30 -23t-23 -45.5t-16 -73q-2 -18 -3.5 -33t-1.5 -28
q0 -51 18 -69t52 -18q21 0 37.5 6.5t29.5 23t22.5 45.5t15.5 73q2 19 3.5 34.5t1.5 28.5q0 50 -17.5 67.5t-50.5 17.5z" />
    <glyph glyph-name="period.numr" horiz-adv-x="159" 
d="M88 425q21 0 30 -7.5t9 -24.5q0 -46 -50 -46q-39 0 -39 28q0 50 50 50z" />
    <glyph glyph-name="comma.numr" horiz-adv-x="159" 
d="M87 423q20 0 29.5 -9t9.5 -24q0 -10 -6 -25t-15 -32t-20.5 -33.5t-23.5 -29.5l-25 7q8 15 17.5 33.5t16.5 35.5q-17 0 -25 9t-8 22q0 18 12 32t38 14z" />
    <glyph glyph-name="plus.numr" horiz-adv-x="371" 
d="M241 527v-113h-59v113h-111v58h111v114h59v-114h113v-58h-113z" />
    <glyph glyph-name="parenright.numr" horiz-adv-x="210" 
d="M121 782q29 -38 43.5 -82.5t14.5 -98.5q0 -90 -34 -171t-92 -135l-51 3q49 61 80.5 135.5t31.5 165.5q0 51 -11.5 95t-32.5 83z" />
    <glyph glyph-name="parenleft.numr" horiz-adv-x="210" 
d="M258 777q-51 -61 -81.5 -136t-30.5 -163q0 -51 12 -96t32 -84l-50 -3q-29 35 -43.5 81.5t-14.5 100.5q0 96 33 171.5t93 133.5z" />
    <glyph glyph-name="dollar.numr" horiz-adv-x="320" 
d="M286 818l-17 -78q41 -4 76 -18l-17 -51q-24 8 -45.5 12.5t-46.5 4.5q-44 0 -63 -17t-19 -39q0 -16 12.5 -25t31.5 -15t41.5 -12.5t41.5 -16.5t31.5 -26t12.5 -43q0 -54 -34 -87t-91 -40l-15 -76h-56l15 75q-27 2 -50.5 8.5t-41.5 18.5l17 53q24 -16 48.5 -22.5t55.5 -6.5
q38 0 61 16t23 45q0 16 -12.5 25.5t-31.5 16.5t-40.5 13.5t-40.5 17t-31.5 26t-12.5 41.5q0 45 30.5 80t94.5 42l17 78h56z" />
    <glyph glyph-name="cent.superior" horiz-adv-x="320" 
d="M351 809q-16 7 -34.5 12t-37.5 5q-68 0 -99 -39t-31 -128q0 -50 23 -71.5t68 -21.5q22 0 42.5 6t39.5 16l-1 -50q-33 -21 -82 -25l-16 -80h-58l18 81q-108 15 -108 136q0 106 43.5 165t128.5 67l16 78h58l-17 -80q17 -2 31.5 -6.5t26.5 -9.5z" />
    <glyph glyph-name="period.superior" horiz-adv-x="159" 
d="M107 567q21 0 30 -7.5t9 -24.5q0 -46 -50 -46q-39 0 -39 28q0 50 50 50z" />
    <glyph glyph-name="comma.superior" horiz-adv-x="159" 
d="M106 565q20 0 29.5 -9t9.5 -24q0 -10 -6 -25t-15 -32t-20.5 -33.5t-23.5 -29.5l-25 7q8 15 17.5 33.5t16.5 35.5q-17 0 -25 9t-8 22q0 18 12 32t38 14z" />
    <glyph glyph-name="dollar.superior" horiz-adv-x="320" 
d="M305 960l-17 -78q41 -4 76 -18l-17 -51q-24 8 -45.5 12.5t-46.5 4.5q-44 0 -63 -17t-19 -39q0 -16 12.5 -25t31.5 -15t41.5 -12.5t41.5 -16.5t31.5 -26t12.5 -43q0 -54 -34 -87t-91 -40l-15 -76h-56l15 75q-27 2 -50.5 8.5t-41.5 18.5l17 53q24 -16 48.5 -22.5t55.5 -6.5
q38 0 61 16t23 45q0 16 -12.5 25.5t-31.5 16.5t-40.5 13.5t-40.5 17t-31.5 26t-12.5 41.5q0 45 30.5 80t94.5 42l17 78h56z" />
    <glyph glyph-name="cent.inferior" horiz-adv-x="320" 
d="M263 165q-16 7 -34.5 12t-37.5 5q-68 0 -99 -39t-31 -128q0 -50 23 -71.5t68 -21.5q22 0 42.5 6t39.5 16l-1 -50q-33 -21 -82 -25l-16 -80h-58l18 81q-108 15 -108 136q0 106 43.5 165t128.5 67l16 78h58l-17 -80q17 -2 31.5 -6.5t26.5 -9.5z" />
    <glyph glyph-name="period.inferior" horiz-adv-x="159" 
d="M19 -77q21 0 30 -7.5t9 -24.5q0 -46 -50 -46q-39 0 -39 28q0 50 50 50z" />
    <glyph glyph-name="comma.inferior" horiz-adv-x="159" 
d="M18 -79q20 0 29.5 -9t9.5 -24q0 -10 -6 -25t-15 -32t-20.5 -33.5t-23.5 -29.5l-25 7q8 15 17.5 33.5t16.5 35.5q-17 0 -25 9t-8 22q0 18 12 32t38 14z" />
    <glyph glyph-name="dollar.inferior" horiz-adv-x="320" 
d="M217 316l-17 -78q41 -4 76 -18l-17 -51q-24 8 -45.5 12.5t-46.5 4.5q-44 0 -63 -17t-19 -39q0 -16 12.5 -25t31.5 -15t41.5 -12.5t41.5 -16.5t31.5 -26t12.5 -43q0 -54 -34 -87t-91 -40l-15 -76h-56l15 75q-27 2 -50.5 8.5t-41.5 18.5l17 53q24 -16 48.5 -22.5t55.5 -6.5
q38 0 61 16t23 45q0 16 -12.5 25.5t-31.5 16.5t-40.5 13.5t-40.5 17t-31.5 26t-12.5 41.5q0 45 30.5 80t94.5 42l17 78h56z" />
    </font>
</defs>
</svg>
