<?xml version="1.0" encoding="UTF-8" standalone="no"?>
<!DOCTYPE svg  PUBLIC '-//W3C//DTD SVG 1.1//EN'  'http://www.w3.org/Graphics/SVG/1.1/DTD/svg11.dtd'>
<svg version="1.1" xmlns="http://www.w3.org/2000/svg">
<defs>
<font id="CabernetJFPro-Regular" horiz-adv-x="599">
<font-face font-family="CabernetJFPro" units-per-em="1000" x-height="484" descent="-260" bbox="-139 -275 1140 1089" panose-1="0 0 0 0 0 0 0 0 0 0" ascent="740" cap-height="761" unicode-range="U+0020-00FE" underline-position="-153" underline-thickness="20" font-weight="400"/>
<missing-glyph/>
<glyph unicode=" " horiz-adv-x="300" glyph-name="space"/>
<glyph unicode="!" horiz-adv-x="328" d="M250 676q0 -30 -7 -68l-65 -397h-37l-66 397q-6 38 -6 59q0 44 23.5 79t65.5 35q45 0 68.5 -29.5t23.5 -75.5zM262 78q0 -41 -32 -68t-73 -27q-42 0 -73.5 27t-31.5 68t32 67.5t73 26.5t73 -26.5t32 -67.5z" glyph-name="exclam"/>
<glyph unicode='&quot;' horiz-adv-x="542" d="M518 753q0 -96 -93 -170q-2 -1 -8.5 -6t-11 -8t-11 -6t-10.5 -3q-15 0 -15 13q0 5 3 7q30 18 60 52.5t30 69.5q-40 -22 -73 -22q-38 0 -63.5 26t-25.5 64q0 44 30.5 72.5t74.5 28.5q49 0 81 -34t32 -84zM271 753q0 -96 -93 -170q-2 -1 -8.5 -6t-11 -8t-11 -6t-10.5 -3 q-15 0 -15 13q0 5 3 7q30 18 60 52.5t30 69.5q-40 -22 -73 -22q-38 0 -63.5 26t-25.5 64q0 44 30.5 72.5t74.5 28.5q49 0 81 -34t32 -84z" glyph-name="quotedbl"/>
<glyph unicode="#" horiz-adv-x="618" d="M464 494h139l-10 -38h-139l-34 -129h139l-10 -37h-139l-74 -290h-41l74 290h-156l-75 -290h-41l75 290h-139l10 37h139l34 129h-139l9 38h140l69 266h41l-69 -266h156l69 266h41zM379 327l34 129h-156l-34 -129h156z" glyph-name="numbersign"/>
<glyph unicode="$" horiz-adv-x="536" d="M488 278q0 -80 -60 -137t-147 -66v-78q0 -15 -17 -15q-6 0 -10.5 4.5t-4.5 10.5v76q-34 1 -79 17.5t-70 16.5q-12 0 -24.5 -5t-20.5 -10t-9 -5q-6 0 -6 14v242q0 4 2 7t4.5 1.5t3.5 -8.5q14 -70 59 -148q64 -107 139 -107h1v185q-8 5 -34.5 18.5t-40.5 21.5 q-63 35 -98.5 74.5t-35.5 100.5q0 79 64 133.5t145 57.5v88q0 15 17 15q6 0 10.5 -4.5t4.5 -10.5v-89q31 -3 73.5 -15.5t56.5 -12.5q15 0 24.5 3t14 6t5.5 3q7 0 7 -9v-193q0 -7 -3 -9.5t-7 0t-5 10.5q-13 54 -61 121q-52 72 -105 80v-173q9 -5 19.5 -10t24 -11.5 t20.5 -10.5q67 -33 105 -73t38 -106zM249 507v153q-26 -6 -42.5 -24t-16.5 -42q0 -48 59 -87zM332 180q0 39 -51 73v-157q22 10 36.5 32.5t14.5 51.5z" glyph-name="dollar"/>
<glyph unicode="%" horiz-adv-x="879" d="M829 213q0 -94 -56 -160.5t-136 -66.5t-136 66.5t-56 160.5t56 160.5t136 66.5t136 -66.5t56 -160.5zM769 743l-605 -737q-15 -15 -28 -15h-13q-6 0 -12.5 5.5t-2.5 9.5l606 737q11 15 27 15h13q7 0 13 -5t2 -10zM434 548q0 -94 -56 -161t-136 -67t-136 67t-56 161 t56.5 160.5t135.5 66.5t135.5 -66.5t56.5 -160.5zM698 212q0 109 -12 163.5t-52 54.5q-63 0 -63 -218q0 -55 1.5 -86.5t7.5 -66t19 -50t35 -15.5q38 0 51 56.5t13 161.5zM303 546q0 53 -2 86.5t-8 66.5t-19 49t-34 16q-64 0 -64 -218q0 -35 0.5 -58.5t2.5 -51t6.5 -45 t11.5 -33t17.5 -23t25.5 -7.5q38 0 50.5 56t12.5 162z" glyph-name="percent"/>
<glyph unicode="&amp;" horiz-adv-x="918" d="M902 98q0 -1 -7 -11t-9 -12q-69 -99 -177 -99q-64 0 -115.5 36t-100.5 98q-53 -53 -120 -89.5t-132 -36.5q-79 0 -142 51t-63 129q0 145 247 257q-68 114 -68 173q0 82 54 133.5t136 51.5q64 0 110.5 -31t46.5 -92q0 -73 -89 -140q55 -97 143 -218q23 27 37 42t39.5 38.5 t50.5 35t50 11.5q35 0 63 -23.5t28 -57.5t-22 -58t-56 -24q-70 0 -76 70q0 1 -0.5 5t-1 7t-1.5 6t-3.5 5t-6.5 2q-26 0 -84 -80q144 -196 193 -196q48 0 65 28q6 1 8.5 -2t2.5 -9zM513 663q0 27 -12 53.5t-35 26.5q-27 0 -38.5 -27t-11.5 -58q0 -34 43 -120q54 44 54 125z M474 135q-101 135 -178 263q-66 -34 -66 -112q0 -62 45.5 -127.5t104.5 -65.5q44 0 94 42z" glyph-name="ampersand"/>
<glyph unicode="&apos;" horiz-adv-x="278" d="M257 751q0 -96 -93 -170q-2 -1 -8.5 -6t-11 -8t-11 -6t-10.5 -3q-15 0 -15 13q0 5 3 7q30 18 60 52.5t30 69.5q-40 -22 -73 -22q-38 0 -63.5 26t-25.5 64q0 44 30.5 72.5t74.5 28.5q49 0 81 -34t32 -84z" glyph-name="quotesingle"/>
<glyph unicode="(" horiz-adv-x="454" d="M408 907q0 -8 -12 -17q-59 -40 -95 -115q-59 -124 -59 -393q0 -311 83 -442q25 -39 70 -66q12 -7 12 -19q0 -15 -26 -15q-65 0 -134.5 81.5t-115 209t-45.5 251.5q0 117 45.5 244t115.5 211.5t135 84.5q26 0 26 -15z" glyph-name="parenleft"/>
<glyph unicode=")" horiz-adv-x="451" d="M404 385q0 -124 -46 -251.5t-117 -209t-141 -81.5q-26 0 -26 15q0 12 13 19q47 30 71 66q86 132 86 443q0 270 -61 392q-38 76 -97 115q-13 8 -13 18q0 15 26 15q62 0 134 -84t121.5 -212.5t49.5 -244.5z" glyph-name="parenright"/>
<glyph unicode="*" horiz-adv-x="423" d="M378 669q0 -19 -15 -34.5t-35 -15.5q-6 0 -20 2.5t-20 2.5q-17 0 -55 -17q38 -17 55 -17q7 0 20.5 2.5t20.5 2.5q19 0 34 -15.5t15 -34.5q0 -22 -16 -36.5t-38 -14.5q-18 0 -27.5 8.5t-18 29t-11.5 24.5q-9 16 -41 39q4 -41 13 -56q4 -6 12.5 -16.5t13 -20t4.5 -21.5 q0 -22 -14.5 -35.5t-36.5 -13.5q-21 0 -35.5 14t-14.5 35q0 13 4.5 22t13.5 19t13 17q9 15 13 56q-32 -22 -42 -39q-3 -4 -11.5 -24.5t-18 -29t-27.5 -8.5q-22 0 -37.5 14.5t-15.5 36.5q0 19 15 34.5t34 15.5q6 0 20 -2.5t21 -2.5q17 0 55 17q-38 17 -55 17q-7 0 -20.5 -2.5 t-20.5 -2.5q-19 0 -34.5 15.5t-15.5 34.5q0 21 16.5 36t37.5 15q18 0 27.5 -8t18.5 -29t11 -25q10 -17 42 -39q-4 40 -13 55q-4 7 -13 17.5t-13.5 19.5t-4.5 22q0 21 14.5 35t35.5 14t36.5 -14t15.5 -35q0 -12 -5 -21.5t-13.5 -20t-12.5 -17.5q-9 -15 -13 -55q32 23 41 39 q4 6 9.5 20t10 21.5t14.5 14t24 6.5q21 0 37 -15t16 -36z" glyph-name="asterisk"/>
<glyph unicode="+" horiz-adv-x="764" d="M674 400v-49h-268v-273h-48v273h-270v49h270v274h48v-274h268z" glyph-name="plus"/>
<glyph unicode="," horiz-adv-x="331" d="M273 55q0 -96 -93 -170q-34 -23 -41 -23q-15 0 -15 13q0 5 3 7q30 18 60 52.5t30 69.5q-40 -22 -73 -22q-38 0 -63.5 26t-25.5 64q0 44 30.5 72.5t74.5 28.5q49 0 81 -34t32 -84z" glyph-name="comma"/>
<glyph unicode="-" horiz-adv-x="357" d="M304 332v-47q0 -6 -4.5 -10.5t-10.5 -4.5h-222q-6 0 -10.5 4.5t-4.5 10.5v47q0 6 4.5 10.5t10.5 4.5h222q6 0 10.5 -4.5t4.5 -10.5z" glyph-name="hyphen"/>
<glyph unicode="." horiz-adv-x="312" d="M268 78q0 -41 -31.5 -68t-73.5 -27t-73.5 27t-31.5 68t31.5 67.5t73.5 26.5q41 0 73 -26.5t32 -67.5z" glyph-name="period"/>
<glyph unicode="/" horiz-adv-x="353" d="M340 795h59l-297 -887h-59z" glyph-name="slash"/>
<glyph unicode="0" horiz-adv-x="720" d="M696 382q0 -164 -98.5 -280.5t-237.5 -116.5t-237 116.5t-98 280.5q0 165 98 281.5t237 116.5t237.5 -116.5t98.5 -281.5zM467 380q0 60 -1 102t-5 89.5t-11.5 78.5t-19.5 58t-30.5 40t-43.5 13q-63 0 -87 -101t-24 -280q0 -46 0.5 -77.5t2 -70.5t5 -65.5t8.5 -55.5 t13.5 -47.5t20 -34t27 -23t34.5 -7.5q28 0 48.5 20t32.5 52.5t18.5 84t9 103t2.5 121.5z" glyph-name="zero"/>
<glyph unicode="1" horiz-adv-x="417" d="M386 12v-12h-352v12q25 0 49 18.5t24 54.5v475q0 37 -20 62.5t-57 25.5v11l268 115q25 10 25 -16v-675q0 -36 21 -53.5t42 -17.5z" glyph-name="one"/>
<glyph unicode="2" horiz-adv-x="621" d="M594 250l-54 -240q-3 -10 -14 -10h-438q-11 0 -11 10q0 41 2 62q4 39 22 73t36.5 53t53 50t50.5 48q93 97 93 249q0 105 -32 149t-93 44q-37 0 -64 -15t-27 -28q0 -4 1.5 -5.5t5.5 -1t8.5 1.5t11.5 2t14 1q50 0 81.5 -28.5t31.5 -76.5q0 -47 -31.5 -78t-74.5 -31 q-46 0 -79 32.5t-33 87.5q0 76 62.5 127.5t174.5 51.5q124 0 200 -58t76 -151q0 -29 -6.5 -54t-15.5 -43.5t-26 -37.5t-31 -31t-39.5 -27t-41 -23t-45.5 -23t-45 -23q-110 -61 -151 -127q-3 -5 -1 -8t8 -3h270q97 0 140 86q5 10 9 7.5t2 -12.5z" glyph-name="two"/>
<glyph unicode="3" horiz-adv-x="629" d="M594 203q0 -88 -86 -152.5t-209 -64.5q-115 0 -182.5 50t-67.5 129q0 52 32.5 84t76.5 32q43 0 74 -28.5t31 -68.5q0 -49 -26 -72t-56 -26q-40 -5 -40 -18q0 -20 28.5 -37.5t61.5 -17.5q44 0 71.5 14.5t45.5 60.5t18 128q0 106 -41.5 141t-130.5 35q-6 1 -6.5 9t2.5 9 q34 0 57 5.5t45 22t32.5 51.5t10.5 90q0 78 -29.5 115.5t-74.5 37.5q-29 0 -50.5 -12.5t-21.5 -23.5q0 -4 1.5 -6t4.5 -1q1 0 11 1.5t18 1.5q37 0 71 -30t34 -76q0 -47 -31.5 -76t-72.5 -29q-43 0 -78.5 31t-35.5 86q0 82 64 130t161 48q102 0 172.5 -50.5t70.5 -133.5 q0 -56 -30 -98t-67 -59.5t-70 -17.5v-8q76 0 144 -58t68 -148z" glyph-name="three"/>
<glyph unicode="4" horiz-adv-x="653" d="M606 282v-33q0 -14 -13 -14h-89v-131q0 -39 25.5 -63.5t58.5 -24.5v-16h-407v16q43 0 74 23t31 65v131h-262q-7 0 -9.5 5t2.5 14l328 496q7 10 16 10h132q11 0 11 -16v-447h87q15 0 15 -15zM104 297h182v287q0 8 -3 11t-9 -4l-185 -278q-11 -16 15 -16z" glyph-name="four"/>
<glyph unicode="5" horiz-adv-x="609" d="M572 267q0 -120 -91.5 -201t-213.5 -81q-109 0 -167.5 52.5t-58.5 118.5q0 56 32.5 92.5t80.5 36.5q45 0 75.5 -32t30.5 -72q0 -48 -32.5 -76.5t-76.5 -28.5q-11 0 -25 3l-14 3q-10 0 -10 -5q0 -17 31 -37.5t66 -20.5q78 0 109 54.5t31 166.5q0 113 -22.5 163.5 t-86.5 50.5q-82 0 -131 -83q-8 -6 -16.5 -1t-5.5 18l77 355q1 6 2.5 8.5t5.5 5t11 2.5h304q44 0 53 9q3 4 7.5 2t2.5 -10l-22 -91q-14 -60 -79 -60h-239q-47 0 -55 -39q-24 -122 -26 -129l4 -1q7 9 25.5 22t62 29.5t91.5 16.5q70 0 130 -25.5t100 -82t40 -133.5z" glyph-name="five"/>
<glyph unicode="6" horiz-adv-x="639" d="M606 260q0 -123 -75 -199t-199 -76q-130 0 -212.5 98.5t-82.5 279.5q0 121 48.5 217.5t124.5 147t163 50.5q91 0 141.5 -43t50.5 -106q0 -50 -26.5 -79.5t-68.5 -29.5q-41 0 -68 29t-27 72q0 20 5 35t17 27t17 15.5t20 13.5q18 11 18 18q0 11 -16 20t-45 9 q-70 0 -103.5 -80.5t-33.5 -207.5q0 -19 1 -24q3 -10 12 -1q45 47 129 47q33 0 68.5 -14t68 -41t53 -73.5t20.5 -104.5zM407 237q0 221 -73 221q-40 0 -61.5 -58t-21.5 -165q0 -116 16 -175.5t58 -59.5q39 0 60.5 65.5t21.5 171.5z" glyph-name="six"/>
<glyph unicode="7" horiz-adv-x="559" d="M547 746q0 -82 -31 -163q-9 -23 -27 -51t-45.5 -66t-44.5 -64q-87 -140 -87 -291q0 -46 14 -102q2 -6 -0.5 -7.5t-10.5 -1.5h-226q-7 0 -7 16q0 14 3.5 46t19 91t40.5 99q57 90 222 201q52 34 90 77t38 62q0 16 -16 16h-314q-52 0 -87.5 -23.5t-35.5 -50.5h-13l18 207 q2 18 10 18h475q15 0 15 -13z" glyph-name="seven"/>
<glyph unicode="8" horiz-adv-x="644" d="M608 235q0 -81 -53 -139.5t-123.5 -83.5t-142.5 -25q-102 0 -174 53t-72 144q0 106 143 166q-111 78 -111 197q0 102 71.5 165.5t175.5 63.5q94 0 157 -43.5t63 -119.5q0 -86 -103 -148q38 -18 63.5 -35t52 -43.5t40 -64.5t13.5 -87zM477 612q0 64 -33.5 101.5 t-84.5 37.5t-80.5 -27t-29.5 -75q0 -28 10 -51.5t22 -39t37.5 -32t41.5 -24.5t50 -23q67 38 67 133zM418 152q0 25 -11 46.5t-34.5 39.5t-44.5 30.5t-57 31.5t-57 32q-84 -39 -84 -152q0 -80 37 -127.5t102 -47.5q67 0 108 39t41 108z" glyph-name="eight"/>
<glyph unicode="9" horiz-adv-x="643" d="M606 400q0 -182 -100.5 -298.5t-234.5 -116.5q-92 0 -142.5 42.5t-50.5 106.5q0 50 26.5 80t68.5 30q41 0 68 -29t27 -73q0 -20 -5 -35t-17 -27t-17 -15.5t-20 -13.5q-18 -11 -18 -18q0 -11 16 -20t45 -9q70 0 103.5 80.5t33.5 207.5q0 19 -1 24q-1 12 -12 1 q-45 -47 -129 -47q-33 0 -68.5 14t-68 41t-53 73.5t-20.5 104.5q0 123 75 199t199 76q130 0 212.5 -98.5t82.5 -279.5zM393 528q0 115 -16.5 175t-58.5 60q-39 0 -60 -65.5t-21 -171.5q0 -221 72 -221q41 0 62.5 58t21.5 165z" glyph-name="nine"/>
<glyph unicode=":" horiz-adv-x="334" d="M276 402q0 -41 -32 -67.5t-73 -26.5t-72.5 26.5t-31.5 67.5t31 68t73 27t73.5 -27t31.5 -68zM276 78q0 -41 -31.5 -68t-73.5 -27t-73 27t-31 68t31.5 67.5t72.5 26.5t73 -26.5t32 -67.5z" glyph-name="colon"/>
<glyph unicode=";" horiz-adv-x="343" d="M280 402q0 -41 -32 -67.5t-73 -26.5q-42 0 -73.5 26.5t-31.5 67.5t31.5 68t73.5 27t73.5 -27t31.5 -68zM287 55q0 -96 -93 -170q-2 -1 -8.5 -6t-11 -8t-11 -6t-10.5 -3q-15 0 -15 13q0 5 3 7q30 18 60 52.5t30 69.5q-40 -22 -73 -22q-38 0 -63.5 26t-25.5 64 q0 44 30.5 72.5t74.5 28.5q49 0 81 -34t32 -84z" glyph-name="semicolon"/>
<glyph unicode="&lt;" horiz-adv-x="704" d="M633 96v-53l-574 234v41l574 237v-53l-498 -203z" glyph-name="less"/>
<glyph unicode="=" horiz-adv-x="764" d="M681 474v-47h-586v47h586zM681 292v-46h-586v46h586z" glyph-name="equal"/>
<glyph unicode="&gt;" horiz-adv-x="725" d="M664 318v-41l-574 -234v53l500 203l-500 203v53z" glyph-name="greater"/>
<glyph unicode="?" horiz-adv-x="522" d="M499 591q0 -30 -9.5 -58t-19.5 -45t-34 -40t-34.5 -31t-39.5 -30q-30 -23 -46 -37t-30 -37t-14 -48q0 -23 28 -53l-15 -15q-41 38 -41 80q0 12 2 24t9 30.5t10 27t14.5 34.5t13.5 32q44 106 44 172q0 40 -9.5 73t-37.5 58.5t-72 25.5q-47 0 -81 -25t-52 -52q40 22 65 22 q41 0 67 -28t26 -71q0 -46 -31 -78t-76 -32t-74.5 33t-29.5 78q0 74 66.5 127.5t173.5 53.5q100 0 163.5 -53.5t63.5 -137.5zM377 78q0 -41 -32 -68t-73 -27q-42 0 -73.5 27t-31.5 68t32 67.5t73 26.5t73 -26.5t32 -67.5z" glyph-name="question"/>
<glyph unicode="@" horiz-adv-x="958" d="M930 377q0 -137 -78.5 -232t-171.5 -95v-1q-37 0 -67.5 21.5t-42.5 66.5q-60 -85 -142 -85q-66 0 -110 45.5t-44 127.5q0 41 18 89t49 91t81 71.5t107 28.5q79 0 108 -73l17 62h110l-89 -312q-8 -29 -8 -46q0 -38 30 -38q23 0 53 16.5t60.5 48t51.5 88t21 125.5 q0 130 -89.5 212t-233.5 82q-171 0 -290.5 -118.5t-119.5 -300.5q0 -159 99.5 -253.5t270.5 -94.5q50 0 100 10.5t86 25.5t65 30.5t43 26.5l15 10l30 -34q-72 -55 -150.5 -86.5t-194.5 -31.5q-216 0 -345 110.5t-129 293.5q0 64 18.5 128t59 124t98.5 106.5t143.5 74.5 t186.5 28q181 0 282.5 -97t101.5 -245zM599 379q0 78 -53 78q-47 0 -100 -87.5t-53 -187.5q0 -83 50 -83q35 0 72 46t60.5 112t23.5 122z" glyph-name="at"/>
<glyph unicode="A" horiz-adv-x="786" d="M804 12v-12h-442v12q17 0 45.5 29t28.5 75q0 24 -10 50l-43 121h-201l-28 -80q-13 -41 -13 -69q0 -56 30.5 -91t58.5 -35v-12h-239v12q18 0 51.5 35.5t55.5 96.5l168 471l-14 40q-7 20 9 27q48 20 94 58.5t71 76.5q14 22 21 2l243 -663q23 -63 56 -103.5t58 -40.5z M191 315h182l-92 250z" glyph-name="A"/>
<glyph unicode="B" horiz-adv-x="802" d="M781 215q0 -100 -72.5 -157.5t-178.5 -57.5h-512v12q34 0 69 41t35 107v466q0 50 -34 85.5t-64 35.5v13h480q95 0 162.5 -44.5t67.5 -132.5q0 -43 -20.5 -78.5t-50 -55.5t-56.5 -30.5t-45 -10.5v-6q18 0 41 -3.5t55.5 -16t59 -32t45 -54.5t18.5 -81zM500 563 q0 180 -88 180q-59 0 -59 -74v-250q0 -14 10 -14h54q35 0 59 36.5t24 121.5zM541 206q0 91 -38 136t-86 45h-49q-6 0 -10.5 -4t-4.5 -9v-279q0 -32 20.5 -52t54.5 -20q45 0 79 46t34 137z" glyph-name="B"/>
<glyph unicode="C" horiz-adv-x="794" d="M727 323v-299q0 -8 -5.5 -13.5t-11.5 -5.5q-2 0 -20 14t-33 14t-47 -12.5t-82.5 -25.5t-109.5 -13q-174 0 -283 111t-109 296q0 90 38.5 166t98.5 123.5t129.5 74t136.5 26.5q62 0 108.5 -13t73 -26t42.5 -13q17 0 31.5 8.5t22.5 17t10 8.5q7 0 8.5 -1.5t1.5 -9.5v-264 q0 -9 -4.5 -14t-10.5 -2t-9 14q-33 105 -91 181q-68 91 -144 91q-84 0 -133.5 -97.5t-49.5 -291.5q0 -136 20.5 -217.5t55.5 -113.5t91 -32q92 0 181 154q49 83 72 167q4 14 9 16.5t9 -3.5t4 -15z" glyph-name="C"/>
<glyph unicode="D" horiz-adv-x="846" d="M825 385q0 -171 -107.5 -278t-263.5 -107h-429v12q23 0 54.5 28.5t31.5 77.5v516q0 54 -30.5 83.5t-54.5 29.5v13h430q158 0 263.5 -102.5t105.5 -272.5zM565 400q0 179 -30.5 259.5t-109.5 80.5q-77 0 -77 -73v-561q0 -40 20.5 -60t55.5 -20q141 0 141 374z" glyph-name="D"/>
<glyph unicode="E" horiz-adv-x="799" d="M763 341l-36 -325q0 -5 -5.5 -9t-11.5 -5l-5 -2h-675v13q35 0 76.5 37t41.5 105v453q0 64 -37 101.5t-72 37.5v12h672q17 -1 18 -13l15 -295q1 -7 -2.5 -11.5t-8 -2t-8.5 13.5q-11 31 -40.5 81t-65.5 94q-90 108 -161 108q-31 0 -51.5 -21t-20.5 -62v-238h23 q37 0 69 18.5t50.5 45.5t29 52.5t10.5 42.5l12 -1v-353h-16q0 25 -15.5 62t-53.5 71.5t-86 34.5h-23v-282q0 -31 16 -53t44 -22q88 0 188 124q39 49 70 103.5t42 81.5q9 19 15 14q3 -2 2 -11z" glyph-name="E"/>
<glyph unicode="F" horiz-adv-x="781" d="M729 746l15 -295q1 -7 -2.5 -11.5t-8 -2t-8.5 13.5q-11 31 -40.5 81t-65.5 94q-90 108 -161 108q-31 0 -51.5 -21t-20.5 -62v-238h23q37 0 69 18.5t50.5 45.5t29 52.5t10.5 42.5l12 -1v-353h-16q0 25 -15.5 62t-53.5 71.5t-86 34.5h-23v-232q0 -68 33.5 -103t69.5 -35 v-16h-459v13q35 0 76.5 37t41.5 105v453q0 64 -37 101.5t-72 37.5v12h672q17 -1 18 -13z" glyph-name="F"/>
<glyph unicode="G" horiz-adv-x="815" d="M817 399v-12q-34 0 -63 -30t-29 -75v-256q0 -16 -8 -16q-2 0 -13 8.5t-28 17t-33 8.5q-20 0 -104.5 -30t-144.5 -30q-149 0 -258.5 103t-109.5 280q0 180 116.5 296t270.5 116q50 0 125.5 -18t85.5 -18q20 0 39 9l19 9q6 0 7 -2t1 -12l18 -267q1 -11 -4 -11q-7 0 -14 18 q-9 26 -32 67.5t-56.5 88t-78.5 79.5t-88 33q-74 0 -113 -104.5t-39 -296.5q0 -176 26 -264t86 -88q30 0 49.5 14.5t28.5 46t11.5 64t2.5 85.5q0 87 -27 131t-74 44v12h431z" glyph-name="G"/>
<glyph unicode="H" horiz-adv-x="921" d="M897 759v-13q-31 0 -61.5 -34t-30.5 -94v-488q0 -56 33 -87t56 -31v-12h-414v12q29 0 60 30.5t31 87.5v267h-221v-267q0 -56 33 -87t56 -31v-12h-414v12q29 0 60 30.5t31 87.5v488q0 61 -29 94.5t-63 33.5v13h418v-13q-31 0 -61.5 -34t-30.5 -94v-192h221v192 q0 61 -29 94.5t-63 33.5v13h418z" glyph-name="H"/>
<glyph unicode="I" horiz-adv-x="499" d="M458 761v-13q-31 0 -61.5 -34t-30.5 -94v-490q0 -56 33 -87t56 -31v-12h-414v12q29 0 60 30.5t31 87.5v490q0 61 -28.5 94.5t-62.5 33.5l-1 13h418z" glyph-name="I"/>
<glyph unicode="J" horiz-adv-x="670" d="M672 760v-9q-30 0 -65.5 -32.5t-35.5 -90.5v-393q0 -130 -78.5 -199t-207.5 -69q-119 0 -189 45.5t-70 127.5q0 49 29 78t73 29q43 0 72 -28.5t29 -70.5t-27 -67t-70 -25q-6 0 -14 2.5t-10 2.5q-11 0 -11 -8q0 -16 32 -30.5t71 -14.5q134 0 134 194v426q0 60 -32.5 91.5 t-67.5 31.5v9h438z" glyph-name="J"/>
<glyph unicode="K" horiz-adv-x="900" d="M909 16v-16h-271q-32 0 -48 27q-7 14 -184 316l-47 -53v-161q0 -39 28.5 -67.5t55.5 -39t41 -10.5v-12h-465v12q31 0 69 30t38 87v491q0 61 -29 94.5t-63 33.5v13h423v-13q-32 0 -65 -34.5t-33 -93.5v-291q77 85 132.5 148.5t72.5 84.5l17 21q34 40 34 85q0 32 -19 55.5 t-46 23.5v14h288v-14q-15 0 -42.5 -12t-75.5 -49t-94 -91q-16 -21 -59 -69q97 -170 158 -275t73 -125l13 -20q25 -42 53 -66t45 -24z" glyph-name="K"/>
<glyph unicode="L" horiz-adv-x="799" d="M763 341l-36 -325q0 -5 -5.5 -9t-11.5 -5l-5 -2h-675v13q35 0 76.5 37t41.5 105v453q0 64 -37 101.5t-72 37.5v12h459v-14q-39 0 -75.5 -34.5t-36.5 -94.5v-512q0 -31 16 -53t44 -22q88 0 188 124q39 49 70 103.5t42 81.5q9 19 15 14q3 -2 2 -11z" glyph-name="L"/>
<glyph unicode="M" horiz-adv-x="1055" d="M1014 761v-14q-25 0 -53.5 -25.5t-28.5 -70.5v-515q0 -49 27 -85.5t51 -36.5v-14h-397v13q23 0 52 35.5t29 96.5v524l-216 -660q-3 -12 -9.5 -12t-14.5 16l-274 625v-350q0 -106 46.5 -190.5t89.5 -84.5v-13h-301v11q13 0 36 18t47 49t41.5 84t17.5 112v400 q0 14 -31 43.5t-51 29.5v14h287q19 0 26 -18l163 -389q2 -6 4.5 -8t5.5 0.5t5 9.5l131 396q5 9 17 9h300z" glyph-name="M"/>
<glyph unicode="N" horiz-adv-x="859" d="M854 760v-14q-15 0 -39 -18.5t-49.5 -52t-43.5 -90.5t-18 -123v-462h-146l-359 593v-303q0 -60 15 -110t36.5 -79.5t47.5 -50.5t47.5 -29t36.5 -8v-13h-365v14q19 0 43.5 14.5t50.5 44t43.5 86.5t17.5 130v281q0 71 -46 125t-81 54v11h325q9 0 10.5 -1t6.5 -8l291 -472 v184q0 70 -21.5 128.5t-51.5 90.5t-57 49t-44 17v12h350z" glyph-name="N"/>
<glyph unicode="O" horiz-adv-x="866" d="M838 382q0 -166 -118.5 -283t-286.5 -117t-286.5 117t-118.5 283t118.5 283t286.5 117t286.5 -117t118.5 -283zM576 380q0 86 -6 149.5t-21 118.5t-44.5 83.5t-72.5 28.5q-32 0 -56 -13t-39.5 -39.5t-25.5 -58t-15 -78.5t-6.5 -89.5t-1.5 -101.5q0 -61 1.5 -102t6 -89 t14 -78.5t25 -58t40 -40t57.5 -12.5q44 0 73.5 28.5t44.5 84t20.5 118t5.5 149.5z" glyph-name="O"/>
<glyph unicode="P" horiz-adv-x="753" d="M748 548q0 -71 -43.5 -120.5t-106.5 -70t-138 -20.5h-104v-196q0 -56 36.5 -92t81.5 -36v-13h-458v13q42 0 78 35.5t36 92.5v470q0 58 -24 97t-59 39v13h445q115 0 185.5 -58t70.5 -154zM519 562q0 58 -9.5 95.5t-26 53t-29 20t-29.5 4.5q-28 0 -48.5 -15t-20.5 -49v-309 h64q40 0 69.5 46.5t29.5 153.5z" glyph-name="P"/>
<glyph unicode="Q" horiz-adv-x="895" d="M877 49q0 -64 -9 -119.5t-28.5 -102.5t-53.5 -74.5t-80 -27.5q-34 0 -61 11t-47.5 32.5t-34 41.5t-28.5 50q-3 5 -10.5 20t-10.5 20.5t-10 18t-11 18t-10.5 14.5t-12.5 13.5t-13 9t-15 6.5t-16 2q-28 0 -50.5 -18.5t-22.5 -35.5q0 -9 11 -9q25 0 51 -25t26 -65 q0 -37 -27.5 -61.5t-61.5 -24.5t-60 28.5t-26 67.5q0 51 29.5 92.5t73.5 58.5q-141 27 -233.5 137.5t-92.5 254.5q0 165 118.5 282t286.5 117t286.5 -117t118.5 -282q0 -143 -90 -252t-228 -139q17 -7 57 -27.5t74.5 -34t61.5 -13.5q39 0 66.5 17t40 42.5t17.5 45t5 32.5 q4 5 11.5 4t8.5 -8zM588 380q0 91 -4.5 149.5t-18 116t-43 85.5t-75.5 28q-32 0 -56 -13t-39.5 -39.5t-25.5 -58t-15 -78t-6.5 -89t-1.5 -101.5q0 -61 1.5 -102t6 -89t14 -78.5t25 -58t40 -40t57.5 -12.5q42 0 70.5 26.5t43.5 80t21 118.5t6 155z" glyph-name="Q"/>
<glyph unicode="R" horiz-adv-x="825" d="M831 12v-12h-267q-16 0 -23 18l-104 302q-13 39 -48 39q-8 0 -14.5 -6t-6.5 -17v-187q0 -66 41 -101t75 -35v-13h-477v13q50 0 88 36t38 100v476q0 53 -35 87t-66 34v12h463q103 0 177 -50.5t74 -141.5q0 -45 -18.5 -81t-49 -57t-58 -32.5t-55.5 -16.5v-4q58 0 101 -57 q31 -41 64 -136.5t45 -114.5q15 -23 32 -39t24 -16zM514 563q0 78 -24.5 123t-67.5 45q-27 0 -40.5 -21t-13.5 -53v-269h40q49 0 77.5 48t28.5 127z" glyph-name="R"/>
<glyph unicode="S" horiz-adv-x="698" d="M657 252q0 -114 -92 -192t-220 -78q-46 0 -106 22.5t-92 22.5q-15 0 -31.5 -6.5t-27.5 -13t-12 -6.5q-5 0 -6.5 3t-1.5 15v318q0 11 6 12q5 1 7 -12q17 -91 78 -195q83 -140 183 -140q44 0 77 35t33 86q0 19 -9 36.5t-21.5 30.5t-36.5 29t-41.5 25.5t-49.5 26.5t-50 27 q-82 45 -129 98t-47 132q0 107 88 179.5t198 72.5q52 0 119 -19t83 -19q19 0 32 4t19 7.5t7 3.5q9 0 9 -12v-254q0 -9 -4 -12.5t-9 0t-7 13.5q-14 69 -79 159q-77 107 -154 107q-43 0 -73.5 -26.5t-30.5 -63.5q0 -17 5.5 -32.5t11.5 -27t21.5 -25t25 -21t32 -20.5t32.5 -18 l38 -19t37 -18q42 -21 70.5 -39.5t58 -47t44.5 -65.5t15 -83z" glyph-name="S"/>
<glyph unicode="T" horiz-adv-x="803" d="M752 760l32 -307h-16q0 23 -27.5 77.5t-72.5 103.5q-71 76 -155 100v-589q0 -35 18.5 -63t44 -42t45.5 -21t29 -7v-12h-518v12q14 0 35.5 6.5t47.5 20.5t44.5 43.5t18.5 68.5v583q-83 -28 -148 -103q-44 -50 -70.5 -104.5t-26.5 -75.5h-11l30 311q0 7 4 12.5t10 3.5 q2 -1 9 -6.5t15 -9t18 -3.5h590q11 0 26 7l16 7q11 0 12 -13z" glyph-name="T"/>
<glyph unicode="U" horiz-adv-x="794" d="M792 759v-12q-41 0 -87.5 -51.5t-46.5 -131.5v-358q0 -110 -69 -166.5t-200 -56.5q-132 0 -209 62.5t-77 182.5v398q0 58 -28.5 89.5t-54.5 31.5v12h411v-12q-27 0 -62.5 -32.5t-35.5 -85.5v-420q0 -85 43.5 -129.5t104.5 -44.5q60 0 104.5 46.5t44.5 126.5v351 q0 83 -43.5 135.5t-88.5 52.5v12h294z" glyph-name="U"/>
<glyph unicode="V" horiz-adv-x="707" d="M756 759v-14q-22 0 -70.5 -48.5t-71.5 -119.5l-184 -577h-133l-233 661q-13 39 -42 61.5t-50 22.5v14h458v-14q-48 0 -79 -40.5t-14 -90.5l135 -390l107 332q25 78 -4.5 133.5t-73.5 55.5v14h255z" glyph-name="V"/>
<glyph unicode="W" horiz-adv-x="1096" d="M1140 759v-14q-11 0 -35 -18.5t-52.5 -59.5t-43.5 -90l-177 -577h-146l-116 366l-143 -366h-147l-226 661q-13 38 -43 61t-49 23v14h409v-14q-29 0 -44 -37.5t0 -93.5l139 -437l91 232l-80 252q-13 40 -34.5 62t-41.5 22v14h406v-14q-31 0 -58 -40t-12 -91l125 -423 l112 365q21 68 -3.5 128.5t-68.5 60.5l-1 14h239z" glyph-name="W"/>
<glyph unicode="X" horiz-adv-x="844" d="M856 13v-13h-501v13q45 0 71.5 43t-0.5 92l-92 147l-75 -95q-37 -47 -43.5 -91t14.5 -70t59 -26v-13h-297v13q36 0 102.5 56t120.5 122l106 125l-217 345q-21 34 -50 60.5t-50 26.5v12h459v-12q-41 0 -61 -38t1 -74l76 -129l70 86q26 32 33.5 62t-1 50t-24.5 31.5 t-35 11.5v12h265v-12q-36 0 -93 -40.5t-96 -88.5l-107 -131l238 -377q18 -29 63 -63.5t64 -34.5z" glyph-name="X"/>
<glyph unicode="Y" horiz-adv-x="785" d="M803 760v-14q-40 0 -102 -67.5t-97 -134.5l-95 -179v-244q0 -50 35.5 -79t67.5 -29v-13h-456v13q38 0 76 29t38 79v231l-126 257q-27 56 -72.5 96.5t-79.5 40.5v14h455v-14q-24 0 -42.5 -23.5t-18.5 -54.5q0 -24 10 -45l105 -213l65 121q20 37 20 85q0 51 -25.5 90.5 t-55.5 39.5v14h298z" glyph-name="Y"/>
<glyph unicode="Z" horiz-adv-x="730" d="M688 362l-35 -348q0 -2 -1 -5q-7 -8 -11 -9h-589q-6 0 -8.5 10t2.5 20l326 649q13 26 5 45t-32 19q-74 0 -161 -103q-40 -47 -72.5 -102t-44.5 -90q-2 -3 -5 -3t-5 2.5t-2 8.5l26 289q1 9 3.5 11.5t10.5 2.5h548q23 0 13 -18l-320 -645q-15 -26 -9.5 -47.5t37.5 -21.5 q94 0 208 150q83 110 104 187q2 3 5.5 4t5 -0.5t1.5 -5.5z" glyph-name="Z"/>
<glyph unicode="[" horiz-adv-x="360" d="M300 -121v-29h-204v843h204v-29h-57q-25 0 -34 -9t-9 -36v-693q0 -47 41 -47h59z" glyph-name="bracketleft"/>
<glyph unicode="\" horiz-adv-x="337" d="M50 795l297 -887h-59l-297 887h59z" glyph-name="backslash"/>
<glyph unicode="]" horiz-adv-x="360" d="M287 693v-843h-204v29h59q41 0 41 47v693q0 27 -9.5 36t-33.5 9h-57v29h204z" glyph-name="bracketright"/>
<glyph unicode="^" horiz-adv-x="665" d="M374 799l258 -277h-68l-231 220l-232 -220h-65l258 277h80z" glyph-name="asciicircum"/>
<glyph unicode="_" horiz-adv-x="490" d="M490 -43v-86h-490v86h490z" glyph-name="underscore"/>
<glyph unicode="`" horiz-adv-x="280" d="M153 710l95 -128l-14 -18l-161 80q-51 26 -51 59q0 23 15.5 38.5t38.5 15.5q41 0 77 -47z" glyph-name="grave"/>
<glyph unicode="a" horiz-adv-x="571" d="M571 126q-18 -45 -61 -91t-102 -46q-36 0 -63.5 19.5t-41.5 52.5q-59 -72 -144 -72q-62 0 -97 31.5t-35 79.5q0 80 115 119q12 4 48.5 14t54.5 17q29 11 47 28v107q0 30 -16 50.5t-40 20.5q-22 0 -35 -7.5t-13 -16.5q0 -11 23 -26q25 -21 25 -48q0 -41 -34.5 -74.5 t-77.5 -33.5q-33 0 -52.5 18t-19.5 51q0 59 85 116.5t217 57.5q57 0 95.5 -32.5t38.5 -91.5v-260q0 -13 6.5 -20.5t15.5 -7.5q12 0 24.5 15.5t19.5 33.5q3 4 9.5 3t7.5 -7zM295 87q-3 17 -3 36v115q-8 3 -15 3q-20 0 -39.5 -28.5t-19.5 -66.5q0 -39 14 -62t31 -23 q21 0 32 26z" glyph-name="a"/>
<glyph unicode="b" d="M587 251q0 -113 -70.5 -188t-156.5 -75q-41 0 -107.5 22t-96.5 22q-25 0 -47 -8.5t-34.5 -17.5t-14.5 -9q-6 0 -7.5 2.5t-1.5 11.5v616q0 41 -18 56.5t-37 15.5v11l228 74q27 8 27 -16v-332q50 61 125 61q88 0 149.5 -66.5t61.5 -179.5zM386 250q0 196 -73 196 q-35 0 -62 -54v-292q0 -82 43 -82q45 0 68.5 67.5t23.5 164.5z" glyph-name="b"/>
<glyph unicode="c" horiz-adv-x="503" d="M491 192q-11 -35 -29.5 -68.5t-46.5 -66t-69 -52t-89 -19.5q-96 0 -163 62t-67 178q0 83 40 145.5t99 92.5t125 30q78 0 121 -32.5t43 -83.5q0 -40 -26.5 -66.5t-67.5 -26.5q-39 0 -63.5 27t-24.5 59q0 22 7.5 39t16 24.5t16 14.5t7.5 11q0 16 -23 16q-28 0 -62 -48 t-34 -123q0 -84 41 -139.5t105 -55.5q50 0 85 29.5t47 55.5q7 5 12 -3z" glyph-name="c"/>
<glyph unicode="d" horiz-adv-x="618" d="M606 12v-12h-235q-13 0 -13 13v53q-55 -78 -154 -78q-73 0 -129.5 62t-56.5 163q0 119 73.5 200t162.5 81q67 0 104 -35v168q0 41 -18 56.5t-37 15.5v11l228 74q11 4 18 1t7 -17v-685q0 -36 16 -53.5t34 -17.5zM358 111v304q-25 51 -61 51q-76 0 -76 -193 q0 -101 23.5 -154.5t58.5 -53.5q33 0 55 46z" glyph-name="d"/>
<glyph unicode="e" horiz-adv-x="559" d="M530 188q-4 -20 -20.5 -49.5t-45.5 -65.5t-79 -60.5t-109 -24.5q-110 0 -180 66.5t-70 177.5q0 115 79 190t194 75q97 0 162 -58.5t65 -133.5q0 -20 -18 -20h-294q18 -183 149 -183q39 0 75.5 20t53 37.5t26.5 33.5q12 6 12 -5zM341 357q0 51 -14.5 86t-42.5 35 q-27 0 -49.5 -35t-22.5 -108q0 -4 0.5 -13.5t0.5 -14.5h108q13 0 16.5 10.5t3.5 39.5z" glyph-name="e"/>
<glyph unicode="f" horiz-adv-x="434" d="M535 676q0 -46 -28.5 -71.5t-67.5 -25.5q-35 0 -59.5 24t-24.5 58q0 27 11.5 46.5t23 30t11.5 16.5q0 16 -25 16q-20 0 -44.5 -19.5t-24.5 -59.5v-204h107q15 0 10 -9l-27 -46q-8 -12 -19 -12h-71v-321q0 -34 26.5 -60.5t44.5 -26.5v-12h-353v12q18 0 48 25.5t30 64.5 v318h-70q-4 0 -6.5 3.5t-1.5 6.5l29 48q6 9 16 9h33v80q0 114 65.5 170.5t180.5 56.5q92 0 139 -35t47 -83z" glyph-name="f"/>
<glyph unicode="g" horiz-adv-x="581" d="M573 542q0 -30 -18.5 -49t-50.5 -19q-26 0 -46.5 17t-29.5 17q-16 0 -16 -15q0 -11 7 -20q56 -21 89 -56.5t33 -77.5q0 -65 -74.5 -111t-180.5 -46q-35 0 -60 4q-49 -11 -49 -34q0 -9 11 -14.5t36 -7.5t44 -2t56.5 0.5t52.5 0.5q73 0 131 -39.5t58 -114.5 q0 -93 -82.5 -156t-210.5 -63q-260 0 -260 117q0 58 90 88q-70 22 -70 94q0 28 14.5 52.5t39 41t49 27.5t50.5 18q-70 18 -113 57.5t-43 87.5q0 65 75 111.5t181 46.5q54 0 104 -14q-4 22 -4 38q0 41 29.5 68t74.5 27q36 0 59.5 -21t23.5 -53zM348 340q0 137 -62 137 q-31 0 -46.5 -38t-15.5 -99q0 -138 62 -138q30 0 46 39t16 99zM449 -120q0 79 -170 79q-20 0 -56.5 -2t-60.5 -2q-58 -23 -58 -75q0 -44 42 -73t125 -29q78 0 128 26t50 76z" glyph-name="g"/>
<glyph unicode="h" horiz-adv-x="677" d="M657 12v-12h-292v12q14 0 29.5 18t15.5 46v267q0 30 -17 48t-45 18q-39 0 -68 -45v-281q0 -36 15.5 -53t30.5 -18v-12h-305v12q15 1 36.5 21t21.5 52v544q0 41 -18 56.5t-37 15.5v11l231 74q11 4 18 1t7 -17v-367q83 90 175 90q68 0 109.5 -38.5t41.5 -113.5v-264 q0 -33 15 -49t36 -16z" glyph-name="h"/>
<glyph unicode="i" horiz-adv-x="350" d="M282 687q0 -47 -33 -79.5t-79 -32.5t-79 33t-33 79t33 79t79 33t79 -33t33 -79zM326 12v-12h-305v12q15 1 36.5 21t21.5 52v252q0 22 -6 37.5t-16 22t-18 9.5t-15 3v11l231 74q11 4 18 1t7 -17v-395q0 -36 15.5 -53t30.5 -18z" glyph-name="i"/>
<glyph unicode="j" horiz-adv-x="347" d="M286 687q0 -46 -33 -79t-79 -33q-47 0 -80 33t-33 79t33.5 79t79.5 33t79 -33t33 -79zM282 484v-477q0 -121 -72.5 -188.5t-186.5 -67.5q-79 0 -120.5 30.5t-41.5 82.5q0 39 27 64t62 25q39 0 64 -23.5t25 -57.5q0 -32 -18.5 -54t-18.5 -29q0 -19 22 -19q15 0 35 22.5 t20 62.5v499q0 23 -15 40t-43 17v10l250 75q6 2 8.5 -0.5t2.5 -11.5z" glyph-name="j"/>
<glyph unicode="k" horiz-adv-x="648" d="M653 14v-13q-111 0 -317 -0.5t-317 -0.5v12q15 1 36.5 21t21.5 52v542q0 41 -18 56.5t-37 15.5v11l225 74q11 4 18 1t7 -17v-517l109 109q21 22 19 46t-18 43t-36 25v10h255v-10q-29 0 -80.5 -29t-90.5 -63l-15 -13l172 -305q12 -20 33.5 -35t32.5 -15zM355 72l-73 144 l-10 -11v-122q0 -69 43 -69q22 0 36.5 18.5t3.5 39.5z" glyph-name="k"/>
<glyph unicode="l" horiz-adv-x="334" d="M323 12v-12h-304v12q15 1 36.5 21t21.5 52v542q0 41 -18 56.5t-37 15.5v11l225 74q11 4 18 1t7 -17v-685q0 -36 16 -53.5t35 -17.5z" glyph-name="l"/>
<glyph unicode="m" horiz-adv-x="985" d="M964 12v-12h-292v12q14 0 30 18t16 46v267q0 29 -17.5 47.5t-45.5 18.5q-25 0 -41 -20t-16 -48v-264q0 -33 15 -49t36 -16v-12h-292v12q14 0 29.5 18t15.5 46v267q0 30 -17 48t-45 18q-31 0 -60 -45v-281q0 -36 15.5 -53t30.5 -18v-12h-305v12q15 1 36.5 21t21.5 52v251 q0 22 -6 37.5t-16 22t-18 9.5t-15 3v11l231 74q11 4 18 1t7 -17v-74q13 18 32 35.5t57 36t78 18.5q110 0 141 -89q72 89 172 89q70 0 112 -38.5t42 -113.5v-264q0 -33 14.5 -49t35.5 -16z" glyph-name="m"/>
<glyph unicode="n" horiz-adv-x="677" d="M657 12v-12h-292v12q14 0 29.5 18t15.5 46v267q0 30 -17 48t-45 18q-39 0 -68 -45v-281q0 -37 13.5 -54t32.5 -17v-12h-305v12q21 0 39.5 19.5t18.5 53.5v250q0 22 -6 37.5t-16 22t-18 9.5t-15 3v11l231 74q11 4 18 1t7 -17v-73q83 90 175 90q68 0 109.5 -38.5 t41.5 -113.5v-264q0 -33 15 -49t36 -16z" glyph-name="n"/>
<glyph unicode="o" d="M575 244q0 -105 -80.5 -179t-194.5 -74q-115 0 -195.5 74t-80.5 179q0 104 80.5 178.5t195.5 74.5q114 0 194.5 -74.5t80.5 -178.5zM367 245q0 112 -13 171t-52 59q-72 0 -72 -230q0 -39 0.5 -63t2.5 -54t6.5 -48.5t12 -35.5t19.5 -24.5t28 -7.5q41 0 54.5 59.5 t13.5 173.5z" glyph-name="o"/>
<glyph unicode="p" horiz-adv-x="625" d="M601 277q0 -125 -68.5 -206.5t-161.5 -81.5q-61 0 -109 30v-142q0 -48 26.5 -72.5t54.5 -24.5v-12h-365v12q28 0 58 26t30 73v455q0 42 -18.5 60.5t-38.5 18.5v11l228 67q25 8 25 -16v-55q65 75 151 75q75 0 131.5 -55.5t56.5 -162.5zM395 227q0 72 -12.5 116t-28.5 58 t-36 14q-34 0 -56 -45v-304q25 -45 65 -45q35 0 51.5 46.5t16.5 159.5z" glyph-name="p"/>
<glyph unicode="q" d="M623 -218v-12h-340v12q19 0 46 17.5t27 53.5v195q-53 -61 -125 -61q-87 0 -149 66.5t-62 179.5t70.5 188t156.5 75q41 0 107.5 -22t96.5 -22q25 0 47 9t35 17.5t15 8.5q6 0 7.5 -2.5t1.5 -11.5v-621q0 -35 24.5 -52.5t41.5 -17.5zM356 92v293q0 81 -43 81 q-45 0 -68.5 -67t-23.5 -165q0 -196 73 -196q33 0 62 54z" glyph-name="q"/>
<glyph unicode="r" horiz-adv-x="535" d="M528 390q0 -42 -29 -73.5t-73 -31.5q-59 0 -88 60q-2 5 -4.5 11t-4.5 10t-4 7.5t-4 5.5t-4 2q-15 0 -35 -41v-257q0 -36 15.5 -53t30.5 -18v-12h-305v12q15 1 36.5 21t21.5 52v252q0 22 -6 37.5t-16 22t-18 9.5t-15 3v11l231 74q11 4 18 1t7 -17v-81q72 93 144 93 q43 0 72.5 -29t29.5 -71z" glyph-name="r"/>
<glyph unicode="s" horiz-adv-x="480" d="M454 165q0 -70 -59.5 -122t-135.5 -52q-42 0 -81.5 8t-68.5 8q-15 0 -27.5 -3t-19.5 -6t-9 -3q-7 0 -7 14v191q0 9 6 11t10 -10q16 -55 51 -107q58 -86 128 -86q36 0 56.5 18t20.5 44q0 19 -15.5 34t-33.5 23t-53 22t-54 23q-52 24 -82.5 58.5t-30.5 91.5 q0 78 61.5 125.5t143.5 47.5q32 0 74 -6.5t48 -6.5q12 0 26.5 3.5t16.5 3.5q6 0 8 -1.5t2 -9.5v-132q0 -13 -6 -12q-4 0 -8 13q-13 40 -46 77q-44 51 -98 51q-34 0 -53 -18t-19 -39q0 -11 3.5 -21t12 -18.5t16 -14.5t22 -13.5t23.5 -11.5t27.5 -12t27.5 -12q58 -27 90.5 -60 t32.5 -90z" glyph-name="s"/>
<glyph unicode="t" horiz-adv-x="409" d="M400 123q-15 -44 -64.5 -89.5t-121.5 -45.5q-65 0 -106.5 38.5t-41.5 99.5v291h-40q-7 0 -9.5 6t6.5 16l226 200q15 13 15 -8v-146h109q3 0 5 -1.5t1 -3.5l-28 -57q-5 -7 -10 -7h-77v-262q0 -31 14.5 -51.5t39.5 -20.5q24 0 44.5 16t30.5 32q4 2 6 0t1 -7z" glyph-name="t"/>
<glyph unicode="u" horiz-adv-x="673" d="M649 11v-11h-230q-15 0 -20 6t-5 20v55q-75 -89 -174 -89q-68 0 -110 38.5t-42 113.5v263q0 34 -14.5 50t-35.5 16v12h244v-343q0 -29 18 -47.5t47 -18.5q21 0 39 14t28 31v281q0 67 -55 71v12h255v-398q0 -41 18.5 -58.5t36.5 -17.5z" glyph-name="u"/>
<glyph unicode="v" horiz-adv-x="488" d="M532 485v-13q-25 0 -67 -50t-69 -130l-100 -292h-108l-164 402q-14 34 -29 52t-25 18v13h300v-13q-12 0 -25 -19t-4 -43l85 -227l41 115q17 47 17 88q0 39 -14.5 62.5t-38.5 23.5v13h201z" glyph-name="v"/>
<glyph unicode="w" horiz-adv-x="823" d="M867 485v-13q-25 0 -67 -50t-69 -130l-100 -292h-107l-122 299l-102 -299h-108l-164 402q-14 34 -29 52t-25 18v13h300v-13q-12 0 -25 -18.5t-4 -43.5l85 -227l55 158l-26 61q-13 34 -32.5 52t-34.5 18v13h324v-13q-12 0 -25 -18.5t-4 -43.5l75 -227l40 115q17 47 17 88 q0 39 -14.5 62.5t-38.5 23.5v13h201z" glyph-name="w"/>
<glyph unicode="x" horiz-adv-x="582" d="M627 12v-12h-371v12q15 0 25.5 14.5t10.5 32.5q0 15 -10 29l-51 75l-6 -6q-42 -49 -42 -97q0 -21 9 -34.5t24 -13.5v-12h-230v12q37 0 98 46.5t107 98.5l25 28l-116 170q-32 46 -73 82.5t-62 36.5v11h370v-11q-14 0 -26.5 -12.5t-12.5 -31.5q0 -15 10 -29l44 -66l15 18 q34 37 34 80q0 18 -9 29.5t-24 11.5v11h222v-11q-32 0 -98 -45t-104 -88l-22 -26l138 -206q24 -36 63.5 -66.5t61.5 -30.5z" glyph-name="x"/>
<glyph unicode="y" horiz-adv-x="519" d="M551 485v-14q-31 0 -66.5 -45.5t-66.5 -130.5l-163 -444q-45 -121 -145 -121q-44 0 -71.5 27.5t-27.5 68.5q0 38 26.5 63.5t58.5 25.5q28 0 48.5 -13t28 -28.5t14 -28.5t10.5 -13q16 0 25.5 13t20.5 42l40 113h-86l-152 407q-24 64 -79 64v14h351v-14q-23 0 -32.5 -21 t0.5 -46l71 -202l45 126q10 30 10 66q0 34 -13.5 55.5t-40.5 21.5v14h194z" glyph-name="y"/>
<glyph unicode="z" horiz-adv-x="573" d="M547 232l-47 -218q-1 -2 -1.5 -4.5t-0.5 -3.5t-1 -2.5t-2.5 -2t-4 -1t-5.5 -0.5h-445q-9 0 -12 7t3 17l229 374q15 25 15 36q0 7 -2 13.5t-11 13t-23 6.5q-45 0 -111 -68q-51 -51 -79 -96q-7 -12 -12 -11t-4 13l13 163q2 16 22 16h458q17 0 8 -17l-237 -379 q-14 -23 -14 -43q0 -28 26 -28q43 0 139 108q66 75 84 110q7 13 12 10.5t3 -13.5z" glyph-name="z"/>
<glyph unicode="{" horiz-adv-x="500" d="M412 -94v-23q-144 0 -181 22q-56 34 -56 146v105q0 45 -7 70t-30 41q-32 21 -102 30v27q72 11 89 19q50 25 50 122v105q0 61 12.5 95t43.5 51q35 19 181 24v-23q-68 -4 -93 -25q-19 -16 -24.5 -44t-5.5 -85v-47q0 -88 -9 -114q-12 -39 -53 -62q-32 -18 -82 -29 q59 -13 84 -29q34 -21 47 -62t13 -123v-48q0 -59 6 -85.5t30 -40.5q28 -16 87 -17z" glyph-name="braceleft"/>
<glyph unicode="|" horiz-adv-x="500" d="M277 764v-998h-52v998h52z" glyph-name="bar"/>
<glyph unicode="}" horiz-adv-x="500" d="M482 324v-27q-70 -9 -102 -30q-23 -16 -30 -41t-7 -70v-105q0 -112 -56 -146q-37 -22 -181 -22v23q59 1 87 17q24 14 30 40.5t6 85.5v48q0 82 13 123t47 62q25 16 84 29q-50 11 -82 29q-42 24 -52 58t-10 104v14v47q0 58 -5 85.5t-25 43.5q-25 21 -93 25v23 q146 -5 181 -24q31 -17 43.5 -51t12.5 -95v-105q0 -97 50 -122q17 -8 89 -19z" glyph-name="braceright"/>
<glyph unicode="~" horiz-adv-x="647" d="M600 768l25 -16q-17 -43 -56.5 -75t-99.5 -32q-47 0 -142 30.5t-140 30.5q-74 0 -125 -77l-27 15q37 62 74.5 88.5t90.5 26.5q48 0 139.5 -30t138.5 -30q74 0 122 69z" glyph-name="asciitilde"/>
<glyph unicode=" " horiz-adv-x="320" glyph-name="nbspace"/>
<glyph unicode="¡" horiz-adv-x="333" d="M272 686q0 -41 -31.5 -67.5t-73.5 -26.5q-41 0 -73 26.5t-32 67.5t32 68t73 27q42 0 73.5 -27t31.5 -68zM255 97q0 -44 -23.5 -79t-65.5 -35q-45 0 -68.5 29.5t-23.5 75.5q0 28 7 68l65 397h37l66 -397q6 -40 6 -59z" glyph-name="exclamdown"/>
<glyph unicode="¢" horiz-adv-x="652" d="M595 329v-243q0 -6 -5 -10.5t-10 -4.5q-1 0 -15.5 11.5t-26.5 11.5t-60.5 -17.5t-94.5 -22.5v-57q0 -15 -17 -15q-6 0 -10.5 4.5t-4.5 10.5v56h-7q-141 -2 -230 89t-89 241q0 96 53 170.5t126 109.5t147 36v68q0 15 17 15q6 0 10.5 -4.5t4.5 -10.5v-69q52 -3 96.5 -21.5 t54.5 -18.5q14 0 25.5 7t18 13.5t8.5 6.5q4 0 5.5 -0.5t2.5 -2.5t1 -6v-214q0 -12 -7.5 -14t-12.5 12q-25 83 -74 147q-56 74 -117 74h-1v-610q69 10 135 125q41 70 59 135q3 11 7.5 13t7.5 -3t3 -12zM351 72v603q-54 -18 -85 -95.5t-31 -214.5q0 -150 29 -217.5t87 -75.5z " glyph-name="cent"/>
<glyph unicode="£" d="M447 379v-7q0 -6 -4.5 -10.5t-10.5 -4.5h-82q3 -21 3 -39q0 -72 -42 -159q6 -2 21 -8.5t23 -9t19.5 -5.5t20.5 -3q58 0 88.5 26t43.5 78h18q1 -10 1 -29q0 -85 -45.5 -148.5t-124.5 -63.5q-51 0 -123 65q-15 -24 -46 -42t-61 -18q-50 0 -75.5 28t-25.5 71t31.5 77 t80.5 34q22 0 80 -21v8q0 47 -57 159h-64q-6 0 -10.5 4.5t-4.5 10.5v7q0 6 4.5 11t10.5 5h45q-58 114 -58 182q0 88 64 141t152 53q72 0 133.5 -37.5t61.5 -104.5q0 -35 -20 -58t-54 -23q-30 0 -47.5 19.5t-17.5 49.5q0 13 12 41.5t12 42.5q0 46 -39 46q-35 0 -57.5 -30.5 t-22.5 -79.5q0 -40 29 -130.5t34 -111.5h89q6 0 10.5 -5t4.5 -11zM222 86q-3 3 -14.5 15t-18.5 19t-18.5 16t-21.5 13.5t-19 4.5q-27 0 -44.5 -20.5t-17.5 -45.5t19.5 -45t49.5 -20q31 0 53.5 20.5t31.5 42.5z" glyph-name="sterling"/>
<glyph unicode="¥" horiz-adv-x="785" d="M622 332v-8v-2l-1 -2q-2 -6 -5 -8h-1l-1 -1l-3 -2h-4h-98v-74h98q6 0 10.5 -4.5t4.5 -10.5v-8q0 -6 -4.5 -10.5t-10.5 -4.5h-98v-76q0 -50 35.5 -79t67.5 -29v-13h-456v13q38 0 76 29t38 79v76h-104q-6 0 -10.5 4.5t-4.5 10.5v8q0 6 4.5 10.5t10.5 4.5h104v74h-104h-2 q-3 0 -5 2q-7 3 -8 9v4v8q0 8 8 13q1 0 3 1q1 1 4 1h104v5l-126 257q-27 56 -72.5 96.5t-79.5 40.5v14h455v-14q-24 0 -42.5 -23.5t-18.5 -54.5q0 -24 10 -45l105 -213l65 121q20 37 20 85q0 51 -25.5 90.5t-55.5 39.5v14h298v-14q-40 0 -102 -67.5t-97 -134.5l-95 -179v-18 h98q2 0 4 -1q5 -2 7 -5l2 -2q2 -4 2 -7z" glyph-name="yen"/>
<glyph unicode="§" horiz-adv-x="398" d="M372 375q0 -47 -35.5 -83.5t-109.5 -36.5q97 -75 97 -144q0 -49 -39.5 -86t-119.5 -37q-65 0 -98 29.5t-33 70.5q0 19 11 37t34 18q47 0 47 -44q0 -16 -14.5 -35.5t-14.5 -23.5q0 -10 21 -21t52 -11q19 0 38 4.5t37.5 21.5t18.5 44q0 31 -16.5 57t-69.5 71l-88 77 q-86 76 -86 140q0 46 36 83.5t107 37.5q-51 44 -73.5 75t-22.5 70q0 58 42.5 92t103.5 34q49 0 89 -29t40 -71q0 -24 -14.5 -39.5t-38.5 -15.5q-17 0 -30 11t-13 25t20 34q13 13 13 33q0 12 -22 21t-47 9q-32 0 -57 -16t-25 -53q0 -21 3.5 -35t24 -39.5t60.5 -58.5l88 -72 q84 -68 84 -144zM315 357q-3 29 -34.5 67.5t-58.5 61t-49 37.5q-51 0 -81 -18t-30 -49q0 -30 57.5 -95.5t86.5 -82.5q39 0 74 18t35 61z" glyph-name="section"/>
<glyph unicode="¨" horiz-adv-x="384" d="M346 699q0 -24 -17 -42t-41 -18q-26 0 -44 17.5t-18 43.5q0 23 19 41t42 18q24 0 41.5 -17.5t17.5 -42.5zM154 699q0 -24 -16.5 -42t-40.5 -18q-26 0 -44 17.5t-18 43.5q0 23 18.5 41t41.5 18q25 0 42 -17.5t17 -42.5z" glyph-name="dieresis"/>
<glyph unicode="©" horiz-adv-x="848" d="M807 372q0 -158 -113 -270.5t-271 -112.5t-270.5 112.5t-112.5 270.5q0 159 113 272t272 113q158 0 270 -113t112 -272zM773 372q0 145 -102 248.5t-247 103.5t-248 -103.5t-103 -248.5q0 -146 102 -249t248 -103q145 0 247.5 103.5t102.5 248.5zM599 343v-173 q0 -11 -10 -11q-1 0 -11.5 8t-19.5 8q-6 0 -49 -14.5t-89 -14.5q-101 0 -164 64t-63 171q0 69 38 122.5t90 78.5t105 25q49 0 87 -15t43 -15q10 0 18 5t13 10t6 5q6 0 6 -6v-153q0 -9 -5.5 -10t-8.5 8q-21 62 -53 105q-39 53 -83 53q-49 0 -77.5 -56.5t-28.5 -168.5 q0 -116 24 -163.5t72 -47.5q53 0 105 90q30 50 42 96q2 8 5.5 9.5t5.5 -2t2 -8.5z" glyph-name="copyright"/>
<glyph unicode="ª" horiz-adv-x="396" d="M389 553q-13 -32 -42.5 -63.5t-70.5 -31.5q-51 0 -73 50q-41 -50 -99 -50q-43 0 -67 21.5t-24 55.5q0 18 7 31.5t21.5 23.5t24 15t26.5 12l104 41v73q0 20 -11.5 34.5t-27.5 14.5q-15 0 -24 -5t-9 -11t16 -18q17 -15 17 -33q0 -28 -24 -51t-53 -23q-23 0 -36.5 12.5 t-13.5 34.5q0 40 59 80t150 40q39 0 65.5 -22.5t26.5 -62.5v-180q0 -20 15 -20t31 35q2 2 6.5 1.5t5.5 -4.5zM198 526q-2 14 -2 25v79q-8 2 -11 2q-13 0 -26.5 -19.5t-13.5 -46.5q0 -26 9.5 -42t21.5 -16q14 0 22 18zM376 410v-7q0 -6 -4.5 -10.5t-10.5 -4.5h-320 q-6 0 -10.5 4.5t-4.5 10.5v7q0 6 4.5 10.5t10.5 4.5h320q6 0 10.5 -4.5t4.5 -10.5z" glyph-name="ordfeminine"/>
<glyph unicode="«" horiz-adv-x="471" d="M206 276l230 151l-111 -154l108 -159zM37 276l230 151l-111 -154l108 -159z" glyph-name="guillemotleft"/>
<glyph unicode="®" horiz-adv-x="569" d="M547 518q0 -102 -78 -177t-180 -75q-107 0 -182.5 75t-75.5 182t76 183t183 76q109 0 183 -77t74 -187zM514 523q0 93 -65.5 160t-158.5 67q-94 0 -160 -66.5t-66 -160.5t65.5 -160t159.5 -66q93 0 159 66.5t66 159.5zM439 401v-4h-95q-6 0 -8 6l-37 108q-6 14 -17 14 q-8 0 -8 -9v-66q0 -24 14.5 -36t26.5 -12v-5h-169v5q18 0 31.5 12.5t13.5 35.5v169q0 19 -12.5 31t-23.5 12v4h164q36 0 63 -18t27 -50q0 -53 -65 -67v-1q20 0 36 -20q11 -15 22.5 -48.5t16.5 -40.5q12 -20 20 -20zM326 597q0 59 -33 59q-19 0 -19 -26v-95h14q18 0 28 17 t10 45z" glyph-name="registered"/>
<glyph unicode="¯" horiz-adv-x="346" d="M319 757v-64h-292v64h292z" glyph-name="macron"/>
<glyph unicode="°" horiz-adv-x="484" d="M63 593q0 78 55.5 133.5t133.5 55.5t133.5 -55.5t55.5 -133.5t-55.5 -133.5t-133.5 -55.5t-133.5 55.5t-55.5 133.5zM120 592q0 -55 38.5 -93.5t93.5 -38.5t93.5 38.5t38.5 93.5t-38.5 94t-93.5 39t-93.5 -39t-38.5 -94z" glyph-name="degree"/>
<glyph unicode="²" horiz-adv-x="377" d="M352 452l-33 -147q-1 -6 -9 -6h-268q-6 0 -6 6q0 25 1 38q2 24 13 44.5t22.5 32t32.5 30.5t31 30q57 59 57 152q0 64 -19.5 91t-57.5 27q-23 0 -39 -9t-16 -17q0 -2 1 -3t3.5 -1t5 1t7 1.5t8.5 0.5q30 0 49.5 -17.5t19.5 -46.5t-19.5 -48t-45.5 -19q-28 0 -48 19.5 t-20 53.5q0 47 38 78.5t107 31.5q76 0 122.5 -35.5t46.5 -92.5q0 -23 -7.5 -43t-14.5 -32t-28 -27t-29.5 -20t-38 -20t-35.5 -18q-68 -38 -93 -78q-5 -7 4 -7h166q59 0 85 53q4 6 6 4.5t1 -7.5z" glyph-name="twosuperior"/>
<glyph unicode="³" horiz-adv-x="372" d="M360 423q0 -54 -53 -94t-129 -40q-71 0 -112.5 30.5t-41.5 79.5q0 32 20 52t47 20t46 -17.5t19 -42.5q0 -31 -16.5 -45t-34.5 -15q-24 -3 -24 -12q0 -12 17.5 -22.5t37.5 -10.5q41 0 62 25.5t21 99.5q0 65 -25.5 86.5t-80.5 21.5q-4 1 -4 5.5t2 5.5q44 0 66.5 20t22.5 84 q0 48 -18 71t-46 23q-18 0 -31 -7.5t-13 -14.5q1 -4 3 -4q1 0 7 1t11 1q23 0 44 -18.5t21 -46.5q0 -29 -19.5 -47t-44.5 -18q-26 0 -48 19t-22 53q0 50 39.5 80t98.5 30q63 0 106.5 -31.5t43.5 -82.5q0 -50 -34.5 -79t-68.5 -29v-5q47 0 89 -35.5t42 -90.5z" glyph-name="threesuperior"/>
<glyph unicode="´" horiz-adv-x="292" d="M269 703q0 -33 -51 -59l-161 -80l-14 18l95 128q36 47 77 47q23 0 38.5 -15.5t15.5 -38.5z" glyph-name="acute"/>
<glyph unicode="¶" horiz-adv-x="538" d="M505 760v-60h-52v-700h-85v700h-74v-700h-85v421q-81 3 -129 49.5t-48 119.5q0 76 51.5 123t138.5 47h283z" glyph-name="paragraph"/>
<glyph unicode="·" horiz-adv-x="290" d="M262 272q0 -41 -31.5 -68t-73.5 -27t-73.5 27t-31.5 68t31.5 67.5t73.5 26.5q41 0 73 -26.5t32 -67.5z" glyph-name="periodcentered"/>
<glyph unicode="¸" horiz-adv-x="312" d="M269 -130q0 -37 -30.5 -62t-77.5 -25q-57 0 -118 37l11 26q38 -24 64 -24q20 0 34.5 14t14.5 34q0 41 -50 41q-8 0 -29 -3l36 92h36l-20 -53q15 2 30 2q44 0 71.5 -22t27.5 -57z" glyph-name="cedilla"/>
<glyph unicode="¹" horiz-adv-x="264" d="M240 307v-7h-216v7q15 0 30 11.5t15 33.5v291q0 23 -12 38t-35 15v7l164 71q15 6 15 -10v-413q0 -22 13 -33t26 -11z" glyph-name="onesuperior"/>
<glyph unicode="º" horiz-adv-x="409" d="M396 631q0 -72 -55.5 -123t-134.5 -51t-134.5 51t-55.5 123q0 73 55.5 124t134.5 51t134.5 -51t55.5 -124zM252 632q0 79 -9 119t-36 40q-49 0 -49 -159q0 -82 8.5 -121.5t38.5 -39.5q29 0 38 41t9 120zM376 410v-7q0 -6 -4.5 -10.5t-10.5 -4.5h-320q-6 0 -10.5 4.5 t-4.5 10.5v7q0 6 4.5 10.5t10.5 4.5h320q6 0 10.5 -4.5t4.5 -10.5z" glyph-name="ordmasculine"/>
<glyph unicode="»" horiz-adv-x="464" d="M202 427l227 -162l-230 -151l111 153zM33 427l227 -162l-230 -151l111 153z" glyph-name="guillemotright"/>
<glyph unicode="¼" horiz-adv-x="716" d="M456 754h38l-286 -754h-38zM240 307v-7h-216v7q15 0 30 11.5t15 33.5v291q0 23 -12 38t-35 15v7l164 71q15 6 15 -10v-413q0 -22 13 -33t26 -11zM687 177v-21q0 -9 -8 -9h-56v-81q0 -24 16 -39.5t37 -15.5v-10h-254v10q26 0 45.5 14t19.5 41v81h-163q-4 0 -6 3.5t1 8.5 l205 310q6 6 10 6h82q7 0 7 -10v-279h55q9 0 9 -9zM374 186h113v179q0 13 -7 5l-116 -174q-8 -10 10 -10z" glyph-name="onequarter"/>
<glyph unicode="½" horiz-adv-x="758" d="M456 754h38l-286 -754h-38zM240 307v-7h-216v7q15 0 30 11.5t15 33.5v291q0 23 -12 38t-35 15v7l164 71q15 6 15 -10v-413q0 -22 13 -33t26 -11zM735 153l-33 -147q-2 -6 -9 -6h-268q-6 0 -6 6q0 25 1 38q2 24 13 44.5t22.5 32t32.5 30.5t31 30q57 59 57 152 q0 64 -19.5 91t-57.5 27q-23 0 -39 -9t-16 -17q0 -2 1 -3t3.5 -1t5 1t7 1.5t8.5 0.5q30 0 49.5 -17.5t19.5 -46.5t-19.5 -48t-45.5 -19q-28 0 -48 19.5t-20 53.5q0 47 38 78.5t107 31.5q76 0 122.5 -35.5t46.5 -92.5q0 -23 -7.5 -43t-14.5 -32t-28 -27t-29.5 -20t-38 -20 t-35.5 -18q-68 -38 -93 -78q-5 -7 4 -7h166q59 0 85 53q4 6 6 4.5t1 -7.5z" glyph-name="onehalf"/>
<glyph unicode="¾" horiz-adv-x="787" d="M527 754h38l-286 -754h-38zM758 177v-21q0 -9 -8 -9h-56v-81q0 -24 16 -39.5t37 -15.5v-10h-254v10q26 0 45.5 14t19.5 41v81h-163q-4 0 -6 3.5t1 8.5l205 310q6 6 10 6h82q7 0 7 -10v-279h55q9 0 9 -9zM445 186h113v179q0 13 -7 5l-116 -174q-7 -10 10 -10zM349 423 q0 -54 -53 -94t-129 -40q-71 0 -112.5 30.5t-41.5 79.5q0 32 20 52t47 20t46 -17.5t19 -42.5q0 -31 -16.5 -45t-34.5 -15q-24 -3 -24 -12q0 -12 17.5 -22.5t37.5 -10.5q41 0 62 25.5t21 99.5q0 65 -25.5 86.5t-80.5 21.5q-4 1 -4 5.5t2 5.5q44 0 66.5 20t22.5 84 q0 48 -18 71t-46 23q-18 0 -31 -7.5t-13 -14.5q1 -4 3 -4t8 1t10 1q23 0 44 -18.5t21 -46.5q0 -29 -19.5 -47t-44.5 -18q-26 0 -48 19t-22 53q0 50 39.5 80t98.5 30q63 0 106.5 -31.5t43.5 -82.5q0 -50 -34.5 -79t-68.5 -29v-5q47 0 89 -35.5t42 -90.5z" glyph-name="threequarters"/>
<glyph unicode="¿" horiz-adv-x="541" d="M362 686q0 -41 -32 -67.5t-73 -26.5t-73 27t-32 67q0 41 32 68t73 27q42 0 73.5 -27t31.5 -68zM497 163q0 -74 -66.5 -127.5t-173.5 -53.5q-100 0 -163.5 53.5t-63.5 137.5q0 30 9.5 58t19.5 45t34 40t34.5 31t39.5 30q30 23 46 37t30 37t14 48q0 23 -28 53l15 15 q41 -38 41 -80q0 -8 -1 -17t-4.5 -20.5t-5.5 -19t-8 -22.5t-8.5 -21.5t-10.5 -24t-10 -23.5q-45 -106 -45 -172q0 -64 28 -110.5t91 -46.5q47 0 81 24.5t52 52.5q-36 -22 -65 -22q-41 0 -67 28t-26 71q0 46 31 78t76 32t74.5 -33t29.5 -78z" glyph-name="questiondown"/>
<glyph unicode="À" horiz-adv-x="786" d="M314 970l96 -128l-14 -18l-161 80q-51 24 -51 59q0 23 15.5 38.5t38.5 15.5q41 0 76 -47zM804 12v-12h-442v12q17 0 45.5 29t28.5 75q0 24 -10 50l-43 121h-201l-28 -80q-13 -41 -13 -69q0 -56 30.5 -91t58.5 -35v-12h-239v12q18 0 51.5 35.5t55.5 96.5l168 471l-14 40 q-7 20 9 27q48 20 94 58.5t71 76.5q14 22 21 2l243 -663q23 -63 56 -103.5t58 -40.5zM191 315h182l-92 250z" glyph-name="Agrave"/>
<glyph unicode="Á" horiz-adv-x="786" d="M536 960q0 -34 -51 -60l-161 -80l-14 18l95 128q34 47 77 47q23 0 38.5 -15t15.5 -38zM804 12v-12h-442v12q17 0 45.5 29t28.5 75q0 24 -10 50l-43 121h-201l-28 -80q-13 -41 -13 -69q0 -56 30.5 -91t58.5 -35v-12h-239v12q18 0 51.5 35.5t55.5 96.5l168 471l-14 40 q-7 20 9 27q48 20 94 58.5t71 76.5q14 22 21 2l243 -663q23 -63 56 -103.5t58 -40.5zM191 315h182l-92 250z" glyph-name="Aacute"/>
<glyph unicode="Â" horiz-adv-x="786" d="M555 810l-159 95l-158 -95l143 193q5 6 13 6q10 0 14 -6zM804 12v-12h-442v12q17 0 45.5 29t28.5 75q0 24 -10 50l-43 121h-201l-28 -80q-13 -41 -13 -69q0 -56 30.5 -91t58.5 -35v-12h-239v12q18 0 51.5 35.5t55.5 96.5l168 471l-14 40q-7 20 9 27q48 20 94 58.5 t71 76.5q14 22 21 2l243 -663q23 -63 56 -103.5t58 -40.5zM191 315h182l-92 250z" glyph-name="Acircumflex"/>
<glyph unicode="Ã" horiz-adv-x="786" d="M515 989l19 -4q-6 -24 -12.5 -40.5t-17.5 -35.5t-27.5 -28.5t-38.5 -9.5q-27 0 -73 25.5t-72 25.5q-25 0 -43 -37l-22 4q6 22 12.5 37.5t18 35t29 30t39.5 10.5q27 0 73 -25t71 -25q10 0 18.5 6t13 12t12.5 19zM804 12v-12h-442v12q17 0 45.5 29t28.5 75q0 24 -10 50 l-43 121h-201l-28 -80q-13 -41 -13 -69q0 -56 30.5 -91t58.5 -35v-12h-239v12q18 0 51.5 35.5t55.5 96.5l168 471l-14 40q-7 20 9 27q48 20 94 58.5t71 76.5q14 22 21 2l243 -663q23 -63 56 -103.5t58 -40.5zM191 315h182l-92 250z" glyph-name="Atilde"/>
<glyph unicode="Ä" horiz-adv-x="786" d="M535 934q0 -25 -16.5 -42.5t-40.5 -17.5q-26 0 -44 17t-18 43q0 24 18.5 41.5t41.5 17.5q25 0 42 -17.5t17 -41.5zM344 934q0 -25 -16.5 -42.5t-40.5 -17.5q-26 0 -44 17t-18 43q0 24 18 41.5t42 17.5q25 0 42 -17.5t17 -41.5zM804 12v-12h-442v12q17 0 45.5 29t28.5 75 q0 24 -10 50l-43 121h-201l-28 -80q-13 -41 -13 -69q0 -56 30.5 -91t58.5 -35v-12h-239v12q18 0 51.5 35.5t55.5 96.5l168 471l-14 40q-7 20 9 27q48 20 94 58.5t71 76.5q14 22 21 2l243 -663q23 -63 56 -103.5t58 -40.5zM191 315h182l-92 250z" glyph-name="Adieresis"/>
<glyph unicode="Å" horiz-adv-x="786" d="M494 972q0 -48 -34.5 -82.5t-81.5 -34.5q-51 0 -84.5 34t-33.5 85q0 46 35 80.5t82 34.5q48 0 82.5 -34t34.5 -83zM438 972q0 25 -18.5 43.5t-43.5 18.5t-43 -18.5t-18 -42.5q0 -27 17.5 -45t44.5 -18q25 0 43 18t18 44zM804 12v-12h-442v12q17 0 45.5 29t28.5 75 q0 24 -10 50l-43 121h-201l-28 -80q-13 -41 -13 -69q0 -56 30.5 -91t58.5 -35v-12h-239v12q18 0 51.5 35.5t55.5 96.5l168 471l-14 40q-7 20 9 27q48 20 94 58.5t71 76.5q14 22 21 2l243 -663q23 -63 56 -103.5t58 -40.5zM191 315h182l-92 250z" glyph-name="Aring"/>
<glyph unicode="Æ" horiz-adv-x="1129" d="M1093 341l-36 -325q0 -5 -5.5 -9t-11.5 -5l-5 -2h-675v13q35 0 76.5 37t41.5 105v132h-201l-90 -126q-20 -28 -26 -62.5t9.5 -60.5t52.5 -26l-5 -12h-275l5 12q89 0 185 132l341 471v28q-10 48 -43 76t-62 28v12h672q17 -1 18 -13l15 -295q1 -7 -2.5 -11.5t-8 -2 t-8.5 13.5q-11 31 -40.5 81t-65.5 94q-90 108 -161 108q-31 0 -51.5 -21t-20.5 -62v-238h23q37 0 69 18.5t50.5 45.5t29 52.5t10.5 42.5l12 -1v-353h-16q0 25 -15.5 62t-53.5 71.5t-86 34.5h-23v-282q0 -31 16 -53t44 -22q88 0 188 124q39 49 70 103.5t42 81.5q9 19 15 14 q3 -2 2 -11zM297 315h181v253z" glyph-name="AE"/>
<glyph unicode="Ç" horiz-adv-x="794" d="M727 326v-299q0 -8 -5.5 -13.5t-11.5 -5.5q-2 0 -20 14t-33 14t-47 -12.5t-81.5 -25.5t-107.5 -13l-14 -38q15 2 30 2q44 0 71.5 -22t27.5 -57q0 -37 -30.5 -62t-77.5 -25q-57 0 -118 37l11 26q37 -24 64 -24q20 0 34.5 14t14.5 34q0 41 -50 41q-8 0 -29 -3l31 78 q-161 11 -260.5 119.5t-99.5 283.5q0 89 38.5 164.5t98.5 122.5t130 73.5t136 26.5q62 0 108.5 -13t73 -26t42.5 -13q17 0 31.5 8.5t22.5 17t10 8.5q7 0 8.5 -1.5t1.5 -9.5v-264q0 -9 -4.5 -14t-10.5 -2t-9 14q-33 105 -91 181q-68 91 -144 91q-84 0 -133.5 -96t-49.5 -290 q0 -136 20.5 -217t55.5 -112t91 -31q92 0 181 154q49 83 72 167q4 14 9 16.5t9 -3.5t4 -15z" glyph-name="Ccedilla"/>
<glyph unicode="È" horiz-adv-x="799" d="M377 957l96 -128l-14 -18l-161 80q-51 24 -51 59q0 23 15.5 38.5t38.5 15.5q41 0 76 -47zM763 341l-36 -325q0 -5 -5.5 -9t-11.5 -5l-5 -2h-675v13q35 0 76.5 37t41.5 105v453q0 64 -37 101.5t-72 37.5v12h672q17 -1 18 -13l15 -295q1 -7 -2.5 -11.5t-8 -2t-8.5 13.5 q-11 31 -40.5 81t-65.5 94q-90 108 -161 108q-31 0 -51.5 -21t-20.5 -62v-238h23q37 0 69 18.5t50.5 45.5t29 52.5t10.5 42.5l12 -1v-353h-16q0 25 -15.5 62t-53.5 71.5t-86 34.5h-23v-282q0 -31 16 -53t44 -22q88 0 188 124q39 49 70 103.5t42 81.5q9 19 15 14q3 -2 2 -11z " glyph-name="Egrave"/>
<glyph unicode="É" horiz-adv-x="799" d="M551 945q0 -35 -51 -60l-161 -80l-14 18l95 128q34 47 77 47q23 0 38.5 -15t15.5 -38zM763 341l-36 -325q0 -5 -5.5 -9t-11.5 -5l-5 -2h-675v13q35 0 76.5 37t41.5 105v453q0 64 -37 101.5t-72 37.5v12h672q17 -1 18 -13l15 -295q1 -7 -2.5 -11.5t-8 -2t-8.5 13.5 q-11 31 -40.5 81t-65.5 94q-90 108 -161 108q-31 0 -51.5 -21t-20.5 -62v-238h23q37 0 69 18.5t50.5 45.5t29 52.5t10.5 42.5l12 -1v-353h-16q0 25 -15.5 62t-53.5 71.5t-86 34.5h-23v-282q0 -31 16 -53t44 -22q88 0 188 124q39 49 70 103.5t42 81.5q9 19 15 14q3 -2 2 -11z " glyph-name="Eacute"/>
<glyph unicode="Ê" horiz-adv-x="799" d="M572 803l-159 95l-158 -95l143 193q4 6 13 6t14 -6zM763 341l-36 -325q0 -5 -5.5 -9t-11.5 -5l-5 -2h-675v13q35 0 76.5 37t41.5 105v453q0 64 -37 101.5t-72 37.5v12h672q17 -1 18 -13l15 -295q1 -7 -2.5 -11.5t-8 -2t-8.5 13.5q-11 31 -40.5 81t-65.5 94 q-90 108 -161 108q-31 0 -51.5 -21t-20.5 -62v-238h23q37 0 69 18.5t50.5 45.5t29 52.5t10.5 42.5l12 -1v-353h-16q0 25 -15.5 62t-53.5 71.5t-86 34.5h-23v-282q0 -31 16 -53t44 -22q88 0 188 124q39 49 70 103.5t42 81.5q9 19 15 14q3 -2 2 -11z" glyph-name="Ecircumflex"/>
<glyph unicode="Ë" horiz-adv-x="799" d="M557 893q0 -25 -16.5 -42.5t-41.5 -17.5q-26 0 -43.5 17t-17.5 43q0 24 18 41.5t42 17.5q25 0 42 -17.5t17 -41.5zM365 893q0 -25 -16.5 -42.5t-40.5 -17.5q-26 0 -44 17t-18 43q0 24 18.5 41.5t41.5 17.5q25 0 42 -17.5t17 -41.5zM763 341l-36 -325q0 -5 -5.5 -9 t-11.5 -5l-5 -2h-675v13q35 0 76.5 37t41.5 105v453q0 64 -37 101.5t-72 37.5v12h672q17 -1 18 -13l15 -295q1 -7 -2.5 -11.5t-8 -2t-8.5 13.5q-11 31 -40.5 81t-65.5 94q-90 108 -161 108q-31 0 -51.5 -21t-20.5 -62v-238h23q37 0 69 18.5t50.5 45.5t29 52.5t10.5 42.5 l12 -1v-353h-16q0 25 -15.5 62t-53.5 71.5t-86 34.5h-23v-282q0 -31 16 -53t44 -22q88 0 188 124q39 49 70 103.5t42 81.5q9 19 15 14q3 -2 2 -11z" glyph-name="Edieresis"/>
<glyph unicode="Ì" horiz-adv-x="499" d="M255 950l96 -128l-14 -18l-161 80q-51 24 -51 59q0 23 15.5 38.5t38.5 15.5q41 0 76 -47zM458 761v-13q-31 0 -61.5 -34t-30.5 -94v-490q0 -56 33 -87t56 -31v-12h-414v12q29 0 60 30.5t31 87.5v490q0 61 -28.5 94.5t-62.5 33.5l-1 13h418z" glyph-name="Igrave"/>
<glyph unicode="Í" horiz-adv-x="499" d="M383 943q0 -35 -51 -59l-161 -80l-14 18l96 128q35 47 76 47q23 0 38.5 -15.5t15.5 -38.5zM458 761v-13q-31 0 -61.5 -34t-30.5 -94v-490q0 -56 33 -87t56 -31v-12h-414v12q29 0 60 30.5t31 87.5v490q0 61 -28.5 94.5t-62.5 33.5l-1 13h418z" glyph-name="Iacute"/>
<glyph unicode="Î" horiz-adv-x="499" d="M410 803l-159 95l-158 -95l143 193q4 6 13 6t14 -6zM458 761v-13q-31 0 -61.5 -34t-30.5 -94v-490q0 -56 33 -87t56 -31v-12h-414v12q29 0 60 30.5t31 87.5v490q0 61 -28.5 94.5t-62.5 33.5l-1 13h418z" glyph-name="Icircumflex"/>
<glyph unicode="Ï" horiz-adv-x="499" d="M407 897q0 -25 -16.5 -42.5t-41.5 -17.5q-26 0 -43.5 17t-17.5 43q0 24 18 41.5t42 17.5q25 0 42 -17.5t17 -41.5zM215 897q0 -25 -16.5 -42.5t-40.5 -17.5q-26 0 -44 17t-18 43q0 24 18.5 41.5t41.5 17.5q25 0 42 -17.5t17 -41.5zM458 761v-13q-31 0 -61.5 -34 t-30.5 -94v-490q0 -56 33 -87t56 -31v-12h-414v12q29 0 60 30.5t31 87.5v490q0 61 -28.5 94.5t-62.5 33.5l-1 13h418z" glyph-name="Idieresis"/>
<glyph unicode="Ð" horiz-adv-x="846" d="M825 385q0 -171 -107.5 -278t-263.5 -107h-429v12q23 0 54.5 28.5t31.5 77.5v250h-87v27h87v239q0 54 -30.5 83.5t-54.5 29.5v13h430q158 0 263.5 -102.5t105.5 -272.5zM565 400q0 179 -30.5 259.5t-109.5 80.5q-77 0 -77 -73v-272h108v-27h-108v-262q0 -40 20.5 -60 t55.5 -20q141 0 141 374z" glyph-name="Eth"/>
<glyph unicode="Ñ" horiz-adv-x="856" d="M569 937l19 -3q-10 -34 -18.5 -54.5t-29 -40t-48.5 -19.5q-27 0 -73 25.5t-71 25.5q-26 0 -45 -38l-22 5q33 113 100 113q27 0 73 -25t71 -25q23 0 44 36zM854 760v-14q-15 0 -39 -18.5t-49.5 -52t-43.5 -90.5t-18 -123v-462h-146l-359 593v-303q0 -60 15 -110 t36.5 -79.5t47.5 -50.5t47.5 -29t36.5 -8v-13h-365v14q19 0 43.5 14.5t50.5 44t43.5 86.5t17.5 130v281q0 71 -46 125t-81 54v11h325q9 0 10.5 -1t6.5 -8l291 -472v184q0 70 -21.5 128.5t-51.5 90.5t-57 49t-44 17v12h350z" glyph-name="Ntilde"/>
<glyph unicode="Ò" horiz-adv-x="866" d="M390 964l96 -128l-14 -18l-161 80q-51 24 -51 59q0 23 15.5 38.5t38.5 15.5q41 0 76 -47zM838 382q0 -166 -118.5 -283t-286.5 -117t-286.5 117t-118.5 283t118.5 283t286.5 117t286.5 -117t118.5 -283zM576 380q0 86 -6 149.5t-21 118.5t-44.5 83.5t-72.5 28.5 q-32 0 -56 -13t-39.5 -39.5t-25.5 -58t-15 -78.5t-6.5 -89.5t-1.5 -101.5q0 -61 1.5 -102t6 -89t14 -78.5t25 -58t40 -40t57.5 -12.5q44 0 73.5 28.5t44.5 84t20.5 118t5.5 149.5z" glyph-name="Ograve"/>
<glyph unicode="Ó" horiz-adv-x="866" d="M591 958q0 -34 -51 -60l-161 -80l-14 18l95 128q34 47 77 47q23 0 38.5 -15t15.5 -38zM838 382q0 -166 -118.5 -283t-286.5 -117t-286.5 117t-118.5 283t118.5 283t286.5 117t286.5 -117t118.5 -283zM576 380q0 86 -6 149.5t-21 118.5t-44.5 83.5t-72.5 28.5 q-32 0 -56 -13t-39.5 -39.5t-25.5 -58t-15 -78.5t-6.5 -89.5t-1.5 -101.5q0 -61 1.5 -102t6 -89t14 -78.5t25 -58t40 -40t57.5 -12.5q44 0 73.5 28.5t44.5 84t20.5 118t5.5 149.5z" glyph-name="Oacute"/>
<glyph unicode="Ô" horiz-adv-x="866" d="M596 791l-159 95l-158 -95l143 193q4 6 13 6t14 -6zM838 382q0 -166 -118.5 -283t-286.5 -117t-286.5 117t-118.5 283t118.5 283t286.5 117t286.5 -117t118.5 -283zM576 380q0 86 -6 149.5t-21 118.5t-44.5 83.5t-72.5 28.5q-32 0 -56 -13t-39.5 -39.5t-25.5 -58 t-15 -78.5t-6.5 -89.5t-1.5 -101.5q0 -61 1.5 -102t6 -89t14 -78.5t25 -58t40 -40t57.5 -12.5q44 0 73.5 28.5t44.5 84t20.5 118t5.5 149.5z" glyph-name="Ocircumflex"/>
<glyph unicode="Õ" horiz-adv-x="866" d="M568 956l19 -4q-6 -24 -12.5 -40.5t-17.5 -35t-28 -28.5t-38 -10q-27 0 -73.5 25.5t-72.5 25.5q-24 0 -43 -37l-22 4q33 113 100 113q28 0 73 -25t71 -25q21 0 44 37zM838 382q0 -166 -118.5 -283t-286.5 -117t-286.5 117t-118.5 283t118.5 283t286.5 117t286.5 -117 t118.5 -283zM576 380q0 86 -6 149.5t-21 118.5t-44.5 83.5t-72.5 28.5q-32 0 -56 -13t-39.5 -39.5t-25.5 -58t-15 -78.5t-6.5 -89.5t-1.5 -101.5q0 -61 1.5 -102t6 -89t14 -78.5t25 -58t40 -40t57.5 -12.5q44 0 73.5 28.5t44.5 84t20.5 118t5.5 149.5z" glyph-name="Otilde"/>
<glyph unicode="Ö" horiz-adv-x="866" d="M586 901q0 -25 -16.5 -42.5t-40.5 -17.5q-26 0 -44 17t-18 43q0 24 18.5 41.5t41.5 17.5q25 0 42 -17.5t17 -41.5zM395 901q0 -25 -16.5 -42.5t-40.5 -17.5q-26 0 -44 17t-18 43q0 24 18 41.5t42 17.5q25 0 42 -17.5t17 -41.5zM838 382q0 -166 -118.5 -283t-286.5 -117 t-286.5 117t-118.5 283t118.5 283t286.5 117t286.5 -117t118.5 -283zM576 380q0 86 -6 149.5t-21 118.5t-44.5 83.5t-72.5 28.5q-32 0 -56 -13t-39.5 -39.5t-25.5 -58t-15 -78.5t-6.5 -89.5t-1.5 -101.5q0 -61 1.5 -102t6 -89t14 -78.5t25 -58t40 -40t57.5 -12.5 q44 0 73.5 28.5t44.5 84t20.5 118t5.5 149.5z" glyph-name="Odieresis"/>
<glyph unicode="×" horiz-adv-x="764" d="M605 164l-35 -35l-189 190l-193 -193l-34 34l193 193l-191 191l34 34l191 -191l194 194l34 -34l-194 -194z" glyph-name="multiply"/>
<glyph unicode="Ø" horiz-adv-x="866" d="M838 382q0 -166 -118.5 -283t-286.5 -117t-289 119l-122 -119v39l103 101q-97 113 -97 260q0 166 118.5 283t286.5 117q152 0 268 -100l113 111v-39l-93 -91q117 -115 117 -281zM289 282l278 271q-24 207 -135 207q-32 0 -56 -13t-39.5 -39.5t-25.5 -58t-15 -78.5 t-6.5 -89.5t-1.5 -101.5q0 -67 1 -98zM576 380q0 65 -5 137l-280 -273q7 -119 37.5 -181.5t103.5 -62.5q44 0 73.5 28.5t44.5 84t20.5 118t5.5 149.5z" glyph-name="Oslash"/>
<glyph unicode="Ù" horiz-adv-x="794" d="M406 952l96 -128l-14 -18l-161 80q-51 24 -51 59q0 23 15.5 38.5t38.5 15.5q41 0 76 -47zM792 759v-12q-41 0 -87.5 -51.5t-46.5 -131.5v-358q0 -110 -69 -166.5t-200 -56.5q-132 0 -209 62.5t-77 182.5v398q0 58 -28.5 89.5t-54.5 31.5v12h411v-12q-27 0 -62.5 -32.5 t-35.5 -85.5v-420q0 -85 43.5 -129.5t104.5 -44.5q60 0 104.5 46.5t44.5 126.5v351q0 83 -43.5 135.5t-88.5 52.5v12h294z" glyph-name="Ugrave"/>
<glyph unicode="Ú" horiz-adv-x="794" d="M580 945q0 -35 -51 -60l-161 -80l-14 18l95 128q34 47 77 47q23 0 38.5 -15t15.5 -38zM792 759v-12q-41 0 -87.5 -51.5t-46.5 -131.5v-358q0 -110 -69 -166.5t-200 -56.5q-132 0 -209 62.5t-77 182.5v398q0 58 -28.5 89.5t-54.5 31.5v12h411v-12q-27 0 -62.5 -32.5 t-35.5 -85.5v-420q0 -85 43.5 -129.5t104.5 -44.5q60 0 104.5 46.5t44.5 126.5v351q0 83 -43.5 135.5t-88.5 52.5v12h294z" glyph-name="Uacute"/>
<glyph unicode="Û" horiz-adv-x="794" d="M576 791l-159 95l-158 -95l143 193q4 6 13 6t14 -6zM792 759v-12q-41 0 -87.5 -51.5t-46.5 -131.5v-358q0 -110 -69 -166.5t-200 -56.5q-132 0 -209 62.5t-77 182.5v398q0 58 -28.5 89.5t-54.5 31.5v12h411v-12q-27 0 -62.5 -32.5t-35.5 -85.5v-420q0 -85 43.5 -129.5 t104.5 -44.5q60 0 104.5 46.5t44.5 126.5v351q0 83 -43.5 135.5t-88.5 52.5v12h294z" glyph-name="Ucircumflex"/>
<glyph unicode="Ü" horiz-adv-x="794" d="M577 896q0 -25 -16.5 -42.5t-40.5 -17.5q-26 0 -44 17t-18 43q0 24 18.5 41.5t41.5 17.5q25 0 42 -17.5t17 -41.5zM386 896q0 -25 -16.5 -42.5t-40.5 -17.5q-26 0 -44 17t-18 43q0 24 18 41.5t42 17.5q25 0 42 -17.5t17 -41.5zM792 759v-12q-41 0 -87.5 -51.5 t-46.5 -131.5v-358q0 -110 -69 -166.5t-200 -56.5q-132 0 -209 62.5t-77 182.5v398q0 58 -28.5 89.5t-54.5 31.5v12h411v-12q-27 0 -62.5 -32.5t-35.5 -85.5v-420q0 -85 43.5 -129.5t104.5 -44.5q60 0 104.5 46.5t44.5 126.5v351q0 83 -43.5 135.5t-88.5 52.5v12h294z" glyph-name="Udieresis"/>
<glyph unicode="Ý" horiz-adv-x="785" d="M611 952q0 -35 -51 -59l-161 -80l-14 18l96 128q35 47 76 47q23 0 38.5 -15.5t15.5 -38.5zM803 760v-14q-40 0 -102 -67.5t-97 -134.5l-95 -179v-244q0 -50 35.5 -79t67.5 -29v-13h-456v13q38 0 76 29t38 79v231l-126 257q-27 56 -72.5 96.5t-79.5 40.5v14h455v-14 q-24 0 -42.5 -23.5t-18.5 -54.5q0 -24 10 -45l105 -213l65 121q20 37 20 85q0 51 -25.5 90.5t-55.5 39.5v14h298z" glyph-name="Yacute"/>
<glyph unicode="Þ" horiz-adv-x="773" d="M748 390q0 -72 -43.5 -121.5t-106.5 -70t-138 -20.5h-104v-37q0 -56 36.5 -92t81.5 -36v-13h-458v13q42 0 78 35.5t36 92.5v470q0 58 -24 97t-59 39v13h388v-17q-31 0 -55 -34t-24 -107h136q115 0 185.5 -58t70.5 -154zM519 393q0 59 -8.5 97.5t-25 56t-33 23t-39.5 5.5 h-57v-372h52q111 0 111 190z" glyph-name="Thorn"/>
<glyph unicode="ß" horiz-adv-x="649" d="M629 178q0 -79 -62 -136t-155 -57q-61 0 -94 27.5t-33 74.5q0 35 19.5 57t51.5 22q24 0 40.5 -18.5t16.5 -42.5q0 -25 -14.5 -45.5t-14.5 -28.5q0 -11 7 -17.5t17 -6.5q22 0 30.5 29.5t8.5 94.5q0 71 -11.5 114.5t-46.5 76.5q-10 10 -30 28.5t-26.5 26t-13.5 19.5t-7 24 q0 17 19.5 49t39 77.5t19.5 94.5q0 52 -21 82t-49 30q-26 0 -43.5 -25t-17.5 -59v-669h-248v13q24 0 51.5 25t27.5 70v285h-66v43h66v80q0 55 15.5 100t41 74.5t59.5 49.5t69.5 29t72.5 9q73 0 121.5 -45.5t48.5 -117.5q0 -53 -29 -86.5t-92 -60.5q-34 -14 -47.5 -23 t-13.5 -22q0 -12 10.5 -18t34.5 -11q130 -27 189 -73t59 -143z" glyph-name="germandbls"/>
<glyph unicode="à" horiz-adv-x="571" d="M289 680l96 -128l-14 -18l-161 80q-51 24 -51 59q0 23 15.5 38.5t38.5 15.5q41 0 76 -47zM571 126q-18 -45 -61 -91t-102 -46q-36 0 -63.5 19.5t-41.5 52.5q-59 -72 -144 -72q-62 0 -97 31.5t-35 79.5q0 80 115 119q12 4 48.5 14t54.5 17q29 11 47 28v107q0 30 -16 50.5 t-40 20.5q-22 0 -35 -7.5t-13 -16.5q0 -11 23 -26q25 -21 25 -48q0 -41 -34.5 -74.5t-77.5 -33.5q-33 0 -52.5 18t-19.5 51q0 59 85 116.5t217 57.5q57 0 95.5 -32.5t38.5 -91.5v-260q0 -13 6.5 -20.5t15.5 -7.5q12 0 24.5 15.5t19.5 33.5q3 4 9.5 3t7.5 -7zM295 87 q-3 17 -3 36v115q-8 3 -15 3q-20 0 -39.5 -28.5t-19.5 -66.5q0 -39 14 -62t31 -23q21 0 32 26z" glyph-name="agrave"/>
<glyph unicode="á" horiz-adv-x="571" d="M467 667q0 -35 -51 -59l-161 -80l-14 18l95 128q36 47 77 47q23 0 38.5 -15.5t15.5 -38.5zM571 126q-18 -45 -61 -91t-102 -46q-36 0 -63.5 19.5t-41.5 52.5q-59 -72 -144 -72q-62 0 -97 31.5t-35 79.5q0 80 115 119q12 4 48.5 14t54.5 17q29 11 47 28v107q0 30 -16 50.5 t-40 20.5q-22 0 -35 -7.5t-13 -16.5q0 -11 23 -26q25 -21 25 -48q0 -41 -34.5 -74.5t-77.5 -33.5q-33 0 -52.5 18t-19.5 51q0 59 85 116.5t217 57.5q57 0 95.5 -32.5t38.5 -91.5v-260q0 -13 6.5 -20.5t15.5 -7.5q12 0 24.5 15.5t19.5 33.5q3 4 9.5 3t7.5 -7zM295 87 q-3 17 -3 36v115q-8 3 -15 3q-20 0 -39.5 -28.5t-19.5 -66.5q0 -39 14 -62t31 -23q21 0 32 26z" glyph-name="aacute"/>
<glyph unicode="â" horiz-adv-x="571" d="M449 509l-159 95l-158 -95l143 193q5 6 13 6q10 0 14 -6zM571 126q-18 -45 -61 -91t-102 -46q-36 0 -63.5 19.5t-41.5 52.5q-59 -72 -144 -72q-62 0 -97 31.5t-35 79.5q0 80 115 119q12 4 48.5 14t54.5 17q29 11 47 28v107q0 30 -16 50.5t-40 20.5q-22 0 -35 -7.5 t-13 -16.5q0 -11 23 -26q25 -21 25 -48q0 -41 -34.5 -74.5t-77.5 -33.5q-33 0 -52.5 18t-19.5 51q0 59 85 116.5t217 57.5q57 0 95.5 -32.5t38.5 -91.5v-260q0 -13 6.5 -20.5t15.5 -7.5q12 0 24.5 15.5t19.5 33.5q3 4 9.5 3t7.5 -7zM295 87q-3 17 -3 36v115q-8 3 -15 3 q-20 0 -39.5 -28.5t-19.5 -66.5q0 -39 14 -62t31 -23q21 0 32 26z" glyph-name="acircumflex"/>
<glyph unicode="ã" horiz-adv-x="571" d="M442 666l19 -4q-10 -34 -18.5 -54.5t-29 -40t-48.5 -19.5q-27 0 -73.5 25.5t-72.5 25.5q-24 0 -43 -37l-22 4q33 113 100 113q27 0 72.5 -25t71.5 -25q21 0 44 37zM571 126q-18 -45 -61 -91t-102 -46q-36 0 -63.5 19.5t-41.5 52.5q-59 -72 -144 -72q-62 0 -97 31.5 t-35 79.5q0 80 115 119q12 4 48.5 14t54.5 17q29 11 47 28v107q0 30 -16 50.5t-40 20.5q-22 0 -35 -7.5t-13 -16.5q0 -11 23 -26q25 -21 25 -48q0 -41 -34.5 -74.5t-77.5 -33.5q-33 0 -52.5 18t-19.5 51q0 59 85 116.5t217 57.5q57 0 95.5 -32.5t38.5 -91.5v-260 q0 -13 6.5 -20.5t15.5 -7.5q12 0 24.5 15.5t19.5 33.5q3 4 9.5 3t7.5 -7zM295 87q-3 17 -3 36v115q-8 3 -15 3q-20 0 -39.5 -28.5t-19.5 -66.5q0 -39 14 -62t31 -23q21 0 32 26z" glyph-name="atilde"/>
<glyph unicode="ä" horiz-adv-x="571" d="M473 635q0 -25 -16.5 -42.5t-40.5 -17.5q-26 0 -44 17t-18 43q0 24 18.5 41.5t41.5 17.5q25 0 42 -17.5t17 -41.5zM282 635q0 -25 -16.5 -42.5t-40.5 -17.5q-26 0 -44 17t-18 43q0 24 18 41.5t42 17.5q25 0 42 -17.5t17 -41.5zM571 126q-18 -45 -61 -91t-102 -46 q-36 0 -63.5 19.5t-41.5 52.5q-59 -72 -144 -72q-62 0 -97 31.5t-35 79.5q0 80 115 119q12 4 48.5 14t54.5 17q29 11 47 28v107q0 30 -16 50.5t-40 20.5q-22 0 -35 -7.5t-13 -16.5q0 -11 23 -26q25 -21 25 -48q0 -41 -34.5 -74.5t-77.5 -33.5q-33 0 -52.5 18t-19.5 51 q0 59 85 116.5t217 57.5q57 0 95.5 -32.5t38.5 -91.5v-260q0 -13 6.5 -20.5t15.5 -7.5q12 0 24.5 15.5t19.5 33.5q3 4 9.5 3t7.5 -7zM295 87q-3 17 -3 36v115q-8 3 -15 3q-20 0 -39.5 -28.5t-19.5 -66.5q0 -39 14 -62t31 -23q21 0 32 26z" glyph-name="adieresis"/>
<glyph unicode="å" horiz-adv-x="571" d="M427 659q0 -49 -34.5 -83.5t-81.5 -34.5q-51 0 -84.5 34t-33.5 85q0 46 35 80.5t82 34.5q48 0 82.5 -34t34.5 -82zM371 658q0 26 -18.5 44t-43.5 18t-43 -18t-18 -43q0 -27 17.5 -44.5t44.5 -17.5q26 0 43.5 17.5t17.5 43.5zM571 126q-18 -45 -61 -91t-102 -46 q-36 0 -63.5 19.5t-41.5 52.5q-59 -72 -144 -72q-62 0 -97 31.5t-35 79.5q0 80 115 119q12 4 48.5 14t54.5 17q29 11 47 28v107q0 30 -16 50.5t-40 20.5q-22 0 -35 -7.5t-13 -16.5q0 -11 23 -26q25 -21 25 -48q0 -41 -34.5 -74.5t-77.5 -33.5q-33 0 -52.5 18t-19.5 51 q0 59 85 116.5t217 57.5q57 0 95.5 -32.5t38.5 -91.5v-260q0 -13 6.5 -20.5t15.5 -7.5q12 0 24.5 15.5t19.5 33.5q3 4 9.5 3t7.5 -7zM295 87q-3 17 -3 36v115q-8 3 -15 3q-20 0 -39.5 -28.5t-19.5 -66.5q0 -39 14 -62t31 -23q21 0 32 26z" glyph-name="aring"/>
<glyph unicode="æ" horiz-adv-x="829" d="M800 189q-4 -15 -14 -37t-31 -51.5t-48.5 -53.5t-70 -41t-90.5 -17q-131 0 -201 89q-12 -18 -30.5 -35t-61.5 -35.5t-94 -18.5q-62 0 -97 31.5t-35 79.5q0 80 115 119q12 4 48.5 14t54.5 17q29 11 47 28v107q0 30 -16 50.5t-40 20.5q-22 0 -35 -7.5t-13 -16.5 q0 -11 23 -26q25 -21 25 -48q0 -41 -34.5 -74.5t-77.5 -33.5q-33 0 -52.5 18t-19.5 51q0 59 85 116.5t217 57.5q53 0 87 -24q58 29 128 29q97 0 162 -58.5t65 -133.5q0 -20 -18 -20h-294q16 -183 148 -183q39 0 75.5 20t53.5 37.5t27 33.5q12 6 12 -5zM611 358 q0 50 -14.5 85.5t-42.5 35.5q-27 0 -49.5 -35t-22.5 -108q0 -18 1 -28h108q13 0 16.5 10.5t3.5 39.5zM292 123v115q-8 3 -15 3q-20 0 -39.5 -28.5t-19.5 -66.5q0 -85 45 -85q29 0 29 62z" glyph-name="ae"/>
<glyph unicode="ç" horiz-adv-x="503" d="M491 192q-11 -35 -29 -68t-45.5 -65t-68 -52t-87.5 -21l-14 -39q15 2 30 2q44 0 71.5 -22t27.5 -57q0 -37 -30.5 -62t-77.5 -25q-57 0 -118 37l11 26q37 -24 64 -24q20 0 34.5 14t14.5 34q0 41 -50 41q-8 0 -29 -3l31 80q-86 10 -142.5 71t-56.5 167q0 83 40 145.5 t99 92.5t125 30q78 0 121 -32.5t43 -83.5q0 -40 -26.5 -66.5t-67.5 -26.5q-39 0 -63.5 27t-24.5 59q0 22 7.5 39t16 24.5t16 14.5t7.5 11q0 16 -23 16q-28 0 -62 -48t-34 -123q0 -84 41 -139.5t105 -55.5q50 0 85 29.5t47 55.5q7 5 12 -3z" glyph-name="ccedilla"/>
<glyph unicode="è" horiz-adv-x="559" d="M254 680l96 -128l-14 -18l-161 80q-51 24 -51 59q0 23 15.5 38.5t38.5 15.5q41 0 76 -47zM536 188q-4 -20 -20.5 -49.5t-45.5 -65.5t-79 -60.5t-109 -24.5q-110 0 -180 66.5t-70 177.5q0 115 79 190t194 75q97 0 162 -58.5t65 -133.5q0 -20 -18 -20h-294 q18 -183 149 -183q39 0 75.5 20t53 37.5t26.5 33.5q12 6 12 -5zM347 357q0 51 -14.5 86t-42.5 35q-27 0 -49.5 -35t-22.5 -108q0 -4 0.5 -13.5t0.5 -14.5h108q13 0 16.5 10.5t3.5 39.5z" glyph-name="egrave"/>
<glyph unicode="é" horiz-adv-x="559" d="M432 667q0 -35 -51 -59l-161 -80l-14 18l96 128q35 47 76 47q23 0 38.5 -15.5t15.5 -38.5zM536 188q-4 -20 -20.5 -49.5t-45.5 -65.5t-79 -60.5t-109 -24.5q-110 0 -180 66.5t-70 177.5q0 115 79 190t194 75q97 0 162 -58.5t65 -133.5q0 -20 -18 -20h-294 q18 -183 149 -183q39 0 75.5 20t53 37.5t26.5 33.5q12 6 12 -5zM347 357q0 51 -14.5 86t-42.5 35q-27 0 -49.5 -35t-22.5 -108q0 -4 0.5 -13.5t0.5 -14.5h108q13 0 16.5 10.5t3.5 39.5z" glyph-name="eacute"/>
<glyph unicode="ê" horiz-adv-x="559" d="M444 516l-159 95l-158 -95l143 193q4 6 13 6t14 -6zM536 188q-4 -20 -20.5 -49.5t-45.5 -65.5t-79 -60.5t-109 -24.5q-110 0 -180 66.5t-70 177.5q0 115 79 190t194 75q97 0 162 -58.5t65 -133.5q0 -20 -18 -20h-294q18 -183 149 -183q39 0 75.5 20t53 37.5t26.5 33.5 q12 6 12 -5zM347 357q0 51 -14.5 86t-42.5 35q-27 0 -49.5 -35t-22.5 -108q0 -4 0.5 -13.5t0.5 -14.5h108q13 0 16.5 10.5t3.5 39.5z" glyph-name="ecircumflex"/>
<glyph unicode="ë" horiz-adv-x="559" d="M445 635q0 -25 -16.5 -42.5t-40.5 -17.5q-26 0 -44 17t-18 43q0 24 18.5 41.5t41.5 17.5q25 0 42 -17.5t17 -41.5zM254 635q0 -25 -16.5 -42.5t-40.5 -17.5q-26 0 -44 17t-18 43q0 24 18 41.5t42 17.5q25 0 42 -17.5t17 -41.5zM536 188q-4 -20 -20.5 -49.5t-45.5 -65.5 t-79 -60.5t-109 -24.5q-110 0 -180 66.5t-70 177.5q0 115 79 190t194 75q97 0 162 -58.5t65 -133.5q0 -20 -18 -20h-294q18 -183 149 -183q39 0 75.5 20t53 37.5t26.5 33.5q12 6 12 -5zM347 357q0 51 -14.5 86t-42.5 35q-27 0 -49.5 -35t-22.5 -108q0 -4 0.5 -13.5 t0.5 -14.5h108q13 0 16.5 10.5t3.5 39.5z" glyph-name="edieresis"/>
<glyph unicode="ì" horiz-adv-x="350" d="M157 680l96 -128l-14 -18l-161 80q-51 24 -51 59q0 23 15.5 38.5t38.5 15.5q41 0 76 -47zM326 12v-12h-305v12q15 1 36.5 21t21.5 52v252q0 22 -6 37.5t-16 22t-18 9.5t-15 3v11l231 74q11 4 18 1t7 -17v-395q0 -36 15.5 -53t30.5 -18z" glyph-name="igrave"/>
<glyph unicode="í" horiz-adv-x="350" d="M307 667q0 -35 -51 -59l-161 -80l-14 18l96 128q35 47 76 47q23 0 38.5 -15.5t15.5 -38.5zM326 12v-12h-305v12q15 1 36.5 21t21.5 52v252q0 22 -6 37.5t-16 22t-18 9.5t-15 3v11l231 74q11 4 18 1t7 -17v-395q0 -36 15.5 -53t30.5 -18z" glyph-name="iacute"/>
<glyph unicode="î" horiz-adv-x="350" d="M330 515l-159 95l-158 -95l143 193q4 6 13 6t14 -6zM326 12v-12h-305v12q15 1 36.5 21t21.5 52v252q0 22 -6 37.5t-16 22t-18 9.5t-15 3v11l231 74q11 4 18 1t7 -17v-395q0 -36 15.5 -53t30.5 -18z" glyph-name="icircumflex"/>
<glyph unicode="ï" horiz-adv-x="350" d="M325 635q0 -25 -16.5 -42.5t-40.5 -17.5q-26 0 -44 17t-18 43q0 24 18.5 41.5t41.5 17.5q25 0 42 -17.5t17 -41.5zM134 635q0 -25 -16.5 -42.5t-40.5 -17.5q-26 0 -44 17t-18 43q0 24 18 41.5t42 17.5q25 0 42 -17.5t17 -41.5zM326 12v-12h-305v12q15 1 36.5 21t21.5 52 v252q0 22 -6 37.5t-16 22t-18 9.5t-15 3v11l231 74q11 4 18 1t7 -17v-395q0 -36 15.5 -53t30.5 -18z" glyph-name="idieresis"/>
<glyph unicode="ð" d="M575 244q0 -105 -80.5 -179t-194.5 -74q-115 0 -195.5 74t-80.5 179q0 104 80.5 178.5t195.5 74.5q7 0 10 -1q-21 42 -85 113l-46 -51l-22 19l49 54q-86 91 -119 108q-3 2 -2 5.5t7 3.5h65q48 -17 106 -54l42 47l22 -19l-40 -44q61 -41 122 -99q166 -164 166 -335z M367 245q0 112 -13 171t-52 59q-72 0 -72 -230q0 -39 0.5 -63t2.5 -54t6.5 -48.5t12 -35.5t19.5 -24.5t28 -7.5q41 0 54.5 59.5t13.5 173.5z" glyph-name="eth"/>
<glyph unicode="ñ" horiz-adv-x="677" d="M479 666l19 -4q-6 -24 -12.5 -40.5t-17.5 -35t-28 -28.5t-38 -10q-27 0 -73.5 25.5t-72.5 25.5q-24 0 -43 -37l-22 4q33 113 100 113q28 0 73 -25t71 -25q21 0 44 37zM657 12v-12h-292v12q14 0 29.5 18t15.5 46v267q0 30 -17 48t-45 18q-39 0 -68 -45v-281 q0 -37 13.5 -54t32.5 -17v-12h-305v12q21 0 39.5 19.5t18.5 53.5v250q0 22 -6 37.5t-16 22t-18 9.5t-15 3v11l231 74q11 4 18 1t7 -17v-73q83 90 175 90q68 0 109.5 -38.5t41.5 -113.5v-264q0 -33 15 -49t36 -16z" glyph-name="ntilde"/>
<glyph unicode="ò" d="M267 676l96 -128l-14 -18l-161 80q-51 24 -51 59q0 23 15.5 38.5t38.5 15.5q41 0 76 -47zM575 244q0 -105 -80.5 -179t-194.5 -74q-115 0 -195.5 74t-80.5 179q0 104 80.5 178.5t195.5 74.5q114 0 194.5 -74.5t80.5 -178.5zM367 245q0 112 -13 171t-52 59q-72 0 -72 -230 q0 -39 0.5 -63t2.5 -54t6.5 -48.5t12 -35.5t19.5 -24.5t28 -7.5q41 0 54.5 59.5t13.5 173.5z" glyph-name="ograve"/>
<glyph unicode="ó" d="M445 666q0 -35 -50 -59l-162 -80l-13 18l95 128q35 47 77 47q23 0 38 -15.5t15 -38.5zM575 244q0 -105 -80.5 -179t-194.5 -74q-115 0 -195.5 74t-80.5 179q0 104 80.5 178.5t195.5 74.5q114 0 194.5 -74.5t80.5 -178.5zM367 245q0 112 -13 171t-52 59q-72 0 -72 -230 q0 -39 0.5 -63t2.5 -54t6.5 -48.5t12 -35.5t19.5 -24.5t28 -7.5q41 0 54.5 59.5t13.5 173.5z" glyph-name="oacute"/>
<glyph unicode="ô" d="M461 501l-159 95l-158 -95l143 193q5 6 13 6q10 0 14 -6zM575 244q0 -105 -80.5 -179t-194.5 -74q-115 0 -195.5 74t-80.5 179q0 104 80.5 178.5t195.5 74.5q114 0 194.5 -74.5t80.5 -178.5zM367 245q0 112 -13 171t-52 59q-72 0 -72 -230q0 -39 0.5 -63t2.5 -54 t6.5 -48.5t12 -35.5t19.5 -24.5t28 -7.5q41 0 54.5 59.5t13.5 173.5z" glyph-name="ocircumflex"/>
<glyph unicode="õ" d="M428 660l19 -3q-10 -34 -18.5 -54.5t-29 -40t-48.5 -19.5q-27 0 -73 25.5t-71 25.5q-26 0 -45 -38l-22 5q33 113 100 113q27 0 73 -25t71 -25q23 0 44 36zM575 244q0 -105 -80.5 -179t-194.5 -74q-115 0 -195.5 74t-80.5 179q0 104 80.5 178.5t195.5 74.5 q114 0 194.5 -74.5t80.5 -178.5zM367 245q0 112 -13 171t-52 59q-72 0 -72 -230q0 -39 0.5 -63t2.5 -54t6.5 -48.5t12 -35.5t19.5 -24.5t28 -7.5q41 0 54.5 59.5t13.5 173.5z" glyph-name="otilde"/>
<glyph unicode="ö" d="M454 611q0 -25 -16.5 -42.5t-40.5 -17.5q-26 0 -44 17t-18 43q0 24 18.5 41.5t41.5 17.5q25 0 42 -17.5t17 -41.5zM263 611q0 -25 -16.5 -42.5t-40.5 -17.5q-26 0 -44 17t-18 43q0 24 18 41.5t42 17.5q25 0 42 -17.5t17 -41.5zM575 244q0 -105 -80.5 -179t-194.5 -74 q-115 0 -195.5 74t-80.5 179q0 104 80.5 178.5t195.5 74.5q114 0 194.5 -74.5t80.5 -178.5zM367 245q0 112 -13 171t-52 59q-72 0 -72 -230q0 -39 0.5 -63t2.5 -54t6.5 -48.5t12 -35.5t19.5 -24.5t28 -7.5q41 0 54.5 59.5t13.5 173.5z" glyph-name="odieresis"/>
<glyph unicode="÷" horiz-adv-x="764" d="M681 371v-46h-586v46h586zM319 495q0 27 19.5 46.5t46.5 19.5t46.5 -19.5t19.5 -46.5t-19.5 -46.5t-46.5 -19.5t-46.5 19.5t-19.5 46.5zM319 198q0 27 19.5 46.5t46.5 19.5t46.5 -19.5t19.5 -46.5t-19.5 -46.5t-46.5 -19.5t-46.5 19.5t-19.5 46.5z" glyph-name="divide"/>
<glyph unicode="ø" horiz-adv-x="581" d="M566 244q0 -105 -80.5 -179t-194.5 -74q-108 0 -184 65l-73 -69v39l52 49q-71 73 -71 169q0 104 80.5 178.5t195.5 74.5q99 0 177 -60l82 78v-39l-60 -57q76 -74 76 -175zM222 204l134 127q-8 144 -63 144q-72 0 -72 -230q0 -28 1 -41zM358 245v49l-136 -128 q3 -76 17.5 -115t50.5 -39q41 0 54.5 59.5t13.5 173.5z" glyph-name="oslash"/>
<glyph unicode="ù" horiz-adv-x="673" d="M285 673l96 -128l-14 -18l-161 80q-51 24 -51 59q0 23 15.5 38.5t38.5 15.5q41 0 76 -47zM649 11v-11h-230q-15 0 -20 6t-5 20v55q-75 -89 -174 -89q-68 0 -110 38.5t-42 113.5v263q0 34 -14.5 50t-35.5 16v12h244v-343q0 -29 18 -47.5t47 -18.5q21 0 39 14t28 31v281 q0 67 -55 71v12h255v-398q0 -41 18.5 -58.5t36.5 -17.5z" glyph-name="ugrave"/>
<glyph unicode="ú" horiz-adv-x="673" d="M480 675q0 -35 -51 -60l-161 -80l-14 18l95 128q34 47 77 47q23 0 38.5 -15t15.5 -38zM649 11v-11h-230q-15 0 -20 6t-5 20v55q-75 -89 -174 -89q-68 0 -110 38.5t-42 113.5v263q0 34 -14.5 50t-35.5 16v12h244v-343q0 -29 18 -47.5t47 -18.5q21 0 39 14t28 31v281 q0 67 -55 71v12h255v-398q0 -41 18.5 -58.5t36.5 -17.5z" glyph-name="uacute"/>
<glyph unicode="û" horiz-adv-x="673" d="M465 523l-159 95l-158 -95l143 193q5 6 13 6q10 0 14 -6zM649 11v-11h-230q-15 0 -20 6t-5 20v55q-75 -89 -174 -89q-68 0 -110 38.5t-42 113.5v263q0 34 -14.5 50t-35.5 16v12h244v-343q0 -29 18 -47.5t47 -18.5q21 0 39 14t28 31v281q0 67 -55 71v12h255v-398 q0 -41 18.5 -58.5t36.5 -17.5z" glyph-name="ucircumflex"/>
<glyph unicode="ü" horiz-adv-x="673" d="M472 613q0 -24 -16.5 -41.5t-40.5 -17.5q-26 0 -44 17t-18 43q0 23 18.5 41t41.5 18q25 0 42 -17.5t17 -42.5zM280 613q0 -24 -16.5 -41.5t-40.5 -17.5q-26 0 -44 17t-18 43q0 23 19 41t42 18q24 0 41 -17.5t17 -42.5zM649 11v-11h-230q-15 0 -20 6t-5 20v55 q-75 -89 -174 -89q-68 0 -110 38.5t-42 113.5v263q0 34 -14.5 50t-35.5 16v12h244v-343q0 -29 18 -47.5t47 -18.5q21 0 39 14t28 31v281q0 67 -55 71v12h255v-398q0 -41 18.5 -58.5t36.5 -17.5z" glyph-name="udieresis"/>
<glyph unicode="ý" horiz-adv-x="519" d="M462 672q0 -35 -51 -59l-161 -80l-14 18l96 128q35 47 76 47q23 0 38.5 -15.5t15.5 -38.5zM551 485v-14q-31 0 -66.5 -45.5t-66.5 -130.5l-163 -444q-45 -121 -145 -121q-44 0 -71.5 27.5t-27.5 68.5q0 38 26.5 63.5t58.5 25.5q28 0 48.5 -13t28 -28.5t14 -28.5t10.5 -13 q16 0 25.5 13t20.5 42l40 113h-86l-152 407q-24 64 -79 64v14h351v-14q-23 0 -32.5 -21t0.5 -46l71 -202l45 126q10 30 10 66q0 34 -13.5 55.5t-40.5 21.5v14h194z" glyph-name="yacute"/>
<glyph unicode="þ" horiz-adv-x="625" d="M601 277q0 -125 -68.5 -206.5t-161.5 -81.5q-61 0 -109 30v-142q0 -48 26.5 -72.5t54.5 -24.5v-12h-365v12q28 0 58 26t30 73v648q0 42 -18.5 60.5t-38.5 18.5v11l228 67q25 8 25 -16v-248q65 75 151 75q75 0 131.5 -55.5t56.5 -162.5zM395 227q0 72 -12.5 116t-28.5 58 t-36 14q-34 0 -56 -45v-304q25 -45 65 -45q35 0 51.5 46.5t16.5 159.5z" glyph-name="thorn"/>
</font>
</defs>
</svg>
