<?xml version="1.0" standalone="no"?>
<!DOCTYPE svg PUBLIC "-//W3C//DTD SVG 1.1//EN" "http://www.w3.org/Graphics/SVG/1.1/DTD/svg11.dtd" >
<svg xmlns="http://www.w3.org/2000/svg" xmlns:xlink="http://www.w3.org/1999/xlink" version="1.1">
<metadata>
Created by FontForge 20160407 at Wed Aug  3 11:09:29 2016
 By Jimmy Warting
Copyright Nationwide Building Society. All rights reserved.
</metadata>
<defs>
<font id="NBS-Light" horiz-adv-x="668" >
  <font-face 
    font-family="NBS Light"
    font-weight="400"
    font-stretch="normal"
    units-per-em="2048"
    panose-1="2 11 3 3 3 3 3 2 2 4"
    ascent="1638"
    descent="-410"
    x-height="995"
    cap-height="1366"
    bbox="-174 -489 2224 1769"
    underline-thickness="102"
    underline-position="-205"
    unicode-range="U+0020-FB02"
  />
<missing-glyph horiz-adv-x="1208" 
d="M117 1366h977v-1366h-977v1366zM606 772l330 498h-664zM215 186l332 498l-332 496v-994zM666 684l333 -498v994zM606 598l-334 -500h664z" />
    <glyph glyph-name=".notdef" horiz-adv-x="1208" 
d="M117 1366h977v-1366h-977v1366zM606 772l330 498h-664zM215 186l332 498l-332 496v-994zM666 684l333 -498v994zM606 598l-334 -500h664z" />
    <glyph glyph-name=".null" horiz-adv-x="0" 
 />
    <glyph glyph-name="nonmarkingreturn" horiz-adv-x="451" 
 />
    <glyph glyph-name="space" unicode=" " horiz-adv-x="451" 
 />
    <glyph glyph-name="ring" unicode="&#x2da;" 
d="M485 1260q0 -32 -12 -59.5t-32 -48t-47 -32.5t-58 -12q-32 0 -59.5 12t-48 32.5t-32.5 48t-12 59.5q0 30 12 57.5t32.5 47.5t48 32t59.5 12q31 0 58 -12t47 -32t32 -47.5t12 -57.5zM416 1260q0 34 -23 58.5t-57 24.5t-58 -24.5t-24 -58.5q0 -35 24 -60.5t58 -25.5
t57 25.5t23 60.5z" />
    <glyph glyph-name="hungarumlaut" unicode="&#x2dd;" 
d="M666 1354q0 -8 -4.5 -15.5t-10.5 -13.5l-186 -190q-16 -17 -28.5 -22t-37.5 -5h-39q-20 0 -20 14q0 7 6 19l115 186q16 28 32.5 33.5t45.5 5.5h100q12 0 19.5 -3t7.5 -9zM371 1354q0 -16 -15 -29l-186 -190q-15 -17 -28 -22t-38 -5h-38q-21 0 -21 14q0 7 6 19l115 186
q16 28 32.5 33.5t45.5 5.5h100q12 0 19.5 -3t7.5 -9z" />
    <glyph glyph-name="ogonek" unicode="&#x2db;" 
d="M530 -311q0 -13 -20 -23q-29 -15 -66 -27t-82 -12q-92 0 -137 44.5t-45 121.5q0 51 28 108t85 111h123q-56 -62 -86.5 -114.5t-30.5 -94.5q0 -40 17.5 -63t54.5 -23q24 0 46.5 7t53.5 22q11 6 19 6t16 -14l16 -29q8 -16 8 -20z" />
    <glyph glyph-name="caron" unicode="&#x2c7;" 
d="M610 1352q0 -6 -10 -19l-147 -186q-11 -14 -19.5 -22t-17 -11.5t-18 -4.5t-21.5 -1h-84q-12 0 -21 1t-17.5 4.5t-17.5 11.5t-20 22l-147 186q-11 13 -11 19q0 14 19 14h51q25 0 38 -5t32 -22l143 -127l143 127q19 17 32 22t38 5h37q18 0 18 -14z" />
    <glyph glyph-name="dotlessi" unicode="&#x131;" horiz-adv-x="440" 
d="M291 49q0 -23 -9.5 -36t-41.5 -13h-39q-29 0 -39 12.5t-10 34.5v901q0 26 11 36.5t34 10.5h45q29 0 39 -11.5t10 -33.5v-901v0z" />
    <glyph glyph-name="fraction" unicode="&#x2044;" horiz-adv-x="743" 
d="M772 1376q0 -6 -0.5 -12.5t-5.5 -15.5l-664 -1348q-12 -25 -27.5 -37t-27.5 -12h-41q-15 0 -24 4.5t-9 15.5q0 8 3 14t8 15l663 1348q11 21 25.5 34t34.5 13h38q13 0 20 -6.5t7 -12.5z" />
    <glyph glyph-name="fi" unicode="&#xfb01;" horiz-adv-x="942" 
d="M815 1303q0 -20 -7 -36.5t-19.5 -29.5t-29.5 -20t-36 -7t-36 7t-29.5 20t-19.5 29.5t-7 36.5q0 19 7 36t19.5 29.5t29.5 19.5t36 7t36 -7t29.5 -19.5t19.5 -29.5t7 -36zM793 49q0 -23 -10 -36t-42 -13h-39q-29 0 -39 12.5t-10 34.5v901q0 26 11 36.5t34 10.5h45
q29 0 39.5 -11.5t10.5 -33.5v-901zM563 1374v-8t-2 -8l-12 -43q-6 -20 -18.5 -25t-30.5 0q-11 3 -35 11t-55 8q-35 0 -56.5 -15.5t-33.5 -42t-16.5 -61.5t-4.5 -74v-121h154q17 0 25.5 -9.5t8.5 -24.5v-48q0 -15 -8.5 -24.5t-25.5 -9.5h-154v-830q0 -23 -9.5 -36t-41.5 -13
h-39q-29 0 -39 12.5t-10 34.5v832h-115q-17 0 -26 9.5t-9 24.5v48q0 15 9 24.5t26 9.5h115v125q0 64 13 119t42.5 96t75.5 64.5t112 23.5q42 0 77.5 -5t58.5 -13q11 -3 17.5 -12.5t6.5 -18.5z" />
    <glyph glyph-name="fl" unicode="&#xfb02;" horiz-adv-x="913" 
d="M782 49q0 -23 -9.5 -36t-41.5 -13h-39q-29 0 -39 12.5t-10 34.5v1301q0 26 11 36.5t34 10.5h45q29 0 39 -12t10 -33v-1301zM563 1374v-8t-2 -8l-12 -43q-6 -20 -18.5 -25t-30.5 0q-11 3 -35 11t-55 8q-35 0 -56.5 -15.5t-33.5 -42t-16.5 -61.5t-4.5 -74v-121h154
q17 0 25.5 -9.5t8.5 -24.5v-48q0 -15 -8.5 -24.5t-25.5 -9.5h-154v-830q0 -23 -9.5 -36t-41.5 -13h-39q-29 0 -39 12.5t-10 34.5v832h-115q-17 0 -26 9.5t-9 24.5v48q0 15 9 24.5t26 9.5h115v125q0 64 13 119t42.5 96t75.5 64.5t112 23.5q42 0 77.5 -5t58.5 -13
q11 -3 17.5 -12.5t6.5 -18.5z" />
    <glyph glyph-name="Lslash" unicode="&#x141;" horiz-adv-x="893" 
d="M877 43q0 -43 -46 -43h-634q-43 0 -43 45v463l-123 -88q-11 -8 -21 -8q-6 0 -11 5t-5 19v74q0 20 3 29t17 18l140 96v668q0 20 11.5 32.5t31.5 12.5h59q20 0 32.5 -11.5t12.5 -31.5v-567l219 153q17 13 31 13q9 0 13.5 -7.5t4.5 -19.5v-61q0 -19 -4 -30.5t-16 -19.5
l-248 -174v-475h530q46 0 46 -43v-49v0z" />
    <glyph glyph-name="lslash" unicode="&#x142;" horiz-adv-x="403" 
d="M412 801q0 -25 -21 -39l-119 -82v-631q0 -23 -9.5 -36t-41.5 -13h-39q-29 0 -39 12.5t-10 34.5v537l-98 -68q-9 -6 -19 -6q-9 0 -15.5 7.5t-6.5 21.5v67q0 14 4.5 22.5t15.5 16.5l119 82v621q0 26 11 36.5t34 10.5h45q29 0 39 -12t10 -33v-527l97 66q11 8 22 8
q21 0 21 -35v-61v0z" />
    <glyph glyph-name="Zcaron" unicode="&#x17d;" horiz-adv-x="1001" 
d="M948 43q0 -43 -45 -43h-805q-20 0 -31.5 11t-11.5 34v21q0 11 1 18.5t3.5 14.5t7 14.5t11.5 19.5l665 1106h-628q-45 0 -45 43v41q0 20 12.5 31.5t32.5 11.5h772q20 0 31.5 -12.5t11.5 -32.5v-21q0 -15 -4.5 -29.5t-18.5 -37.5l-665 -1106h661q45 0 45 -43v-41v0z
M760 1712q0 -6 -10 -19l-147 -186q-11 -14 -19.5 -22t-17 -11.5t-18 -4.5t-21.5 -1h-84q-12 0 -21 1t-17.5 4.5t-17.5 11.5t-20 22l-147 186q-11 13 -11 19q0 14 19 14h51q25 0 38 -5t32 -22l143 -127l143 127q19 17 32 22t38 5h37q18 0 18 -14z" />
    <glyph glyph-name="zcaron" unicode="&#x17e;" horiz-adv-x="813" 
d="M758 39q0 -39 -35 -39h-621q-23 0 -33 8.5t-10 30.5v49q0 22 6 35.5t17 30.5l500 716h-463q-17 0 -28 8.5t-11 28.5v49q0 39 35 39h594q21 0 30 -10t9 -29v-47q0 -18 -5.5 -33.5t-17.5 -33.5l-500 -715h494q17 0 28 -8.5t11 -28.5v-51v0zM692 1352q0 -6 -10 -19
l-147 -186q-11 -14 -19.5 -22t-17 -11.5t-18 -4.5t-21.5 -1h-84q-12 0 -21 1t-17.5 4.5t-17.5 11.5t-20 22l-147 186q-11 13 -11 19q0 14 19 14h51q25 0 38 -5t32 -22l143 -127l143 127q19 17 32 22t38 5h37q18 0 18 -14z" />
    <glyph glyph-name="exclam" unicode="!" horiz-adv-x="477" 
d="M299 438q-2 -24 -13 -33.5t-30 -9.5h-33q-18 0 -29.5 9.5t-13.5 33.5l-30 912q-2 26 12.5 35.5t36.5 9.5h84q19 0 33.5 -9.5t13.5 -37.5zM342 86q0 -43 -29.5 -72.5t-72.5 -29.5q-44 0 -73.5 29.5t-29.5 72.5t29.5 72.5t73.5 29.5q43 0 72.5 -29.5t29.5 -72.5z" />
    <glyph glyph-name="quotedbl" unicode="&#x22;" horiz-adv-x="680" 
d="M252 938q-2 -19 -7.5 -28t-25.5 -9h-43q-20 0 -25.5 9t-7.5 28l-26 422q-2 17 8 26t27 9h92q17 0 27 -9t8 -26zM539 938q-2 -19 -7.5 -28t-25.5 -9h-43q-20 0 -25.5 9t-7.5 28l-27 422q-2 17 8 26t27 9h92q17 0 27 -9t8 -26z" />
    <glyph glyph-name="numbersign" unicode="#" horiz-adv-x="1122" 
d="M1049 856q0 -17 -9 -25t-24 -8h-191l-39 -280h175q34 0 34 -31v-47q0 -33 -32 -33h-193l-55 -393q-3 -22 -12 -30.5t-27 -8.5h-58q-20 0 -24.5 10t-1.5 29l55 393h-244l-55 -393q-3 -22 -11.5 -30.5t-27.5 -8.5h-57q-20 0 -25 10t-2 29l56 393h-170q-35 0 -35 33v45
q0 33 35 33h186l39 280h-172q-35 0 -35 33v45q0 33 35 33h188l56 393q3 22 12 30.5t29 8.5h55q20 0 25 -9t1 -28l-55 -395h244l55 393q3 22 12 30.5t29 8.5h55q20 0 25 -9t2 -28l-55 -395h172q35 0 35 -31v-47zM459 823l-39 -280h244l38 280h-243z" />
    <glyph glyph-name="dollar" unicode="$" horiz-adv-x="922" 
d="M856 383q0 -83 -25 -148t-70 -111.5t-108 -73.5t-139 -34v-217q0 -45 -43 -45h-20q-43 0 -43 45v217q-99 8 -180.5 40.5t-145.5 72.5q-8 5 -13.5 11t-5.5 14q0 7 7 18l39 66q8 14 23 16t28 -6q11 -7 35 -22t57 -31t73 -30t83 -20v504q-77 34 -137.5 67t-102.5 73.5
t-64 92t-22 122.5q0 76 25 136.5t69 104t103.5 69.5t128.5 34v137q0 45 43 45h20q43 0 43 -45v-135q50 -3 92 -11.5t78 -20.5t68 -27t61 -31q18 -11 18 -25q0 -11 -6 -21l-34 -61q-8 -14 -23.5 -16t-28.5 6q-29 17 -55.5 30t-53.5 23t-55.5 16t-60.5 9v-457l10 -4
q75 -30 136 -61.5t104.5 -74t67.5 -100.5t24 -141zM408 1219q-37 -6 -70 -20.5t-57.5 -37.5t-39 -55t-14.5 -74q0 -41 11 -72t33.5 -57t56.5 -48t80 -44v408zM709 362q0 50 -13.5 86.5t-38.5 64t-61.5 48.5t-81.5 41v-455q94 16 144.5 74t50.5 141z" />
    <glyph glyph-name="percent" unicode="%" horiz-adv-x="1561" 
d="M705 1055q0 -61 -17.5 -122t-56 -110.5t-100.5 -80.5t-152 -31q-88 0 -149.5 30.5t-100.5 79.5t-56.5 110.5t-17.5 123.5t18.5 123t57.5 109t100.5 78t147.5 30q89 0 151 -30.5t101 -79t56.5 -109t17.5 -121.5zM563 1051q0 40 -8.5 82t-29.5 76t-56.5 55.5t-89.5 21.5
q-55 0 -90.5 -21.5t-56.5 -55.5t-29 -76t-8 -82t8.5 -81.5t29.5 -75t56.5 -54.5t89.5 -21q55 0 90.5 21.5t56.5 55t29 75t8 80.5zM1180 1376q0 -6 -0.5 -13t-5.5 -15l-664 -1348q-12 -25 -27.5 -37t-27.5 -12h-41q-33 0 -33 20q0 8 2.5 14t7.5 15l664 1348q11 21 25 34
t34 13h39q12 0 19.5 -6.5t7.5 -12.5zM1507 293q0 -61 -17 -122t-55.5 -110.5t-100.5 -80.5t-152 -31q-88 0 -149.5 30.5t-100.5 79.5t-56.5 110.5t-17.5 123.5t18.5 123t57.5 109t100.5 78t147.5 30q89 0 151 -30.5t100.5 -79t56 -109t17.5 -121.5zM1366 289q0 40 -8.5 82
t-29.5 76t-56.5 55.5t-89.5 21.5q-55 0 -90.5 -21.5t-56.5 -55.5t-29.5 -76t-8.5 -82t8.5 -81.5t30 -75t57 -54.5t89.5 -21q55 0 90.5 21.5t56.5 55t29 75t8 80.5z" />
    <glyph glyph-name="ampersand" unicode="&#x26;" horiz-adv-x="1161" 
d="M1130 12q0 -12 -22 -12h-115q-23 0 -34 5.5t-23 21.5l-80 94q-81 -76 -171 -113t-196 -37q-90 0 -163.5 26t-126.5 74t-82 115.5t-29 149.5q0 71 22 127t59 102t84 83.5t97 72.5q-46 56 -78.5 102.5t-52.5 88t-29.5 80t-9.5 77.5q0 70 23.5 130t66.5 103.5t104.5 68
t137.5 24.5q66 0 121 -21.5t94.5 -60.5t61.5 -93.5t22 -121.5q0 -56 -14 -106t-45 -97.5t-79.5 -93.5t-117.5 -94l313 -373q13 19 24 45t19 55t12.5 59t4.5 58v16q0 17 6.5 25t23.5 8h82q17 0 23 -9t6 -26q0 -94 -25.5 -182.5t-82.5 -157.5l159 -190q6 -8 8 -13t2 -10z
M668 1083q0 85 -45.5 134t-120.5 49q-38 0 -70.5 -14t-56.5 -38t-37.5 -57t-13.5 -72q0 -30 8 -60.5t26 -64.5t47 -72.5t70 -86.5q54 39 90.5 73.5t59.5 68t33 68t10 72.5zM430 629q-45 -34 -79 -66.5t-57 -67t-34.5 -71t-11.5 -78.5q0 -115 67 -177.5t189 -62.5
q62 0 130.5 28.5t133.5 88.5z" />
    <glyph glyph-name="quotesingle" unicode="'" horiz-adv-x="393" 
d="M252 938q-2 -19 -7.5 -28t-25.5 -9h-43q-20 0 -25.5 9t-7.5 28l-26 422q-2 17 8 26t27 9h92q17 0 27 -9t8 -26z" />
    <glyph glyph-name="parenleft" unicode="(" horiz-adv-x="584" 
d="M547 -360q0 -7 -6.5 -10t-28.5 -3h-66q-15 0 -27 5t-28 24q-64 75 -121 168.5t-100 202t-68.5 230t-25.5 253.5q0 130 24.5 250.5t67 228.5t99.5 203t122 174q14 15 28 22t34 7h73q21 0 21 -15q0 -6 -5.5 -14t-15.5 -20q-79 -101 -135.5 -201t-92.5 -203t-52.5 -210
t-16.5 -222q0 -129 19.5 -239.5t56 -209.5t90.5 -190.5t123 -183.5q11 -14 21 -27.5t10 -19.5z" />
    <glyph glyph-name="parenright" unicode=")" horiz-adv-x="584" 
d="M510 510q0 -132 -25.5 -253.5t-68.5 -230t-100 -202t-121 -168.5q-16 -19 -28 -24t-28 -5h-65q-22 0 -28.5 3t-6.5 10q0 6 10 19.5t21 27.5q69 92 122.5 183.5t90.5 190.5t56 209.5t19 239.5q0 115 -16.5 222t-52.5 210t-92.5 203t-135.5 201q-9 12 -14.5 20t-5.5 14
q0 15 20 15h74q20 0 34 -7t28 -22q65 -79 122 -174t99.5 -203t67 -228.5t24.5 -250.5z" />
    <glyph glyph-name="asterisk" unicode="*" horiz-adv-x="768" 
d="M715 1106q0 -6 -12.5 -8.5t-30.5 -7.5l-217 -50l155 -176q6 -8 12.5 -14.5t6.5 -11.5q0 -3 -4.5 -10t-14.5 -13l-61 -43q-5 -3 -10.5 -5.5t-10.5 -2.5q-3 0 -9 5.5t-11 14.5l-123 203l-123 -203q-13 -20 -20 -20q-5 0 -11.5 2.5t-11.5 5.5l-65 49q-7 5 -9 9.5t-2 7.5
q0 6 4.5 11t10.5 13l155 178l-223 52q-14 3 -24.5 6.5t-10.5 9.5q0 8 1 13t3 12l23 69q3 11 8 16t8 5q9 0 31 -11l211 -90l-21 230q0 3 -1 11.5t-1 14.5t5.5 11.5t17.5 5.5h88q23 0 23 -15q0 -6 -1 -13t-1 -13l-19 -232l203 88q8 3 20 9t17 6t9 -3t7 -14l25 -75q2 -7 3 -14
t1 -13z" />
    <glyph glyph-name="plus" unicode="+" horiz-adv-x="1049" 
d="M958 662q0 -22 -7.5 -31.5t-30.5 -9.5h-332v-330q0 -25 -10 -33t-31 -8h-43q-22 0 -31.5 8t-9.5 31v332h-330q-25 0 -33 9.5t-8 31.5v43q0 21 8 30.5t33 9.5h330v330q0 25 9.5 33t31.5 8h43q21 0 31 -8t10 -33v-330h330q24 0 32 -9.5t8 -30.5v-43v0z" />
    <glyph glyph-name="comma" unicode="," horiz-adv-x="436" 
d="M322 66q0 -42 -12 -81.5t-31.5 -76.5t-43.5 -71.5t-49 -65.5q-5 -7 -10.5 -12t-11.5 -5q-3 0 -9.5 1.5t-13.5 6.5l-26 19q-7 5 -9 9t-2 9t3 9.5t6 9.5q29 37 54 80.5t38 87.5q-44 5 -66 33.5t-22 66.5q0 43 28.5 72.5t71.5 29.5q47 0 76 -32.5t29 -89.5z" />
    <glyph glyph-name="hyphen" unicode="-" horiz-adv-x="571" 
d="M518 471q0 -22 -11 -30.5t-28 -8.5h-385q-17 0 -28 8.5t-11 28.5v66q0 38 35 38h393q35 0 35 -38v-64v0z" />
    <glyph glyph-name="period" unicode="." horiz-adv-x="436" 
d="M322 86q0 -21 -8 -40t-22 -32.5t-33 -21.5t-40 -8q-43 0 -72.5 29.5t-29.5 72.5t29.5 72.5t72.5 29.5q21 0 40 -8t33 -21.5t22 -32.5t8 -40z" />
    <glyph glyph-name="slash" unicode="/" horiz-adv-x="715" 
d="M707 1405q0 -11 -7 -29l-540 -1405q-11 -26 -27 -37.5t-29 -11.5h-61q-15 0 -24 5t-9 16q0 8 2.5 13.5t7.5 14.5l541 1405q18 47 60 47h59q12 0 19.5 -6t7.5 -12z" />
    <glyph glyph-name="zero" unicode="0" horiz-adv-x="1090" 
d="M1006 682q0 -188 -35 -323t-97 -221t-146.5 -126.5t-182.5 -40.5q-94 0 -177.5 39.5t-146 125t-99 220t-36.5 324.5q0 194 36.5 330t98.5 221.5t145.5 124.5t178.5 39q94 0 177.5 -39t146.5 -124t100 -221t37 -329zM846 682q0 62 -4 129t-16 131.5t-33 122.5t-54.5 102
t-81 69.5t-112.5 25.5t-112.5 -26.5t-80.5 -70.5t-54 -103t-32.5 -123t-15.5 -130.5t-4 -126.5t4 -126t15.5 -130.5t32.5 -122.5t54 -102.5t80.5 -70.5t112.5 -26t112.5 26t81 70t54.5 101.5t33 122t16 131t4 127.5z" />
    <glyph glyph-name="one" unicode="1" horiz-adv-x="655" 
d="M473 43q0 -43 -45 -43h-57q-45 0 -45 43v1167l-232 -94q-21 -9 -36.5 -5.5t-24.5 26.5l-19 45q-3 8 -3.5 13.5t-0.5 10.5q0 23 31 35l297 123q13 5 22.5 8.5t18 5t18 2t23.5 0.5h10q22 0 32.5 -12.5t10.5 -34.5v-1290v0z" />
    <glyph glyph-name="two" unicode="2" horiz-adv-x="940" 
d="M866 43q0 -43 -45 -43h-741q-20 0 -30.5 12t-10.5 29v51q0 17 4 27.5t18 25.5q27 28 65 69t80.5 87.5t86.5 95.5t84 93.5t72.5 81t52.5 59.5q51 60 85 109.5t54.5 93t28.5 84t8 81.5q0 125 -62.5 194t-177.5 69q-52 0 -101.5 -12.5t-91.5 -30t-73.5 -35t-46.5 -27.5
q-17 -11 -30.5 -9.5t-24.5 19.5l-31 54q-5 8 -6.5 15t-1.5 13q0 8 8.5 16.5t17.5 14.5q38 24 79.5 44.5t89 36.5t103.5 25t122 9q96 0 168.5 -29.5t121 -81.5t73 -122.5t24.5 -151.5q0 -80 -24 -151t-63 -135.5t-87.5 -122.5t-96.5 -112q-22 -24 -52.5 -56.5t-64.5 -68
t-68.5 -71.5t-64.5 -66.5t-53.5 -54.5t-34.5 -35h590q47 0 47 -43v-51v0z" />
    <glyph glyph-name="three" unicode="3" horiz-adv-x="963" 
d="M858 389q0 -92 -28.5 -169t-82 -132.5t-131 -86t-174.5 -30.5q-109 0 -203.5 29t-166.5 74q-21 11 -21 28q0 14 8 27l35 57q11 19 26 20t27 -7q36 -21 70.5 -38.5t71.5 -30t77.5 -19.5t88.5 -7q57 0 102 22t76.5 60t48 88.5t16.5 108.5t-21 108.5t-57.5 87t-85.5 57.5
t-104 21h-98q-23 0 -35 11t-12 37v34q0 20 10 32.5t35 12.5h104q54 0 99.5 20.5t78.5 56t51.5 82.5t18.5 101q0 107 -67 162.5t-183 55.5q-41 0 -77.5 -6.5t-70.5 -17.5t-66.5 -27t-65.5 -35q-14 -8 -27 -9.5t-23 15.5l-36 67q-7 15 -7 27q0 6 9.5 14t17.5 13q28 15 64 31
t81.5 29.5t99.5 22.5t118 9q89 0 161 -24t122.5 -69t78 -109t27.5 -144q0 -48 -13 -95t-41 -89.5t-71 -78t-103 -59.5q70 -26 117.5 -64.5t76.5 -83.5t41.5 -94t12.5 -96z" />
    <glyph glyph-name="four" unicode="4" horiz-adv-x="1057" 
d="M1004 410q0 -43 -46 -43h-120v-322q0 -23 -11.5 -34t-31.5 -11h-62q-20 0 -31.5 11t-11.5 34v322h-594q-45 0 -45 43v43q0 24 4.5 38.5t18.5 34.5l573 809q16 23 32 34t48 11h68q20 0 31.5 -12.5t11.5 -32.5v-841h120q23 0 34.5 -11.5t11.5 -31.5v-41zM690 1174
l-487 -680h487v680z" />
    <glyph glyph-name="five" unicode="5" horiz-adv-x="999" 
d="M911 428q0 -101 -30.5 -185t-88.5 -144.5t-141.5 -94t-189.5 -33.5q-65 0 -121.5 10t-106 26t-92 36t-78.5 41q-22 13 -22 29q0 13 8 26l29 54q11 20 25.5 23.5t31.5 -5.5q32 -18 69.5 -37.5t80 -35.5t90 -26t100.5 -10q64 0 115.5 23.5t87.5 65.5t55 100t19 127
q0 65 -16.5 123t-51 101t-87.5 68t-126 25q-71 0 -136 -12t-124 -31q-38 -11 -55 19l-23 37q-8 12 -10 20t-2 14q0 8 1 18.5t3 24.5l65 498q2 15 14 29t34 14h563q31 0 41 -11.5t10 -39.5v-41q0 -23 -15 -34t-36 -11h-494l-51 -393q55 15 113 23.5t135 8.5q94 0 169.5 -34
t128.5 -93t81 -139.5t28 -173.5z" />
    <glyph glyph-name="six" unicode="6" horiz-adv-x="1090" 
d="M1010 418q0 -98 -33.5 -180.5t-92.5 -141.5t-140 -92t-175 -33q-125 0 -214 49.5t-145.5 134.5t-83 197.5t-26.5 237.5q0 205 39.5 356.5t108.5 251t163 148.5t203 49q53 0 95 -6t75.5 -15t60 -20t48.5 -21q11 -5 16.5 -10t5.5 -14q0 -5 -1.5 -13t-4.5 -16l-26 -55
q-10 -20 -24.5 -22t-37.5 9q-16 7 -37 16t-46.5 16.5t-57 12.5t-68.5 5q-85 0 -149.5 -46t-109 -122.5t-68 -175.5t-27.5 -205q23 24 56 50t76 47.5t94.5 35.5t111.5 14q96 0 172.5 -33.5t130.5 -93t82.5 -140.5t28.5 -175zM850 414q0 69 -20 126.5t-57 99t-88 64.5t-112 23
q-51 0 -96.5 -17.5t-85 -44.5t-71.5 -60t-54 -64v-29q0 -66 17.5 -138t54.5 -132t94 -99t135 -39q65 0 117.5 23.5t89 65.5t56.5 98.5t20 122.5z" />
    <glyph glyph-name="seven" unicode="7" horiz-adv-x="856" 
d="M868 1315q0 -17 -4.5 -32t-15.5 -34q-67 -120 -139 -269t-139.5 -310t-124.5 -325t-93 -314q-5 -22 -13 -33.5t-30 -11.5h-90q-14 0 -21.5 4t-9.5 16q0 10 5 27q20 84 53.5 185.5t75.5 211t89.5 221.5t96 217t96 197.5t88.5 163.5h-655q-47 0 -47 43v51q0 43 47 43h788
q25 0 34 -10t9 -27v-14v0z" />
    <glyph glyph-name="eight" unicode="8" horiz-adv-x="1102" 
d="M1001 377q0 -102 -34.5 -178t-95 -126.5t-143 -76t-177.5 -25.5t-176.5 25.5t-142.5 76.5t-95.5 127t-34.5 177q0 82 24 142.5t61.5 104t84.5 72.5t93 47q-110 34 -168 114t-58 192q0 71 27 134t79.5 110t129 74.5t176.5 27.5t177.5 -27.5t130 -74t79.5 -109.5t27 -133
q0 -113 -57 -192.5t-167 -115.5q48 -21 94.5 -50t83 -71.5t59.5 -102.5t23 -142zM811 1049q0 49 -19.5 89t-54.5 68.5t-82.5 44t-103.5 15.5q-63 0 -111 -18t-81 -48.5t-49.5 -69.5t-16.5 -81q0 -65 23.5 -111t60.5 -75.5t83 -43.5t91 -14q48 0 94.5 14t83 44t59.5 76
t23 110zM842 379q0 61 -15 106.5t-40 78t-56 53.5t-63.5 33t-63 17t-53.5 5q-45 0 -96 -14.5t-94 -49t-71 -90.5t-28 -139q0 -57 18.5 -107.5t54.5 -88t90 -59.5t126 -22t126.5 22t91 59.5t55 88t18.5 107.5z" />
    <glyph glyph-name="nine" unicode="9" horiz-adv-x="1090" 
d="M991 772q0 -94 -8 -183.5t-25.5 -170.5t-46.5 -150.5t-71 -122.5q-28 -35 -64.5 -66.5t-80 -55.5t-93.5 -38t-104 -14q-60 0 -109 6.5t-89 16.5t-72 22.5t-58 24.5q-12 6 -21.5 12.5t-9.5 14.5t2.5 15.5l5.5 16.5l19 47q9 25 25 28t34 -5q57 -25 121 -45.5t146 -20.5
q72 0 130 35t101 90q30 39 49.5 88t32 103.5t19 113t10.5 117.5q-23 -21 -54.5 -46.5t-73.5 -47.5t-94 -36.5t-116 -14.5q-96 0 -172.5 33.5t-130.5 93t-82.5 140t-28.5 175.5q0 96 32.5 178t90.5 141.5t138 93.5t175 34q117 0 206 -48t148 -131.5t89 -197.5t30 -246z
M825 846q0 34 -5.5 72t-14.5 73t-19.5 64.5t-19.5 46.5q-18 33 -42 62t-54 51t-66.5 34.5t-81.5 12.5q-65 0 -117 -25t-88 -67t-55.5 -98.5t-19.5 -119.5q0 -71 20.5 -129t57.5 -99t87.5 -63t110.5 -22q51 0 97 17.5t85 44.5t71 60t54 64v21z" />
    <glyph glyph-name="colon" unicode=":" horiz-adv-x="436" 
d="M322 848q0 -21 -8 -40t-22 -33t-33 -22t-40 -8t-40 8t-32.5 22t-21.5 33t-8 40q0 43 29.5 72.5t72.5 29.5q21 0 40 -8t33 -21.5t22 -32.5t8 -40zM322 86q0 -21 -8 -40t-22 -32.5t-33 -21.5t-40 -8q-43 0 -72.5 29.5t-29.5 72.5t29.5 72.5t72.5 29.5q21 0 40 -8t33 -21.5
t22 -32.5t8 -40z" />
    <glyph glyph-name="semicolon" unicode=";" horiz-adv-x="436" 
d="M322 848q0 -21 -8 -40t-22 -33t-33 -22t-40 -8t-40 8t-32.5 22t-21.5 33t-8 40q0 43 29.5 72.5t72.5 29.5q21 0 40 -8t33 -21.5t22 -32.5t8 -40zM322 66q0 -42 -12 -81.5t-31.5 -76.5t-43.5 -71.5t-49 -65.5q-9 -11 -19 -15t-20 2l-32 23q-13 9 -11.5 18t9.5 19
q29 37 53.5 80t38.5 88q-44 5 -66 33.5t-22 66.5q0 43 28.5 72.5t71.5 29.5q47 0 76 -32.5t29 -89.5z" />
    <glyph glyph-name="less" unicode="&#x3c;" horiz-adv-x="1001" 
d="M887 963q0 -25 -14.5 -38.5t-38.5 -21.5l-592 -221l592 -233q24 -10 38.5 -22.5t14.5 -37.5v-53q0 -17 -8.5 -27t-20.5 -10q-8 0 -20.5 2.5t-24.5 7.5l-661 273q-28 11 -42 27.5t-14 45.5v37q0 29 13.5 45.5t44.5 28.5l659 270q12 5 24.5 8t20.5 3q12 0 20.5 -10t8.5 -27
v-47z" />
    <glyph glyph-name="equal" unicode="=" horiz-adv-x="1049" 
d="M958 823q0 -21 -7.5 -31t-30.5 -10h-787q-25 0 -33 10t-8 31v43q0 22 8 31.5t33 9.5h785q24 0 32 -9.5t8 -31.5v-43zM958 500q0 -22 -7.5 -31.5t-30.5 -9.5h-787q-25 0 -33 9.5t-8 31.5v43q0 21 8 31t33 10h785q24 0 32 -10t8 -31v-43z" />
    <glyph glyph-name="greater" unicode="&#x3e;" horiz-adv-x="1001" 
d="M907 653q0 -29 -13 -45t-44 -28l-660 -271q-12 -5 -24.5 -7.5t-20.5 -2.5q-12 0 -20 10t-8 27v47q0 25 14 38t39 21l590 222l-590 233q-25 9 -39 22t-14 37v54q0 17 8 27t20 10q8 0 20.5 -3t24.5 -8l662 -272q28 -11 41.5 -28t13.5 -46v-37z" />
    <glyph glyph-name="question" unicode="?" horiz-adv-x="809" 
d="M725 1100q0 -53 -13.5 -97.5t-37 -83.5t-55 -74.5t-68.5 -70.5q-41 -38 -69.5 -66.5t-46.5 -59t-26 -68t-8 -93.5v-34q0 -34 -11.5 -46t-33.5 -12h-34q-17 0 -30 11.5t-13 48.5v100q0 52 13.5 93t37.5 76.5t56.5 68.5t70.5 69q27 25 49.5 50t39.5 52t26.5 59t9.5 71
q0 34 -10 65.5t-33 55.5t-62.5 38.5t-97.5 14.5q-35 0 -70.5 -7.5t-70.5 -20t-67.5 -28t-59.5 -30.5q-23 -14 -37 -13t-25 21l-26 49q-5 8 -7 15t-2 12q0 9 8.5 16.5t22.5 15.5q28 15 62.5 32t77.5 31.5t94 24t112 9.5q83 0 145.5 -24t104.5 -64.5t63 -94t21 -112.5zM451 86
q0 -43 -29.5 -72.5t-73.5 -29.5q-43 0 -72.5 29.5t-29.5 72.5t29.5 72.5t72.5 29.5q44 0 73.5 -29.5t29.5 -72.5z" />
    <glyph glyph-name="at" unicode="@" horiz-adv-x="1726" 
d="M1090 774q-14 17 -33 33.5t-43 30t-52.5 22t-60.5 8.5q-77 0 -134 -42.5t-94.5 -109.5t-56 -149.5t-18.5 -163.5q0 -54 9.5 -102.5t32.5 -85t61 -58.5t96 -22q34 0 74 15.5t74.5 41.5t59 60t29.5 72zM1632 725q0 -73 -12 -154.5t-37.5 -161t-64 -152t-92.5 -128
t-123.5 -88.5t-155.5 -33q-23 0 -46.5 4t-44 15t-34 30.5t-14.5 51.5q-51 -45 -117.5 -73t-132.5 -28q-80 0 -138 30t-95.5 81.5t-55.5 120.5t-18 147q0 112 28.5 220t85.5 193t142 137t198 52q33 0 62 -6.5t54.5 -17.5t47 -25t39.5 -29q4 26 12 46t31 20h57q19 0 27 -5.5
t8 -21.5q0 -9 -1 -18.5t-3 -22.5l-88 -692q0 -5 -2 -16.5t-2 -16.5q0 -24 15 -33.5t40 -9.5q59 0 113.5 50t96 131t66.5 184t25 209q0 126 -34.5 230t-101 178.5t-165 115.5t-225.5 41q-179 0 -318.5 -63.5t-235.5 -176.5t-146 -268t-50 -338q0 -143 48 -269t136 -220
t213 -148.5t279 -54.5q84 0 157.5 12t135.5 30.5t112 40t89 40.5q35 18 48 18t25 -22l23 -43q6 -12 6 -23q0 -14 -12 -22t-37 -21q-39 -21 -94.5 -43t-125 -40t-152 -30t-175.5 -12q-184 0 -333 62.5t-254.5 171.5t-162.5 256t-57 317q0 209 60.5 385t174.5 304t277.5 200
t370.5 72q149 0 269.5 -48t206 -136t131.5 -211.5t46 -274.5z" />
    <glyph glyph-name="A" unicode="A" horiz-adv-x="1120" 
d="M1104 31q0 -17 -9.5 -24t-25.5 -7h-72q-20 0 -29.5 7.5t-17.5 29.5l-106 315h-570l-108 -311q-8 -23 -18.5 -32t-30.5 -9h-64q-17 0 -26 8t-9 21q0 11 7 28l452 1282q8 23 20 32t33 9h66q22 0 33.5 -9t19.5 -32l449 -1280q6 -15 6 -28zM561 1190l-244 -711h484z" />
    <glyph glyph-name="B" unicode="B" horiz-adv-x="1114" 
d="M1036 397q0 -117 -41.5 -193.5t-111.5 -121.5t-162 -63.5t-193 -18.5h-325q-29 0 -39 12t-10 35v1272q0 25 10.5 36t38.5 11h348q79 0 156.5 -16t138.5 -53.5t99 -100t38 -156.5q0 -59 -16 -106t-45.5 -83.5t-71.5 -63.5t-94 -46q62 -17 113.5 -45.5t88.5 -71t57.5 -99
t20.5 -128.5zM836 1024q0 58 -21 98.5t-58.5 66.5t-88.5 38t-111 12h-256v-444h172q66 0 110 5.5t83 16.5q28 9 58 25t55 41t41 60t16 81zM872 391q0 18 -2 45t-13 57.5t-35 62t-68 58.5q-54 32 -116.5 43t-125.5 11h-211v-533h221q39 0 80.5 2t80.5 10t73.5 24t60 44.5
t40.5 71t15 104.5z" />
    <glyph glyph-name="C" unicode="C" horiz-adv-x="1042" 
d="M999 117q0 -8 -5.5 -15t-20.5 -18q-30 -20 -70.5 -40t-89.5 -36.5t-106 -26.5t-119 -10q-102 0 -194.5 37.5t-163 123.5t-112.5 225.5t-42 342.5q0 149 32 276.5t97 220.5t163.5 145.5t231.5 52.5q66 0 120 -11t96.5 -26.5t73 -32.5t48.5 -29q12 -8 16 -15t4 -13
t-1 -13.5t-9 -19.5l-35 -55q-9 -14 -23 -17t-28 6q-21 14 -49 29.5t-62 28.5t-74.5 21.5t-86.5 8.5q-75 0 -130 -27.5t-94 -73.5t-63.5 -106t-38.5 -124t-19 -128t-5 -118q0 -59 6.5 -124.5t22.5 -129t42 -121t65 -101t92.5 -69.5t123.5 -26q54 0 98 8.5t84 25.5t70 34.5
t55 33.5q19 11 31 9t18 -13l43 -70q3 -5 5.5 -9.5t2.5 -10.5z" />
    <glyph glyph-name="D" unicode="D" horiz-adv-x="1141" 
d="M1067 670q0 -138 -34.5 -259.5t-109 -213t-191.5 -144.5t-283 -53h-246q-29 0 -39 12t-10 35v1272q0 25 10.5 36t38.5 11h262q172 0 287.5 -54t185.5 -148t99.5 -221t29.5 -273zM903 680q0 119 -17 207t-48 150t-74 101.5t-94.5 61.5t-110 30.5t-119.5 8.5h-139v-1104
h139q234 0 348.5 135t114.5 410z" />
    <glyph glyph-name="E" unicode="E" horiz-adv-x="983" 
d="M918 43q0 -43 -46 -43h-675q-43 0 -43 45v1276q0 20 11.5 32.5t31.5 12.5h653q20 0 32.5 -11.5t12.5 -31.5v-41q0 -43 -45 -43h-549v-461h469q45 0 45 -43v-41q0 -20 -11 -31.5t-34 -11.5h-469v-516h571q46 0 46 -43v-49v0z" />
    <glyph glyph-name="F" unicode="F" horiz-adv-x="940" 
d="M895 1282q0 -43 -45 -43h-549v-485h469q23 0 34 -11.5t11 -31.5v-41q0 -43 -45 -43h-469v-584q0 -43 -45 -43h-59q-43 0 -43 45v1276q0 20 11.5 32.5t31.5 12.5h653q20 0 32.5 -11.5t12.5 -31.5v-41v0z" />
    <glyph glyph-name="G" unicode="G" horiz-adv-x="1096" 
d="M989 86q0 -33 -26 -45q-12 -5 -45 -16.5t-82 -23.5t-109.5 -21t-126.5 -9q-74 0 -142 16.5t-127 52t-107.5 92.5t-83 138t-53.5 187.5t-19 242.5q0 149 35.5 276.5t104.5 220.5t169 145.5t229 52.5q68 0 124.5 -10.5t100 -25t74 -30.5t47.5 -26q13 -8 18 -15t5 -12
q0 -6 -2 -14t-8 -19l-35 -55q-9 -14 -21 -18.5t-30 6.5q-30 17 -59.5 31.5t-62.5 25.5t-72 17.5t-87 6.5q-75 0 -131 -27.5t-97 -73.5t-67.5 -106t-42.5 -124t-22.5 -128t-6.5 -118q0 -105 17.5 -207t60 -183t114.5 -131t181 -50q81 0 139 12t99 26v371h-197q-23 0 -34 10.5
t-11 36.5v37q0 43 47 43h299q43 0 43 -43v-516z" />
    <glyph glyph-name="H" unicode="H" horiz-adv-x="1196" 
d="M1044 45q0 -45 -43 -45h-61q-43 0 -43 45v602h-596v-602q0 -45 -43 -45h-61q-43 0 -43 45v1276q0 20 11.5 32.5t31.5 12.5h61q43 0 43 -45v-547h596v547q0 45 43 45h61q43 0 43 -45v-1276v0z" />
    <glyph glyph-name="I" unicode="I" horiz-adv-x="453" 
d="M301 45q0 -45 -43 -45h-61q-43 0 -43 45v1276q0 45 43 45h61q43 0 43 -45v-1276v0z" />
    <glyph glyph-name="J" unicode="J" horiz-adv-x="571" 
d="M438 283q0 -79 -18.5 -137.5t-53 -97.5t-83 -58t-109.5 -19q-49 0 -91 7.5t-67 15.5q-8 3 -14 7.5t-6 12.5q0 13 6 31l18 53q14 32 39 23q16 -6 47.5 -14.5t63.5 -8.5q34 0 57.5 14t37.5 40.5t20 64.5t6 86v1018q0 45 43 45h61q43 0 43 -45v-1038v0z" />
    <glyph glyph-name="K" unicode="K" horiz-adv-x="997" 
d="M979 16q0 -16 -29 -16h-98q-23 0 -36.5 9t-27.5 26l-487 641v-631q0 -45 -43 -45h-61q-43 0 -43 45v1276q0 20 11.5 32.5t31.5 12.5h61q43 0 43 -45v-598l492 614q12 16 25 22.5t36 6.5h76q14 0 22.5 -4t8.5 -12t-4 -17.5t-9 -15.5l-495 -612l512 -656q6 -9 10 -16t4 -17
z" />
    <glyph glyph-name="L" unicode="L" horiz-adv-x="893" 
d="M877 43q0 -43 -46 -43h-634q-43 0 -43 45v1276q0 20 11.5 32.5t31.5 12.5h59q20 0 32.5 -11.5t12.5 -31.5v-1188h530q46 0 46 -43v-49v0z" />
    <glyph glyph-name="M" unicode="M" horiz-adv-x="1405" 
d="M1253 45q0 -45 -43 -45h-53q-43 0 -43 45v973l-332 -776q-8 -20 -20.5 -28.5t-32.5 -8.5h-53q-23 0 -33.5 10t-21.5 33l-328 762v-965q0 -45 -43 -45h-53q-43 0 -43 45v1276q0 20 11.5 32.5t33.5 12.5h59q17 0 27 -7t18 -26l402 -946l399 946q8 19 17.5 26t29.5 7h57
q22 0 33.5 -12.5t11.5 -32.5v-1276v0z" />
    <glyph glyph-name="N" unicode="N" horiz-adv-x="1217" 
d="M1065 45q0 -45 -43 -45h-61q-20 0 -33 11t-27 34l-608 1063v-1063q0 -23 -11.5 -34t-31.5 -11h-53q-43 0 -43 45v1276q0 20 11.5 32.5t31.5 12.5h77q20 0 33 -11t27 -34l592 -1034v1034q0 45 43 45h53q43 0 43 -45v-1276v0z" />
    <glyph glyph-name="O" unicode="O" horiz-adv-x="1143" 
d="M1057 682q0 -81 -8 -165t-28 -163t-55 -149t-89 -122t-129 -82t-175 -30q-101 0 -176 30t-129 82t-89 122t-55 149t-28 163t-8 165t8 166t28 164t55 149t88.5 122t128.5 82t175 30q101 0 176.5 -30t129.5 -82t88.5 -122t55 -149t28.5 -164t8 -166zM893 682q0 52 -4 114.5
t-15.5 126.5t-33 124t-57 107t-87 75t-123.5 28t-124 -28t-87.5 -75t-57 -107t-33 -124t-15.5 -126.5t-4 -114.5t4 -114.5t15.5 -126t33 -123.5t57 -106.5t87.5 -74.5t124 -28t123.5 28t87 75t57 107t33 123.5t15.5 126t4 113.5z" />
    <glyph glyph-name="P" unicode="P" horiz-adv-x="1020" 
d="M987 965q0 -104 -34 -179t-94.5 -123t-144.5 -71t-184 -23h-229v-524q0 -45 -43 -45h-61q-43 0 -43 45v1276q0 20 11.5 32.5t31.5 12.5h307q103 0 191 -19t153 -65.5t102 -123.5t37 -193zM831 954q0 89 -24 145t-69.5 87t-112.5 42t-154 11h-170v-543h186q85 0 149 12.5
t107.5 42.5t65.5 79.5t22 123.5z" />
    <glyph glyph-name="Q" unicode="Q" horiz-adv-x="1143" 
d="M1057 682q0 -76 -7 -155.5t-24.5 -154.5t-47.5 -142.5t-76 -120.5t-110.5 -88.5t-150.5 -45.5v-45q0 -58 28 -90.5t93 -32.5q23 0 44.5 6t35.5 11q17 6 25.5 0.5t15.5 -25.5l16 -51q6 -15 6 -27q0 -8 -6.5 -13.5t-15.5 -8.5q-20 -6 -52 -12t-83 -6q-124 0 -189 63
t-65 186v47q-83 12 -146 48t-108 89t-74.5 120.5t-46.5 141.5t-24 152.5t-7 153.5q0 81 8 166t28 164t55 149t88.5 122t128.5 82t175 30q101 0 176.5 -30t129.5 -82t88.5 -122t55 -149t28.5 -164t8 -166zM893 682q0 52 -4 114.5t-15.5 126.5t-33 124t-57 107t-87 75
t-123.5 28t-124 -28t-87.5 -75t-57 -107t-33 -124t-15.5 -126.5t-4 -114.5t4 -114.5t15.5 -126t33 -123.5t57 -106.5t87.5 -74.5t124 -28t123.5 28t87 75t57 107t33 123.5t15.5 126t4 113.5z" />
    <glyph glyph-name="R" unicode="R" horiz-adv-x="1059" 
d="M1016 20q0 -20 -29 -20h-82q-26 0 -41.5 9t-32.5 40l-292 553h-238v-557q0 -45 -43 -45h-61q-43 0 -43 45v1276q0 20 11.5 32.5t31.5 12.5h295q103 0 191 -16.5t153 -60t102 -118t37 -190.5q0 -79 -23 -140t-62.5 -104.5t-92 -71t-111.5 -40.5l315 -572q15 -23 15 -33z
M819 971q0 89 -24 142t-69.5 81t-112.5 36.5t-154 8.5h-158v-510h174q84 0 148.5 10t108 37t65.5 74t22 121z" />
    <glyph glyph-name="S" unicode="S" horiz-adv-x="920" 
d="M866 365q0 -97 -30.5 -171t-84.5 -123.5t-128.5 -74.5t-163.5 -25q-59 0 -112.5 10.5t-101.5 27.5t-90 39t-79 46q-8 5 -13.5 11t-5.5 14q0 11 6 20l41 70q10 15 24.5 16.5t27.5 -6.5q14 -8 43 -26.5t68.5 -37t87 -32.5t98.5 -14q64 0 113 17.5t82 48.5t50 73.5t17 93.5
q0 60 -17.5 101.5t-50 72.5t-79 55t-103.5 50q-92 40 -164 77.5t-122 82.5t-76.5 103.5t-26.5 139.5q0 91 31.5 160t85.5 116t125.5 71t152.5 24q61 0 111 -8t92.5 -22t79 -32t69.5 -37q10 -5 14.5 -12.5t4.5 -13.5q0 -5 -1.5 -10.5t-4.5 -10.5l-37 -65q-8 -16 -23.5 -18.5
t-27.5 5.5q-35 21 -66.5 37t-64.5 27t-69 16.5t-79 5.5q-46 0 -90 -11.5t-78 -36.5t-55 -63t-21 -91q0 -56 18 -96.5t55 -72.5t94.5 -60.5t135.5 -61.5q76 -32 138.5 -65.5t106.5 -78t68.5 -106t24.5 -149.5z" />
    <glyph glyph-name="T" unicode="T" horiz-adv-x="920" 
d="M903 1274q0 -43 -45 -43h-323v-1186q0 -23 -11.5 -34t-31.5 -11h-62q-43 0 -43 45v1186h-326q-20 0 -31.5 11t-11.5 34v45q0 20 11.5 32.5t31.5 12.5h797q45 0 45 -43v-49v0z" />
    <glyph glyph-name="U" unicode="U" horiz-adv-x="1157" 
d="M1024 438q0 -120 -34.5 -208t-96 -145.5t-146 -85.5t-184.5 -28q-101 0 -180.5 33t-135 93t-85 144t-29.5 187v893q0 20 11.5 32.5t31.5 12.5h62q20 0 31.5 -11t11.5 -34v-895q0 -77 22 -136t61 -99.5t91.5 -61t113.5 -20.5q65 0 121 20.5t97.5 61t65.5 101.5t24 142v887
q0 45 43 45h61q43 0 43 -45v-883v0z" />
    <glyph glyph-name="V" unicode="V" horiz-adv-x="1022" 
d="M1030 1337q0 -10 -6 -28l-428 -1297q-8 -21 -20 -31t-33 -10h-66q-23 0 -34 10t-19 31l-424 1295q-6 15 -6 28q0 17 9.5 24t25.5 7h69q22 0 34 -6t20 -31l362 -1151l367 1147q8 23 18.5 32t30.5 9h65q16 0 25.5 -7.5t9.5 -21.5z" />
    <glyph glyph-name="W" unicode="W" horiz-adv-x="1567" 
d="M1550 1339q0 -3 -1 -14t-3 -16l-311 -1286q-12 -52 -55 -52h-66q-28 0 -40.5 13t-18.5 39l-271 1028l-274 -1028q-8 -29 -21.5 -40.5t-37.5 -11.5h-66q-43 0 -55 52l-303 1267q-2 8 -5.5 21.5t-3.5 21.5q0 16 9 24.5t30 8.5h62q25 0 37 -9t18 -38l248 -1120l291 1116
q8 29 20.5 40t32.5 11h47q22 0 34 -13.5t17 -33.5l287 -1118l252 1114q6 25 17 38t34 13h64q14 0 23 -7t9 -20z" />
    <glyph glyph-name="X" unicode="X" horiz-adv-x="1001" 
d="M983 20q0 -9 -10 -14.5t-23 -5.5h-82q-20 0 -32.5 7t-24.5 30l-315 551l-310 -551q-14 -23 -24.5 -30t-32.5 -7h-76q-15 0 -24 6.5t-9 16.5q0 5 4.5 14t10.5 18l381 645l-365 613l-7.5 15t-4.5 15q0 11 9.5 17t23.5 6h84q21 0 32 -6.5t23 -28.5l289 -510l288 510
q13 22 24.5 28.5t31.5 6.5h74q32 0 32 -23q0 -5 -4 -14t-10 -20l-356 -600l387 -652q6 -11 11 -20.5t5 -16.5z" />
    <glyph glyph-name="Y" unicode="Y" horiz-adv-x="942" 
d="M961 1346q0 -7 -3 -16t-8 -17l-399 -756v-512q0 -45 -43 -45h-62q-20 0 -31.5 11t-11.5 34v510l-409 758q-10 17 -10 28q0 10 7.5 17.5t24.5 7.5h82q13 0 21.5 -1.5t14.5 -5.5t11 -11t11 -19l325 -618l322 618q10 22 20.5 29.5t36.5 7.5h66q14 0 24.5 -4.5t10.5 -15.5z
" />
    <glyph glyph-name="Z" unicode="Z" horiz-adv-x="1001" 
d="M948 43q0 -43 -45 -43h-805q-20 0 -31.5 11t-11.5 34v21q0 11 1 18.5t3.5 14.5t7 14.5t11.5 19.5l665 1106h-628q-45 0 -45 43v41q0 20 12.5 31.5t32.5 11.5h772q20 0 31.5 -12.5t11.5 -32.5v-21q0 -15 -4.5 -29.5t-18.5 -37.5l-665 -1106h661q45 0 45 -43v-41v0z" />
    <glyph glyph-name="bracketleft" unicode="[" horiz-adv-x="573" 
d="M524 -330q0 -20 -10.5 -31.5t-36.5 -11.5h-299q-23 0 -34 10.5t-11 36.5v1645q0 26 11 36.5t34 10.5h299q26 0 36.5 -11.5t10.5 -31.5v-33q0 -20 -10.5 -31.5t-36.5 -11.5h-205v-1501h205q26 0 36.5 -11.5t10.5 -31.5v-33v0z" />
    <glyph glyph-name="backslash" unicode="\" horiz-adv-x="715" 
d="M707 -57q0 -11 -9 -16t-24 -5h-62q-12 0 -28 11.5t-27 37.5l-541 1405q-6 19 -6 29q0 6 7 12t20 6h59q40 0 60 -47l540 -1405q5 -9 8 -14.5t3 -13.5z" />
    <glyph glyph-name="bracketright" unicode="]" horiz-adv-x="573" 
d="M442 -326q0 -26 -11 -36.5t-34 -10.5h-299q-26 0 -36.5 11.5t-10.5 31.5v33q0 20 10.5 31.5t36.5 11.5h205v1501h-205q-26 0 -36.5 11.5t-10.5 31.5v33q0 20 10.5 31.5t36.5 11.5h299q23 0 34 -10.5t11 -36.5v-1645v0z" />
    <glyph glyph-name="asciicircum" unicode="^" horiz-adv-x="956" 
d="M903 821q0 -14 -29 -14h-67q-12 0 -21 1.5t-16 6t-13.5 13t-15.5 22.5l-264 436l-262 -438q-15 -26 -28.5 -33.5t-39.5 -7.5h-61q-14 0 -22.5 3t-8.5 11q0 5 3 13.5t10 17.5l301 508q12 20 24 27.5t41 7.5h92q29 0 41 -8t25 -27l297 -506q5 -8 9.5 -17.5t4.5 -15.5z" />
    <glyph glyph-name="underscore" unicode="_" horiz-adv-x="1010" 
d="M1030 -215q0 -25 -11 -33t-28 -8h-971q-17 0 -27.5 8.5t-10.5 28.5v26q0 39 34 39h979q35 0 35 -39v-22v0z" />
    <glyph glyph-name="grave" unicode="`" 
d="M457 1122q0 -14 -19 -14h-57q-25 0 -38 5t-32 22l-221 190q-11 9 -14.5 15t-3.5 14q0 6 6.5 9t17.5 3h119q15 0 25.5 -1t20 -4.5t18.5 -11.5t20 -22l147 -186q11 -13 11 -19z" />
    <glyph glyph-name="a" unicode="a" horiz-adv-x="889" 
d="M768 45q0 -20 -9 -32.5t-34 -12.5h-41q-23 0 -35 9.5t-12 37.5v82q-26 -28 -60 -54t-74.5 -46.5t-86 -32.5t-94.5 -12q-57 0 -105 20t-83.5 56.5t-55 87t-19.5 112.5q0 73 23 127t62.5 92.5t92 63t111.5 38.5t121 19.5t121 5.5h39v115q0 24 -3.5 52.5t-21 54t-54.5 42.5
t-104 17q-33 0 -66.5 -6t-65.5 -16t-60.5 -23t-52.5 -27q-7 -4 -15 -7t-16.5 -3t-15.5 4t-13 14l-24 47q-5 10 -6.5 15.5t-1.5 13.5q0 18 22 29q79 42 159.5 63t162.5 21q72 0 130 -14.5t99.5 -47t63.5 -84t22 -125.5v-696zM629 502q-42 0 -89.5 -3t-95 -11.5t-91 -24.5
t-77 -42.5t-53.5 -65t-20 -91.5q0 -17 4.5 -45t19.5 -55t44.5 -46.5t80.5 -19.5q31 0 65 11t66 28.5t60 39t47 42.5q18 20 28.5 41.5t10.5 56.5v185z" />
    <glyph glyph-name="b" unicode="b" horiz-adv-x="987" 
d="M924 494q0 -87 -17 -177.5t-59 -164.5t-112 -121t-175 -47q-56 0 -100.5 13.5t-80 36t-64 53t-52.5 63.5v-103q0 -23 -10 -35t-41 -12h-35q-45 0 -45 47v1299q0 24 10.5 36.5t38.5 12.5h39q31 0 41 -11.5t10 -35.5v-496q22 31 50 60t63.5 51.5t79.5 35.5t98 13
q91 0 159 -39.5t113 -109t67 -164.5t22 -205zM780 492q0 18 -1.5 54t-9 80t-22.5 90t-41.5 84t-66.5 62.5t-98 24.5q-59 0 -108.5 -28.5t-85 -81t-55.5 -127t-20 -165.5q0 -70 17.5 -137.5t51.5 -120.5t84.5 -85.5t115.5 -32.5q68 0 114 34.5t73.5 89.5t39.5 123.5t12 135.5
z" />
    <glyph glyph-name="c" unicode="c" horiz-adv-x="829" 
d="M797 102q0 -14 -23 -28q-57 -37 -135.5 -63.5t-175.5 -26.5q-77 0 -149.5 27.5t-128.5 89.5t-90 162.5t-34 246.5q0 107 27 198.5t79.5 159t129 106t174.5 38.5q48 0 87 -7.5t72.5 -19t61.5 -26t53 -29.5q10 -5 13.5 -12t3.5 -13q0 -5 -0.5 -12.5t-5.5 -15.5l-29 -52
q-8 -12 -22.5 -15t-28.5 5t-34 20t-45.5 23t-57 19t-68.5 8q-55 0 -96.5 -18t-71 -48.5t-48.5 -70t-30 -82.5t-15.5 -87t-4.5 -83q0 -64 12 -132t41.5 -124.5t80 -92.5t128.5 -36q43 0 78.5 8t64.5 19.5t52 25t43 24.5q17 10 31 8t20 -12l30 -51q5 -6 8 -15t3 -16z" />
    <glyph glyph-name="d" unicode="d" horiz-adv-x="987" 
d="M856 47q0 -47 -45 -47h-35q-31 0 -41 12t-10 35v103q-24 -33 -52 -63.5t-64 -53t-80.5 -36t-100.5 -13.5q-105 0 -175 47t-111.5 121t-58.5 164.5t-17 177.5q0 109 23.5 204t70 164.5t116.5 109.5t164 40q51 0 93 -13.5t76.5 -36t61.5 -51t46 -59.5v496q0 24 10 35.5
t41 11.5h39q28 0 38.5 -12.5t10.5 -36.5v-1299zM717 485q0 91 -20 165.5t-55 127t-82.5 81t-102.5 28.5q-58 0 -99 -22.5t-68.5 -58t-43.5 -80t-24 -88.5t-10.5 -83t-2.5 -63q0 -67 12 -135.5t39.5 -123.5t73.5 -89.5t115 -34.5q65 0 115 32.5t84 85.5t51.5 120.5
t17.5 137.5z" />
    <glyph glyph-name="e" unicode="e" horiz-adv-x="887" 
d="M813 539q0 -23 -10 -36.5t-39 -13.5h-555v-22q0 -52 11 -114.5t40 -116.5t79 -90.5t128 -36.5q39 0 74 7.5t63.5 19t50.5 23.5t35 21q16 10 32 10.5t26 -16.5l30 -55q3 -6 4.5 -13t1.5 -12q0 -13 -24 -28q-25 -16 -57.5 -31t-70 -26t-78.5 -18t-83 -7q-111 0 -188.5 44
t-125.5 115t-69.5 162t-21.5 184q0 92 21 185.5t67.5 168.5t121.5 122t183 47q104 0 172.5 -41t109 -107.5t56.5 -151.5t16 -173zM670 606q-2 53 -12 104.5t-35 91.5t-66 64.5t-104 24.5q-62 0 -105.5 -25.5t-72 -66.5t-43.5 -91.5t-19 -101.5h457z" />
    <glyph glyph-name="f" unicode="f" horiz-adv-x="496" 
d="M563 1374v-8t-2 -8l-12 -43q-6 -20 -18.5 -25t-30.5 0q-11 3 -35 11t-55 8q-35 0 -56.5 -15.5t-33.5 -42t-16.5 -61.5t-4.5 -74v-121h154q17 0 25.5 -9.5t8.5 -24.5v-48q0 -15 -8.5 -24.5t-25.5 -9.5h-154v-830q0 -23 -9.5 -36t-41.5 -13h-39q-29 0 -39 12.5t-10 34.5
v832h-115q-17 0 -26 9.5t-9 24.5v48q0 15 9 24.5t26 9.5h115v125q0 64 13 119t42.5 96t75.5 64.5t112 23.5q42 0 77.5 -5t58.5 -13q11 -3 17.5 -12.5t6.5 -18.5z" />
    <glyph glyph-name="g" unicode="g" horiz-adv-x="979" 
d="M848 8q0 -87 -16.5 -157t-58 -120t-113 -77t-181.5 -27q-56 0 -103.5 7.5t-86.5 18.5t-71 25t-56 27q-11 6 -20 14t-9 19q0 10 6 22l27 52q9 18 26 19.5t35 -9.5q22 -13 49.5 -26.5t59 -24t67.5 -17t74 -6.5q69 0 114 18.5t71.5 52.5t36.5 80.5t10 102.5v168
q-15 -22 -39 -49t-57.5 -50t-76 -39t-92.5 -16q-97 0 -166.5 40t-114.5 108.5t-66 160t-21 195.5q0 57 9 116t28 113.5t48.5 102.5t71.5 83.5t96.5 56t123.5 20.5q51 0 95 -17t77.5 -42.5t57 -54t34.5 -52.5v96q0 28 10 40.5t41 12.5h37q23 0 33 -13t10 -38v-936zM709 510
q0 78 -19 146.5t-52.5 119.5t-79 81t-99.5 30q-57 0 -101.5 -27.5t-75.5 -76t-47 -116t-16 -147.5q0 -84 15.5 -153.5t46 -119.5t76 -78t104.5 -28q57 0 102.5 32.5t78 84.5t50 118t17.5 134z" />
    <glyph glyph-name="h" unicode="h" horiz-adv-x="983" 
d="M862 45q0 -25 -12.5 -35t-32.5 -10h-51q-23 0 -33 12t-10 35v645q0 41 -5.5 77t-19.5 62.5t-40 42t-66 15.5q-43 0 -81.5 -13.5t-72.5 -36t-64.5 -52.5t-58.5 -64q-14 -17 -22 -31.5t-13 -30.5t-6.5 -36t-1.5 -47v-529q0 -23 -9.5 -36t-41.5 -13h-39q-29 0 -39 12.5
t-10 34.5v1301q0 26 11 36.5t34 10.5h45q29 0 39 -12t10 -33v-523q66 87 152.5 136t177.5 49q72 0 121.5 -21t80 -58t44.5 -89t14 -113v-686v0z" />
    <glyph glyph-name="i" unicode="i" horiz-adv-x="440" 
d="M313 1303q0 -20 -7 -36.5t-19.5 -29.5t-29.5 -20t-36 -7t-36 7t-29.5 20t-19.5 29.5t-7 36.5q0 19 7 36t19.5 29.5t29.5 19.5t36 7t36 -7t29.5 -19.5t19.5 -29.5t7 -36zM291 49q0 -23 -9.5 -36t-41.5 -13h-39q-29 0 -39 12.5t-10 34.5v901q0 26 11 36.5t34 10.5h45
q29 0 39 -11.5t10 -33.5v-901z" />
    <glyph glyph-name="j" unicode="j" horiz-adv-x="432" 
d="M305 1303q0 -20 -7 -36.5t-19.5 -29.5t-29.5 -20t-36 -7t-36 7t-29.5 20t-19.5 29.5t-7 36.5q0 19 7 36t19.5 29.5t29.5 19.5t36 7t36 -7t29.5 -19.5t19.5 -29.5t7 -36zM293 -145q0 -115 -57.5 -171.5t-157.5 -56.5q-32 0 -59 4t-46 11q-11 3 -16.5 9.5t-5.5 14.5
q0 14 6 29l12 37q6 18 17.5 21.5t25.5 -1.5q16 -5 32.5 -8.5t29.5 -3.5q43 0 61.5 31.5t18.5 97.5v1079q0 26 11 36.5t34 10.5h45q29 0 39 -11.5t10 -33.5v-1095z" />
    <glyph glyph-name="k" unicode="k" horiz-adv-x="842" 
d="M829 16q0 -6 -6.5 -11t-17.5 -5h-100q-20 0 -35 6.5t-27 22.5l-371 463v-443q0 -23 -9.5 -36t-41.5 -13h-39q-29 0 -39 12.5t-10 34.5v1301q0 26 11 36.5t34 10.5h45q29 0 39 -12t10 -33v-809l371 424q16 17 29 23.5t35 6.5h84q26 0 26 -16q0 -6 -5.5 -14.5t-10.5 -14.5
l-381 -428l399 -485q10 -13 10 -21z" />
    <glyph glyph-name="l" unicode="l" horiz-adv-x="403" 
d="M272 49q0 -23 -9.5 -36t-41.5 -13h-39q-29 0 -39 12.5t-10 34.5v1301q0 26 11 36.5t34 10.5h45q29 0 39 -12t10 -33v-1301v0z" />
    <glyph glyph-name="m" unicode="m" horiz-adv-x="1532" 
d="M1411 45q0 -25 -12.5 -35t-32.5 -10h-51q-23 0 -33 12t-10 35v645q0 41 -5.5 77t-19.5 62.5t-37.5 42t-60.5 15.5t-72.5 -13.5t-69 -36t-64.5 -52.5t-58 -64q-14 -17 -22.5 -31.5t-13 -30.5t-6 -36t-1.5 -47v-531q0 -23 -10 -35t-39 -12h-41q-31 0 -40.5 12.5t-9.5 34.5
v645q0 41 -5.5 77t-19 62.5t-37 42t-60.5 15.5t-72.5 -13.5t-69 -36t-64.5 -52.5t-59 -64q-14 -17 -22 -31.5t-13 -30.5t-6.5 -36t-1.5 -47v-529q0 -23 -9.5 -36t-41.5 -13h-39q-29 0 -39 12.5t-10 34.5v901q0 26 11 36.5t34 10.5h37q29 0 39 -11.5t10 -33.5v-131
q72 93 157 143t169 50q109 0 168 -52.5t76 -140.5q72 93 157 143t168 50q67 0 115 -21t78.5 -58t44.5 -89t14 -113v-686v0z" />
    <glyph glyph-name="n" unicode="n" horiz-adv-x="983" 
d="M862 45q0 -25 -12.5 -35t-32.5 -10h-51q-23 0 -33 12t-10 35v645q0 41 -5.5 77t-19.5 62.5t-40 42t-66 15.5q-43 0 -81.5 -13.5t-72.5 -36t-64.5 -52.5t-58.5 -64q-14 -17 -22 -31.5t-13 -30.5t-6.5 -36t-1.5 -47v-529q0 -23 -9.5 -36t-41.5 -13h-39q-29 0 -39 12.5
t-10 34.5v901q0 26 11 36.5t34 10.5h37q29 0 39 -11.5t10 -33.5v-131q72 93 158 143t180 50q72 0 121.5 -21t80 -58t44.5 -89t14 -113v-686v0z" />
    <glyph glyph-name="o" unicode="o" horiz-adv-x="930" 
d="M866 500q0 -62 -9 -124t-29 -119t-51.5 -107t-76 -87t-103 -58t-132.5 -21q-108 0 -183.5 45t-123.5 118t-70 165.5t-22 187.5q0 63 10 126t30.5 120t52.5 105.5t76.5 84t101.5 56t128 20.5q110 0 186.5 -45.5t124 -118.5t69 -164.5t21.5 -183.5zM723 496q0 64 -11 132.5
t-40 125.5t-79 94t-128 37q-77 0 -126.5 -37t-78.5 -94t-40 -125.5t-11 -132.5q0 -63 11.5 -131t40.5 -124.5t78.5 -93t125.5 -36.5q78 0 128 37t79 93.5t40 124.5t11 130z" />
    <glyph glyph-name="p" unicode="p" horiz-adv-x="987" 
d="M924 502q0 -110 -23.5 -204.5t-70.5 -164.5t-117 -109.5t-164 -39.5q-51 0 -93 13.5t-76.5 35.5t-61.5 50.5t-46 59.5v-469q0 -24 -10 -35.5t-41 -11.5h-39q-28 0 -38.5 12.5t-10.5 36.5v1272q0 47 45 47h35q31 0 41 -12t10 -35v-102q24 33 52.5 63t64 53t80 36.5
t100.5 13.5q70 0 124.5 -21.5t94.5 -59t67.5 -87.5t44.5 -107t24.5 -117t7.5 -118zM780 504q0 67 -12 135t-39.5 123t-73.5 90t-114 35q-65 0 -115.5 -33t-84.5 -86t-51.5 -120.5t-17.5 -137.5q0 -92 20 -166t55 -126t82.5 -80.5t102.5 -28.5q58 0 99 22.5t68.5 58t43.5 80
t24 88.5t10.5 82.5t2.5 63.5z" />
    <glyph glyph-name="q" unicode="q" horiz-adv-x="987" 
d="M856 -324q0 -24 -10.5 -36.5t-38.5 -12.5h-39q-31 0 -41 11.5t-10 35.5v469q-23 -32 -50.5 -60.5t-63 -50.5t-79.5 -35t-98 -13q-92 0 -159.5 39.5t-112 109t-66.5 164t-22 205.5q0 58 8 118t26.5 117t48.5 107t74 87.5t103 59t135 21.5q48 0 85.5 -9t69.5 -23.5
t59.5 -33.5t55.5 -39l35 58q14 23 23.5 35t23.5 12h16q14 0 20.5 -11t6.5 -26v-1299zM717 778q-22 20 -49.5 39.5t-59.5 35t-68 25t-73 9.5q-74 0 -123.5 -35t-79.5 -90t-42.5 -123t-12.5 -135q0 -18 1.5 -54.5t9 -80t22.5 -90t41.5 -84t67 -62t98.5 -24.5q59 0 108 28.5
t84.5 80.5t55.5 126t20 166v268z" />
    <glyph glyph-name="r" unicode="r" horiz-adv-x="651" 
d="M657 958q0 -5 -1 -12t-3 -12l-30 -74q-8 -20 -25 -20q-6 0 -13 2.5t-12 5.5q-23 12 -43 20.5t-45 8.5q-15 0 -34 -8.5t-39 -22.5t-40 -32t-36 -36q-19 -21 -31.5 -38t-19.5 -33.5t-10 -35.5t-3 -44v-582q0 -25 -11 -35t-36 -10h-45q-23 0 -35 10t-12 35v903q0 23 9 35
t34 12h43q45 0 45 -45v-116q66 83 131 130.5t131 47.5q19 0 34 -1.5t28 -5t25 -8.5t26 -12q9 -5 13.5 -12.5t4.5 -14.5z" />
    <glyph glyph-name="s" unicode="s" horiz-adv-x="760" 
d="M711 272q0 -74 -24.5 -128.5t-68 -90t-103.5 -52.5t-130 -17q-47 0 -89.5 8t-80 20.5t-69.5 27.5t-58 30q-22 11 -22 30q0 14 8 25l28 51q8 16 23 19t29 -7q10 -7 32 -20t53 -26t67.5 -23t74.5 -10q94 0 141 40.5t47 106.5q0 39 -12 66t-35.5 47.5t-57.5 36.5t-79 34
q-73 29 -131 57t-98 61.5t-61 77t-21 103.5q0 64 23 115t63 86t95 53.5t120 18.5q44 0 84 -6.5t74.5 -16t62.5 -21t47 -20.5q9 -5 15 -14t6 -14q0 -4 -0.5 -9.5t-4.5 -11.5l-26 -57q-8 -16 -23.5 -16t-34.5 10q-38 18 -87.5 36.5t-114.5 18.5q-34 0 -63 -8t-50.5 -24.5
t-34 -41t-12.5 -57.5q0 -36 13 -61.5t41 -47t71.5 -41t103.5 -43.5q58 -23 107.5 -47.5t85.5 -57.5t56 -79t20 -111z" />
    <glyph glyph-name="t" unicode="t" horiz-adv-x="575" 
d="M563 31q0 -14 -24 -23q-16 -5 -38 -9.5t-45.5 -7.5t-46 -5t-40.5 -2q-49 0 -85.5 12.5t-61 41.5t-36.5 75t-12 114v652h-115q-18 0 -26 9.5t-8 26.5v46q0 34 34 34h115v269q0 26 11 36.5t34 10.5h45q29 0 39 -12t10 -33v-271h166q16 0 25.5 -8.5t9.5 -25.5v-48
q0 -15 -9 -24.5t-26 -9.5h-166v-627q0 -35 2 -63t11 -47.5t26 -29.5t47 -10q28 0 56 7.5t51 15.5q12 5 23 1.5t14 -15.5l16 -60q2 -5 3 -10t1 -10z" />
    <glyph glyph-name="u" unicode="u" horiz-adv-x="983" 
d="M852 47q0 -26 -11 -36.5t-34 -10.5h-37q-29 0 -39 11.5t-10 33.5v131q-72 -93 -158 -142.5t-180 -49.5q-71 0 -120.5 20.5t-80.5 58t-45 88.5t-14 113v686q0 25 12.5 35t32.5 10h51q23 0 33 -12t10 -35v-645q0 -41 5.5 -76.5t19.5 -62.5t39.5 -42.5t66.5 -15.5
q43 0 81.5 13.5t72.5 36t64.5 52.5t58.5 64q14 17 22.5 31.5t13 30.5t6 36t1.5 48v528q0 23 9.5 36t41.5 13h39q29 0 39 -12.5t10 -34.5v-901v0z" />
    <glyph glyph-name="v" unicode="v" horiz-adv-x="780" 
d="M778 975q0 -5 -2 -13t-4 -14l-280 -897q-8 -23 -19.5 -37t-34.5 -14h-90q-22 0 -32.5 12t-18.5 35l-289 909q-2 5 -3 9.5t-1 9.5q0 9 9 14.5t20 5.5h84q17 0 25.5 -8.5t13.5 -23.5l243 -811l246 815q5 17 12 22.5t27 5.5h68q11 0 18.5 -5.5t7.5 -14.5z" />
    <glyph glyph-name="w" unicode="w" horiz-adv-x="1313" 
d="M1311 977q0 -6 -1.5 -14.5t-4.5 -16.5l-261 -891q-3 -10 -6.5 -19.5t-9 -17.5t-14.5 -13t-23 -5h-69q-23 0 -35 13.5t-19 35.5l-215 764l-200 -760q-5 -18 -16 -35.5t-31 -17.5h-82q-20 0 -30.5 15.5t-17.5 33.5l-266 897q-3 11 -4.5 18t-1.5 13q0 8 6.5 13t22.5 5h80
q18 0 27 -9t14 -28l217 -774l211 781q5 20 13.5 25t27.5 5h73q25 0 31 -8t12 -26l219 -783l216 774q6 22 15 32.5t28 10.5h69q11 0 18 -5t7 -13z" />
    <glyph glyph-name="x" unicode="x" horiz-adv-x="840" 
d="M821 16q0 -16 -26 -16h-93q-20 0 -31 8.5t-22 24.5l-231 364l-236 -370q-11 -17 -20.5 -22t-28.5 -5h-82q-15 0 -20.5 5t-5.5 13q0 12 10 25l303 453l-307 456q-5 8 -8 15t-3 12q0 9 8 12.5t19 3.5h92q20 0 31.5 -8t24.5 -26l227 -359l227 361q10 15 23 23.5t33 8.5h79
q27 0 27 -16q0 -6 -2.5 -12.5t-7.5 -14.5l-299 -448l305 -455q6 -11 10 -18.5t4 -14.5z" />
    <glyph glyph-name="y" unicode="y" horiz-adv-x="795" 
d="M803 977q0 -14 -6 -29l-336 -979q-26 -75 -54 -138t-64.5 -108t-85 -70.5t-116.5 -25.5q-34 0 -60 5t-44 12q-23 7 -23 24q0 5 1 11t3 12l19 51q5 14 16.5 18.5t24.5 -0.5q25 -9 43.5 -11.5t32.5 -2.5q33 0 58 21.5t45.5 56t38.5 79t36 89.5l4 8l-328 954q-2 7 -3 11.5
t-1 9.5q0 9 9 14.5t20 5.5h80q18 0 26 -6t15 -24l254 -787l260 787q6 18 14 24t25 6h69q14 0 20.5 -6t6.5 -12z" />
    <glyph glyph-name="z" unicode="z" horiz-adv-x="813" 
d="M758 39q0 -39 -35 -39h-621q-23 0 -33 8.5t-10 30.5v49q0 22 6 35.5t17 30.5l500 716h-463q-17 0 -28 8.5t-11 28.5v49q0 39 35 39h594q21 0 30 -10t9 -29v-47q0 -18 -5.5 -33.5t-17.5 -33.5l-500 -715h494q17 0 28 -8.5t11 -28.5v-51v0z" />
    <glyph glyph-name="braceleft" unicode="{" horiz-adv-x="621" 
d="M559 -334q0 -17 -10 -28t-35 -11h-49q-57 0 -103 25q-60 32 -94.5 107.5t-34.5 193.5v147q0 64 -6.5 121t-23 102.5t-44.5 77t-71 43.5q-22 7 -27.5 16t-5.5 23v56q0 18 9 26t24 13q44 12 72 43.5t44.5 77t22.5 102.5t6 121v145q0 105 26.5 175.5t76.5 109.5
q28 21 60.5 32t72.5 11h45q25 0 35 -11.5t10 -29.5v-35q0 -22 -10.5 -32.5t-36.5 -10.5h-29q-32 0 -53.5 -18.5t-34 -51t-17.5 -77t-5 -95.5v-153q0 -97 -17.5 -161.5t-43 -106t-54 -64.5t-51.5 -35v-6q24 -12 53 -35.5t54 -65.5t42 -106.5t17 -159.5v-153q0 -55 5 -99.5
t17.5 -76t34 -49t53.5 -17.5h29q26 0 36.5 -10.5t10.5 -30.5v-39v0z" />
    <glyph glyph-name="bar" unicode="|" horiz-adv-x="489" 
d="M313 -340q0 -19 -6.5 -26t-27.5 -7h-66q-22 0 -28.5 7t-6.5 26v1841q0 19 6.5 26t28.5 7h66q21 0 27.5 -7t6.5 -26v-1841v0z" />
    <glyph glyph-name="braceright" unicode="}" horiz-adv-x="621" 
d="M569 483q0 -18 -8.5 -26t-23.5 -13q-44 -12 -72 -43.5t-44.5 -77t-23 -102.5t-6.5 -121v-145q0 -105 -26.5 -176t-75.5 -109q-28 -21 -60.5 -32t-72.5 -11h-45q-25 0 -35 11.5t-10 29.5v35q0 22 10.5 32.5t36.5 10.5h28q32 0 53.5 18.5t34 51t18 76.5t5.5 96v153
q0 97 17 161.5t42.5 106t54.5 64.5t52 35v6q-25 12 -54 35.5t-54 65.5t-41.5 106.5t-16.5 159.5v153q0 55 -5.5 99.5t-18 76t-34 49t-53.5 17.5h-28q-26 0 -36.5 10.5t-10.5 30.5v39q0 17 10 28t35 11h49q29 0 54 -6.5t48 -18.5q60 -32 94.5 -107.5t34.5 -193.5v-147
q0 -64 6.5 -121t23 -102.5t45 -77t71.5 -43.5q21 -7 26.5 -16t5.5 -23v-56v0z" />
    <glyph glyph-name="asciitilde" unicode="~" horiz-adv-x="956" 
d="M887 729q0 -8 -3.5 -32t-12 -55.5t-23.5 -66.5t-38.5 -64t-57 -48t-78.5 -19q-53 0 -105.5 22t-103.5 48q-18 9 -40.5 21.5t-46 24t-47 19t-42.5 7.5q-31 0 -51.5 -12t-33.5 -30.5t-21 -41.5t-13 -45q-3 -14 -7.5 -20.5t-17.5 -6.5h-61q-9 0 -11.5 3t-2.5 9q0 8 3 32
t12 55.5t24 66.5t39.5 64t58.5 48t80 19q49 0 101.5 -22t103.5 -48q18 -9 40.5 -21t46.5 -23.5t47.5 -19t43.5 -7.5q32 0 53 15t34 36t19.5 43t9.5 35q4 18 9.5 22t13.5 4h65q13 0 13 -12z" />
    <glyph glyph-name="Euro" unicode="&#x20ac;" horiz-adv-x="1075" 
d="M1059 106q0 -8 -4.5 -14.5t-20.5 -15.5q-34 -21 -73 -40t-84.5 -33.5t-97.5 -23t-111 -8.5q-85 0 -164 28.5t-143.5 92t-110 166t-64.5 250.5h-106q-23 0 -34 11t-11 30v29q0 18 11 29t34 11h98q-2 20 -2 40.5v41.5v54h-96q-23 0 -34 11t-11 30v28q0 19 11 30t34 11h106
q15 118 53.5 215.5t100 167.5t146.5 109t194 39q59 0 110 -9.5t92 -23.5t71 -29.5t48 -27.5q13 -8 17 -15.5t4 -13.5t-1 -13t-9 -20l-31 -51q-8 -14 -21.5 -17t-27.5 7q-20 13 -47 27t-60.5 26t-72.5 19.5t-82 7.5q-81 0 -137.5 -35t-94 -91.5t-59 -128t-31.5 -143.5h414
q26 0 35.5 -12t9.5 -31v-26q0 -19 -10 -30t-35 -11h-424q-2 -20 -2 -38.5v-35.5q0 -16 1 -31t1 -31h362q26 0 35.5 -12t9.5 -31v-26q0 -19 -10 -30t-35 -11h-352q11 -75 33.5 -147.5t61 -129.5t95 -92t134.5 -35q85 0 154.5 26.5t140.5 68.5q17 11 29 9t18 -13l37 -66
q3 -5 5.5 -10.5t2.5 -12.5z" />
    <glyph glyph-name="quotesinglbase" unicode="&#x201a;" horiz-adv-x="436" 
d="M322 66q0 -42 -12 -81.5t-31.5 -76.5t-43.5 -71.5t-49 -65.5q-5 -7 -10.5 -12t-11.5 -5q-3 0 -9.5 1.5t-13.5 6.5l-26 19q-7 5 -9 9t-2 9t3 9.5t6 9.5q29 37 54 80.5t38 87.5q-44 5 -66 33.5t-22 66.5q0 43 28.5 72.5t71.5 29.5q47 0 76 -32.5t29 -89.5z" />
    <glyph glyph-name="florin" unicode="&#x192;" horiz-adv-x="784" 
d="M752 1382q0 -5 -1 -12t-3 -12l-15 -43q-6 -20 -18.5 -24.5t-34.5 1.5q-11 3 -34 10t-54 7q-35 0 -58.5 -13t-39.5 -38t-26 -61t-17 -81l-19 -121h154q12 0 21 -3t9 -11v-7.5t-2 -12.5l-8 -56q-2 -15 -11 -20.5t-28 -5.5h-153l-150 -949q-12 -71 -32 -127.5t-53.5 -95.5
t-83 -59.5t-118.5 -20.5q-45 0 -78 5.5t-55 13.5q-8 3 -13 9.5t-5 12.5q0 5 1 12.5t3 12.5l14 43q7 20 19.5 24.5t34.5 -2.5q11 -3 34 -9.5t54 -6.5q63 0 95 50.5t46 141.5l147 945h-114q-13 0 -22 4t-9 12v9.5t2 13.5l8 53q2 12 10.5 18t28.5 6h115l20 125q12 72 33.5 128
t56 95t83 59.5t114.5 20.5q45 0 78.5 -5t54.5 -13q8 -3 13.5 -9.5t5.5 -13.5z" />
    <glyph glyph-name="quotedblbase" unicode="&#x201e;" horiz-adv-x="764" 
d="M649 66q0 -42 -12 -81.5t-31 -76.5t-43 -71.5t-49 -65.5q-5 -7 -10.5 -12t-11.5 -5q-4 0 -10.5 1.5t-12.5 6.5l-27 19q-10 7 -10 18q0 5 2.5 9.5t5.5 9.5q29 37 54.5 80.5t37.5 87.5q-43 5 -65.5 33.5t-22.5 66.5q0 43 28.5 72.5t72.5 29.5q46 0 75 -32.5t29 -89.5z
M322 66q0 -42 -12 -81.5t-31.5 -76.5t-43.5 -71.5t-49 -65.5q-5 -7 -10.5 -12t-11.5 -5q-3 0 -9.5 1.5t-13.5 6.5l-26 19q-7 5 -9 9t-2 9t3 9.5t6 9.5q29 37 54 80.5t38 87.5q-44 5 -66 33.5t-22 66.5q0 43 28.5 72.5t71.5 29.5q47 0 76 -32.5t29 -89.5z" />
    <glyph glyph-name="ellipsis" unicode="&#x2026;" horiz-adv-x="1522" 
d="M1376 86q0 -43 -29.5 -72.5t-72.5 -29.5q-21 0 -40 8t-33 21.5t-22 32.5t-8 40t8 40t22 32.5t33 21.5t40 8q43 0 72.5 -29.5t29.5 -72.5zM864 86q0 -43 -29.5 -72.5t-72.5 -29.5q-21 0 -40 8t-33 21.5t-22 32.5t-8 40t8 40t22 32.5t33 21.5t40 8q43 0 72.5 -29.5
t29.5 -72.5zM352 86q0 -43 -29.5 -72.5t-72.5 -29.5q-21 0 -40 8t-33 21.5t-22 32.5t-8 40t8 40t22 32.5t33 21.5t40 8q43 0 72.5 -29.5t29.5 -72.5z" />
    <glyph glyph-name="dagger" unicode="&#x2020;" horiz-adv-x="909" 
d="M811 872q0 -21 -9.5 -29.5t-29.5 -8.5h-250v-1168q0 -21 -8 -30t-31 -9h-55q-23 0 -31 9t-8 30v1168h-250q-21 0 -30 9t-9 29v41q0 39 39 39h250v404q0 21 8.5 30t30.5 9h55q22 0 30.5 -9t8.5 -30v-404h250q39 0 39 -39v-41v0z" />
    <glyph glyph-name="daggerdbl" unicode="&#x2021;" horiz-adv-x="909" 
d="M811 66q0 -39 -39 -39h-250v-361q0 -21 -8 -30t-31 -9h-55q-23 0 -31 9t-8 30v361h-250q-39 0 -39 39v40q0 20 9 29.5t30 9.5h250v732h-250q-21 0 -30 9t-9 29v41q0 39 39 39h250v361q0 21 8.5 30t30.5 9h55q22 0 30.5 -9t8.5 -30v-361h250q39 0 39 -39v-41
q0 -21 -9.5 -29.5t-29.5 -8.5h-250v-732h250q20 0 29.5 -8.5t9.5 -30.5v-40v0z" />
    <glyph glyph-name="circumflex" unicode="&#x2c6;" 
d="M610 1122q0 -14 -18 -14h-51q-25 0 -38 5t-32 22l-143 127l-144 -127q-18 -17 -31.5 -22t-37.5 -5h-37q-19 0 -19 14q0 6 11 19l147 186q11 14 19.5 22t17 11.5t18 4.5t21.5 1h84q12 0 21 -1t17.5 -4.5t17.5 -11.5t20 -22l147 -186q10 -13 10 -19z" />
    <glyph glyph-name="perthousand" unicode="&#x2030;" horiz-adv-x="2277" 
d="M705 1055q0 -61 -17.5 -122t-56 -110.5t-100.5 -80.5t-152 -31q-88 0 -149.5 30.5t-100.5 79.5t-56.5 110.5t-17.5 123.5t18.5 123t57.5 109t100.5 78t147.5 30q89 0 151 -30.5t101 -79t56.5 -109t17.5 -121.5zM563 1051q0 40 -8.5 82t-29.5 76t-56.5 55.5t-89.5 21.5
q-55 0 -90.5 -21.5t-56.5 -55.5t-29 -76t-8 -82t8.5 -81.5t29.5 -75t56.5 -54.5t89.5 -21q55 0 90.5 21.5t56.5 55t29 75t8 80.5zM1159 1376q0 -6 -0.5 -13t-5.5 -15l-664 -1348q-12 -25 -27 -37t-28 -12h-41q-15 0 -24 4.5t-9 15.5q0 8 3 14t8 15l663 1348q11 21 25.5 34
t34.5 13h39q12 0 19 -6.5t7 -12.5zM1466 293q0 -61 -17 -122t-55.5 -110.5t-100.5 -80.5t-152 -31q-88 0 -149.5 30.5t-100.5 79.5t-56.5 110.5t-17.5 123.5t18.5 123t57.5 109t100.5 78t147.5 30q89 0 151 -30.5t100.5 -79t56 -109t17.5 -121.5zM1325 289q0 40 -8.5 82
t-29.5 76t-56.5 55.5t-89.5 21.5q-55 0 -90.5 -21.5t-56.5 -55.5t-29.5 -76t-8.5 -82t8.5 -81.5t30 -75t57 -54.5t89.5 -21q55 0 90.5 21.5t56.5 55t29 75t8 80.5zM2224 293q0 -61 -17 -122t-56 -110.5t-101 -80.5t-152 -31q-87 0 -148.5 30.5t-100.5 79.5t-56.5 110.5
t-17.5 123.5t18.5 123t57.5 109t100 78t147 30q89 0 151 -30.5t101 -79t56.5 -109t17.5 -121.5zM2083 289q0 40 -8.5 82t-29.5 76t-56.5 55.5t-90.5 21.5q-54 0 -89.5 -21.5t-56.5 -55.5t-29.5 -76t-8.5 -82t8.5 -81.5t29.5 -75t56.5 -54.5t89.5 -21q55 0 91 21.5t57 55
t29 75t8 80.5z" />
    <glyph glyph-name="Scaron" unicode="&#x160;" horiz-adv-x="920" 
d="M866 365q0 -97 -30.5 -171t-84.5 -123.5t-128.5 -74.5t-163.5 -25q-59 0 -112.5 10.5t-101.5 27.5t-90 39t-79 46q-8 5 -13.5 11t-5.5 14q0 11 6 20l41 70q10 15 24.5 16.5t27.5 -6.5q14 -8 43 -26.5t68.5 -37t87 -32.5t98.5 -14q64 0 113 17.5t82 48.5t50 73.5t17 93.5
q0 60 -17.5 101.5t-50 72.5t-79 55t-103.5 50q-92 40 -164 77.5t-122 82.5t-76.5 103.5t-26.5 139.5q0 91 31.5 160t85.5 116t125.5 71t152.5 24q61 0 111 -8t92.5 -22t79 -32t69.5 -37q10 -5 14.5 -12.5t4.5 -13.5q0 -5 -1.5 -10.5t-4.5 -10.5l-37 -65q-8 -16 -23.5 -18.5
t-27.5 5.5q-35 21 -66.5 37t-64.5 27t-69 16.5t-79 5.5q-46 0 -90 -11.5t-78 -36.5t-55 -63t-21 -91q0 -56 18 -96.5t55 -72.5t94.5 -60.5t135.5 -61.5q76 -32 138.5 -65.5t106.5 -78t68.5 -106t24.5 -149.5zM741 1712q0 -6 -10 -19l-147 -186q-11 -14 -19.5 -22t-17 -11.5
t-18 -4.5t-21.5 -1h-84q-12 0 -21 1t-17.5 4.5t-17.5 11.5t-20 22l-147 186q-11 13 -11 19q0 14 19 14h51q25 0 38 -5t32 -22l143 -127l143 127q19 17 32 22t38 5h37q18 0 18 -14z" />
    <glyph glyph-name="guilsinglleft" unicode="&#x2039;" horiz-adv-x="590" 
d="M496 162q0 -6 -3.5 -12.5t-13.5 -12.5l-35 -24q-9 -7 -17 -9t-11 -2q-5 0 -14 7.5t-15 15.5l-276 342q-15 19 -15 31q0 13 17 32l276 342q8 11 15.5 16t13.5 5q3 0 10.5 -2.5t15.5 -7.5l33 -23q8 -6 13.5 -12t5.5 -12q0 -5 -4.5 -13.5t-10.5 -17.5l-217 -307l219 -312
q5 -8 9 -13.5t4 -10.5z" />
    <glyph glyph-name="OE" unicode="&#x152;" horiz-adv-x="1599" 
d="M1534 43q0 -43 -45 -43h-666q-48 -12 -107.5 -20.5t-121.5 -8.5q-107 0 -186 30t-135.5 82t-92 122t-56 149t-28.5 163t-8 165t8 166t28 164t56 149t92 122t134.5 82t185.5 30q66 0 120.5 -8.5t110.5 -20.5h643q20 0 32.5 -11.5t12.5 -31.5v-41q0 -43 -45 -43h-508v-461
h428q46 0 46 -43v-41q0 -20 -11.5 -31.5t-34.5 -11.5h-428v-516h531q45 0 45 -43v-49zM811 1229q-40 11 -95.5 19.5t-121.5 8.5q-78 0 -134 -28t-94 -75t-60.5 -107t-34.5 -124t-15.5 -126.5t-3.5 -114.5t3.5 -114.5t15 -126t34 -123.5t60.5 -106.5t94 -74.5t135 -28
q63 0 117.5 8.5t99.5 19.5v1092z" />
    <glyph glyph-name="quoteleft" unicode="&#x2018;" horiz-adv-x="436" 
d="M322 1063q0 -43 -28.5 -72.5t-72.5 -29.5q-46 0 -75 32.5t-29 89.5q0 42 12 81.5t31 76.5t43 71t49 66q5 6 10.5 11.5t11.5 5.5q4 0 10.5 -2t12.5 -7l27 -18q10 -8 10 -18q0 -5 -2.5 -9.5t-5.5 -9.5q-29 -37 -54.5 -80.5t-38.5 -87.5q44 -5 66.5 -33.5t22.5 -66.5z" />
    <glyph glyph-name="quoteright" unicode="&#x2019;" horiz-adv-x="436" 
d="M322 1272q0 -42 -12 -81.5t-31.5 -76.5t-43.5 -71.5t-49 -65.5q-5 -6 -10.5 -11t-11.5 -5q-3 0 -9.5 1.5t-13.5 6.5l-26 18q-7 5 -9 9.5t-2 9.5t3 9t6 9q29 37 54 81t38 87q-44 5 -66 33.5t-22 66.5q0 44 28.5 73.5t71.5 29.5q47 0 76 -33t29 -90z" />
    <glyph glyph-name="quotedblleft" unicode="&#x201c;" horiz-adv-x="764" 
d="M649 1063q0 -43 -28.5 -72.5t-71.5 -29.5q-47 0 -76 32.5t-29 89.5q0 42 12 81.5t31.5 76.5t43.5 71t49 66q5 6 10.5 11.5t11.5 5.5q3 0 9.5 -2t13.5 -7l26 -18q11 -8 11 -18q0 -5 -3 -9.5t-6 -9.5q-29 -37 -54 -80.5t-38 -87.5q43 -5 65.5 -33.5t22.5 -66.5zM322 1063
q0 -43 -28.5 -72.5t-72.5 -29.5q-46 0 -75 32.5t-29 89.5q0 42 12 81.5t31 76.5t43 71t49 66q5 6 10.5 11.5t11.5 5.5q4 0 10.5 -2t12.5 -7l27 -18q10 -8 10 -18q0 -5 -2.5 -9.5t-5.5 -9.5q-29 -37 -54.5 -80.5t-38.5 -87.5q44 -5 66.5 -33.5t22.5 -66.5z" />
    <glyph glyph-name="quotedblright" unicode="&#x201d;" horiz-adv-x="764" 
d="M649 1272q0 -42 -12 -81.5t-31 -76.5t-43 -71.5t-49 -65.5q-5 -6 -10.5 -11t-11.5 -5q-4 0 -10.5 1.5t-12.5 6.5l-27 18q-6 5 -8 9.5t-2 9.5t2.5 9t5.5 9q29 37 54.5 81t37.5 87q-43 5 -65.5 33.5t-22.5 66.5q0 44 28.5 73.5t72.5 29.5q46 0 75 -33t29 -90zM322 1272
q0 -42 -12 -81.5t-31.5 -76.5t-43.5 -71.5t-49 -65.5q-5 -6 -10.5 -11t-11.5 -5q-3 0 -9.5 1.5t-13.5 6.5l-26 18q-7 5 -9 9.5t-2 9.5t3 9t6 9q29 37 54 81t38 87q-44 5 -66 33.5t-22 66.5q0 44 28.5 73.5t71.5 29.5q47 0 76 -33t29 -90z" />
    <glyph glyph-name="bullet" unicode="&#x2022;" horiz-adv-x="760" 
d="M645 682q0 -54 -21 -101.5t-56.5 -83t-83 -56.5t-101.5 -21t-102.5 21t-85 56.5t-57.5 83t-21 101.5q0 55 20.5 103t56.5 84t84.5 56.5t104.5 20.5q53 0 100.5 -21t83.5 -57t57 -84t21 -102z" />
    <glyph glyph-name="endash" unicode="&#x2013;" horiz-adv-x="754" 
d="M774 489q0 -21 -11 -29.5t-28 -8.5h-715q-17 0 -27.5 8t-10.5 28v29q0 39 34 39h723q35 0 35 -39v-27v0z" />
    <glyph glyph-name="emdash" unicode="&#x2014;" horiz-adv-x="1522" 
d="M1542 489q0 -21 -11 -29.5t-28 -8.5h-1483q-17 0 -27.5 8t-10.5 28v29q0 39 34 39h1491q35 0 35 -39v-27v0z" />
    <glyph glyph-name="tilde" unicode="&#x2dc;" 
d="M631 1331q0 -5 -2.5 -21.5t-9 -38t-18 -46t-29 -44.5t-42.5 -33t-59 -13q-38 0 -76.5 14.5t-73.5 31.5t-65.5 31.5t-52.5 14.5q-18 0 -30.5 -6.5t-21 -17t-13.5 -25t-9 -29.5q-3 -12 -7 -18.5t-20 -6.5h-43q-20 0 -20 19q0 5 2.5 21.5t9 38t18 46t29.5 44.5t43 33t60 13
q37 0 75 -14.5t73.5 -31.5t66.5 -31.5t53 -14.5q19 0 32 8.5t21 21t12.5 26t6.5 22.5q3 14 8 19.5t16 5.5h47q19 0 19 -19z" />
    <glyph glyph-name="trademark" unicode="&#x2122;" horiz-adv-x="1374" 
d="M1257 713q0 -19 -8.5 -25t-25.5 -6h-41q-19 0 -26 7t-7 24v401l-152 -307q-6 -14 -14.5 -20.5t-24.5 -6.5h-38q-17 0 -26 7.5t-15 21.5l-150 301v-397q0 -17 -8 -24t-27 -7h-41q-18 0 -25 6t-7 25v622q0 17 8 24t26 7h39q16 0 24.5 -6t14.5 -19l207 -421l205 421
q6 13 14.5 19t24.5 6h39q18 0 26 -7t8 -24v-622zM547 1300q0 -17 -8 -23.5t-27 -6.5h-168v-557q0 -19 -9 -25t-26 -6h-45q-17 0 -26 6t-9 25v557h-168q-17 0 -25.5 6t-8.5 24v35q0 17 8.5 24t25.5 7h451q19 0 27 -7t8 -24v-35z" />
    <glyph glyph-name="scaron" unicode="&#x161;" horiz-adv-x="760" 
d="M711 272q0 -74 -24.5 -128.5t-68 -90t-103.5 -52.5t-130 -17q-47 0 -89.5 8t-80 20.5t-69.5 27.5t-58 30q-22 11 -22 30q0 14 8 25l28 51q8 16 23 19t29 -7q10 -7 32 -20t53 -26t67.5 -23t74.5 -10q94 0 141 40.5t47 106.5q0 39 -12 66t-35.5 47.5t-57.5 36.5t-79 34
q-73 29 -131 57t-98 61.5t-61 77t-21 103.5q0 64 23 115t63 86t95 53.5t120 18.5q44 0 84 -6.5t74.5 -16t62.5 -21t47 -20.5q9 -5 15 -14t6 -14q0 -4 -0.5 -9.5t-4.5 -11.5l-26 -57q-8 -16 -23.5 -16t-34.5 10q-38 18 -87.5 36.5t-114.5 18.5q-34 0 -63 -8t-50.5 -24.5
t-34 -41t-12.5 -57.5q0 -36 13 -61.5t41 -47t71.5 -41t103.5 -43.5q58 -23 107.5 -47.5t85.5 -57.5t56 -79t20 -111zM653 1352q0 -6 -10 -19l-147 -186q-11 -14 -19.5 -22t-17 -11.5t-18 -4.5t-21.5 -1h-84q-12 0 -21 1t-17.5 4.5t-17.5 11.5t-20 22l-147 186q-11 13 -11 19
q0 14 19 14h51q25 0 38 -5t32 -22l143 -127l143 127q19 17 32 22t38 5h37q18 0 18 -14z" />
    <glyph glyph-name="guilsinglright" unicode="&#x203a;" horiz-adv-x="590" 
d="M496 498q0 -12 -15 -31l-276 -342q-6 -8 -15 -15.5t-14 -7.5q-3 0 -11 2t-18 9l-34 24q-10 6 -13.5 12.5t-3.5 12.5q0 5 4 10.5t9 13.5l219 312l-217 307q-15 20 -15 31q0 6 5.5 12t13.5 12l32 23q8 5 16 7.5t11 2.5q6 0 13.5 -5t15.5 -16l276 -342q8 -9 12.5 -17.5
t4.5 -14.5z" />
    <glyph glyph-name="oe" unicode="&#x153;" horiz-adv-x="1540" 
d="M1466 539q0 -23 -10 -36.5t-39 -13.5h-555v-22q0 -52 11 -114.5t40 -116.5t79 -90.5t128 -36.5q39 0 74 7.5t64 19t50.5 23.5t34.5 21q16 10 32.5 10.5t25.5 -16.5l31 -55q3 -6 4.5 -13t1.5 -12q0 -13 -25 -28q-24 -16 -57 -31t-70.5 -26t-78.5 -18t-83 -7
q-125 0 -205.5 59t-125.5 170q-17 -51 -48 -93.5t-73 -72.5t-94.5 -46.5t-112.5 -16.5q-108 0 -183.5 45t-123.5 118t-70 165.5t-22 187.5q0 63 10 126t30.5 120t52.5 105.5t76.5 84t101.5 56t128 20.5q60 0 112.5 -16.5t94.5 -46.5t73 -72.5t48 -94.5q41 105 121.5 167.5
t197.5 62.5q105 0 173 -41t108.5 -107.5t56.5 -151.5t16 -173zM1323 606q-2 53 -12 104.5t-35 91.5t-66 64.5t-104 24.5q-62 0 -105.5 -25.5t-72 -66.5t-43.5 -91.5t-19 -101.5h457zM723 496q0 64 -11 132.5t-40 125.5t-79 94t-128 37q-77 0 -126.5 -37t-78.5 -94
t-40 -125.5t-11 -132.5q0 -63 11.5 -131t40.5 -124.5t78.5 -93t125.5 -36.5q78 0 128 37t79 93.5t40 124.5t11 130z" />
    <glyph glyph-name="Ydieresis" unicode="&#x178;" horiz-adv-x="942" 
d="M961 1346q0 -7 -3 -16t-8 -17l-399 -756v-512q0 -45 -43 -45h-62q-20 0 -31.5 11t-11.5 34v510l-409 758q-10 17 -10 28q0 10 7.5 17.5t24.5 7.5h82q13 0 21.5 -1.5t14.5 -5.5t11 -11t11 -19l325 -618l322 618q10 22 20.5 29.5t36.5 7.5h66q14 0 24.5 -4.5t10.5 -15.5z
M690 1564q0 -34 -24 -58t-58 -24t-58 24t-24 58t24 58t58 24t58 -24t24 -58zM405 1564q0 -34 -23.5 -58t-57.5 -24q-35 0 -58.5 24t-23.5 58t23.5 58t58.5 24q34 0 57.5 -24t23.5 -58z" />
    <glyph glyph-name="uni00A0" unicode="&#xa0;" horiz-adv-x="451" 
 />
    <glyph glyph-name="exclamdown" unicode="&#xa1;" horiz-adv-x="477" 
d="M342 909q0 -43 -29.5 -72.5t-72.5 -29.5q-44 0 -73.5 29.5t-29.5 72.5q0 44 29.5 73.5t73.5 29.5q43 0 72.5 -29.5t29.5 -73.5zM330 -326q2 -29 -12.5 -38t-34.5 -9h-84q-22 0 -36.5 9.5t-12.5 35.5l30 899q2 25 13.5 34t29.5 9h33q19 0 30 -9t13 -34z" />
    <glyph glyph-name="cent" unicode="&#xa2;" horiz-adv-x="829" 
d="M797 102q0 -14 -23 -28q-48 -31 -111 -54.5t-141 -31.5v-193q0 -45 -43 -45h-20q-43 0 -43 45v191q-71 7 -135.5 39.5t-113 95t-77.5 158.5t-29 231q0 99 23.5 185t68.5 152t111 108t152 53v135q0 45 43 45h20q43 0 43 -45v-135q74 -7 126.5 -30t96.5 -48q10 -5 13.5 -12
t3.5 -13q0 -5 -0.5 -12.5t-5.5 -15.5l-29 -52q-8 -12 -22.5 -15t-28.5 5q-12 6 -27 15t-34.5 19t-42.5 18.5t-50 13.5v-766q62 9 106.5 31t76.5 42q17 10 31 8t20 -12l30 -51q5 -6 8 -15t3 -16zM205 496q0 -59 9.5 -121t33.5 -116t65 -93t103 -51v764q-65 -14 -106.5 -55.5
t-64.5 -97t-31.5 -116.5t-8.5 -114z" />
    <glyph glyph-name="sterling" unicode="&#xa3;" horiz-adv-x="993" 
d="M940 41q0 -41 -47 -41h-793q-45 0 -45 43v51q0 22 10.5 32.5t36.5 10.5h121q14 28 26 61t21 67t14 68t5 66q0 68 -10 124.5t-25 113.5h-148q-23 0 -34 11t-11 30v45q0 19 11 30t34 11h119q-18 72 -25 131.5t-7 110.5q0 83 24.5 154t74 123.5t125 82t177.5 29.5
q45 0 89 -7t83 -18t72 -24.5t55 -26.5q12 -8 19.5 -14.5t7.5 -14.5q0 -3 -1 -10.5t-6 -15.5l-30 -62q-8 -15 -21 -17t-33 7q-57 26 -117 48t-128 22q-62 0 -107 -20t-74 -54t-43 -79.5t-14 -96.5q0 -22 1 -45t4.5 -52t9.5 -66t16 -85h258q26 0 35.5 -12.5t9.5 -30.5v-43
q0 -19 -10 -30t-35 -11h-229q10 -41 16 -73t9.5 -59.5t5 -52.5t1.5 -51q0 -30 -5 -64t-14.5 -69t-23 -69t-30.5 -62h528q47 0 47 -41v-55v0z" />
    <glyph glyph-name="currency" unicode="&#xa4;" horiz-adv-x="1044" 
d="M866 680q0 -51 -15.5 -98t-47.5 -95l131 -135q18 -18 18 -30q0 -11 -12 -23l-35 -35q-12 -12 -22 -12q-7 0 -13.5 3.5t-17.5 12.5l-137 133q-50 -34 -96.5 -45.5t-96.5 -11.5q-48 0 -95.5 13.5t-92.5 45.5l-135 -131q-13 -12 -20 -17t-13 -5q-10 0 -25 14l-37 35
q-12 12 -12 20q0 13 21 33l135 140q-31 43 -46.5 91.5t-15.5 96.5q0 49 14 98t46 92l-135 138q-19 18 -19 30q0 9 14 23l35 35q7 6 13 10t12 4t12.5 -4t14.5 -12l137 -136q46 35 95 49.5t97 14.5q50 0 99 -13.5t96 -47.5l135 131q18 18 29 18q10 0 22 -12l35 -37
q14 -14 14 -25q0 -10 -14 -24l-133 -138q34 -46 47.5 -95.5t13.5 -98.5zM733 680q0 43 -15 82t-42.5 68.5t-66.5 47t-87 17.5q-45 0 -82.5 -17t-64.5 -46.5t-41.5 -68.5t-14.5 -83q0 -43 15.5 -81.5t43 -67t64.5 -45.5t80 -17q46 0 85 16.5t67 45t43.5 67t15.5 82.5z" />
    <glyph glyph-name="yen" unicode="&#xa5;" horiz-adv-x="1012" 
d="M995 1346q0 -16 -10 -33l-317 -602h184q26 0 35.5 -12.5t9.5 -30.5v-27q0 -19 -10 -30t-35 -11h-244l-22 -43v-92h266q26 0 35.5 -12.5t9.5 -30.5v-27q0 -18 -10 -29.5t-35 -11.5h-266v-309q0 -23 -11.5 -34t-31.5 -11h-62q-20 0 -31.5 11t-11.5 34v309h-268
q-23 0 -34 11.5t-11 29.5v29q0 19 11 30t34 11h268v90l-24 45h-244q-23 0 -34 11t-11 30v29q0 18 11 29.5t34 11.5h184l-325 602q-5 8 -8 15.5t-3 12.5q0 10 8 17.5t25 7.5h82q26 0 35.5 -7t21.5 -30l326 -618l322 618q10 22 20.5 29.5t36.5 7.5h66q14 0 24 -4.5t10 -15.5z
" />
    <glyph glyph-name="brokenbar" unicode="&#xa6;" horiz-adv-x="489" 
d="M313 698q0 -18 -6.5 -25t-27.5 -7h-66q-22 0 -28.5 7t-6.5 25v652q0 18 6.5 25t28.5 7h66q21 0 27.5 -7t6.5 -25v-652zM313 -330q0 -18 -6.5 -25t-27.5 -7h-66q-22 0 -28.5 7t-6.5 25v652q0 18 6.5 25t28.5 7h66q21 0 27.5 -7t6.5 -25v-652z" />
    <glyph glyph-name="section" unicode="&#xa7;" horiz-adv-x="889" 
d="M815 565q0 -50 -13.5 -96.5t-44 -90t-81 -84.5t-125.5 -81q66 -35 108.5 -69t67 -69t34 -72.5t9.5 -80.5q0 -65 -27.5 -119.5t-75.5 -93.5t-113 -60.5t-140 -21.5q-42 0 -86.5 9.5t-86 23t-77 29.5t-60.5 30q-28 17 -28 29q0 5 2.5 12.5t7.5 18.5l29 55q17 34 55 8
q26 -18 58 -34t66.5 -28t68.5 -19t65 -7q40 0 76 12t63.5 34.5t43.5 53t16 68.5q0 39 -13 68t-43 56t-80.5 56t-125.5 68q-73 37 -127.5 73t-90.5 75t-53.5 83t-17.5 97q0 54 14.5 101.5t46 90.5t81 82.5t120.5 77.5q-59 31 -99 61.5t-64.5 63t-35 68.5t-10.5 77
q0 61 23.5 112t67 87t104 56t135.5 20q96 0 164 -23t108 -49q8 -5 15.5 -11t7.5 -16q0 -5 -5 -13.5t-8 -14.5l-26 -47q-14 -25 -25.5 -28t-34.5 11q-20 12 -44.5 23.5t-50.5 20.5t-52 14.5t-49 5.5q-39 0 -73.5 -10.5t-59.5 -30t-39.5 -46.5t-14.5 -61q0 -35 12 -59.5
t40.5 -48.5t77 -51t122.5 -66q45 -24 77.5 -42.5t57 -35t43 -31.5t35.5 -32q37 -37 57.5 -86t20.5 -103zM672 543q0 37 -11 67t-37.5 58t-70.5 55.5t-109 60.5q-106 -58 -165.5 -121.5t-59.5 -138.5q0 -43 11.5 -72t37.5 -54t69.5 -52t108.5 -65q46 24 87 53.5t72 63t49 70
t18 75.5z" />
    <glyph glyph-name="dieresis" unicode="&#xa8;" 
d="M559 1237q0 -34 -24 -58t-58 -24t-58 24t-24 58t24 58t58 24t58 -24t24 -58zM274 1237q0 -34 -23.5 -58t-57.5 -24q-35 0 -58.5 24t-23.5 58t23.5 58t58.5 24q34 0 57.5 -24t23.5 -58z" />
    <glyph glyph-name="copyright" unicode="&#xa9;" horiz-adv-x="1614" 
d="M1520 682q0 -98 -25.5 -189t-71.5 -170t-111 -144t-144 -111t-170 -71.5t-189 -25.5t-189 25.5t-170.5 71.5t-144.5 111t-111.5 144t-72 170t-25.5 189t25.5 189t72 170.5t111.5 144.5t144.5 111.5t170.5 72t189 25.5t189 -25.5t170 -72t144 -111.5t111 -144.5
t71.5 -170.5t25.5 -189zM1405 684q0 83 -21.5 160.5t-60.5 145t-93.5 123t-121.5 95.5t-143.5 62t-159.5 22t-160 -22t-144 -62t-121.5 -95.5t-94 -123t-61 -145t-21.5 -160.5q0 -125 47.5 -235.5t129 -194t191 -132t234.5 -48.5q83 0 159.5 22t143.5 62t121.5 96.5
t93.5 124t60.5 145t21.5 160.5zM1092 356q0 -9 -7 -16.5t-16 -13.5q-40 -25 -107 -46.5t-151 -21.5q-69 0 -131.5 23.5t-109.5 75.5t-75 135.5t-28 203.5q0 88 21.5 164.5t65 132t109.5 87.5t156 32q44 0 80.5 -6t65 -15t49.5 -19t33 -17q18 -12 18 -29q0 -11 -6 -20
l-25 -37q-9 -13 -24 -16t-27 5q-28 16 -71 34t-99 18q-45 0 -79 -15t-58 -40.5t-39 -59t-23.5 -69.5t-12 -73t-3.5 -69q0 -52 10 -109t34.5 -104t66.5 -78t106 -31q59 0 104 16t89 42q17 11 31 9.5t26 -21.5l20 -33q7 -8 7 -19z" />
    <glyph glyph-name="ordfeminine" unicode="&#xaa;" horiz-adv-x="688" 
d="M584 772q0 -18 -8 -26.5t-29 -8.5h-41q-20 0 -29.5 7.5t-9.5 29.5v31q-38 -31 -92 -54.5t-117 -23.5q-42 0 -78 13.5t-62 38t-40.5 59t-14.5 75.5q0 74 37.5 119t94.5 70t124 33t127 8h15v57q0 14 -2 30t-12.5 30t-34 23t-66.5 9q-45 0 -89.5 -13t-76.5 -30
q-41 -22 -55 6l-16 33q-9 14 -9 25q0 9 8 15t17 11q13 7 35 16.5t51.5 18.5t64.5 15t74 6q51 0 94 -10t74 -31.5t48.5 -56.5t17.5 -85v-440zM461 1053q-45 -1 -93.5 -6t-88.5 -20t-65.5 -41.5t-25.5 -70.5q0 -10 2.5 -25.5t12.5 -30.5t28 -25.5t50 -10.5q20 0 42 6.5t43 17
t40 23.5t32 25q13 11 18 22t5 31v105z" />
    <glyph glyph-name="guillemotleft" unicode="&#xab;" horiz-adv-x="944" 
d="M850 162q0 -14 -16 -25l-35 -24q-10 -7 -18 -9t-11 -2q-5 0 -13.5 7.5t-15.5 15.5l-276 342q-14 20 -14 31q0 13 16 32l276 342q15 21 29 21q3 0 11 -2.5t16 -7.5l32 -23q8 -6 13.5 -12t5.5 -12q0 -5 -4 -13.5t-10 -17.5l-218 -307l220 -312q5 -8 8.5 -13.5t3.5 -10.5z
M496 162q0 -6 -3.5 -12.5t-13.5 -12.5l-35 -24q-9 -7 -17 -9t-11 -2q-5 0 -14 7.5t-15 15.5l-276 342q-15 19 -15 31q0 13 17 32l276 342q8 11 15.5 16t13.5 5q3 0 10.5 -2.5t15.5 -7.5l33 -23q8 -6 13.5 -12t5.5 -12q0 -5 -4.5 -13.5t-10.5 -17.5l-217 -307l219 -312
q5 -8 9 -13.5t4 -10.5z" />
    <glyph glyph-name="logicalnot" unicode="&#xac;" horiz-adv-x="1049" 
d="M958 502q0 -26 -9.5 -34.5t-30.5 -8.5h-41q-23 0 -33 8t-10 33v282h-701q-25 0 -33 10t-8 31v43q0 22 8 31.5t33 9.5h785q24 0 32 -9.5t8 -31.5v-364v0z" />
    <glyph glyph-name="minus" unicode="&#x2212;" horiz-adv-x="1049" 
d="M958 662q0 -22 -7.5 -31.5t-30.5 -9.5h-787q-25 0 -33 9.5t-8 31.5v43q0 21 8 30.5t33 9.5h785q24 0 32 -9.5t8 -30.5v-43v0z" />
    <glyph glyph-name="registered" unicode="&#xae;" horiz-adv-x="1614" 
d="M1120 299q0 -14 -11.5 -19.5t-21.5 -5.5h-53q-20 0 -32.5 7t-24.5 28l-186 318h-136v-314q0 -18 -12 -28.5t-29 -10.5h-39q-17 0 -28.5 10.5t-11.5 28.5v744q0 17 11 28t29 11h191q67 0 127 -10.5t104.5 -37t70.5 -72.5t26 -118q0 -47 -14.5 -83t-39.5 -62t-58.5 -43.5
t-70.5 -26.5l197 -319q5 -10 8.5 -16t3.5 -9zM967 852q0 48 -13.5 76.5t-40.5 43.5t-69 20t-99 5h-90v-274h101q55 0 95 6t65.5 20.5t38 39.5t12.5 63zM1520 682q0 -98 -25.5 -189t-71.5 -170t-111 -144t-144 -111t-170 -71.5t-189 -25.5t-189 25.5t-170.5 71.5t-144.5 111
t-111.5 144t-72 170t-25.5 189t25.5 189t72 170.5t111.5 144.5t144.5 111.5t170.5 72t189 25.5t189 -25.5t170 -72t144 -111.5t111 -144.5t71.5 -170.5t25.5 -189zM1405 684q0 83 -21.5 160.5t-60.5 145t-93.5 123t-121.5 95.5t-143.5 62t-159.5 22t-160 -22t-144 -62
t-121.5 -95.5t-94 -123t-61 -145t-21.5 -160.5q0 -125 47.5 -235.5t129 -194t191 -132t234.5 -48.5q83 0 159.5 22t143.5 62t121.5 96.5t93.5 124t60.5 145t21.5 160.5z" />
    <glyph glyph-name="macron" unicode="&#xaf;" 
d="M631 1214q0 -32 -35 -32h-522q-35 0 -35 32v46q0 32 35 32h522q35 0 35 -32v-46v0z" />
    <glyph glyph-name="degree" unicode="&#xb0;" horiz-adv-x="684" 
d="M590 1149q0 -51 -19 -96.5t-52.5 -79t-78.5 -53t-96 -19.5t-96.5 19.5t-79 53t-53 79t-19.5 96.5t19.5 96t53 78.5t79 52.5t96.5 19t96 -19t78.5 -52.5t52.5 -78.5t19 -96zM500 1149q0 32 -12.5 60.5t-33.5 49.5t-49.5 33.5t-60.5 12.5t-61 -12.5t-50.5 -33.5t-34 -49.5
t-12.5 -60.5t12.5 -61t34 -50.5t50.5 -34t61 -12.5t60.5 12.5t49.5 34t33.5 50.5t12.5 61z" />
    <glyph glyph-name="plusminus" unicode="&#xb1;" horiz-adv-x="1049" 
d="M958 762q0 -22 -7.5 -31.5t-30.5 -9.5h-332v-330q0 -25 -10 -33t-31 -8h-43q-22 0 -31.5 8t-9.5 31v332h-330q-25 0 -33 9.5t-8 31.5v43q0 22 8 31.5t33 9.5h330v330q0 24 9.5 32.5t31.5 8.5h43q21 0 31 -8.5t10 -32.5v-330h330q24 0 32 -9.5t8 -31.5v-43zM958 147
q0 -21 -7.5 -31t-30.5 -10h-787q-25 0 -33 10t-8 31v43q0 22 8 31.5t33 9.5h785q24 0 32 -9.5t8 -31.5v-43z" />
    <glyph glyph-name="twosuperior" unicode="&#xb2;" horiz-adv-x="717" 
d="M641 686q0 -17 -8.5 -25t-28.5 -8h-500q-18 0 -26 6t-8 25v43q0 11 5.5 18.5t16.5 16.5q17 14 41.5 34t52 42.5t56 46.5t54 46t46.5 40t33 30q32 30 52.5 53.5t32 44t15.5 38.5t4 37q0 55 -33.5 84.5t-99.5 29.5q-32 0 -62 -6.5t-55.5 -14.5t-44.5 -17t-28 -13
q-28 -14 -40 -12.5t-20 16.5l-16 35q-3 6 -5.5 12t-2.5 12q0 8 4.5 16.5t21.5 16.5q17 9 42.5 19.5t58.5 20t72 16t83 6.5q65 0 115.5 -17t84.5 -46t51.5 -68.5t17.5 -85.5q0 -45 -17 -83.5t-43 -72.5t-58 -64t-63 -57q-15 -14 -38 -31t-48 -35t-50 -36.5t-44 -34.5h340
q20 0 29.5 -7t9.5 -26v-45v0z" />
    <glyph glyph-name="threesuperior" unicode="&#xb3;" horiz-adv-x="717" 
d="M625 860q0 -52 -20 -95.5t-57 -74.5t-90 -48t-118 -17q-72 0 -133 15t-109 40q-8 5 -16 12.5t-8 20.5q0 6 3.5 12t6.5 12l16 29q11 19 22.5 22t37.5 -10q22 -10 43 -18t43 -14t46.5 -9.5t53.5 -3.5q69 0 103 36t34 87q0 30 -11.5 52.5t-32 38t-48 23t-59.5 7.5h-51
q-20 0 -32.5 7t-12.5 30v33q0 17 10 25.5t33 8.5h55q62 0 99.5 30t37.5 77q0 48 -34 73t-105 25q-50 0 -89 -11t-81 -30q-22 -11 -33.5 -10.5t-24.5 20.5l-20 35q-5 6 -5.5 14t-0.5 13q0 9 9.5 16.5t18.5 12.5q9 4 29.5 12.5t51.5 16.5t70.5 14t84.5 6q127 0 197.5 -51.5
t70.5 -145.5q0 -24 -7 -48.5t-22 -46.5t-38.5 -40t-57.5 -29q39 -11 65.5 -30.5t43 -43.5t24 -50t7.5 -50z" />
    <glyph glyph-name="acute" unicode="&#xb4;" 
d="M598 1354q0 -8 -3.5 -14t-14.5 -15l-222 -190q-18 -17 -31 -22t-38 -5h-58q-18 0 -18 14q0 6 10 19l148 186q10 14 19 22t18.5 11.5t20.5 4.5t26 1h118q25 0 25 -12z" />
    <glyph glyph-name="mu" unicode="&#xb5;" horiz-adv-x="993" 
d="M862 47q0 -26 -11 -36.5t-34 -10.5h-37q-29 0 -39 11.5t-10 33.5v131q-69 -96 -147.5 -144t-149.5 -48q-54 0 -92.5 12t-69.5 37v-361q0 -23 -10 -34t-39 -11h-43q-47 0 -47 47v1276q0 25 12.5 35t32.5 10h51q23 0 33 -12t10 -35v-715q0 -25 14.5 -45t37 -33.5t49 -20.5
t51.5 -7q65 0 132.5 38.5t123.5 106.5q14 17 22.5 31.5t13 30.5t6 36t1.5 48v528q0 23 9.5 36t41.5 13h39q29 0 39 -12.5t10 -34.5v-901v0z" />
    <glyph glyph-name="paragraph" unicode="&#xb6;" horiz-adv-x="1163" 
d="M1130 1290q0 -18 -8.5 -28.5t-29.5 -10.5h-125v-1585q0 -18 -10.5 -28.5t-28.5 -10.5h-45q-19 0 -29 10.5t-10 28.5v1585h-133v-1585q0 -18 -10.5 -28.5t-28.5 -10.5h-45q-19 0 -29 10.5t-10 28.5v838q-30 -5 -52 -7.5t-40 -4.5t-33 -2.5t-31 -0.5q-87 0 -157 32.5
t-119 90t-75 138t-26 176.5q0 101 32.5 182.5t97 138.5t160.5 88t222 31h525q21 0 29.5 -10t8.5 -29v-37v0z" />
    <glyph glyph-name="periodcentered" unicode="&#xb7;" horiz-adv-x="436" 
d="M322 684q0 -21 -8 -40t-22 -32.5t-33 -21.5t-40 -8q-43 0 -72.5 29.5t-29.5 72.5t29.5 72.5t72.5 29.5q21 0 40 -8t33 -21.5t22 -32.5t8 -40z" />
    <glyph glyph-name="cedilla" unicode="&#xb8;" 
d="M518 -225q0 -71 -59 -109.5t-156 -38.5q-42 0 -73.5 2.5t-65.5 12.5q-17 5 -27 10t-10 16q0 3 1 7.5t3 9.5l12 32q7 16 14 18.5t27 -5.5q22 -8 50 -13.5t51 -5.5q24 0 44.5 3.5t36 11t24.5 19.5t9 30q0 34 -26.5 48.5t-75.5 14.5q-14 0 -25.5 -1.5t-25.5 -4.5
q-22 -5 -34.5 0.5t-12.5 24.5q0 11 6 26l41 131h100l-27 -102q17 2 24 2h15q28 0 57 -6.5t51.5 -22.5t37 -43t14.5 -67z" />
    <glyph glyph-name="onesuperior" unicode="&#xb9;" horiz-adv-x="684" 
d="M436 680q0 -17 -8.5 -24t-28.5 -7h-61q-20 0 -28.5 7t-8.5 24v582l-135 -45q-19 -7 -28.5 -4t-14.5 16l-12 37q-7 14 -7 22q0 14 9 20.5t26 12.5l185 63q18 7 29 9t22 2h26q20 0 27.5 -7.5t7.5 -25.5v-682v0z" />
    <glyph glyph-name="ordmasculine" unicode="&#xba;" horiz-adv-x="709" 
d="M647 1063q0 -59 -15.5 -118.5t-50 -108t-90.5 -79t-137 -30.5q-79 0 -134.5 29.5t-90 77.5t-50.5 108t-16 121t16 120.5t51 106.5t90.5 76t133.5 29q81 0 136.5 -30t90.5 -77.5t50.5 -107t15.5 -117.5zM522 1061q0 40 -7.5 81t-26.5 74.5t-51.5 54.5t-82.5 21
q-49 0 -81 -21t-51 -54.5t-26.5 -74.5t-7.5 -81t8 -81.5t27 -75t51 -54.5t80 -21q50 0 82.5 21.5t51.5 55t26.5 75t7.5 80.5z" />
    <glyph glyph-name="guillemotright" unicode="&#xbb;" horiz-adv-x="944" 
d="M850 498q0 -11 -14 -31l-277 -342q-6 -8 -15 -15.5t-14 -7.5q-3 0 -11 2t-17 9l-35 24q-16 11 -16 25q0 5 3.5 10.5t8.5 13.5l219 312l-217 307q-6 9 -10 17.5t-4 13.5q0 6 5 12t13 12l33 23q8 5 15.5 7.5t10.5 2.5q15 0 29 -21l277 -342q16 -19 16 -32zM496 498
q0 -12 -15 -31l-276 -342q-6 -8 -15 -15.5t-14 -7.5q-3 0 -11 2t-18 9l-34 24q-10 6 -13.5 12.5t-3.5 12.5q0 5 4 10.5t9 13.5l219 312l-217 307q-15 20 -15 31q0 6 5.5 12t13.5 12l32 23q8 5 16 7.5t11 2.5q6 0 13.5 -5t15.5 -16l276 -342q8 -9 12.5 -17.5t4.5 -14.5z" />
    <glyph glyph-name="onequarter" unicode="&#xbc;" horiz-adv-x="1561" 
d="M436 680q0 -17 -8.5 -24t-28.5 -7h-61q-20 0 -28.5 7t-8.5 24v582l-135 -45q-19 -7 -28.5 -4t-14.5 16l-12 37q-7 14 -7 22q0 14 9 20.5t26 12.5l185 63q18 7 29 9t22 2h26q20 0 27.5 -7.5t7.5 -25.5v-682zM1151 1376q0 -6 -0.5 -12.5t-5.5 -15.5l-664 -1348
q-12 -25 -27.5 -37t-27.5 -12h-41q-15 0 -24 4.5t-9 15.5q0 8 2.5 14t7.5 15l664 1348q11 21 25 34t34 13h39q13 0 20 -6.5t7 -12.5zM1487 190q0 -17 -8.5 -24.5t-28.5 -7.5h-70v-154q0 -20 -8 -26.5t-26 -6.5h-60q-18 0 -26.5 6.5t-8.5 26.5v154h-368q-35 0 -35 35v34
q0 13 4.5 22t15.5 23l355 414q12 14 23 22.5t34 8.5h66q20 0 27 -8t7 -25v-426h70q20 0 28.5 -7t8.5 -24v-37zM1251 553l-256 -295h256v295z" />
    <glyph glyph-name="onehalf" unicode="&#xbd;" horiz-adv-x="1561" 
d="M1499 33q0 -17 -8.5 -25t-28.5 -8h-499q-19 0 -27 6t-8 25v43q0 11 5.5 18t16.5 17q17 14 41.5 34t52 42.5t56 46.5t54 46t46.5 40t33 30q32 30 52.5 53.5t32 44t15.5 38.5t4 36q0 56 -33.5 85.5t-99.5 29.5q-32 0 -62 -6.5t-55.5 -14.5t-44.5 -17t-28 -13
q-28 -14 -40 -13t-20 17l-16 35q-3 6 -5.5 12t-2.5 12q0 8 4.5 16.5t21.5 16.5t42.5 18.5t58.5 20t72 16t83 6.5q65 0 115.5 -16.5t84.5 -46t51.5 -69t17.5 -85.5q0 -44 -17 -83t-43 -73t-58 -63.5t-63 -56.5q-15 -14 -38 -31t-48 -35t-50 -36.5t-44 -34.5h340
q20 0 29.5 -7.5t9.5 -25.5v-45zM1110 1376q0 -6 -0.5 -12.5t-5.5 -15.5l-664 -1348q-12 -25 -27.5 -37t-27.5 -12h-41q-15 0 -24 4.5t-9 15.5q0 8 3 14t8 15l663 1348q11 21 25 34t34 13h39q13 0 20 -6.5t7 -12.5zM436 680q0 -17 -8.5 -24t-28.5 -7h-61q-20 0 -28.5 7
t-8.5 24v582l-135 -45q-19 -7 -28.5 -4t-14.5 16l-12 37q-7 14 -7 22q0 14 9 20.5t26 12.5l185 63q18 7 29 9t22 2h26q20 0 27.5 -7.5t7.5 -25.5v-682z" />
    <glyph glyph-name="threequarters" unicode="&#xbe;" horiz-adv-x="1561" 
d="M625 860q0 -52 -20 -95.5t-57 -74.5t-90 -48t-118 -17q-72 0 -133 15t-109 40q-8 5 -16 12.5t-8 20.5q0 6 3.5 12t6.5 12l16 29q11 19 22.5 22t37.5 -10q22 -10 43 -18t43 -14t46.5 -9.5t53.5 -3.5q69 0 103 36t34 87q0 30 -11.5 52.5t-32 38t-48 23t-59.5 7.5h-51
q-20 0 -32.5 7t-12.5 30v33q0 17 10 25.5t33 8.5h55q62 0 99.5 30t37.5 77q0 48 -34 73t-105 25q-50 0 -89 -11t-81 -30q-22 -11 -33.5 -10.5t-24.5 20.5l-20 35q-5 6 -5.5 14t-0.5 13q0 9 9.5 16.5t18.5 12.5q9 4 29.5 12.5t51.5 16.5t70.5 14t84.5 6q127 0 197.5 -51.5
t70.5 -145.5q0 -24 -7 -48.5t-22 -46.5t-38.5 -40t-57.5 -29q39 -11 65.5 -30.5t43 -43.5t24 -50t7.5 -50zM1212 1376q0 -6 -0.5 -12.5t-5.5 -15.5l-663 -1348q-13 -25 -28 -37t-28 -12h-41q-32 0 -32 20q0 8 2.5 14t7.5 15l663 1348q11 21 25.5 34t34.5 13h39q12 0 19 -6.5
t7 -12.5zM1487 190q0 -17 -8.5 -24.5t-28.5 -7.5h-70v-154q0 -20 -8 -26.5t-26 -6.5h-60q-18 0 -26.5 6.5t-8.5 26.5v154h-368q-35 0 -35 35v34q0 13 4.5 22t15.5 23l355 414q12 14 23 22.5t34 8.5h66q20 0 27 -8t7 -25v-426h70q20 0 28.5 -7t8.5 -24v-37zM1251 553
l-256 -295h256v295z" />
    <glyph glyph-name="questiondown" unicode="&#xbf;" horiz-adv-x="809" 
d="M565 909q0 -43 -29.5 -72.5t-72.5 -29.5q-21 0 -40 8t-33 21.5t-22 32.5t-8 40q0 22 8 40.5t22 32.5t33 22t40 8q43 0 72.5 -29.5t29.5 -73.5zM797 -244q0 -9 -8.5 -16.5t-22.5 -15.5q-28 -15 -62.5 -32t-77.5 -31.5t-94 -24t-112 -9.5q-83 0 -145.5 23.5t-104.5 63.5
t-63 93.5t-21 112.5q0 53 13.5 97t37 82.5t55 74t68.5 70.5q40 38 68.5 65t46.5 56t26.5 66.5t8.5 96.5v29q0 34 11.5 45.5t33.5 11.5h34q17 0 30 -11t13 -48v-94q0 -54 -13.5 -95t-37.5 -75.5t-56.5 -66.5t-70.5 -68q-27 -26 -49.5 -50t-39.5 -51t-26.5 -58.5t-9.5 -70.5
q0 -35 10 -66t33 -54.5t62 -37.5t98 -14q34 0 70 7.5t71 20t67.5 28t59.5 30.5q23 14 37 13t25 -21l26 -49q5 -8 7 -15t2 -12z" />
    <glyph glyph-name="Agrave" unicode="&#xc0;" horiz-adv-x="1120" 
d="M1104 31q0 -17 -9.5 -24t-25.5 -7h-72q-20 0 -29.5 7.5t-17.5 29.5l-106 315h-570l-108 -311q-8 -23 -18.5 -32t-30.5 -9h-64q-17 0 -26 8t-9 21q0 11 7 28l452 1282q8 23 20 32t33 9h66q22 0 33.5 -9t19.5 -32l449 -1280q6 -15 6 -28zM561 1190l-244 -711h484zM682 1482
q0 -14 -19 -14h-57q-25 0 -38 5t-32 22l-221 190q-11 9 -14.5 15t-3.5 14q0 6 6.5 9t17.5 3h119q15 0 25.5 -1t20 -4.5t18.5 -11.5t20 -22l147 -186q11 -13 11 -19z" />
    <glyph glyph-name="Aacute" unicode="&#xc1;" horiz-adv-x="1120" 
d="M1104 31q0 -17 -9.5 -24t-25.5 -7h-72q-20 0 -29.5 7.5t-17.5 29.5l-106 315h-570l-108 -311q-8 -23 -18.5 -32t-30.5 -9h-64q-17 0 -26 8t-9 21q0 11 7 28l452 1282q8 23 20 32t33 9h66q22 0 33.5 -9t19.5 -32l449 -1280q6 -15 6 -28zM561 1190l-244 -711h484zM805 1714
q0 -8 -3.5 -14t-14.5 -15l-222 -190q-18 -17 -31 -22t-38 -5h-58q-18 0 -18 14q0 6 10 19l148 186q10 14 19 22t18.5 11.5t20.5 4.5t26 1h118q25 0 25 -12z" />
    <glyph glyph-name="Acircumflex" unicode="&#xc2;" horiz-adv-x="1120" 
d="M1104 31q0 -17 -9.5 -24t-25.5 -7h-72q-20 0 -29.5 7.5t-17.5 29.5l-106 315h-570l-108 -311q-8 -23 -18.5 -32t-30.5 -9h-64q-17 0 -26 8t-9 21q0 11 7 28l452 1282q8 23 20 32t33 9h66q22 0 33.5 -9t19.5 -32l449 -1280q6 -15 6 -28zM561 1190l-244 -711h484zM838 1482
q0 -14 -18 -14h-51q-25 0 -38 5t-32 22l-143 127l-144 -127q-18 -17 -31.5 -22t-37.5 -5h-37q-19 0 -19 14q0 6 11 19l147 186q11 14 19.5 22t17 11.5t18 4.5t21.5 1h84q12 0 21 -1t17.5 -4.5t17.5 -11.5t20 -22l147 -186q10 -13 10 -19z" />
    <glyph glyph-name="Atilde" unicode="&#xc3;" horiz-adv-x="1120" 
d="M1104 31q0 -17 -9.5 -24t-25.5 -7h-72q-20 0 -29.5 7.5t-17.5 29.5l-106 315h-570l-108 -311q-8 -23 -18.5 -32t-30.5 -9h-64q-17 0 -26 8t-9 21q0 11 7 28l452 1282q8 23 20 32t33 9h66q22 0 33.5 -9t19.5 -32l449 -1280q6 -15 6 -28zM561 1190l-244 -711h484zM856 1675
q0 -5 -2.5 -21.5t-9 -38t-18 -46t-29 -44.5t-42.5 -33t-59 -13q-38 0 -76.5 14.5t-73.5 31.5t-65.5 31.5t-52.5 14.5q-18 0 -30.5 -6.5t-21 -17t-13.5 -25t-9 -29.5q-3 -12 -7 -18.5t-20 -6.5h-43q-20 0 -20 19q0 5 2.5 21.5t9 38t18 46t29.5 44.5t43 33t60 13
q37 0 75 -14.5t73.5 -31.5t66.5 -31.5t53 -14.5q19 0 32 8.5t21 21t12.5 26t6.5 22.5q3 14 8 19.5t16 5.5h47q19 0 19 -19z" />
    <glyph glyph-name="Adieresis" unicode="&#xc4;" horiz-adv-x="1120" 
d="M1104 31q0 -17 -9.5 -24t-25.5 -7h-72q-20 0 -29.5 7.5t-17.5 29.5l-106 315h-570l-108 -311q-8 -23 -18.5 -32t-30.5 -9h-64q-17 0 -26 8t-9 21q0 11 7 28l452 1282q8 23 20 32t33 9h66q22 0 33.5 -9t19.5 -32l449 -1280q6 -15 6 -28zM561 1190l-244 -711h484zM780 1564
q0 -34 -24 -58t-58 -24t-58 24t-24 58t24 58t58 24t58 -24t24 -58zM495 1564q0 -34 -23.5 -58t-57.5 -24q-35 0 -58.5 24t-23.5 58t23.5 58t58.5 24q34 0 57.5 -24t23.5 -58z" />
    <glyph glyph-name="Aring" unicode="&#xc5;" horiz-adv-x="1120" 
d="M1104 31q0 -17 -9.5 -24t-25.5 -7h-72q-20 0 -29.5 7.5t-17.5 29.5l-106 315h-570l-108 -311q-8 -23 -18.5 -32t-30.5 -9h-64q-17 0 -26 8t-9 21q0 11 7 28l452 1282q8 23 20 32t33 9h66q22 0 33.5 -9t19.5 -32l449 -1280q6 -15 6 -28zM561 1190l-244 -711h484zM709 1620
q0 -32 -12 -59.5t-32 -48t-47 -32.5t-58 -12q-32 0 -59.5 12t-48 32.5t-32.5 48t-12 59.5q0 30 12 57.5t32.5 47.5t48 32t59.5 12q31 0 58 -12t47 -32t32 -47.5t12 -57.5zM640 1620q0 34 -23 58.5t-57 24.5t-58 -24.5t-24 -58.5q0 -35 24 -60.5t58 -25.5t57 25.5t23 60.5z
" />
    <glyph glyph-name="AE" unicode="&#xc6;" horiz-adv-x="1509" 
d="M1444 43q0 -43 -45 -43h-635q-43 0 -43 45v307h-395l-144 -309q-11 -22 -20 -32.5t-29 -10.5h-74q-17 0 -26.5 7t-9.5 20q0 6 1.5 14t6.5 16l592 1270q11 22 22 30.5t33 8.5h698q20 0 32.5 -11.5t12.5 -31.5v-41q0 -43 -45 -43h-508v-461h428q45 0 45 -43v-41
q0 -20 -11 -31.5t-34 -11.5h-428v-516h531q45 0 45 -43v-49zM721 1210h-6l-330 -731h336v731z" />
    <glyph glyph-name="Ccedilla" unicode="&#xc7;" horiz-adv-x="1042" 
d="M999 117q0 -8 -5.5 -15t-20.5 -18q-27 -18 -65.5 -37.5t-86.5 -36t-104.5 -27.5t-120.5 -12l-16 -59q17 2 23.5 2h14.5q28 0 57 -6.5t51.5 -22.5t37 -43t14.5 -67q0 -71 -59 -109.5t-156 -38.5q-42 0 -73.5 2.5t-65.5 12.5q-17 5 -27 10t-10 16q0 3 1 7.5t3 9.5l12 32
q7 16 14 18.5t27 -5.5q22 -8 50 -13.5t51 -5.5q24 0 44.5 3.5t36 11t24.5 19.5t9 30q0 34 -26 48.5t-76 14.5q-14 0 -25.5 -1.5t-25.5 -4.5q-22 -5 -34.5 0.5t-12.5 24.5q0 11 6 26l31 99q-81 15 -157 58t-134.5 126t-93.5 213.5t-35 320.5q0 149 32 276.5t97 220.5
t163.5 145.5t231.5 52.5q66 0 120 -11t96.5 -26.5t73 -32.5t48.5 -29q12 -8 16 -15t4 -13t-1 -13.5t-9 -19.5l-35 -55q-9 -14 -23 -17t-28 6q-21 14 -49 29.5t-62 28.5t-74.5 21.5t-86.5 8.5q-75 0 -130 -27.5t-94 -73.5t-63.5 -106t-38.5 -124t-19 -128t-5 -118
q0 -59 6.5 -124.5t22.5 -129t42 -121t65 -101t92.5 -69.5t123.5 -26q54 0 98 8.5t84 25.5t70 34.5t55 33.5q19 11 31 9t18 -13l43 -70q3 -5 5.5 -9.5t2.5 -10.5z" />
    <glyph glyph-name="Egrave" unicode="&#xc8;" horiz-adv-x="983" 
d="M918 43q0 -43 -46 -43h-675q-43 0 -43 45v1276q0 20 11.5 32.5t31.5 12.5h653q20 0 32.5 -11.5t12.5 -31.5v-41q0 -43 -45 -43h-549v-461h469q45 0 45 -43v-41q0 -20 -11 -31.5t-34 -11.5h-469v-516h571q46 0 46 -43v-49v0zM633 1482q0 -14 -19 -14h-57q-25 0 -38 5
t-32 22l-221 190q-11 9 -14.5 15t-3.5 14q0 6 6.5 9t17.5 3h119q15 0 25.5 -1t20 -4.5t18.5 -11.5t20 -22l147 -186q11 -13 11 -19z" />
    <glyph glyph-name="Eacute" unicode="&#xc9;" horiz-adv-x="983" 
d="M918 43q0 -43 -46 -43h-675q-43 0 -43 45v1276q0 20 11.5 32.5t31.5 12.5h653q20 0 32.5 -11.5t12.5 -31.5v-41q0 -43 -45 -43h-549v-461h469q45 0 45 -43v-41q0 -20 -11 -31.5t-34 -11.5h-469v-516h571q46 0 46 -43v-49v0zM774 1714q0 -8 -3.5 -14t-14.5 -15l-222 -190
q-18 -17 -31 -22t-38 -5h-58q-18 0 -18 14q0 6 10 19l148 186q10 14 19 22t18.5 11.5t20.5 4.5t26 1h118q25 0 25 -12z" />
    <glyph glyph-name="Ecircumflex" unicode="&#xca;" horiz-adv-x="983" 
d="M918 43q0 -43 -46 -43h-675q-43 0 -43 45v1276q0 20 11.5 32.5t31.5 12.5h653q20 0 32.5 -11.5t12.5 -31.5v-41q0 -43 -45 -43h-549v-461h469q45 0 45 -43v-41q0 -20 -11 -31.5t-34 -11.5h-469v-516h571q46 0 46 -43v-49v0zM787 1482q0 -14 -18 -14h-51q-25 0 -38 5
t-32 22l-143 127l-144 -127q-18 -17 -31.5 -22t-37.5 -5h-37q-19 0 -19 14q0 6 11 19l147 186q11 14 19.5 22t17 11.5t18 4.5t21.5 1h84q12 0 21 -1t17.5 -4.5t17.5 -11.5t20 -22l147 -186q10 -13 10 -19z" />
    <glyph glyph-name="Edieresis" unicode="&#xcb;" horiz-adv-x="983" 
d="M918 43q0 -43 -46 -43h-675q-43 0 -43 45v1276q0 20 11.5 32.5t31.5 12.5h653q20 0 32.5 -11.5t12.5 -31.5v-41q0 -43 -45 -43h-549v-461h469q45 0 45 -43v-41q0 -20 -11 -31.5t-34 -11.5h-469v-516h571q46 0 46 -43v-49v0zM735 1564q0 -34 -24 -58t-58 -24t-58 24
t-24 58t24 58t58 24t58 -24t24 -58zM450 1564q0 -34 -23.5 -58t-57.5 -24q-35 0 -58.5 24t-23.5 58t23.5 58t58.5 24q34 0 57.5 -24t23.5 -58z" />
    <glyph glyph-name="Igrave" unicode="&#xcc;" horiz-adv-x="453" 
d="M301 45q0 -45 -43 -45h-61q-43 0 -43 45v1276q0 45 43 45h61q43 0 43 -45v-1276v0zM348 1482q0 -14 -19 -14h-57q-25 0 -38 5t-32 22l-221 190q-11 9 -14.5 15t-3.5 14q0 6 6.5 9t17.5 3h119q15 0 25.5 -1t20 -4.5t18.5 -11.5t20 -22l147 -186q11 -13 11 -19z" />
    <glyph glyph-name="Iacute" unicode="&#xcd;" horiz-adv-x="453" 
d="M301 45q0 -45 -43 -45h-61q-43 0 -43 45v1276q0 45 43 45h61q43 0 43 -45v-1276v0zM487 1714q0 -8 -3.5 -14t-14.5 -15l-222 -190q-18 -17 -31 -22t-38 -5h-58q-18 0 -18 14q0 6 10 19l148 186q10 14 19 22t18.5 11.5t20.5 4.5t26 1h118q25 0 25 -12z" />
    <glyph glyph-name="Icircumflex" unicode="&#xce;" horiz-adv-x="453" 
d="M301 45q0 -45 -43 -45h-61q-43 0 -43 45v1276q0 45 43 45h61q43 0 43 -45v-1276v0zM504 1482q0 -14 -18 -14h-51q-25 0 -38 5t-32 22l-143 127l-144 -127q-18 -17 -31.5 -22t-37.5 -5h-37q-19 0 -19 14q0 6 11 19l147 186q11 14 19.5 22t17 11.5t18 4.5t21.5 1h84
q12 0 21 -1t17.5 -4.5t17.5 -11.5t20 -22l147 -186q10 -13 10 -19z" />
    <glyph glyph-name="Idieresis" unicode="&#xcf;" horiz-adv-x="453" 
d="M301 45q0 -45 -43 -45h-61q-43 0 -43 45v1276q0 45 43 45h61q43 0 43 -45v-1276v0zM451 1564q0 -34 -24 -58t-58 -24t-58 24t-24 58t24 58t58 24t58 -24t24 -58zM166 1564q0 -34 -23.5 -58t-57.5 -24q-35 0 -58.5 24t-23.5 58t23.5 58t58.5 24q34 0 57.5 -24t23.5 -58z
" />
    <glyph glyph-name="Eth" unicode="&#xd0;" horiz-adv-x="1153" 
d="M1067 670q0 -138 -34.5 -259.5t-109 -213t-191.5 -144.5t-283 -53h-246q-29 0 -39 12t-10 35v606h-119q-25 0 -33 10t-8 31v45q0 22 8 31.5t33 9.5h119v539q0 25 10.5 36t38.5 11h262q172 0 287.5 -54t185.5 -148t99.5 -221t29.5 -273zM903 680q0 119 -17 207t-48 150
t-74 101.5t-94.5 61.5t-110 30.5t-119.5 8.5h-139v-459h223q25 0 33 -9.5t8 -31.5v-45q0 -21 -8 -31t-31 -10h-225v-518h139q234 0 348.5 135t114.5 410z" />
    <glyph glyph-name="Ntilde" unicode="&#xd1;" horiz-adv-x="1217" 
d="M1065 45q0 -45 -43 -45h-61q-20 0 -33 11t-27 34l-608 1063v-1063q0 -23 -11.5 -34t-31.5 -11h-53q-43 0 -43 45v1276q0 20 11.5 32.5t31.5 12.5h77q20 0 33 -11t27 -34l592 -1034v1034q0 45 43 45h53q43 0 43 -45v-1276v0zM897 1675q0 -5 -2.5 -21.5t-9 -38t-18 -46
t-29 -44.5t-42.5 -33t-59 -13q-38 0 -76.5 14.5t-73.5 31.5t-65.5 31.5t-52.5 14.5q-18 0 -30.5 -6.5t-21 -17t-13.5 -25t-9 -29.5q-3 -12 -7 -18.5t-20 -6.5h-43q-20 0 -20 19q0 5 2.5 21.5t9 38t18 46t29.5 44.5t43 33t60 13q37 0 75 -14.5t73.5 -31.5t66.5 -31.5
t53 -14.5q19 0 32 8.5t21 21t12.5 26t6.5 22.5q3 14 8 19.5t16 5.5h47q19 0 19 -19z" />
    <glyph glyph-name="Ograve" unicode="&#xd2;" horiz-adv-x="1143" 
d="M1057 682q0 -81 -8 -165t-28 -163t-55 -149t-89 -122t-129 -82t-175 -30q-101 0 -176 30t-129 82t-89 122t-55 149t-28 163t-8 165t8 166t28 164t55 149t88.5 122t128.5 82t175 30q101 0 176.5 -30t129.5 -82t88.5 -122t55 -149t28.5 -164t8 -166zM893 682q0 52 -4 114.5
t-15.5 126.5t-33 124t-57 107t-87 75t-123.5 28t-124 -28t-87.5 -75t-57 -107t-33 -124t-15.5 -126.5t-4 -114.5t4 -114.5t15.5 -126t33 -123.5t57 -106.5t87.5 -74.5t124 -28t123.5 28t87 75t57 107t33 123.5t15.5 126t4 113.5zM686 1482q0 -14 -19 -14h-57q-25 0 -38 5
t-32 22l-221 190q-11 9 -14.5 15t-3.5 14q0 6 6.5 9t17.5 3h119q15 0 25.5 -1t20 -4.5t18.5 -11.5t20 -22l147 -186q11 -13 11 -19z" />
    <glyph glyph-name="Oacute" unicode="&#xd3;" horiz-adv-x="1143" 
d="M1057 682q0 -81 -8 -165t-28 -163t-55 -149t-89 -122t-129 -82t-175 -30q-101 0 -176 30t-129 82t-89 122t-55 149t-28 163t-8 165t8 166t28 164t55 149t88.5 122t128.5 82t175 30q101 0 176.5 -30t129.5 -82t88.5 -122t55 -149t28.5 -164t8 -166zM893 682q0 52 -4 114.5
t-15.5 126.5t-33 124t-57 107t-87 75t-123.5 28t-124 -28t-87.5 -75t-57 -107t-33 -124t-15.5 -126.5t-4 -114.5t4 -114.5t15.5 -126t33 -123.5t57 -106.5t87.5 -74.5t124 -28t123.5 28t87 75t57 107t33 123.5t15.5 126t4 113.5zM823 1714q0 -8 -3.5 -14t-14.5 -15
l-222 -190q-18 -17 -31 -22t-38 -5h-58q-18 0 -18 14q0 6 10 19l148 186q10 14 19 22t18.5 11.5t20.5 4.5t26 1h118q25 0 25 -12z" />
    <glyph glyph-name="Ocircumflex" unicode="&#xd4;" horiz-adv-x="1143" 
d="M1057 682q0 -81 -8 -165t-28 -163t-55 -149t-89 -122t-129 -82t-175 -30q-101 0 -176 30t-129 82t-89 122t-55 149t-28 163t-8 165t8 166t28 164t55 149t88.5 122t128.5 82t175 30q101 0 176.5 -30t129.5 -82t88.5 -122t55 -149t28.5 -164t8 -166zM893 682q0 52 -4 114.5
t-15.5 126.5t-33 124t-57 107t-87 75t-123.5 28t-124 -28t-87.5 -75t-57 -107t-33 -124t-15.5 -126.5t-4 -114.5t4 -114.5t15.5 -126t33 -123.5t57 -106.5t87.5 -74.5t124 -28t123.5 28t87 75t57 107t33 123.5t15.5 126t4 113.5zM848 1482q0 -14 -18 -14h-51q-25 0 -38 5
t-32 22l-143 127l-144 -127q-18 -17 -31.5 -22t-37.5 -5h-37q-19 0 -19 14q0 6 11 19l147 186q11 14 19.5 22t17 11.5t18 4.5t21.5 1h84q12 0 21 -1t17.5 -4.5t17.5 -11.5t20 -22l147 -186q10 -13 10 -19z" />
    <glyph glyph-name="Otilde" unicode="&#xd5;" horiz-adv-x="1143" 
d="M1057 682q0 -81 -8 -165t-28 -163t-55 -149t-89 -122t-129 -82t-175 -30q-101 0 -176 30t-129 82t-89 122t-55 149t-28 163t-8 165t8 166t28 164t55 149t88.5 122t128.5 82t175 30q101 0 176.5 -30t129.5 -82t88.5 -122t55 -149t28.5 -164t8 -166zM893 682q0 52 -4 114.5
t-15.5 126.5t-33 124t-57 107t-87 75t-123.5 28t-124 -28t-87.5 -75t-57 -107t-33 -124t-15.5 -126.5t-4 -114.5t4 -114.5t15.5 -126t33 -123.5t57 -106.5t87.5 -74.5t124 -28t123.5 28t87 75t57 107t33 123.5t15.5 126t4 113.5zM868 1675q0 -5 -2.5 -21.5t-9 -38t-18 -46
t-29 -44.5t-42.5 -33t-59 -13q-38 0 -76.5 14.5t-73.5 31.5t-65.5 31.5t-52.5 14.5q-18 0 -30.5 -6.5t-21 -17t-13.5 -25t-9 -29.5q-3 -12 -7 -18.5t-20 -6.5h-43q-20 0 -20 19q0 5 2.5 21.5t9 38t18 46t29.5 44.5t43 33t60 13q37 0 75 -14.5t73.5 -31.5t66.5 -31.5
t53 -14.5q19 0 32 8.5t21 21t12.5 26t6.5 22.5q3 14 8 19.5t16 5.5h47q19 0 19 -19z" />
    <glyph glyph-name="Odieresis" unicode="&#xd6;" horiz-adv-x="1143" 
d="M1057 682q0 -81 -8 -165t-28 -163t-55 -149t-89 -122t-129 -82t-175 -30q-101 0 -176 30t-129 82t-89 122t-55 149t-28 163t-8 165t8 166t28 164t55 149t88.5 122t128.5 82t175 30q101 0 176.5 -30t129.5 -82t88.5 -122t55 -149t28.5 -164t8 -166zM893 682q0 52 -4 114.5
t-15.5 126.5t-33 124t-57 107t-87 75t-123.5 28t-124 -28t-87.5 -75t-57 -107t-33 -124t-15.5 -126.5t-4 -114.5t4 -114.5t15.5 -126t33 -123.5t57 -106.5t87.5 -74.5t124 -28t123.5 28t87 75t57 107t33 123.5t15.5 126t4 113.5zM796 1564q0 -34 -24 -58t-58 -24t-58 24
t-24 58t24 58t58 24t58 -24t24 -58zM511 1564q0 -34 -23.5 -58t-57.5 -24q-35 0 -58.5 24t-23.5 58t23.5 58t58.5 24q34 0 57.5 -24t23.5 -58z" />
    <glyph glyph-name="multiply" unicode="&#xd7;" horiz-adv-x="883" 
d="M795 422q14 -14 14 -23q0 -12 -14 -26l-41 -41q-17 -15 -25 -15q-5 0 -10.5 2.5t-13.5 10.5l-265 262l-260 -260q-15 -15 -24 -15q-10 0 -25 15l-41 41q-14 14 -14 22q0 6 2 12.5t10 14.5l264 260l-262 260q-14 14 -14 25q0 10 14 24l41 41q15 15 23 15q6 0 11.5 -3
t14.5 -12l260 -258l262 258q10 9 15 12t10 3q8 0 25 -15l41 -41q14 -14 14 -22q0 -5 -2.5 -11.5t-11.5 -15.5l-263 -260z" />
    <glyph glyph-name="Oslash" unicode="&#xd8;" horiz-adv-x="1143" 
d="M1057 1376q0 -6 -2 -12.5t-8 -15.5l-99 -160q31 -52 52 -113t34 -126.5t18 -133.5t5 -133q0 -81 -8 -165t-28 -163t-55 -149t-89 -122t-129 -82t-175 -30t-174.5 29t-128.5 82l-37 -62q-31 -49 -55 -49h-59q-31 0 -31 21q0 8 3 14.5t9 16.5l95 153q-32 53 -52.5 114
t-32.5 126.5t-17 133t-5 132.5q0 81 8 166t28 164t55 149t88.5 122t128.5 82t175 30q101 0 175 -30t128 -81l39 64q14 21 28 34t34 13h57q13 0 19 -6.5t6 -12.5zM893 682q0 36 -2 78t-7 86t-13.5 89.5t-22.5 88.5l-494 -805q37 -49 90.5 -79.5t128.5 -30.5q72 0 123.5 28
t87 75t57 107t33 123.5t15.5 126t4 113.5zM252 682q0 -36 1.5 -78t6 -86.5t13 -90t22.5 -87.5l493 805q-35 51 -87.5 81.5t-127.5 30.5q-72 0 -124 -28t-87.5 -75t-57 -107t-33 -124t-15.5 -126.5t-4 -114.5z" />
    <glyph glyph-name="Ugrave" unicode="&#xd9;" horiz-adv-x="1157" 
d="M1024 438q0 -120 -34.5 -208t-96 -145.5t-146 -85.5t-184.5 -28q-101 0 -180.5 33t-135 93t-85 144t-29.5 187v893q0 20 11.5 32.5t31.5 12.5h62q20 0 31.5 -11t11.5 -34v-895q0 -77 22 -136t61 -99.5t91.5 -61t113.5 -20.5q65 0 121 20.5t97.5 61t65.5 101.5t24 142v887
q0 45 43 45h61q43 0 43 -45v-883v0zM696 1482q0 -14 -19 -14h-57q-25 0 -38 5t-32 22l-221 190q-11 9 -14.5 15t-3.5 14q0 6 6.5 9t17.5 3h119q15 0 25.5 -1t20 -4.5t18.5 -11.5t20 -22l147 -186q11 -13 11 -19z" />
    <glyph glyph-name="Uacute" unicode="&#xda;" horiz-adv-x="1157" 
d="M1024 438q0 -120 -34.5 -208t-96 -145.5t-146 -85.5t-184.5 -28q-101 0 -180.5 33t-135 93t-85 144t-29.5 187v893q0 20 11.5 32.5t31.5 12.5h62q20 0 31.5 -11t11.5 -34v-895q0 -77 22 -136t61 -99.5t91.5 -61t113.5 -20.5q65 0 121 20.5t97.5 61t65.5 101.5t24 142v887
q0 45 43 45h61q43 0 43 -45v-883v0zM868 1714q0 -8 -3.5 -14t-14.5 -15l-222 -190q-18 -17 -31 -22t-38 -5h-58q-18 0 -18 14q0 6 10 19l148 186q10 14 19 22t18.5 11.5t20.5 4.5t26 1h118q25 0 25 -12z" />
    <glyph glyph-name="Ucircumflex" unicode="&#xdb;" horiz-adv-x="1157" 
d="M1024 438q0 -120 -34.5 -208t-96 -145.5t-146 -85.5t-184.5 -28q-101 0 -180.5 33t-135 93t-85 144t-29.5 187v893q0 20 11.5 32.5t31.5 12.5h62q20 0 31.5 -11t11.5 -34v-895q0 -77 22 -136t61 -99.5t91.5 -61t113.5 -20.5q65 0 121 20.5t97.5 61t65.5 101.5t24 142v887
q0 45 43 45h61q43 0 43 -45v-883v0zM862 1482q0 -14 -18 -14h-51q-25 0 -38 5t-32 22l-143 127l-144 -127q-18 -17 -31.5 -22t-37.5 -5h-37q-19 0 -19 14q0 6 11 19l147 186q11 14 19.5 22t17 11.5t18 4.5t21.5 1h84q12 0 21 -1t17.5 -4.5t17.5 -11.5t20 -22l147 -186
q10 -13 10 -19z" />
    <glyph glyph-name="Udieresis" unicode="&#xdc;" horiz-adv-x="1157" 
d="M1024 438q0 -120 -34.5 -208t-96 -145.5t-146 -85.5t-184.5 -28q-101 0 -180.5 33t-135 93t-85 144t-29.5 187v893q0 20 11.5 32.5t31.5 12.5h62q20 0 31.5 -11t11.5 -34v-895q0 -77 22 -136t61 -99.5t91.5 -61t113.5 -20.5q65 0 121 20.5t97.5 61t65.5 101.5t24 142v887
q0 45 43 45h61q43 0 43 -45v-883v0zM809 1564q0 -34 -24 -58t-58 -24t-58 24t-24 58t24 58t58 24t58 -24t24 -58zM524 1564q0 -34 -23.5 -58t-57.5 -24q-35 0 -58.5 24t-23.5 58t23.5 58t58.5 24q34 0 57.5 -24t23.5 -58z" />
    <glyph glyph-name="Yacute" unicode="&#xdd;" horiz-adv-x="942" 
d="M961 1346q0 -7 -3 -16t-8 -17l-399 -756v-512q0 -45 -43 -45h-62q-20 0 -31.5 11t-11.5 34v510l-409 758q-10 17 -10 28q0 10 7.5 17.5t24.5 7.5h82q13 0 21.5 -1.5t14.5 -5.5t11 -11t11 -19l325 -618l322 618q10 22 20.5 29.5t36.5 7.5h66q14 0 24.5 -4.5t10.5 -15.5z
M748 1714q0 -8 -3.5 -14t-14.5 -15l-222 -190q-18 -17 -31 -22t-38 -5h-58q-18 0 -18 14q0 6 10 19l148 186q10 14 19 22t18.5 11.5t20.5 4.5t26 1h118q25 0 25 -12z" />
    <glyph glyph-name="Thorn" unicode="&#xde;" horiz-adv-x="1020" 
d="M987 698q0 -104 -34 -178.5t-94.5 -122.5t-144.5 -71t-184 -23h-229v-258q0 -45 -43 -45h-61q-43 0 -43 45v1276q0 20 11.5 32.5t31.5 12.5h61q43 0 43 -45v-221h203q103 0 191 -19t153 -65.5t102 -124t37 -193.5zM831 688q0 89 -24 145t-69.5 87t-112.5 42t-154 11h-170
v-543h186q85 0 149 12.5t107.5 42.5t65.5 79.5t22 123.5z" />
    <glyph glyph-name="germandbls" unicode="&#xdf;" horiz-adv-x="1042" 
d="M969 258q0 -75 -25 -127t-68.5 -84.5t-103 -47.5t-129.5 -15q-28 0 -55 2.5t-51.5 7t-44.5 9t-33 9.5q-16 5 -23.5 12t-7.5 15v6.5t2 9.5l27 74q6 18 18 18q6 0 13 -0.5t18 -5.5q9 -4 26.5 -9.5t38.5 -10.5t43.5 -8.5t40.5 -3.5q81 0 126.5 34.5t45.5 106.5
q0 37 -9.5 66.5t-33 58.5t-62 60.5t-95.5 70.5q-34 23 -66 46.5t-57 52t-40 63.5t-15 80q0 32 6 58.5t19.5 50.5t34.5 48t50 51q55 52 87 95t32 94q0 37 -14.5 66.5t-40.5 50t-62 31t-80 10.5q-60 0 -100 -16.5t-64 -49t-34.5 -79.5t-10.5 -107v-1006q0 -20 -10.5 -32.5
t-32.5 -12.5h-53q-23 0 -33 12.5t-10 32.5v1008q0 181 86 275.5t270 94.5q62 0 115.5 -14.5t95.5 -40.5q56 -34 86.5 -86.5t30.5 -118.5q0 -46 -10.5 -82.5t-29.5 -68.5t-46 -62.5t-61 -64.5q-37 -38 -60.5 -64.5t-23.5 -52.5q0 -23 6 -39t27 -36t60 -49.5t105 -78.5
q42 -32 76.5 -64.5t58.5 -69t37 -79.5t13 -94z" />
    <glyph glyph-name="agrave" unicode="&#xe0;" horiz-adv-x="889" 
d="M768 45q0 -20 -9 -32.5t-34 -12.5h-41q-23 0 -35 9.5t-12 37.5v82q-26 -28 -60 -54t-74.5 -46.5t-86 -32.5t-94.5 -12q-57 0 -105 20t-83.5 56.5t-55 87t-19.5 112.5q0 73 23 127t62.5 92.5t92 63t111.5 38.5t121 19.5t121 5.5h39v115q0 24 -3.5 52.5t-21 54t-54.5 42.5
t-104 17q-33 0 -66.5 -6t-65.5 -16t-60.5 -23t-52.5 -27q-7 -4 -15 -7t-16.5 -3t-15.5 4t-13 14l-24 47q-5 10 -6.5 15.5t-1.5 13.5q0 18 22 29q79 42 159.5 63t162.5 21q72 0 130 -14.5t99.5 -47t63.5 -84t22 -125.5v-696zM629 502q-42 0 -89.5 -3t-95 -11.5t-91 -24.5
t-77 -42.5t-53.5 -65t-20 -91.5q0 -17 4.5 -45t19.5 -55t44.5 -46.5t80.5 -19.5q31 0 65 11t66 28.5t60 39t47 42.5q18 20 28.5 41.5t10.5 56.5v185zM580 1122q0 -14 -19 -14h-57q-25 0 -38 5t-32 22l-221 190q-11 9 -14.5 15t-3.5 14q0 6 6.5 9t17.5 3h119q15 0 25.5 -1
t20 -4.5t18.5 -11.5t20 -22l147 -186q11 -13 11 -19z" />
    <glyph glyph-name="aacute" unicode="&#xe1;" horiz-adv-x="889" 
d="M768 45q0 -20 -9 -32.5t-34 -12.5h-41q-23 0 -35 9.5t-12 37.5v82q-26 -28 -60 -54t-74.5 -46.5t-86 -32.5t-94.5 -12q-57 0 -105 20t-83.5 56.5t-55 87t-19.5 112.5q0 73 23 127t62.5 92.5t92 63t111.5 38.5t121 19.5t121 5.5h39v115q0 24 -3.5 52.5t-21 54t-54.5 42.5
t-104 17q-33 0 -66.5 -6t-65.5 -16t-60.5 -23t-52.5 -27q-7 -4 -15 -7t-16.5 -3t-15.5 4t-13 14l-24 47q-5 10 -6.5 15.5t-1.5 13.5q0 18 22 29q79 42 159.5 63t162.5 21q72 0 130 -14.5t99.5 -47t63.5 -84t22 -125.5v-696zM629 502q-42 0 -89.5 -3t-95 -11.5t-91 -24.5
t-77 -42.5t-53.5 -65t-20 -91.5q0 -17 4.5 -45t19.5 -55t44.5 -46.5t80.5 -19.5q31 0 65 11t66 28.5t60 39t47 42.5q18 20 28.5 41.5t10.5 56.5v185zM741 1354q0 -8 -3.5 -14t-14.5 -15l-222 -190q-18 -17 -31 -22t-38 -5h-58q-18 0 -18 14q0 6 10 19l148 186q10 14 19 22
t18.5 11.5t20.5 4.5t26 1h118q25 0 25 -12z" />
    <glyph glyph-name="acircumflex" unicode="&#xe2;" horiz-adv-x="889" 
d="M768 45q0 -20 -9 -32.5t-34 -12.5h-41q-23 0 -35 9.5t-12 37.5v82q-26 -28 -60 -54t-74.5 -46.5t-86 -32.5t-94.5 -12q-57 0 -105 20t-83.5 56.5t-55 87t-19.5 112.5q0 73 23 127t62.5 92.5t92 63t111.5 38.5t121 19.5t121 5.5h39v115q0 24 -3.5 52.5t-21 54t-54.5 42.5
t-104 17q-33 0 -66.5 -6t-65.5 -16t-60.5 -23t-52.5 -27q-7 -4 -15 -7t-16.5 -3t-15.5 4t-13 14l-24 47q-5 10 -6.5 15.5t-1.5 13.5q0 18 22 29q79 42 159.5 63t162.5 21q72 0 130 -14.5t99.5 -47t63.5 -84t22 -125.5v-696zM629 502q-42 0 -89.5 -3t-95 -11.5t-91 -24.5
t-77 -42.5t-53.5 -65t-20 -91.5q0 -17 4.5 -45t19.5 -55t44.5 -46.5t80.5 -19.5q31 0 65 11t66 28.5t60 39t47 42.5q18 20 28.5 41.5t10.5 56.5v185zM725 1122q0 -14 -18 -14h-51q-25 0 -38 5t-32 22l-143 127l-144 -127q-18 -17 -31.5 -22t-37.5 -5h-37q-19 0 -19 14
q0 6 11 19l147 186q11 14 19.5 22t17 11.5t18 4.5t21.5 1h84q12 0 21 -1t17.5 -4.5t17.5 -11.5t20 -22l147 -186q10 -13 10 -19z" />
    <glyph glyph-name="atilde" unicode="&#xe3;" horiz-adv-x="889" 
d="M768 45q0 -20 -9 -32.5t-34 -12.5h-41q-23 0 -35 9.5t-12 37.5v82q-26 -28 -60 -54t-74.5 -46.5t-86 -32.5t-94.5 -12q-57 0 -105 20t-83.5 56.5t-55 87t-19.5 112.5q0 73 23 127t62.5 92.5t92 63t111.5 38.5t121 19.5t121 5.5h39v115q0 24 -3.5 52.5t-21 54t-54.5 42.5
t-104 17q-33 0 -66.5 -6t-65.5 -16t-60.5 -23t-52.5 -27q-7 -4 -15 -7t-16.5 -3t-15.5 4t-13 14l-24 47q-5 10 -6.5 15.5t-1.5 13.5q0 18 22 29q79 42 159.5 63t162.5 21q72 0 130 -14.5t99.5 -47t63.5 -84t22 -125.5v-696zM629 502q-42 0 -89.5 -3t-95 -11.5t-91 -24.5
t-77 -42.5t-53.5 -65t-20 -91.5q0 -17 4.5 -45t19.5 -55t44.5 -46.5t80.5 -19.5q31 0 65 11t66 28.5t60 39t47 42.5q18 20 28.5 41.5t10.5 56.5v185zM723 1331q0 -5 -2.5 -21.5t-9 -38t-18 -46t-29 -44.5t-42.5 -33t-59 -13q-38 0 -76.5 14.5t-73.5 31.5t-65.5 31.5
t-52.5 14.5q-18 0 -30.5 -6.5t-21 -17t-13.5 -25t-9 -29.5q-3 -12 -7 -18.5t-20 -6.5h-43q-20 0 -20 19q0 5 2.5 21.5t9 38t18 46t29.5 44.5t43 33t60 13q37 0 75 -14.5t73.5 -31.5t66.5 -31.5t53 -14.5q19 0 32 8.5t21 21t12.5 26t6.5 22.5q3 14 8 19.5t16 5.5h47
q19 0 19 -19z" />
    <glyph glyph-name="adieresis" unicode="&#xe4;" horiz-adv-x="889" 
d="M768 45q0 -20 -9 -32.5t-34 -12.5h-41q-23 0 -35 9.5t-12 37.5v82q-26 -28 -60 -54t-74.5 -46.5t-86 -32.5t-94.5 -12q-57 0 -105 20t-83.5 56.5t-55 87t-19.5 112.5q0 73 23 127t62.5 92.5t92 63t111.5 38.5t121 19.5t121 5.5h39v115q0 24 -3.5 52.5t-21 54t-54.5 42.5
t-104 17q-33 0 -66.5 -6t-65.5 -16t-60.5 -23t-52.5 -27q-7 -4 -15 -7t-16.5 -3t-15.5 4t-13 14l-24 47q-5 10 -6.5 15.5t-1.5 13.5q0 18 22 29q79 42 159.5 63t162.5 21q72 0 130 -14.5t99.5 -47t63.5 -84t22 -125.5v-696zM629 502q-42 0 -89.5 -3t-95 -11.5t-91 -24.5
t-77 -42.5t-53.5 -65t-20 -91.5q0 -17 4.5 -45t19.5 -55t44.5 -46.5t80.5 -19.5q31 0 65 11t66 28.5t60 39t47 42.5q18 20 28.5 41.5t10.5 56.5v185zM669 1237q0 -34 -24 -58t-58 -24t-58 24t-24 58t24 58t58 24t58 -24t24 -58zM384 1237q0 -34 -23.5 -58t-57.5 -24
q-35 0 -58.5 24t-23.5 58t23.5 58t58.5 24q34 0 57.5 -24t23.5 -58z" />
    <glyph glyph-name="aring" unicode="&#xe5;" horiz-adv-x="889" 
d="M768 45q0 -20 -9 -32.5t-34 -12.5h-41q-23 0 -35 9.5t-12 37.5v82q-26 -28 -60 -54t-74.5 -46.5t-86 -32.5t-94.5 -12q-57 0 -105 20t-83.5 56.5t-55 87t-19.5 112.5q0 73 23 127t62.5 92.5t92 63t111.5 38.5t121 19.5t121 5.5h39v115q0 24 -3.5 52.5t-21 54t-54.5 42.5
t-104 17q-33 0 -66.5 -6t-65.5 -16t-60.5 -23t-52.5 -27q-7 -4 -15 -7t-16.5 -3t-15.5 4t-13 14l-24 47q-5 10 -6.5 15.5t-1.5 13.5q0 18 22 29q79 42 159.5 63t162.5 21q72 0 130 -14.5t99.5 -47t63.5 -84t22 -125.5v-696zM629 502q-42 0 -89.5 -3t-95 -11.5t-91 -24.5
t-77 -42.5t-53.5 -65t-20 -91.5q0 -17 4.5 -45t19.5 -55t44.5 -46.5t80.5 -19.5q31 0 65 11t66 28.5t60 39t47 42.5q18 20 28.5 41.5t10.5 56.5v185zM590 1260q0 -32 -12 -59.5t-32 -48t-47 -32.5t-58 -12q-32 0 -59.5 12t-48 32.5t-32.5 48t-12 59.5q0 30 12 57.5
t32.5 47.5t48 32t59.5 12q31 0 58 -12t47 -32t32 -47.5t12 -57.5zM521 1260q0 34 -23 58.5t-57 24.5t-58 -24.5t-24 -58.5q0 -35 24 -60.5t58 -25.5t57 25.5t23 60.5z" />
    <glyph glyph-name="ae" unicode="&#xe6;" horiz-adv-x="1446" 
d="M1372 539q0 -23 -10 -36.5t-39 -13.5h-555v-22q0 -52 11 -114.5t40 -116.5t79 -90.5t128 -36.5q39 0 74 7.5t63.5 19t50.5 23.5t35 21q16 10 32 10.5t26 -16.5l30 -55q3 -6 4.5 -13t1.5 -12q0 -13 -24 -28q-25 -16 -57.5 -31t-70 -26t-78.5 -18t-83 -7q-65 0 -117 15.5
t-92 40.5t-68.5 56t-45.5 62q-34 -35 -77 -66.5t-92.5 -55.5t-104 -38t-111.5 -14t-105 20t-83.5 56.5t-55 87t-19.5 112.5q0 73 23 127t62.5 92.5t92 63t111.5 38.5t121 19.5t121 5.5h39v115q0 24 -3.5 52.5t-21 54t-54.5 42.5t-104 17q-33 0 -66.5 -6t-65.5 -16t-60.5 -23
t-52.5 -27q-7 -4 -15 -7t-16.5 -3t-15.5 4t-13 14l-24 47q-5 10 -6.5 15.5t-1.5 13.5q0 18 22 29q79 42 159.5 63t162.5 21q54 0 100.5 -9.5t83 -29t61 -50.5t35.5 -73q44 75 117.5 118.5t167.5 43.5q104 0 172.5 -41t109 -107.5t56.5 -151.5t16 -173zM1229 606
q-2 53 -12 104.5t-35 91.5t-66 64.5t-104 24.5q-62 0 -105.5 -25.5t-72 -66.5t-43.5 -91.5t-19 -101.5h457zM629 502q-42 0 -89.5 -3t-95 -11.5t-91 -24.5t-77 -42.5t-53.5 -65t-20 -91.5q0 -17 4.5 -45t19.5 -55t44.5 -46.5t80.5 -19.5q34 0 67 8.5t63.5 22.5t57.5 32
t50 38q20 18 29.5 40.5t9.5 57.5v205z" />
    <glyph glyph-name="ccedilla" unicode="&#xe7;" horiz-adv-x="829" 
d="M797 102q0 -14 -23 -28q-56 -37 -132.5 -62.5t-172.5 -27.5l-16 -60q17 2 24 2h15q28 0 56.5 -6.5t51 -22t37 -42.5t14.5 -68q0 -71 -59 -109t-156 -38q-42 0 -73.5 2.5t-65.5 11.5q-17 5 -27 10.5t-10 16.5q0 3 1 7t3 9l12 33q7 15 14 17.5t27 -5.5q22 -8 50 -13t51 -5
q24 0 44.5 3t36 10.5t24.5 19.5t9 30q0 34 -26 48.5t-76 14.5q-14 0 -25.5 -1.5t-25.5 -4.5q-22 -5 -34.5 0.5t-12.5 24.5q0 10 6 27l31 98q-63 15 -119 51t-98 98.5t-66.5 153t-24.5 213.5q0 107 27 198.5t79.5 159t129 106t174.5 38.5q48 0 87 -7.5t72.5 -19t61.5 -26
t53 -29.5q10 -5 13.5 -12t3.5 -13q0 -5 -0.5 -12.5t-5.5 -15.5l-29 -52q-8 -12 -22.5 -15t-28.5 5t-34 20t-45.5 23t-57 19t-68.5 8q-55 0 -96.5 -18t-71 -48.5t-48.5 -70t-30 -82.5t-15.5 -87t-4.5 -83q0 -64 12 -132t41.5 -124.5t80 -92.5t128.5 -36q43 0 78.5 8
t64.5 19.5t52 25t43 24.5q17 10 31 8t20 -12l30 -51q5 -6 8 -15t3 -16z" />
    <glyph glyph-name="egrave" unicode="&#xe8;" horiz-adv-x="887" 
d="M813 539q0 -23 -10 -36.5t-39 -13.5h-555v-22q0 -52 11 -114.5t40 -116.5t79 -90.5t128 -36.5q39 0 74 7.5t63.5 19t50.5 23.5t35 21q16 10 32 10.5t26 -16.5l30 -55q3 -6 4.5 -13t1.5 -12q0 -13 -24 -28q-25 -16 -57.5 -31t-70 -26t-78.5 -18t-83 -7q-111 0 -188.5 44
t-125.5 115t-69.5 162t-21.5 184q0 92 21 185.5t67.5 168.5t121.5 122t183 47q104 0 172.5 -41t109 -107.5t56.5 -151.5t16 -173zM670 606q-2 53 -12 104.5t-35 91.5t-66 64.5t-104 24.5q-62 0 -105.5 -25.5t-72 -66.5t-43.5 -91.5t-19 -101.5h457zM598 1122q0 -14 -19 -14
h-57q-25 0 -38 5t-32 22l-221 190q-11 9 -14.5 15t-3.5 14q0 6 6.5 9t17.5 3h119q15 0 25.5 -1t20 -4.5t18.5 -11.5t20 -22l147 -186q11 -13 11 -19z" />
    <glyph glyph-name="eacute" unicode="&#xe9;" horiz-adv-x="887" 
d="M813 539q0 -23 -10 -36.5t-39 -13.5h-555v-22q0 -52 11 -114.5t40 -116.5t79 -90.5t128 -36.5q39 0 74 7.5t63.5 19t50.5 23.5t35 21q16 10 32 10.5t26 -16.5l30 -55q3 -6 4.5 -13t1.5 -12q0 -13 -24 -28q-25 -16 -57.5 -31t-70 -26t-78.5 -18t-83 -7q-111 0 -188.5 44
t-125.5 115t-69.5 162t-21.5 184q0 92 21 185.5t67.5 168.5t121.5 122t183 47q104 0 172.5 -41t109 -107.5t56.5 -151.5t16 -173zM670 606q-2 53 -12 104.5t-35 91.5t-66 64.5t-104 24.5q-62 0 -105.5 -25.5t-72 -66.5t-43.5 -91.5t-19 -101.5h457zM731 1354q0 -8 -3.5 -14
t-14.5 -15l-222 -190q-18 -17 -31 -22t-38 -5h-58q-18 0 -18 14q0 6 10 19l148 186q10 14 19 22t18.5 11.5t20.5 4.5t26 1h118q25 0 25 -12z" />
    <glyph glyph-name="ecircumflex" unicode="&#xea;" horiz-adv-x="887" 
d="M813 539q0 -23 -10 -36.5t-39 -13.5h-555v-22q0 -52 11 -114.5t40 -116.5t79 -90.5t128 -36.5q39 0 74 7.5t63.5 19t50.5 23.5t35 21q16 10 32 10.5t26 -16.5l30 -55q3 -6 4.5 -13t1.5 -12q0 -13 -24 -28q-25 -16 -57.5 -31t-70 -26t-78.5 -18t-83 -7q-111 0 -188.5 44
t-125.5 115t-69.5 162t-21.5 184q0 92 21 185.5t67.5 168.5t121.5 122t183 47q104 0 172.5 -41t109 -107.5t56.5 -151.5t16 -173zM670 606q-2 53 -12 104.5t-35 91.5t-66 64.5t-104 24.5q-62 0 -105.5 -25.5t-72 -66.5t-43.5 -91.5t-19 -101.5h457zM739 1122q0 -14 -18 -14
h-51q-25 0 -38 5t-32 22l-143 127l-144 -127q-18 -17 -31.5 -22t-37.5 -5h-37q-19 0 -19 14q0 6 11 19l147 186q11 14 19.5 22t17 11.5t18 4.5t21.5 1h84q12 0 21 -1t17.5 -4.5t17.5 -11.5t20 -22l147 -186q10 -13 10 -19z" />
    <glyph glyph-name="edieresis" unicode="&#xeb;" horiz-adv-x="887" 
d="M813 539q0 -23 -10 -36.5t-39 -13.5h-555v-22q0 -52 11 -114.5t40 -116.5t79 -90.5t128 -36.5q39 0 74 7.5t63.5 19t50.5 23.5t35 21q16 10 32 10.5t26 -16.5l30 -55q3 -6 4.5 -13t1.5 -12q0 -13 -24 -28q-25 -16 -57.5 -31t-70 -26t-78.5 -18t-83 -7q-111 0 -188.5 44
t-125.5 115t-69.5 162t-21.5 184q0 92 21 185.5t67.5 168.5t121.5 122t183 47q104 0 172.5 -41t109 -107.5t56.5 -151.5t16 -173zM670 606q-2 53 -12 104.5t-35 91.5t-66 64.5t-104 24.5q-62 0 -105.5 -25.5t-72 -66.5t-43.5 -91.5t-19 -101.5h457zM681 1237q0 -34 -24 -58
t-58 -24t-58 24t-24 58t24 58t58 24t58 -24t24 -58zM396 1237q0 -34 -23.5 -58t-57.5 -24q-35 0 -58.5 24t-23.5 58t23.5 58t58.5 24q34 0 57.5 -24t23.5 -58z" />
    <glyph glyph-name="igrave" unicode="&#xec;" horiz-adv-x="440" 
d="M291 49q0 -23 -9.5 -36t-41.5 -13h-39q-29 0 -39 12.5t-10 34.5v901q0 26 11 36.5t34 10.5h45q29 0 39 -11.5t10 -33.5v-901v0zM369 1122q0 -14 -19 -14h-57q-25 0 -38 5t-32 22l-221 190q-11 9 -14.5 15t-3.5 14q0 6 6.5 9t17.5 3h119q15 0 25.5 -1t20 -4.5t18.5 -11.5
t20 -22l147 -186q11 -13 11 -19z" />
    <glyph glyph-name="iacute" unicode="&#xed;" horiz-adv-x="440" 
d="M291 49q0 -23 -9.5 -36t-41.5 -13h-39q-29 0 -39 12.5t-10 34.5v901q0 26 11 36.5t34 10.5h45q29 0 39 -11.5t10 -33.5v-901v0zM457 1354q0 -8 -3.5 -14t-14.5 -15l-222 -190q-18 -17 -31 -22t-38 -5h-58q-18 0 -18 14q0 6 10 19l148 186q10 14 19 22t18.5 11.5t20.5 4.5
t26 1h118q25 0 25 -12z" />
    <glyph glyph-name="icircumflex" unicode="&#xee;" horiz-adv-x="440" 
d="M291 49q0 -23 -9.5 -36t-41.5 -13h-39q-29 0 -39 12.5t-10 34.5v901q0 26 11 36.5t34 10.5h45q29 0 39 -11.5t10 -33.5v-901v0zM498 1122q0 -14 -18 -14h-51q-25 0 -38 5t-32 22l-143 127l-144 -127q-18 -17 -31.5 -22t-37.5 -5h-37q-19 0 -19 14q0 6 11 19l147 186
q11 14 19.5 22t17 11.5t18 4.5t21.5 1h84q12 0 21 -1t17.5 -4.5t17.5 -11.5t20 -22l147 -186q10 -13 10 -19z" />
    <glyph glyph-name="idieresis" unicode="&#xef;" horiz-adv-x="440" 
d="M291 49q0 -23 -9.5 -36t-41.5 -13h-39q-29 0 -39 12.5t-10 34.5v901q0 26 11 36.5t34 10.5h45q29 0 39 -11.5t10 -33.5v-901v0zM445 1237q0 -34 -24 -58t-58 -24t-58 24t-24 58t24 58t58 24t58 -24t24 -58zM160 1237q0 -34 -23.5 -58t-57.5 -24q-35 0 -58.5 24t-23.5 58
t23.5 58t58.5 24q34 0 57.5 -24t23.5 -58z" />
    <glyph glyph-name="eth" unicode="&#xf0;" horiz-adv-x="936" 
d="M866 479q0 -92 -21 -181t-68.5 -159t-124 -112.5t-187.5 -42.5q-108 0 -183.5 41.5t-123.5 110.5t-70 158.5t-22 184.5t23 184t70 157.5t118 109.5t167 41q62 0 115 -19t90 -45q-23 66 -60 141t-83 150l-189 -88q-20 -9 -28.5 -7t-16.5 19l-20 41q-8 17 -4.5 26t20.5 17
l178 82q-18 26 -35.5 52t-37.5 51q-5 6 -8 10t-3 10q0 5 4.5 8.5t12.5 3.5h57q23 0 36 -8t24 -20q10 -11 15.5 -17.5t10 -12.5t9.5 -12.5t14 -17.5l160 74q20 9 28 6.5t15 -16.5l20 -43q8 -17 5.5 -26t-19.5 -17l-144 -66q60 -84 107.5 -170t80.5 -180t50.5 -197t17.5 -221z
M723 475q0 64 -11 129.5t-40 118.5t-79 87t-128 34q-77 0 -126.5 -34t-78.5 -87t-40 -118.5t-11 -129.5q0 -63 11.5 -128t40.5 -117.5t78.5 -85.5t125.5 -33q78 0 128 33.5t79 86t40 117.5t11 127z" />
    <glyph glyph-name="ntilde" unicode="&#xf1;" horiz-adv-x="983" 
d="M862 45q0 -25 -12.5 -35t-32.5 -10h-51q-23 0 -33 12t-10 35v645q0 41 -5.5 77t-19.5 62.5t-40 42t-66 15.5q-43 0 -81.5 -13.5t-72.5 -36t-64.5 -52.5t-58.5 -64q-14 -17 -22 -31.5t-13 -30.5t-6.5 -36t-1.5 -47v-529q0 -23 -9.5 -36t-41.5 -13h-39q-29 0 -39 12.5
t-10 34.5v901q0 26 11 36.5t34 10.5h37q29 0 39 -11.5t10 -33.5v-131q72 93 158 143t180 50q72 0 121.5 -21t80 -58t44.5 -89t14 -113v-686v0zM797 1331q0 -5 -2.5 -21.5t-9 -38t-18 -46t-29 -44.5t-42.5 -33t-59 -13q-38 0 -76.5 14.5t-73.5 31.5t-65.5 31.5t-52.5 14.5
q-18 0 -30.5 -6.5t-21 -17t-13.5 -25t-9 -29.5q-3 -12 -7 -18.5t-20 -6.5h-43q-20 0 -20 19q0 5 2.5 21.5t9 38t18 46t29.5 44.5t43 33t60 13q37 0 75 -14.5t73.5 -31.5t66.5 -31.5t53 -14.5q19 0 32 8.5t21 21t12.5 26t6.5 22.5q3 14 8 19.5t16 5.5h47q19 0 19 -19z" />
    <glyph glyph-name="ograve" unicode="&#xf2;" horiz-adv-x="930" 
d="M866 500q0 -62 -9 -124t-29 -119t-51.5 -107t-76 -87t-103 -58t-132.5 -21q-108 0 -183.5 45t-123.5 118t-70 165.5t-22 187.5q0 63 10 126t30.5 120t52.5 105.5t76.5 84t101.5 56t128 20.5q110 0 186.5 -45.5t124 -118.5t69 -164.5t21.5 -183.5zM723 496q0 64 -11 132.5
t-40 125.5t-79 94t-128 37q-77 0 -126.5 -37t-78.5 -94t-40 -125.5t-11 -132.5q0 -63 11.5 -131t40.5 -124.5t78.5 -93t125.5 -36.5q78 0 128 37t79 93.5t40 124.5t11 130zM596 1122q0 -14 -19 -14h-57q-25 0 -38 5t-32 22l-221 190q-11 9 -14.5 15t-3.5 14q0 6 6.5 9
t17.5 3h119q15 0 25.5 -1t20 -4.5t18.5 -11.5t20 -22l147 -186q11 -13 11 -19z" />
    <glyph glyph-name="oacute" unicode="&#xf3;" horiz-adv-x="930" 
d="M866 500q0 -62 -9 -124t-29 -119t-51.5 -107t-76 -87t-103 -58t-132.5 -21q-108 0 -183.5 45t-123.5 118t-70 165.5t-22 187.5q0 63 10 126t30.5 120t52.5 105.5t76.5 84t101.5 56t128 20.5q110 0 186.5 -45.5t124 -118.5t69 -164.5t21.5 -183.5zM723 496q0 64 -11 132.5
t-40 125.5t-79 94t-128 37q-77 0 -126.5 -37t-78.5 -94t-40 -125.5t-11 -132.5q0 -63 11.5 -131t40.5 -124.5t78.5 -93t125.5 -36.5q78 0 128 37t79 93.5t40 124.5t11 130zM745 1354q0 -8 -3.5 -14t-14.5 -15l-222 -190q-18 -17 -31 -22t-38 -5h-58q-18 0 -18 14q0 6 10 19
l148 186q10 14 19 22t18.5 11.5t20.5 4.5t26 1h118q25 0 25 -12z" />
    <glyph glyph-name="ocircumflex" unicode="&#xf4;" horiz-adv-x="930" 
d="M866 500q0 -62 -9 -124t-29 -119t-51.5 -107t-76 -87t-103 -58t-132.5 -21q-108 0 -183.5 45t-123.5 118t-70 165.5t-22 187.5q0 63 10 126t30.5 120t52.5 105.5t76.5 84t101.5 56t128 20.5q110 0 186.5 -45.5t124 -118.5t69 -164.5t21.5 -183.5zM723 496q0 64 -11 132.5
t-40 125.5t-79 94t-128 37q-77 0 -126.5 -37t-78.5 -94t-40 -125.5t-11 -132.5q0 -63 11.5 -131t40.5 -124.5t78.5 -93t125.5 -36.5q78 0 128 37t79 93.5t40 124.5t11 130zM741 1122q0 -14 -18 -14h-51q-25 0 -38 5t-32 22l-143 127l-144 -127q-18 -17 -31.5 -22t-37.5 -5
h-37q-19 0 -19 14q0 6 11 19l147 186q11 14 19.5 22t17 11.5t18 4.5t21.5 1h84q12 0 21 -1t17.5 -4.5t17.5 -11.5t20 -22l147 -186q10 -13 10 -19z" />
    <glyph glyph-name="otilde" unicode="&#xf5;" horiz-adv-x="930" 
d="M866 500q0 -62 -9 -124t-29 -119t-51.5 -107t-76 -87t-103 -58t-132.5 -21q-108 0 -183.5 45t-123.5 118t-70 165.5t-22 187.5q0 63 10 126t30.5 120t52.5 105.5t76.5 84t101.5 56t128 20.5q110 0 186.5 -45.5t124 -118.5t69 -164.5t21.5 -183.5zM723 496q0 64 -11 132.5
t-40 125.5t-79 94t-128 37q-77 0 -126.5 -37t-78.5 -94t-40 -125.5t-11 -132.5q0 -63 11.5 -131t40.5 -124.5t78.5 -93t125.5 -36.5q78 0 128 37t79 93.5t40 124.5t11 130zM762 1331q0 -5 -2.5 -21.5t-9 -38t-18 -46t-29 -44.5t-42.5 -33t-59 -13q-38 0 -76.5 14.5
t-73.5 31.5t-65.5 31.5t-52.5 14.5q-18 0 -30.5 -6.5t-21 -17t-13.5 -25t-9 -29.5q-3 -12 -7 -18.5t-20 -6.5h-43q-20 0 -20 19q0 5 2.5 21.5t9 38t18 46t29.5 44.5t43 33t60 13q37 0 75 -14.5t73.5 -31.5t66.5 -31.5t53 -14.5q19 0 32 8.5t21 21t12.5 26t6.5 22.5
q3 14 8 19.5t16 5.5h47q19 0 19 -19z" />
    <glyph glyph-name="odieresis" unicode="&#xf6;" horiz-adv-x="930" 
d="M866 500q0 -62 -9 -124t-29 -119t-51.5 -107t-76 -87t-103 -58t-132.5 -21q-108 0 -183.5 45t-123.5 118t-70 165.5t-22 187.5q0 63 10 126t30.5 120t52.5 105.5t76.5 84t101.5 56t128 20.5q110 0 186.5 -45.5t124 -118.5t69 -164.5t21.5 -183.5zM723 496q0 64 -11 132.5
t-40 125.5t-79 94t-128 37q-77 0 -126.5 -37t-78.5 -94t-40 -125.5t-11 -132.5q0 -63 11.5 -131t40.5 -124.5t78.5 -93t125.5 -36.5q78 0 128 37t79 93.5t40 124.5t11 130zM690 1237q0 -34 -24 -58t-58 -24t-58 24t-24 58t24 58t58 24t58 -24t24 -58zM405 1237
q0 -34 -23.5 -58t-57.5 -24q-35 0 -58.5 24t-23.5 58t23.5 58t58.5 24q34 0 57.5 -24t23.5 -58z" />
    <glyph glyph-name="divide" unicode="&#xf7;" horiz-adv-x="1049" 
d="M623 1018q0 -21 -7.5 -38.5t-21 -31t-31.5 -21t-39 -7.5q-42 0 -70 28t-28 70t28 70t70 28q21 0 39 -7.5t31.5 -21t21 -31t7.5 -38.5zM958 662q0 -22 -7.5 -31.5t-30.5 -9.5h-787q-25 0 -33 9.5t-8 31.5v43q0 21 8 30.5t33 9.5h785q24 0 32 -9.5t8 -30.5v-43zM623 348
q0 -21 -7.5 -38.5t-21 -31t-31.5 -21t-39 -7.5q-42 0 -70 28t-28 70t28 70t70 28q21 0 39 -7.5t31.5 -21t21 -31t7.5 -38.5z" />
    <glyph glyph-name="oslash" unicode="&#xf8;" horiz-adv-x="930" 
d="M866 993q0 -6 -2 -12.5t-8 -15.5l-82 -117q48 -74 70 -164.5t22 -183.5q0 -62 -9 -124t-29 -119t-51.5 -107t-76 -87t-103 -58t-132.5 -21t-131.5 21t-102.5 58l-20 -30q-31 -49 -55 -49h-60q-30 0 -30 20q0 13 12 31l78 112q-48 75 -69 166t-21 187q0 63 10 126
t30.5 120t52.5 105.5t76.5 84t101.5 56t128 20.5q74 0 132 -21.5t103 -58.5l23 33q14 21 27.5 34t33.5 13h58q12 0 18 -6.5t6 -12.5zM723 496q0 54 -8.5 112t-28.5 111l-379 -545q29 -29 68 -46t90 -17q78 0 128 37t79 93.5t40 124.5t11 130zM209 496q0 -54 7.5 -111.5
t27.5 -110.5l379 547q-28 29 -67.5 46.5t-90.5 17.5q-77 0 -126.5 -37t-78.5 -94t-40 -125.5t-11 -132.5z" />
    <glyph glyph-name="ugrave" unicode="&#xf9;" horiz-adv-x="983" 
d="M852 47q0 -26 -11 -36.5t-34 -10.5h-37q-29 0 -39 11.5t-10 33.5v131q-72 -93 -158 -142.5t-180 -49.5q-71 0 -120.5 20.5t-80.5 58t-45 88.5t-14 113v686q0 25 12.5 35t32.5 10h51q23 0 33 -12t10 -35v-645q0 -41 5.5 -76.5t19.5 -62.5t39.5 -42.5t66.5 -15.5
q43 0 81.5 13.5t72.5 36t64.5 52.5t58.5 64q14 17 22.5 31.5t13 30.5t6 36t1.5 48v528q0 23 9.5 36t41.5 13h39q29 0 39 -12.5t10 -34.5v-901v0zM590 1122q0 -14 -19 -14h-57q-25 0 -38 5t-32 22l-221 190q-11 9 -14.5 15t-3.5 14q0 6 6.5 9t17.5 3h119q15 0 25.5 -1
t20 -4.5t18.5 -11.5t20 -22l147 -186q11 -13 11 -19z" />
    <glyph glyph-name="uacute" unicode="&#xfa;" horiz-adv-x="983" 
d="M852 47q0 -26 -11 -36.5t-34 -10.5h-37q-29 0 -39 11.5t-10 33.5v131q-72 -93 -158 -142.5t-180 -49.5q-71 0 -120.5 20.5t-80.5 58t-45 88.5t-14 113v686q0 25 12.5 35t32.5 10h51q23 0 33 -12t10 -35v-645q0 -41 5.5 -76.5t19.5 -62.5t39.5 -42.5t66.5 -15.5
q43 0 81.5 13.5t72.5 36t64.5 52.5t58.5 64q14 17 22.5 31.5t13 30.5t6 36t1.5 48v528q0 23 9.5 36t41.5 13h39q29 0 39 -12.5t10 -34.5v-901v0zM778 1354q0 -8 -3.5 -14t-14.5 -15l-222 -190q-18 -17 -31 -22t-38 -5h-58q-18 0 -18 14q0 6 10 19l148 186q10 14 19 22
t18.5 11.5t20.5 4.5t26 1h118q25 0 25 -12z" />
    <glyph glyph-name="ucircumflex" unicode="&#xfb;" horiz-adv-x="983" 
d="M852 47q0 -26 -11 -36.5t-34 -10.5h-37q-29 0 -39 11.5t-10 33.5v131q-72 -93 -158 -142.5t-180 -49.5q-71 0 -120.5 20.5t-80.5 58t-45 88.5t-14 113v686q0 25 12.5 35t32.5 10h51q23 0 33 -12t10 -35v-645q0 -41 5.5 -76.5t19.5 -62.5t39.5 -42.5t66.5 -15.5
q43 0 81.5 13.5t72.5 36t64.5 52.5t58.5 64q14 17 22.5 31.5t13 30.5t6 36t1.5 48v528q0 23 9.5 36t41.5 13h39q29 0 39 -12.5t10 -34.5v-901v0zM766 1122q0 -14 -18 -14h-51q-25 0 -38 5t-32 22l-143 127l-144 -127q-18 -17 -31.5 -22t-37.5 -5h-37q-19 0 -19 14q0 6 11 19
l147 186q11 14 19.5 22t17 11.5t18 4.5t21.5 1h84q12 0 21 -1t17.5 -4.5t17.5 -11.5t20 -22l147 -186q10 -13 10 -19z" />
    <glyph glyph-name="udieresis" unicode="&#xfc;" horiz-adv-x="983" 
d="M852 47q0 -26 -11 -36.5t-34 -10.5h-37q-29 0 -39 11.5t-10 33.5v131q-72 -93 -158 -142.5t-180 -49.5q-71 0 -120.5 20.5t-80.5 58t-45 88.5t-14 113v686q0 25 12.5 35t32.5 10h51q23 0 33 -12t10 -35v-645q0 -41 5.5 -76.5t19.5 -62.5t39.5 -42.5t66.5 -15.5
q43 0 81.5 13.5t72.5 36t64.5 52.5t58.5 64q14 17 22.5 31.5t13 30.5t6 36t1.5 48v528q0 23 9.5 36t41.5 13h39q29 0 39 -12.5t10 -34.5v-901v0zM710 1237q0 -34 -24 -58t-58 -24t-58 24t-24 58t24 58t58 24t58 -24t24 -58zM425 1237q0 -34 -23.5 -58t-57.5 -24
q-35 0 -58.5 24t-23.5 58t23.5 58t58.5 24q34 0 57.5 -24t23.5 -58z" />
    <glyph glyph-name="yacute" unicode="&#xfd;" horiz-adv-x="795" 
d="M803 977q0 -14 -6 -29l-336 -979q-26 -75 -54 -138t-64.5 -108t-85 -70.5t-116.5 -25.5q-34 0 -60 5t-44 12q-23 7 -23 24q0 5 1 11t3 12l19 51q5 14 16.5 18.5t24.5 -0.5q25 -9 43.5 -11.5t32.5 -2.5q33 0 58 21.5t45.5 56t38.5 79t36 89.5l4 8l-328 954q-2 7 -3 11.5
t-1 9.5q0 9 9 14.5t20 5.5h80q18 0 26 -6t15 -24l254 -787l260 787q6 18 14 24t25 6h69q14 0 20.5 -6t6.5 -12zM702 1354q0 -8 -3.5 -14t-14.5 -15l-222 -190q-18 -17 -31 -22t-38 -5h-58q-18 0 -18 14q0 6 10 19l148 186q10 14 19 22t18.5 11.5t20.5 4.5t26 1h118
q25 0 25 -12z" />
    <glyph glyph-name="thorn" unicode="&#xfe;" horiz-adv-x="987" 
d="M924 502q0 -110 -23.5 -204.5t-70.5 -164.5t-117 -109.5t-164 -39.5q-51 0 -93 13.5t-76.5 35.5t-61.5 50.5t-46 59.5v-469q0 -24 -10 -35.5t-41 -11.5h-39q-28 0 -38.5 12.5t-10.5 36.5v1672q0 47 45 47h43q31 0 41 -12t10 -35v-492q20 28 46.5 55.5t61.5 50t79.5 36.5
t101.5 14q70 0 124.5 -21.5t94.5 -59t67.5 -87.5t44.5 -107t24.5 -117t7.5 -118zM780 504q0 67 -12 135t-39.5 123t-73.5 90t-114 35q-65 0 -115.5 -33t-84.5 -86t-51.5 -120.5t-17.5 -137.5q0 -92 20 -166t55 -126t82.5 -80.5t102.5 -28.5q58 0 99 22.5t68.5 58t43.5 80
t24 88.5t10.5 82.5t2.5 63.5z" />
    <glyph glyph-name="ydieresis" unicode="&#xff;" horiz-adv-x="795" 
d="M803 977q0 -14 -6 -29l-336 -979q-26 -75 -54 -138t-64.5 -108t-85 -70.5t-116.5 -25.5q-34 0 -60 5t-44 12q-23 7 -23 24q0 5 1 11t3 12l19 51q5 14 16.5 18.5t24.5 -0.5q25 -9 43.5 -11.5t32.5 -2.5q33 0 58 21.5t45.5 56t38.5 79t36 89.5l4 8l-328 954q-2 7 -3 11.5
t-1 9.5q0 9 9 14.5t20 5.5h80q18 0 26 -6t15 -24l254 -787l260 787q6 18 14 24t25 6h69q14 0 20.5 -6t6.5 -12zM626 1237q0 -34 -24 -58t-58 -24t-58 24t-24 58t24 58t58 24t58 -24t24 -58zM341 1237q0 -34 -23.5 -58t-57.5 -24q-35 0 -58.5 24t-23.5 58t23.5 58t58.5 24
q34 0 57.5 -24t23.5 -58z" />
    <glyph glyph-name="notequal" unicode="&#x2260;" horiz-adv-x="1049" 
d="M958 500q0 -22 -7.5 -31.5t-30.5 -9.5h-402l-78 -236q-16 -47 -55 -47h-63q-13 0 -20 6t-7 13q0 10 6 28l78 236h-246q-25 0 -33 9.5t-8 31.5v43q0 21 8 31t33 10h289l65 198h-354q-25 0 -33 10t-8 31v43q0 22 8 31.5t33 9.5h397l76 226q9 23 22.5 35t33.5 12h63
q12 0 19.5 -6.5t7.5 -12.5q0 -11 -7 -28l-75 -226h248q24 0 32 -9.5t8 -31.5v-43q0 -21 -7.5 -31t-30.5 -10h-293l-66 -198h357q24 0 32 -10t8 -31v-43v0z" />
    <glyph glyph-name="approxequal" unicode="&#x2248;" horiz-adv-x="987" 
d="M897 838q0 -31 -27 -52q-11 -8 -29 -18t-43 -18t-58 -13.5t-74 -5.5q-51 0 -103 16t-98 33q-38 14 -75.5 26.5t-88.5 12.5q-45 0 -87 -13t-85 -44q-5 -3 -9.5 -5.5t-10.5 -2.5q-7 0 -12 3t-5 11v63q0 31 27 52q12 8 29.5 17.5t43 18t58 14t74.5 5.5q51 0 102.5 -16
t97.5 -33q38 -14 76 -26.5t88 -12.5q45 0 87 13t85 44q5 3 9.5 5.5t11.5 2.5q6 0 11 -3t5 -11v-63zM897 537q0 -31 -27 -52q-11 -8 -29 -18t-43 -18t-58 -13.5t-74 -5.5q-51 0 -103 16t-98 33q-38 14 -75.5 26.5t-88.5 12.5q-45 0 -87 -13t-85 -44q-5 -3 -9.5 -5.5
t-10.5 -2.5q-7 0 -12 3t-5 11v63q0 31 27 52q12 8 29.5 17.5t43 18t58 14t74.5 5.5q51 0 102.5 -16t97.5 -33q38 -14 76 -26.5t88 -12.5q45 0 87 13t85 44q5 3 9.5 5.5t11.5 2.5q6 0 11 -3t5 -11v-63z" />
    <glyph glyph-name="Omega" unicode="&#x2126;" horiz-adv-x="1143" 
d="M1087 31q0 -14 -9.5 -22.5t-24.5 -8.5h-355q-32 0 -32 31v51q0 14 3.5 27t14.5 28q10 13 29.5 42.5t42.5 72t47 96.5t43.5 116t32 130.5t12.5 140.5q0 52 -4 110.5t-15.5 116.5t-33 111.5t-57.5 94t-88 65t-124 24.5t-123.5 -24.5t-86.5 -65t-56.5 -94t-32.5 -111.5
t-14.5 -116.5t-3.5 -110.5q0 -72 12.5 -140.5t32 -130.5t43.5 -116t47 -96.5t42.5 -72t29.5 -42.5q11 -15 14.5 -28t3.5 -27v-51q0 -31 -33 -31h-354q-15 0 -25 8.5t-10 22.5v69q0 16 9.5 25.5t21.5 9.5h223q-77 97 -121 187t-66.5 168.5t-28 143t-5.5 109.5q0 68 8 143
t28 147.5t55 138t88.5 115t128.5 79t175 29.5t175 -28.5t129 -77.5t89 -113.5t55 -136.5t28 -146.5t8 -142.5q0 -45 -7 -110.5t-30.5 -145.5t-68.5 -171t-122 -188h230q12 0 21 -9.5t9 -25.5v-69v0z" />
    <glyph glyph-name="infinity" unicode="&#x221e;" horiz-adv-x="1585" 
d="M1522 618q0 -75 -23.5 -139t-67.5 -110.5t-107.5 -72.5t-143.5 -26q-49 0 -99.5 13t-100 41.5t-97 74.5t-90.5 111q-51 -58 -97.5 -102.5t-91.5 -75t-91 -46.5t-97 -16q-72 0 -135.5 22t-111 65.5t-75.5 108t-28 148.5q0 80 28 143t75.5 107t111 67t135.5 23
q56 0 105.5 -16t96 -46.5t91.5 -74.5t90 -100q33 40 74.5 82.5t89.5 76.5t100.5 56t107.5 22q82 0 147.5 -25.5t110.5 -70.5t69 -106.5t24 -133.5zM1397 616q0 47 -14 87.5t-42 70.5t-70.5 47t-99.5 17q-88 0 -164 -58.5t-141 -161.5q31 -53 69 -95.5t78.5 -72.5t82 -46.5
t80.5 -16.5q55 0 96.5 18.5t69 49.5t41.5 72.5t14 88.5zM416 387q43 0 85 17.5t81.5 47.5t76 71t68.5 89q-35 51 -72.5 92.5t-77 71.5t-80.5 46t-83 16q-54 0 -96.5 -18t-71.5 -49t-44.5 -72.5t-15.5 -88.5q0 -49 16.5 -90t47 -70.5t73 -46t93.5 -16.5z" />
    <glyph glyph-name="partialdiff" unicode="&#x2202;" horiz-adv-x="1094" 
d="M1020 825q0 -151 -47 -350q-28 -115 -74 -208t-111 -159t-149.5 -101.5t-187.5 -35.5q-95 0 -165 33t-117 90t-70 134t-23 165q0 109 32 204t89.5 165t136.5 110.5t174 40.5q48 0 99 -11.5t98 -36.5t87 -64.5t68 -95.5q5 27 7.5 64t2.5 71q0 78 -14.5 152.5t-49.5 133
t-92.5 94t-142.5 35.5q-32 0 -64 -5.5t-61.5 -13.5t-54.5 -17.5t-43 -18.5q-23 -11 -37.5 -11.5t-25.5 19.5l-23 56q-16 38 12 55q15 9 47 21.5t72.5 23.5t86 19t89.5 8q85 0 152 -22t117 -61.5t84.5 -93t56.5 -116t31.5 -132.5t9.5 -141zM817 528q-21 52 -50.5 97t-67.5 78
t-85 52t-104 19q-69 0 -121 -32.5t-87.5 -86t-53 -123t-17.5 -143.5q0 -59 14.5 -110.5t44 -89t74 -59t103.5 -21.5q64 0 113.5 25.5t88.5 68.5t69 100.5t53 122.5q5 15 9.5 31.5t8 31t5.5 25t3 14.5z" />
    <glyph glyph-name="summation" unicode="&#x2211;" horiz-adv-x="1094" 
d="M989 -184q0 -43 -45 -43h-805q-20 0 -31.5 11t-11.5 34v20q0 12 1 19.5t3.5 14.5t7 14.5t11.5 19.5l381 674l-367 653q-14 23 -18 37.5t-4 29.5v21q0 20 11.5 32.5t31.5 12.5h772q20 0 32.5 -11.5t12.5 -31.5v-41q0 -43 -45 -43h-629l309 -551q6 -10 12.5 -23t12.5 -26.5
t10 -26.5t4 -22v-19q0 -10 -4 -23t-10 -26.5t-12.5 -27t-12.5 -23.5l-323 -571h661q23 0 34 -11.5t11 -31.5v-41z" />
    <glyph glyph-name="product" unicode="&#x220f;" horiz-adv-x="1212" 
d="M1063 -182q0 -45 -43 -45h-62q-20 0 -31.5 11t-11.5 34v1421h-616v-1421q0 -45 -43 -45h-61q-43 0 -43 45v1503q0 20 11.5 32.5t31.5 12.5h825q43 0 43 -45v-1503v0z" />
    <glyph glyph-name="pi" unicode="&#x3c0;" horiz-adv-x="1214" 
d="M1100 907q0 -15 -9 -26t-26 -11h-160v-688q0 -31 10.5 -44t30.5 -13q8 0 12 0.5t7 1l6 1t8 1.5q12 2 22 -2t13 -18l12 -62q2 -11 -1 -20.5t-15 -14.5q-17 -6 -45.5 -11t-59.5 -5q-32 0 -58 9.5t-44 30.5t-27.5 55.5t-9.5 84.5v694h-322v-634q0 -30 -1 -60t-3 -55.5
t-4.5 -45t-5.5 -28.5q-8 -23 -19 -35t-34 -12h-66q-15 0 -20.5 7t-5.5 13q0 10 1 18.5t3 14.5q8 42 13 98t5 109v610h-155q-17 0 -26 10t-9 25v53q0 17 8 27t22 10h918q15 0 25 -8.5t10 -25.5v-54v0z" />
    <glyph glyph-name="integral" unicode="&#x222b;" horiz-adv-x="809" 
d="M449 -186q0 -64 -13.5 -119t-42.5 -96t-75.5 -64.5t-112.5 -23.5q-42 0 -77 5t-58 13q-16 5 -22 19t-1 28l12 43q7 20 19 25t31 0q11 -3 35 -11t55 -8q34 0 55.5 15.5t33.5 42t16.5 61.5t4.5 74v1345q0 64 13.5 119t42.5 96t75.5 64.5t112.5 23.5q42 0 77 -5t58 -13
q34 -10 23 -47l-13 -43q-6 -20 -18 -25t-31 0q-11 3 -35 11t-55 8q-35 0 -56.5 -15.5t-33.5 -42t-16 -61.5t-4 -74v-1345z" />
    <glyph glyph-name="radical" unicode="&#x221a;" horiz-adv-x="911" 
d="M887 1366q14 0 18.5 -10t1.5 -23l-311 -1306q-5 -14 -15 -20.5t-22 -6.5h-55q-19 0 -29.5 14t-15.5 23l-248 584l-68 -41q-9 -5 -17.5 -2t-14.5 12l-41 59q-5 10 -2.5 20t10.5 13l168 109q9 6 22.5 4t18.5 -13l233 -563l262 1116q2 11 13 21t26 10h66z" />
    <glyph glyph-name="Delta" unicode="&#x2206;" horiz-adv-x="1120" 
d="M1104 31q0 -17 -9.5 -24t-25.5 -7h-1016q-17 0 -26 8t-9 21q0 11 7 28l452 1282q8 23 20 32t33 9h66q22 0 33.5 -9t19.5 -32l449 -1280q6 -15 6 -28zM561 1190l-364 -1063h725z" />
    <glyph glyph-name="lozenge" unicode="&#x25ca;" horiz-adv-x="905" 
d="M842 561q0 -34 -11 -53l-284 -705q-8 -21 -19 -34t-32 -13h-86q-20 0 -32 13t-20 34l-282 705q-10 20 -10 53t10 53l284 705q8 22 19 34.5t33 12.5h86q20 0 31.5 -12.5t19.5 -34.5l282 -705q11 -19 11 -53zM455 1221l-248 -660l246 -659l247 659z" />
    <glyph glyph-name="lessequal" unicode="&#x2264;" horiz-adv-x="1001" 
d="M887 467q0 -17 -8.5 -27t-20.5 -10q-8 0 -20.5 2.5t-24.5 7.5l-659 271q-31 12 -44.5 28t-13.5 45v37q0 29 14 46t42 28l661 272q12 5 24.5 8t20.5 3q12 0 20.5 -10t8.5 -27v-54q0 -24 -14.5 -37t-38.5 -22l-590 -233l590 -222q24 -9 38.5 -21.5t14.5 -37.5v-47zM887 147
q0 -21 -8 -31t-33 -10h-711q-23 0 -31 10t-8 31v43q0 22 8 31.5t33 9.5h709q25 0 33 -9.5t8 -31.5v-43z" />
    <glyph glyph-name="greaterequal" unicode="&#x2265;" horiz-adv-x="1001" 
d="M907 784q0 -29 -13 -45t-44 -28l-660 -271q-12 -5 -24.5 -7.5t-20.5 -2.5q-12 0 -20 10t-8 27v47q0 25 14 37.5t39 21.5l590 222l-590 233q-25 9 -39 22t-14 37v54q0 17 8 27t20 10q8 0 20.5 -3t24.5 -8l662 -272q28 -11 41.5 -28t13.5 -46v-37zM907 147q0 -21 -8 -31
t-31 -10h-710q-25 0 -33 10t-8 31v43q0 22 8 31.5t33 9.5h708q25 0 33 -9.5t8 -31.5v-43z" />
    <glyph glyph-name="apple" unicode="&#xf8ff;" horiz-adv-x="1208" 
d="M117 1366h977v-1366h-977v1366zM606 772l330 498h-664zM215 186l332 498l-332 496v-994zM666 684l333 -498v994zM606 598l-334 -500h664z" />
    <glyph glyph-name="uni2215" unicode="&#x2215;" horiz-adv-x="743" 
d="M772 1376q0 -6 -0.5 -12.5t-5.5 -15.5l-664 -1348q-12 -25 -27.5 -37t-27.5 -12h-41q-15 0 -24 4.5t-9 15.5q0 8 3 14t8 15l663 1348q11 21 25.5 34t34.5 13h38q13 0 20 -6.5t7 -12.5z" />
    <glyph glyph-name="uni00ad" unicode="&#xad;" horiz-adv-x="571" 
d="M518 471q0 -22 -11 -30.5t-28 -8.5h-385q-17 0 -28 8.5t-11 28.5v66q0 38 35 38h393q35 0 35 -38v-64v0z" />
    <glyph glyph-name="uni03a9" unicode="&#x3a9;" horiz-adv-x="1143" 
d="M1087 31q0 -14 -9.5 -22.5t-24.5 -8.5h-355q-32 0 -32 31v51q0 14 3.5 27t14.5 28q10 13 29.5 42.5t42.5 72t47 96.5t43.5 116t32 130.5t12.5 140.5q0 52 -4 110.5t-15.5 116.5t-33 111.5t-57.5 94t-88 65t-124 24.5t-123.5 -24.5t-86.5 -65t-56.5 -94t-32.5 -111.5
t-14.5 -116.5t-3.5 -110.5q0 -72 12.5 -140.5t32 -130.5t43.5 -116t47 -96.5t42.5 -72t29.5 -42.5q11 -15 14.5 -28t3.5 -27v-51q0 -31 -33 -31h-354q-15 0 -25 8.5t-10 22.5v69q0 16 9.5 25.5t21.5 9.5h223q-77 97 -121 187t-66.5 168.5t-28 143t-5.5 109.5q0 68 8 143
t28 147.5t55 138t88.5 115t128.5 79t175 29.5t175 -28.5t129 -77.5t89 -113.5t55 -136.5t28 -146.5t8 -142.5q0 -45 -7 -110.5t-30.5 -145.5t-68.5 -171t-122 -188h230q12 0 21 -9.5t9 -25.5v-69v0z" />
    <glyph glyph-name="uni03bc" unicode="&#x3bc;" horiz-adv-x="993" 
d="M862 47q0 -26 -11 -36.5t-34 -10.5h-37q-29 0 -39 11.5t-10 33.5v131q-69 -96 -147.5 -144t-149.5 -48q-54 0 -92.5 12t-69.5 37v-361q0 -23 -10 -34t-39 -11h-43q-47 0 -47 47v1276q0 25 12.5 35t32.5 10h51q23 0 33 -12t10 -35v-715q0 -25 14.5 -45t37 -33.5t49 -20.5
t51.5 -7q65 0 132.5 38.5t123.5 106.5q14 17 22.5 31.5t13 30.5t6 36t1.5 48v528q0 23 9.5 36t41.5 13h39q29 0 39 -12.5t10 -34.5v-901v0z" />
    <glyph glyph-name="uni02c9" unicode="&#x2c9;" 
d="M631 1214q0 -32 -35 -32h-522q-35 0 -35 32v46q0 32 35 32h522q35 0 35 -32v-46v0z" />
    <glyph glyph-name="uni2219" unicode="&#x2219;" 
d="M428 1237q0 -19 -7 -36t-19.5 -29.5t-29.5 -19.5t-36 -7t-36 7t-29.5 19.5t-19.5 29.5t-7 36t7 36t19.5 29.5t29.5 19.5t36 7t36 -7t29.5 -19.5t19.5 -29.5t7 -36z" />
    <glyph glyph-name="dotaccent" unicode="&#x2d9;" 
d="M428 1237q0 -19 -7 -36t-19.5 -29.5t-29.5 -19.5t-36 -7t-36 7t-29.5 19.5t-19.5 29.5t-7 36t7 36t19.5 29.5t29.5 19.5t36 7t36 -7t29.5 -19.5t19.5 -29.5t7 -36z" />
    <glyph glyph-name="breve" unicode="&#x2d8;" 
d="M596 1366q12 0 18.5 -6.5t1.5 -22.5q-20 -112 -91 -170.5t-199 -58.5q-110 0 -179.5 58.5t-91.5 164.5q-5 13 -0.5 24t23.5 11h39q15 0 22.5 -5t12.5 -18q13 -35 30 -57t39.5 -35.5t49.5 -18.5t59 -5q35 0 64.5 5t53.5 17.5t42 34.5t30 57q3 11 9.5 18t23.5 7h43v0z" />
    </font>
</defs>
</svg>
