<?xml version="1.0" encoding="UTF-8" standalone="no"?>
<!DOCTYPE svg  PUBLIC '-//W3C//DTD SVG 1.1//EN'  'http://www.w3.org/Graphics/SVG/1.1/DTD/svg11.dtd'>
<svg xmlns="http://www.w3.org/2000/svg" version="1.1">
<defs>
<font id="NBS-LightItalic" horiz-adv-x="1120">
<font-face descent="-410" underline-thickness="102" x-height="995" panose-1="2 11 3 3 3 3 3 9 2 4" slope="-9.5" ascent="1638" units-per-em="2048" font-style="italic" bbox="-176 -383 1669 1757" unicode-range="U+0020-02DC" underline-position="-307" font-weight="400" cap-height="1366" font-family="NBS Light"/>
<missing-glyph/>
<glyph unicode=" " horiz-adv-x="442" glyph-name="space"/>
<glyph unicode="!" d="M287 438q-5 -24 -18 -33.5t-31 -9.5h-31q-19 0 -29 9.5t-8 33.5l123 912q3 26 18 35.5t37 9.5h82q20 0 33.5 -9t7.5 -38zM281 98q0 -24 -9 -44.5t-24.5 -35.5t-36.5 -23.5t-45 -8.5q-35 0 -61.5 21.5t-26.5 66.5q0 49 30.5 81.5t81.5 32.5q36 0 63.5 -24t27.5 -66z" horiz-adv-x="467" glyph-name="exclam"/>
<glyph unicode='&quot;' d="M645 938q-2 -19 -7.5 -28t-25.5 -9h-43q-20 0 -25 9t-7 28l-27 422q-2 17 8 26t27 9h92q17 0 27 -9t8 -26zM358 938q-2 -19 -7 -28t-25 -9h-43q-20 0 -25.5 9t-7.5 28l-27 422q0 35 35 35h92q17 0 27 -9t8 -26z" horiz-adv-x="666" glyph-name="quotedbl"/>
<glyph unicode="#" d="M1094 856q0 -17 -9 -25t-24 -8h-191l-39 -280h175q34 0 34 -31v-47q0 -33 -32 -33h-193l-55 -393q-3 -22 -12 -30.5t-27 -8.5h-57q-20 0 -25 10t-2 29l55 393h-243l-56 -393q-3 -22 -11.5 -30.5t-27.5 -8.5h-57q-20 0 -25 10t-2 29l56 393h-170q-35 0 -35 33v45 q0 33 35 33h186l39 280h-172q-35 0 -35 33v45q0 33 35 33h188l56 393q3 22 12 30.5t29 8.5h55q20 0 25 -9t1 -28l-55 -395h244l55 393q3 22 12 30.5t29 8.5h55q20 0 25 -9t2 -28l-55 -395h172q35 0 35 -31v-47zM504 823l-39 -280h244l39 280h-244z" horiz-adv-x="1100" glyph-name="numbersign"/>
<glyph unicode="$" d="M827 422q0 -88 -27 -162t-78.5 -128t-126 -85.5t-169.5 -32.5l-35 -215q-3 -23 -17 -34t-34 -11h-18q-20 0 -30 11t-5 34l37 221q-63 11 -127.5 32.5t-118.5 56.5q-17 8 -17 18q0 5 2 10t7 13l36 61q7 14 18.5 15t20.5 -5q15 -10 36.5 -21t47.5 -21.5t55.5 -19 t59.5 -14.5l86 514q-65 32 -116 67t-86 75.5t-53.5 89t-18.5 108.5q0 80 29.5 145.5t82 112.5t124 73t155.5 26l22 129q3 23 17.5 34t34.5 11h18q41 0 35 -45l-23 -135q113 -17 207 -66q16 -10 16 -24q0 -5 -2 -9.5t-8 -15.5l-30 -53q-10 -14 -25 -15t-25 4q-45 19 -81.5 31 t-73.5 19l-76 -455q54 -27 104 -61t87.5 -76t60 -93.5t22.5 -113.5zM686 393q0 72 -40 129t-118 99l-79 -482q49 4 92 22.5t75.5 50.5t51 77.5t18.5 103.5zM291 1022q0 -69 41 -119.5t123 -95.5l71 422q-43 -2 -85 -14t-75.5 -36.5t-54 -63t-20.5 -93.5z" horiz-adv-x="903" glyph-name="dollar"/>
<glyph unicode="%" d="M786 1116q0 -74 -22.5 -146t-67.5 -130t-111 -93.5t-153 -35.5q-74 0 -127 23.5t-87.5 63t-51 90.5t-16.5 105q0 73 23 145t68 129t111 92.5t152 35.5q75 0 128.5 -24t87.5 -63t50 -89t16 -103zM444 817q56 0 96 26t65 68t36.5 94.5t11.5 104.5q0 34 -9 66t-28 57t-50 40 t-74 15q-56 0 -95.5 -26.5t-64.5 -68.5t-37 -94t-12 -104q0 -34 9 -66t28.5 -57t50 -40t73.5 -15zM1315 1378q0 -12 -12 -30l-875 -1348q-14 -22 -28.5 -34.5t-34.5 -12.5h-54q-11 0 -15.5 5t-4.5 11q0 13 12 31l875 1348q14 21 28.5 34t34.5 13h53q11 0 16 -5.5t5 -11.5z M1448 354q0 -74 -23 -146t-67.5 -130t-110.5 -93.5t-153 -35.5q-74 0 -127.5 23.5t-88 63t-51 90.5t-16.5 105q0 73 23 145t68 129t111 92.5t152 35.5q75 0 129 -23.5t88 -62.5t50 -89.5t16 -103.5zM1106 55q56 0 95.5 26t65 68t37 94.5t11.5 104.5q0 34 -9 66t-28.5 57 t-50 40t-74.5 15q-55 0 -94.5 -26.5t-65 -68.5t-37.5 -94t-12 -104q0 -34 9 -66t28.5 -57t50.5 -40t74 -15z" horiz-adv-x="1530" glyph-name="percent"/>
<glyph unicode="&amp;" d="M1040 18q0 -6 -5 -12t-17 -6h-113q-21 0 -30.5 5.5t-20.5 21.5l-66 92q-55 -44 -103.5 -72.5t-94 -45.5t-90 -23.5t-92.5 -6.5q-80 0 -143 22t-107 61.5t-67 96t-23 125.5q0 75 24 139t66 118.5t99.5 102t125.5 89.5q-62 96 -90.5 171t-28.5 140q0 72 26.5 137t74 114.5 t114 78.5t146.5 29q58 0 107 -17.5t84 -50t55 -78t20 -102.5q0 -73 -23.5 -134.5t-65 -115t-98 -99.5t-122.5 -89l243 -367q15 19 30 43.5t27.5 52t23 56t16.5 55.5l4 18q3 17 11.5 25t25.5 8h73q17 0 21.5 -9t1.5 -26q-19 -94 -57 -175t-101 -157l129 -192q6 -9 8 -13.5 t2 -9.5zM516 803q39 26 80.5 57t75.5 69.5t56 84.5t22 102q0 35 -11.5 63.5t-31.5 48.5t-48 31t-61 11q-40 0 -75 -18t-61 -49t-41 -71t-15 -83q0 -26 6.5 -52.5t20 -56t34 -63.5t49.5 -74zM449 629q-49 -30 -90.5 -63.5t-71.5 -73.5t-47 -87t-17 -104q0 -93 56 -144 t161 -51q26 0 59 6t69.5 20t74.5 36.5t74 54.5z" horiz-adv-x="1139" glyph-name="ampersand"/>
<glyph unicode="&apos;" d="M358 938q-2 -19 -7 -28t-25 -9h-43q-20 0 -25.5 9t-7.5 28l-27 422q-2 17 8 26t27 9h92q17 0 27 -9t8 -26z" horiz-adv-x="385" glyph-name="quotesingle"/>
<glyph unicode="(" d="M406 -356q0 -17 -25 -17h-66q-15 0 -26.5 5t-24.5 24q-40 59 -73.5 133.5t-57.5 160.5t-37.5 181.5t-13.5 196.5q0 140 25.5 279t76.5 271.5t128 256t180 231.5q17 15 31 22t34 7h74q21 0 18 -15q0 -6 -7 -14t-19 -20q-201 -221 -298.5 -482.5t-97.5 -568.5 q0 -173 39 -322t119 -286q8 -13 14.5 -25t6.5 -18z" horiz-adv-x="571" glyph-name="parenleft"/>
<glyph unicode=")" d="M496 694q0 -141 -25.5 -280t-76.5 -271.5t-128 -255.5t-180 -231q-17 -16 -31.5 -22.5t-34.5 -6.5h-73q-22 0 -19 15q0 6 7.5 14t19.5 20q199 220 297 482.5t98 568.5q0 173 -38.5 322t-118.5 286q-8 13 -14.5 25t-6.5 18q0 17 25 17h65q16 0 27.5 -5t23.5 -24 q40 -59 73.5 -133.5t58 -160.5t38 -181.5t13.5 -196.5z" horiz-adv-x="571" glyph-name="parenright"/>
<glyph unicode="*" d="M821 1106q0 -6 -12 -8.5t-31 -7.5l-217 -50l156 -176q6 -8 12 -14.5t6 -11.5q0 -3 -4.5 -10t-13.5 -13l-62 -43q-5 -3 -10 -5.5t-10 -2.5q-3 0 -9.5 5.5t-11.5 14.5l-122 203l-123 -203q-15 -20 -21 -20q-5 0 -11 2.5t-11 5.5l-66 49q-6 5 -8 9.5t-2 7.5q0 6 4 11t10 13 l156 178l-223 52q-14 3 -24.5 6.5t-10.5 9.5q0 8 1 13t3 12l22 69q4 11 9 16t8 5q7 0 31 -11l210 -90l-20 230q0 3 -1 11.5t-1 14.5t5 11.5t17 5.5h89q22 0 22 -15q0 -6 -1 -13t-1 -13l-18 -232l202 88q8 3 20 9t17 6t9 -3t8 -14l24 -80q2 -6 3 -11t1 -11z" horiz-adv-x="752" glyph-name="asterisk"/>
<glyph unicode="+" d="M983 662q0 -22 -8 -31.5t-31 -9.5h-332v-330q0 -25 -9.5 -33t-31.5 -8h-43q-21 0 -31 8t-10 31v332h-329q-25 0 -33 9.5t-8 31.5v43q0 21 8 30.5t33 9.5h329v330q0 25 10 33t31 8h43q22 0 31.5 -8t9.5 -33v-330h330q25 0 33 -9.5t8 -30.5v-43v0z" horiz-adv-x="1028" glyph-name="plus"/>
<glyph unicode="," d="M256 90q0 -41 -18 -82.5t-45.5 -81.5t-61.5 -77.5t-65 -69.5q-24 -24 -39 -10l-27 22q-11 9 -9 17.5t11 17.5q34 34 63.5 74.5t51.5 85.5q-34 8 -52 31t-18 55q0 25 10 45.5t26 35.5t36.5 23t42.5 8q38 0 66 -24.5t28 -69.5z" horiz-adv-x="428" glyph-name="comma"/>
<glyph unicode="-" d="M508 471q-3 -22 -15.5 -30.5t-29.5 -8.5h-377q-17 0 -26.5 8.5t-6.5 28.5l10 66q7 38 41 38h385q35 0 29 -38l-10 -64v0z" horiz-adv-x="559" glyph-name="hyphen"/>
<glyph unicode="." d="M258 98q0 -24 -8.5 -44.5t-24 -35.5t-36.5 -23.5t-46 -8.5q-35 0 -61.5 21.5t-26.5 66.5q0 49 31 81.5t82 32.5q18 0 34 -6t28.5 -18t20 -28.5t7.5 -37.5z" horiz-adv-x="428" glyph-name="period"/>
<glyph unicode="/" d="M852 1407q0 -14 -8 -31l-781 -1407q-12 -21 -25.5 -34t-33.5 -13h-53q-11 0 -16 5t-5 12q0 6 2 13.5t7 16.5l780 1407q12 22 25.5 34.5t33.5 12.5h53q11 0 16 -5t5 -11z" horiz-adv-x="700" glyph-name="slash"/>
<glyph unicode="0" d="M1038 889q0 -81 -11.5 -181t-37.5 -202t-69 -198.5t-105.5 -171t-146.5 -120t-193 -45.5q-81 0 -150.5 28.5t-119.5 88.5t-78.5 154.5t-28.5 226.5q0 81 11 181.5t37 203.5t68.5 200.5t104.5 173t146 121.5t194 46q81 0 150 -28t120 -89t80 -157t29 -232zM885 901 q0 71 -12 136t-40 115t-74 80t-114 30q-80 0 -140.5 -42t-104 -110.5t-72.5 -155t-45.5 -176.5t-23.5 -174.5t-7 -148.5q0 -69 12 -132t40 -112t74 -78t114 -29q80 0 140.5 41.5t104 109.5t72.5 154t45.5 174.5t23.5 171.5t7 146z" horiz-adv-x="1067" glyph-name="zero"/>
<glyph unicode="1" d="M391 43q-6 -43 -49 -43h-57q-43 0 -37 43l194 1167l-235 -92q-23 -9 -36 -5t-21 26l-15 41q-6 15 -6 24q0 23 35 35l317 125q26 11 41 13.5t35 2.5h16q20 0 28 -12.5t5 -34.5z" horiz-adv-x="641" glyph-name="one"/>
<glyph unicode="2" d="M903 1067q0 -83 -29 -159.5t-78 -148.5t-113 -140.5t-134 -135.5q-26 -24 -59 -56.5t-68.5 -67t-71.5 -69.5t-67.5 -65t-56 -53.5t-36.5 -34.5h570q25 0 32.5 -10.5t4.5 -32.5l-9 -51q-3 -20 -14.5 -31.5t-34.5 -11.5h-727q-20 0 -28 12t-4 29l8 51q6 32 39 62 q32 29 74 69.5t88 86.5t93.5 94t90.5 92t78.5 80t58.5 59q42 42 84.5 89t76.5 99.5t55.5 111t21.5 124.5q0 48 -19 85.5t-50.5 63.5t-72.5 40t-86 14q-88 0 -158.5 -24.5t-128.5 -53.5q-18 -10 -30.5 -8.5t-22.5 18.5l-26 49q-5 8 -4.5 15.5t2.5 13.5q0 8 8.5 16t19.5 15 q41 21 81.5 38t85 29t93.5 18.5t107 6.5q67 0 131 -20t114 -61t80.5 -102.5t30.5 -144.5z" horiz-adv-x="922" glyph-name="two"/>
<glyph unicode="3" d="M893 1096q0 -63 -14.5 -119.5t-46 -104.5t-82 -86.5t-121.5 -66.5q56 -23 95.5 -57.5t65 -76t37 -87t11.5 -88.5q0 -100 -33.5 -181t-94 -138.5t-144 -88.5t-183.5 -31q-46 0 -97 8t-99.5 21.5t-92.5 32t-76 39.5q-11 6 -13.5 12t-2.5 14q0 6 2.5 13t7.5 16l31 57 q11 20 26.5 19.5t26.5 -6.5q71 -47 146.5 -70t152.5 -23q59 0 111 21.5t90.5 59.5t61 91t22.5 115t-20.5 111.5t-55 84t-79.5 52.5t-93 18h-76q-23 0 -34 11t-9 37l9 38q3 20 14.5 30.5t36.5 10.5h73q55 0 107 16.5t93 51.5t66 88.5t25 128.5q0 41 -15 76t-43 61t-69 41 t-92 15q-66 0 -128 -12t-134 -46q-14 -6 -26.5 -7.5t-20.5 13.5l-27 54q-8 16 -8 26t6 17t25 16q39 18 77.5 31.5t79 22.5t85.5 13.5t96 4.5q79 0 143.5 -24.5t110.5 -65.5t71 -95t25 -114z" horiz-adv-x="942" glyph-name="three"/>
<glyph unicode="4" d="M973 410q-3 -20 -16.5 -31.5t-34.5 -11.5h-119l-53 -322q-7 -45 -50 -45h-59q-43 0 -37 45l53 322h-581q-23 0 -31.5 11.5t-5.5 31.5l6 43q5 24 11.5 38.5t25.5 34.5l698 809q17 23 34.5 34t49.5 11h66q20 0 30 -12.5t7 -32.5l-142 -841h119q22 0 30 -11.5t5 -31.5z M801 1176l-586 -682h465z" horiz-adv-x="1036" glyph-name="four"/>
<glyph unicode="5" d="M893 477q0 -104 -34.5 -196t-99.5 -161t-159.5 -109t-214.5 -40q-45 0 -93.5 7.5t-95 21t-88.5 31.5t-73 39q-8 5 -11.5 11.5t-3.5 12.5q0 14 11 31l28 45q13 20 29.5 24t32.5 -6q57 -37 127.5 -61.5t142.5 -24.5q84 0 148 30t107.5 81t66 118t22.5 142q0 51 -13 98 t-41 83t-71 57.5t-104 21.5q-69 0 -129.5 -8t-120.5 -27q-46 -13 -59 17l-17 33q-8 19 -8 30q0 8 3.5 24.5t8.5 33.5l125 487q5 15 18.5 29t34.5 14h531q31 0 39.5 -11.5t3.5 -39.5l-6 -41q-5 -23 -21.5 -34t-38.5 -11h-458l-95 -391q50 14 101 20t102 6q86 0 155 -25 t117.5 -74t74.5 -121.5t26 -166.5z" horiz-adv-x="979" glyph-name="five"/>
<glyph unicode="6" d="M993 471q0 -104 -35.5 -195t-99 -158.5t-152.5 -107t-196 -39.5q-97 0 -171.5 34t-125.5 94.5t-77.5 145.5t-26.5 187q0 85 15 189.5t47 211.5t82 208t119.5 180t159.5 126.5t203 47.5q93 0 156.5 -16.5t101.5 -35.5q23 -9 23 -28q0 -5 -2.5 -13t-7.5 -16l-27 -51 q-11 -22 -26 -22t-35 10q-33 15 -87 27t-114 12q-84 0 -153.5 -46t-124 -122.5t-92 -175.5t-56.5 -205q60 66 142.5 106.5t199.5 40.5q84 0 151 -31t113.5 -84.5t71 -124t24.5 -149.5zM834 459q0 57 -17.5 106t-49.5 85t-76.5 56.5t-98.5 20.5q-49 0 -95 -15t-87 -40 t-75.5 -57.5t-60.5 -67.5q-6 -23 -9 -52.5t-3 -60.5q0 -60 14.5 -119t46.5 -106t82.5 -76t122.5 -29q69 0 125 27t96.5 74.5t62.5 112.5t22 141z" horiz-adv-x="1067" glyph-name="six"/>
<glyph unicode="7" d="M991 1315q-3 -17 -8.5 -32t-19.5 -34q-58 -80 -120 -172.5t-125 -193.5t-125 -208t-119.5 -215.5t-109.5 -217t-94 -211.5q-9 -22 -18 -33.5t-31 -11.5h-92q-11 0 -18 5t-7 17q0 5 3 13l6 16q34 84 83 185.5t107 210t121.5 220t127 216t124 197t112.5 163.5h-624 q-47 0 -41 43l10 51q6 43 53 43h766q47 0 41 -37z" horiz-adv-x="838" glyph-name="seven"/>
<glyph unicode="8" d="M981 436q0 -106 -39 -192t-107.5 -146.5t-161 -93.5t-200.5 -33q-84 0 -156 23t-125 67.5t-83.5 111t-30.5 153.5q0 80 25 147.5t68.5 120.5t103 90.5t128.5 58.5q-92 39 -135 111t-43 166q0 89 36.5 158.5t99 117.5t144 73.5t171.5 25.5q88 0 155.5 -24t113.5 -65 t69.5 -95.5t23.5 -114.5q0 -62 -18.5 -117.5t-53 -101.5t-84.5 -82t-112 -58q37 -18 75 -44t68 -62t49 -84t19 -111zM592 805q55 0 107.5 18t94 52.5t66.5 84.5t25 113q0 42 -17 77t-47 61t-71.5 40.5t-90.5 14.5q-52 0 -103 -13.5t-91 -42t-65 -73t-25 -105.5 q0 -54 18.5 -96t49 -71t69.5 -44.5t80 -15.5zM494 102q67 0 126.5 21t104.5 62.5t71.5 102t26.5 138.5q0 72 -27.5 119.5t-66.5 75.5t-82 39.5t-74 11.5q-68 0 -129.5 -22.5t-107.5 -64.5t-73 -101t-27 -132q0 -53 16.5 -98.5t49.5 -79.5t81 -53t111 -19z" horiz-adv-x="1079" glyph-name="eight"/>
<glyph unicode="9" d="M1040 934q0 -85 -12.5 -189.5t-41.5 -211t-76 -207.5t-117 -179q-35 -39 -74 -71.5t-86.5 -55.5t-104.5 -36t-129 -13q-43 0 -82 5.5t-72.5 14t-61 19t-46.5 19.5q-22 9 -22 28q0 5 2.5 13t7.5 16l27 51q11 22 26 22t35 -9q32 -16 82.5 -31t110.5 -15q51 0 92.5 10t76 28 t63.5 42.5t54 53.5q68 78 106 182.5t60 226.5q-60 -66 -140.5 -101.5t-197.5 -35.5q-84 0 -151.5 30.5t-115 83t-72.5 122.5t-25 149q0 103 35.5 194.5t99 159t152.5 107t196 39.5q97 0 171.5 -34t125.5 -94.5t77.5 -145.5t26.5 -187zM887 932q0 60 -14.5 119t-46.5 106 t-82.5 76t-122.5 29q-69 0 -125 -27t-96.5 -74.5t-62.5 -112.5t-22 -141q0 -57 18.5 -105t51 -83.5t77.5 -55.5t99 -20q49 0 94.5 13.5t85.5 36.5t73.5 54t59.5 66q7 23 10 55.5t3 63.5z" horiz-adv-x="1067" glyph-name="nine"/>
<glyph unicode=":" d="M383 858q0 -24 -8.5 -44.5t-24 -35.5t-36.5 -24t-46 -9q-35 0 -61.5 22t-26.5 67q0 49 31 81.5t82 32.5q18 0 34 -6.5t28.5 -18t20 -28t7.5 -37.5zM258 98q0 -24 -8.5 -44.5t-24 -35.5t-36.5 -23.5t-46 -8.5q-35 0 -61.5 21.5t-26.5 66.5q0 49 31 81.5t82 32.5 q18 0 34 -6t28.5 -18t20 -28.5t7.5 -37.5z" horiz-adv-x="428" glyph-name="colon"/>
<glyph unicode=";" d="M256 90q0 -41 -18 -82.5t-45.5 -81.5t-61.5 -77.5t-65 -69.5q-24 -24 -39 -10l-27 22q-11 9 -9 17.5t11 17.5q34 34 63.5 74.5t51.5 85.5q-34 8 -52 31t-18 55q0 25 10 45.5t26 35.5t36.5 23t42.5 8q38 0 66 -24.5t28 -69.5zM383 858q0 -24 -8.5 -44.5t-24 -35.5 t-36.5 -24t-46 -9q-35 0 -61.5 22t-26.5 67q0 49 31 81.5t82 32.5q18 0 34 -6.5t28.5 -18t20 -28t7.5 -37.5z" horiz-adv-x="428" glyph-name="semicolon"/>
<glyph unicode="&lt;" d="M918 338q0 -17 -8.5 -27t-20.5 -10q-8 0 -20.5 2.5t-24.5 7.5l-660 271q-31 12 -44 28t-13 45v37q0 29 13.5 46t41.5 28l662 272q12 5 24.5 8t20.5 3q12 0 20.5 -10t8.5 -27v-54q0 -24 -14.5 -37t-39.5 -22l-590 -219l590 -236q25 -8 39.5 -21t14.5 -38v-47v0z" horiz-adv-x="981" glyph-name="less"/>
<glyph unicode="=" d="M983 823q0 -21 -8 -31t-31 -10h-786q-25 0 -33 10t-8 31v43q0 22 8 31.5t33 9.5h784q25 0 33 -9.5t8 -31.5v-43zM983 500q0 -22 -8 -31.5t-31 -9.5h-786q-25 0 -33 9.5t-8 31.5v43q0 21 8 31t33 10h784q25 0 33 -10t8 -31v-43z" horiz-adv-x="1028" glyph-name="equal"/>
<glyph unicode="&gt;" d="M926 657q0 -29 -14 -45.5t-42 -27.5l-661 -273q-12 -5 -24.5 -7.5t-20.5 -2.5q-13 0 -21 10t-8 27v53q0 25 14.5 37.5t38.5 22.5l590 219l-590 235q-24 8 -38.5 21.5t-14.5 38.5v47q0 17 8 27t21 10q8 0 20.5 -3t24.5 -8l659 -270q31 -12 44.5 -28.5t13.5 -45.5v-37v0z " horiz-adv-x="981" glyph-name="greater"/>
<glyph unicode="?" d="M815 1141q0 -56 -18.5 -106t-49.5 -94.5t-71.5 -85t-83.5 -77.5q-46 -38 -79 -67.5t-55.5 -60.5t-37.5 -69.5t-25 -93.5l-6 -34q-5 -34 -18 -46t-35 -12h-33q-8 0 -16 2.5t-13.5 9t-8 18.5t0.5 30l15 94q9 54 30 96t51.5 78t68.5 69.5t81 69.5q28 23 57.5 50.5t53 60 t38.5 70t15 81.5q0 29 -10 55.5t-32.5 46t-58 31t-86.5 11.5q-55 0 -116.5 -12.5t-132.5 -43.5q-26 -11 -39.5 -9.5t-22.5 20.5l-20 45q-6 12 -6 20q0 14 11 23.5t25 15.5q77 32 150.5 50t161.5 18q74 0 132.5 -20t99 -54.5t62 -81t21.5 -98.5zM395 98q0 -24 -8.5 -44.5 t-24 -35.5t-36.5 -23.5t-45 -8.5q-36 0 -62 21.5t-26 66.5q0 49 30.5 81.5t81.5 32.5q18 0 34 -6t28.5 -18t20 -28.5t7.5 -37.5z" horiz-adv-x="793" glyph-name="question"/>
<glyph unicode="@" d="M1669 739q0 -73 -15 -156t-45 -164t-74.5 -155.5t-104 -131t-133.5 -90.5t-162 -34q-23 0 -46 7t-42 22.5t-32 39.5t-16 58q-35 -35 -72.5 -59t-75 -39t-74.5 -22t-70 -7q-66 0 -116 24.5t-83.5 68t-50.5 102t-17 127.5q0 68 13.5 143.5t40.5 148.5t68 139.5t97 117 t126.5 80.5t156.5 30q33 0 61.5 -6.5t52.5 -17.5t44 -25t37 -29q6 26 16 46t33 20h57q19 0 26.5 -5.5t4.5 -21.5q0 -16 -6 -41l-135 -628q-8 -36 -11.5 -61.5t-3.5 -33.5q0 -23 11.5 -37t35.5 -14q56 0 105.5 25.5t91 69.5t74 102.5t55.5 124t35 134.5t12 134 q0 119 -38 220.5t-107.5 176t-168 116.5t-218.5 42q-121 0 -227.5 -35t-195.5 -97t-159 -148.5t-119 -189.5t-74.5 -219t-25.5 -237q0 -133 39 -245t115.5 -193.5t191 -127.5t264.5 -46q84 0 158 12t136 30t113.5 39.5t90.5 41.5q37 18 53 18.5t27 -22.5l16 -37q6 -12 6 -23 q0 -12 -14 -21t-39 -22q-41 -20 -98 -43t-127.5 -42.5t-153.5 -32.5t-176 -13q-185 0 -323 54t-229 149t-136 226t-45 286q0 129 28 257t83 245t135 218t185 175t233 116t278 42q142 0 262 -50t207 -138t135.5 -208t48.5 -260zM1106 774q-12 17 -29.5 33.5t-39.5 30 t-49.5 22t-59.5 8.5q-58 0 -106.5 -23.5t-87 -64t-67 -93t-47.5 -110t-28.5 -117t-9.5 -112.5q0 -45 9 -83.5t29.5 -67.5t54 -45.5t83.5 -16.5q34 0 75.5 15.5t78.5 41.5t64.5 60t35.5 72z" horiz-adv-x="1692" glyph-name="at"/>
<glyph unicode="A" d="M1001 82q4 -16 5.5 -27t1.5 -16q0 -17 -8 -28t-31 -11h-68q-20 0 -28 7.5t-11 29.5l-53 315h-559l-158 -311q-12 -23 -22.5 -32t-30.5 -9h-70q-28 0 -28 25q0 15 10 32l657 1282q11 23 24.5 32t35.5 9h67q22 0 32 -9t15 -32zM672 1190l-357 -711h473z" horiz-adv-x="1085" glyph-name="A"/>
<glyph unicode="B" d="M1008 455q0 -120 -45 -206t-122.5 -141.5t-181 -81.5t-219.5 -26h-319q-29 0 -37.5 12t-5.5 35l213 1272q5 25 17 36t40 11h293q70 0 139 -14t124 -46.5t88.5 -85.5t33.5 -130q0 -135 -70.5 -222t-195.5 -131q57 -13 103 -41t78.5 -65.5t49.5 -82.5t17 -93zM879 1067 q0 47 -19.5 79.5t-54 53t-80.5 30t-100 9.5h-201l-76 -444h139q65 0 110 5.5t83 16.5q40 12 76.5 33t63.5 52t43 72.5t16 92.5zM457 135q80 0 151 14t124.5 50t84.5 98t31 158q0 37 -20 80.5t-70 78.5q-50 32 -112 43t-124 11h-194l-88 -533h217z" horiz-adv-x="1092" glyph-name="B"/>
<glyph unicode="C" d="M930 115q0 -11 -9.5 -20t-21.5 -17q-32 -20 -71 -39t-85 -34t-100 -24.5t-115 -9.5q-84 0 -162 31t-138 94.5t-96 160.5t-36 230q0 96 14 201t45 205.5t79.5 191.5t118.5 160t161.5 109.5t208.5 40.5q51 0 97 -9t85 -22t68.5 -27.5t46.5 -25.5q12 -8 16 -15.5t4 -13.5 t-2.5 -14.5t-11.5 -22.5l-29 -47q-11 -15 -23.5 -16.5t-25.5 6.5q-46 29 -107.5 49t-142.5 20q-82 0 -146.5 -35.5t-113.5 -95t-83.5 -136.5t-56.5 -159.5t-32 -164.5t-10 -152q0 -82 16.5 -155.5t52 -129t91.5 -88t135 -32.5q26 0 47 1.5t39.5 5t36.5 8.5t39 13 q46 17 75.5 33t57.5 33q18 11 32 6t19 -16l29 -62q4 -8 4 -16z" horiz-adv-x="1022" glyph-name="C"/>
<glyph unicode="D" d="M1098 856q0 -105 -19 -209.5t-58.5 -200t-99.5 -177t-141.5 -141.5t-186 -94t-231.5 -34h-241q-29 0 -37.5 12t-5.5 35l213 1272q5 25 17 36t40 11h219q138 0 238 -38t165 -106t96.5 -161.5t31.5 -204.5zM377 135q102 0 183 27.5t143.5 76.5t107 116t72.5 146.5t41.5 168 t13.5 180.5q0 115 -30.5 190t-82 119.5t-120 62t-144.5 17.5h-137l-184 -1104h137z" horiz-adv-x="1118" glyph-name="D"/>
<glyph unicode="E" d="M822 43q-6 -43 -51 -43h-651q-43 0 -37 45l213 1276q5 20 18 32.5t33 12.5h631q18 0 29 -11.5t8 -31.5l-9 -41q-6 -43 -49 -43h-528l-78 -461h449q45 0 39 -43l-9 -41q-3 -20 -15.5 -31.5t-35.5 -11.5h-448l-86 -516h548q23 0 31.5 -11.5t5.5 -31.5l-8 -49v0z" horiz-adv-x="950" glyph-name="E"/>
<glyph unicode="F" d="M1001 1282q-6 -43 -49 -43h-528l-82 -485h449q23 0 32.5 -11.5t5.5 -31.5l-8 -41q-6 -43 -51 -43h-448l-99 -584q-6 -43 -51 -43h-57q-43 0 -37 45l213 1276q5 20 18 32.5t33 12.5h631q18 0 29 -11.5t8 -31.5l-9 -41v0z" horiz-adv-x="913" glyph-name="F"/>
<glyph unicode="G" d="M895 74q-6 -34 -33 -45q-11 -5 -38.5 -15t-68.5 -20t-92 -17.5t-108 -7.5q-111 0 -198.5 36.5t-148.5 104t-93.5 163t-32.5 214.5q0 96 14 201t45 205.5t79.5 191.5t118.5 160t161.5 109.5t208.5 40.5q51 0 99.5 -8.5t90 -21t73 -27t48.5 -25.5q12 -8 16 -15.5t4 -13.5 t-2.5 -14.5t-11.5 -22.5l-29 -47q-11 -15 -23.5 -16.5t-25.5 6.5q-46 29 -114.5 48t-149.5 19q-82 0 -146.5 -35.5t-113.5 -95t-84 -136.5t-56.5 -159.5t-31.5 -164.5t-10 -152q0 -86 17 -160.5t56.5 -129.5t103.5 -86.5t159 -31.5q58 0 102.5 8.5t81.5 20.5l61 377h-188 q-23 0 -32.5 10.5t-4.5 36.5l6 37q6 43 53 43h289q19 0 28.5 -11.5t6.5 -31.5z" horiz-adv-x="1049" glyph-name="G"/>
<glyph unicode="H" d="M952 45q-6 -45 -49 -45h-59q-43 0 -37 45l100 602h-583l-101 -602q-6 -45 -49 -45h-59q-43 0 -37 45l213 1276q5 20 18 32.5t33 12.5h59q20 0 30 -11t5 -34l-90 -547h584l90 547q9 45 51 45h59q20 0 30 -11t5 -34l-213 -1276v0z" horiz-adv-x="1171" glyph-name="H"/>
<glyph unicode="I" d="M223 45q-6 -45 -49 -45h-59q-43 0 -37 45l213 1276q9 45 51 45h59q20 0 30 -11t5 -34l-213 -1276v0z" horiz-adv-x="442" glyph-name="I"/>
<glyph unicode="J" d="M399 283q-28 -159 -102 -235.5t-195 -76.5q-48 0 -88.5 7.5t-62.5 15.5q-8 3 -13.5 7.5t-5.5 12.5q0 7 2 13t9 20l22 51q6 17 18 19.5t21 -0.5q60 -19 100 -19q34 0 59.5 14t43.5 40.5t29.5 64.5t19.5 86l170 1018q5 23 18 34t33 11h60q20 0 29.5 -11t4.5 -34l-172 -1038 v0z" horiz-adv-x="553" glyph-name="J"/>
<glyph unicode="K" d="M885 25q0 -13 -8.5 -19t-22.5 -6h-76q-23 0 -35 9t-24 26l-387 653l-109 -643q-6 -45 -49 -45h-59q-43 0 -37 45l213 1276q5 20 18 32.5t33 12.5h59q20 0 30 -11t5 -34l-96 -586l547 602q14 16 28 22.5t37 6.5h88q25 0 25 -16q0 -8 -6.5 -17.5t-14.5 -17.5l-567 -604 l400 -662q8 -13 8 -24z" horiz-adv-x="977" glyph-name="K"/>
<glyph unicode="L" d="M786 43q-3 -20 -14.5 -31.5t-34.5 -11.5h-622q-43 0 -37 45l213 1276q5 20 18 32.5t33 12.5h57q20 0 31 -11.5t8 -31.5l-198 -1188h520q23 0 30.5 -11.5t4.5 -31.5l-9 -49v0z" horiz-adv-x="874" glyph-name="L"/>
<glyph unicode="M" d="M1157 45q-6 -45 -49 -45h-51q-43 0 -37 45l174 997l-467 -800q-11 -20 -24 -28.5t-33 -8.5h-54q-21 0 -29.5 10t-15.5 33l-194 786l-162 -989q-6 -45 -49 -45h-51q-43 0 -37 45l213 1276q5 20 18 32.5t35 12.5h57q17 0 25.5 -7t13.5 -26l232 -946l553 946q11 19 22 26 t31 7h55q22 0 32 -12.5t5 -32.5l-213 -1276v0z" horiz-adv-x="1376" glyph-name="M"/>
<glyph unicode="N" d="M973 45q-3 -23 -16 -34t-33 -11h-45q-20 0 -32 11t-22 34l-436 1073l-174 -1073q-6 -45 -49 -45h-51q-43 0 -37 45l213 1276q5 20 18 32.5t33 12.5h59q20 0 31 -11t21 -34l428 -1045l168 1045q9 45 49 45h53q20 0 30 -11t5 -34l-213 -1276v0z" horiz-adv-x="1192" glyph-name="N"/>
<glyph unicode="O" d="M1087 930q0 -66 -6.5 -142.5t-21 -156t-37.5 -159.5t-57 -153.5t-78.5 -137t-102 -110t-129 -73.5t-157.5 -27q-109 0 -184.5 40t-122.5 105.5t-68 148.5t-21 169q0 87 12 192t39 212t71.5 207t110.5 178t154 125t203 47q109 0 184.5 -40t122 -105.5t67.5 -149t21 -170.5 zM510 106q83 0 146 41t109.5 108t78 153t50 175.5t26.5 176t8 155.5q0 73 -11.5 136t-40 109.5t-76 73t-118.5 26.5q-82 0 -145.5 -41t-110 -107.5t-78 -152t-51 -175.5t-27.5 -176.5t-8 -154.5q0 -73 11.5 -136.5t40 -110t76.5 -73.5t120 -27z" glyph-name="O"/>
<glyph unicode="P" d="M1057 1038q0 -111 -37 -198.5t-106 -147.5t-167.5 -91.5t-220.5 -31.5h-215l-88 -524q-6 -45 -49 -45h-59q-43 0 -37 45l213 1276q5 20 18 32.5t33 12.5h274q89 0 169 -18.5t140.5 -58.5t96 -102t35.5 -149zM512 696q88 0 160.5 15.5t123.5 53t79 101t28 160.5 q0 62 -25 103t-69.5 65.5t-106 34.5t-135.5 10h-143l-92 -543h180z" horiz-adv-x="999" glyph-name="P"/>
<glyph unicode="Q" d="M1087 930q0 -86 -11 -188t-36.5 -206t-67 -202t-103 -175.5t-144.5 -127.5t-190 -58l-9 -43q-2 -9 -3 -20t-1 -19q0 -43 21 -65.5t75 -22.5q23 0 43.5 4t38.5 9q17 5 25.5 -4t11.5 -29l4 -23q2 -8 3 -16t1 -14q0 -14 -6 -20t-20 -11q-10 -3 -24.5 -6t-30.5 -6t-31 -4.5 t-27 -1.5q-105 0 -164 45.5t-59 138.5q0 14 2.5 36.5t5.5 39.5l6 41q-81 18 -137 62.5t-91 106t-51 135t-16 148.5q0 87 12 192t39 212t71.5 207t110.5 178t154 125t203 47q109 0 184.5 -40t122 -105.5t67.5 -149t21 -170.5zM510 106q83 0 146 41t109.5 108t78 153t50 175.5 t26.5 176t8 155.5q0 73 -11.5 136t-40 109.5t-76 73t-118.5 26.5q-82 0 -145.5 -41t-110 -107.5t-78 -152t-51 -175.5t-27.5 -176.5t-8 -154.5q0 -73 11.5 -136.5t40 -110t76.5 -73.5t120 -27z" glyph-name="Q"/>
<glyph unicode="R" d="M1049 1061q0 -81 -23 -152.5t-67 -128.5t-110 -97t-151 -58l213 -572q5 -11 7 -17t2 -11q0 -13 -8.5 -19t-22.5 -6h-68q-26 0 -39.5 9t-23.5 40l-199 561h-244l-96 -565q-6 -45 -49 -45h-55q-43 0 -37 45l213 1276q5 20 18 32.5t33 12.5h248q90 0 172.5 -15t146.5 -50.5 t102 -94t38 -145.5zM510 737q84 0 154.5 12t122.5 45t81 91.5t29 152.5q0 62 -25.5 101.5t-71 61.5t-108 30t-137.5 8h-135l-84 -502h174z" horiz-adv-x="1038" glyph-name="R"/>
<glyph unicode="S" d="M836 403q0 -93 -29.5 -172.5t-85.5 -137t-137 -90t-185 -32.5q-83 0 -175 25.5t-173 73.5q-16 11 -16 22q2 5 3.5 10t6.5 13l39 65q8 14 20 15.5t21 -5.5q21 -14 53 -29t70 -27.5t80 -21t82 -8.5q57 0 107.5 17.5t88 51t59 84t21.5 116.5q0 91 -53 154t-152 110 q-79 37 -140 75t-102.5 82.5t-63 98.5t-21.5 123q0 85 31.5 155t87.5 119.5t132 77t166 27.5t168 -19t150 -57q16 -10 16 -27q0 -5 -2 -10t-10 -16l-33 -56q-9 -15 -25.5 -16t-25.5 4q-36 16 -65.5 28t-57.5 19.5t-56 11t-61 3.5q-48 0 -96 -11t-86.5 -36.5t-62 -67.5 t-23.5 -105q0 -45 15 -81.5t46.5 -68t80 -61.5t114.5 -61q67 -32 119 -67.5t87.5 -79.5t54 -97.5t18.5 -120.5z" horiz-adv-x="901" glyph-name="S"/>
<glyph unicode="T" d="M1006 1274q-11 -43 -52 -43h-317l-199 -1186q-6 -45 -49 -45h-59q-43 0 -37 45l199 1186h-320q-19 0 -28.5 11t-4.5 34l6 45q5 20 18 32.5t32 12.5h782q43 0 37 -43l-8 -49v0z" horiz-adv-x="879" glyph-name="T"/>
<glyph unicode="U" d="M970 393q-20 -120 -65 -201t-110.5 -130t-150 -70t-182.5 -21q-86 0 -153.5 25.5t-114.5 72t-71.5 112.5t-24.5 147q0 11 1.5 32t4 44t5.5 44.5t5 34.5l141 838q3 20 16 32.5t33 12.5h62q18 0 28 -11t5 -34l-152 -911q-3 -19 -4.5 -40t-1.5 -36q0 -59 19 -102.5t52.5 -72 t79.5 -42t99 -13.5q64 0 119.5 15.5t99.5 50t74.5 90.5t44.5 137l153 924q5 23 18 34t33 11h60q20 0 30 -11t5 -34l-158 -928v0z" horiz-adv-x="1110" glyph-name="U"/>
<glyph unicode="V" d="M1153 1343q0 -17 -10 -34l-649 -1297q-13 -21 -26.5 -31t-33.5 -10h-65q-23 0 -31.5 10t-11.5 31l-183 1268q-3 19 -4.5 31.5t-1.5 15.5q0 19 9 29t32 10h62q21 0 31.5 -6t13.5 -31l147 -1171l567 1167q11 23 23.5 32t32.5 9h69q29 0 29 -23z" horiz-adv-x="981" glyph-name="V"/>
<glyph unicode="W" d="M1661 1343q0 -8 -1.5 -15t-6.5 -19l-518 -1286q-11 -26 -26 -39t-38 -13h-63q-28 0 -38 13t-12 39l-94 1040l-440 -1040q-12 -29 -27.5 -40.5t-38.5 -11.5h-65q-42 0 -45 52l-84 1267q-2 19 -2 25v14q0 14 8.5 25.5t28.5 11.5h61q23 0 33 -9t12 -38l57 -1141l472 1137 q12 29 26 40t33 11h47q22 0 31.5 -13.5t9.5 -33.5l90 -1139l436 1135q10 25 20.5 38t33.5 13h73q27 0 27 -23z" horiz-adv-x="1536" glyph-name="W"/>
<glyph unicode="X" d="M1051 1346q0 -8 -5 -16.5t-14 -20.5l-428 -596l281 -656q10 -20 10 -32q0 -25 -25 -25h-84q-18 0 -29.5 7t-19.5 30l-231 563l-371 -563q-18 -23 -29.5 -30t-31.5 -7h-84q-13 0 -18 5t-5 13q0 10 5 19t12 18l452 660l-262 598q-6 15 -6 26t6.5 19t20.5 8h84q21 0 31 -6.5 t18 -28.5l207 -512l350 512q16 22 26.5 28.5t30.5 6.5h78q31 0 31 -20z" horiz-adv-x="971" glyph-name="X"/>
<glyph unicode="Y" d="M1087 1348q0 -15 -14 -35l-518 -756l-86 -512q-3 -23 -16 -34t-33 -11h-60q-20 0 -30.5 11t-5.5 34l90 528l-269 740q-6 15 -6 24q0 11 6 20t23 9h70q26 0 37.5 -7t19.5 -30l213 -618l416 618q13 22 25 29.5t38 7.5h74q26 0 26 -18z" horiz-adv-x="924" glyph-name="Y"/>
<glyph unicode="Z" d="M868 43q-6 -43 -51 -43h-788q-41 0 -35 45l2 21q3 23 10.5 36.5t24.5 36.5l815 1100h-625q-44 0 -41 43l8 41q4 20 18 31.5t34 11.5h757q20 0 30.5 -12.5t8.5 -32.5l-2 -21q-3 -15 -9.5 -29.5t-23.5 -37.5l-817 -1106h652q46 0 38 -43z" horiz-adv-x="981" glyph-name="Z"/>
<glyph unicode="[" d="M381 -330q-5 -20 -17 -31.5t-38 -11.5h-293q-23 0 -31.5 10.5t-3.5 36.5l274 1645q5 26 17 36.5t35 10.5h292q26 0 35.5 -11.5t5.5 -31.5l-6 -33q-3 -20 -16 -31.5t-39 -11.5h-201l-250 -1501h201q26 0 34 -11.5t5 -31.5l-4 -33v0z" horiz-adv-x="561" glyph-name="bracketleft"/>
<glyph unicode="\" d="M672 -57q0 -11 -9 -16t-24 -5h-43q-12 0 -28 11.5t-27 37.5l-541 1405q-6 19 -6 29q0 6 7 12t19 6h41q42 0 60 -47l541 -1405q5 -9 7.5 -14.5t2.5 -13.5z" horiz-adv-x="700" glyph-name="backslash"/>
<glyph unicode="]" d="M301 -326q-5 -26 -17.5 -36.5t-35.5 -10.5h-293q-26 0 -34 11.5t-5 31.5l4 33q6 43 55 43h201l250 1501h-201q-26 0 -34 11.5t-5 31.5l7 33q3 20 15 31.5t38 11.5h293q23 0 32 -10.5t4 -36.5l-274 -1645v0z" horiz-adv-x="561" glyph-name="bracketright"/>
<glyph unicode="^" d="M969 821q0 -14 -29 -14h-68q-24 0 -36.5 7.5t-28.5 35.5l-264 436l-262 -438q-16 -26 -29 -33.5t-39 -7.5h-61q-31 0 -31 14q0 5 3 13.5t9 17.5l301 508q13 19 25 27t41 8h92q29 0 41 -7.5t24 -27.5l297 -506q5 -8 10 -17.5t5 -15.5z" horiz-adv-x="938" glyph-name="asciicircum"/>
<glyph unicode="_" d="M897 -215q0 -25 -11 -33t-28 -8h-950q-17 0 -28 8.5t-11 28.5v26q0 39 35 39h958q35 0 35 -39v-22v0z" horiz-adv-x="989" glyph-name="underscore"/>
<glyph unicode="`" d="M553 1124q0 -6 -5 -11t-16 -5h-53q-25 0 -37 5t-26 22l-189 190q-14 14 -14 25q0 9 8 12.5t19 3.5h100q14 0 24.5 -1t19 -4.5t16 -11.5t16.5 -22l131 -186q6 -9 6 -17z" horiz-adv-x="653" glyph-name="grave"/>
<glyph unicode="a" d="M680 45q-3 -20 -12.5 -32.5t-34.5 -12.5h-41q-22 0 -33 9.5t-6 37.5l14 76q-25 -26 -54.5 -51t-65.5 -44.5t-79.5 -31.5t-95.5 -12t-97 17t-78 48.5t-51.5 77.5t-18.5 104q0 78 24 135.5t65 98t96.5 66t119 40t131.5 20t135 5.5h39l20 125q2 9 3.5 18t1.5 19 q0 26 -9 49.5t-30.5 41t-58.5 28t-93 10.5q-72 0 -128.5 -20.5t-100.5 -43.5q-17 -9 -32.5 -7t-23.5 18l-24 45q-4 8 -4 14q0 12 8 22.5t20 16.5q75 42 160 62t162 20q63 0 116 -15t91.5 -45t60 -74.5t21.5 -103.5q0 -7 -0.5 -18t-2 -23t-3 -23.5t-3.5 -19.5zM618 492 q-47 -1 -98 -3t-101 -9t-95.5 -22t-80 -42t-55 -68t-20.5 -100q0 -29 7.5 -56t23.5 -48t40 -33.5t56 -12.5q37 0 71 10t64 26.5t56.5 37t48.5 41.5q23 20 37 52t20 67z" horiz-adv-x="870" glyph-name="a"/>
<glyph unicode="b" d="M924 641q0 -66 -11 -141t-34 -148t-59.5 -139.5t-87.5 -117.5t-117 -81t-148 -30q-54 0 -95 13.5t-72 36t-54 53t-41 63.5l-19 -103q-3 -23 -14.5 -35t-40.5 -12h-35q-46 0 -37 47l217 1299q5 24 17.5 36.5t38.5 12.5h39q29 0 38.5 -11.5t4.5 -35.5l-84 -496 q27 31 59.5 60t70.5 51.5t83 35.5t98 13q73 0 126.5 -28t88 -77.5t51.5 -117.5t17 -148zM469 109q56 0 101 25t79.5 66.5t59.5 95.5t40.5 111.5t23 114.5t7.5 105q0 43 -7 89.5t-26.5 84t-55 62t-91.5 24.5t-103 -22.5t-85 -61t-66.5 -88.5t-47.5 -104.5t-28.5 -111 t-9.5 -106.5q0 -57 12.5 -108.5t38.5 -90.5t65 -62t93 -23z" horiz-adv-x="967" glyph-name="b"/>
<glyph unicode="c" d="M733 111q0 -13 -8 -22t-20 -17q-51 -35 -125.5 -61.5t-167.5 -26.5q-91 0 -158.5 28t-112 79.5t-66.5 124t-22 161.5q0 69 12.5 143.5t38.5 145t66 133.5t94 110.5t123 75t154 27.5q31 0 63.5 -5t63 -13t58 -19.5t48.5 -24.5q19 -10 19 -26q0 -10 -13 -29l-26 -45 q-13 -17 -29 -17t-29 7q-14 7 -33.5 14.5t-42.5 14.5t-48 11.5t-50 4.5q-58 0 -105 -23t-83 -61.5t-62 -89t-42.5 -104.5t-24.5 -108t-8 -100q0 -54 11 -106t37 -92.5t68.5 -65t104.5 -24.5q44 0 80 7.5t64.5 18t50 22t36.5 19.5q17 9 32.5 8t23.5 -16l24 -45q4 -8 4 -14z " horiz-adv-x="813" glyph-name="c"/>
<glyph unicode="d" d="M768 47q-6 -47 -51 -47h-35q-29 0 -37.5 12t-5.5 35l18 103q-29 -33 -62 -63.5t-72 -53t-85 -36t-100 -13.5q-81 0 -136 31t-88 82t-47 117t-14 136q0 64 11.5 138.5t36 148t62.5 141.5t90 120t119 83t150 31q49 0 88 -13.5t69 -36t51.5 -51t35.5 -59.5l84 496 q5 24 15.5 35.5t39.5 11.5h39q28 0 37 -12.5t4 -36.5zM715 602q0 66 -14 119t-40 89.5t-63 56.5t-82 20q-58 0 -104 -25t-81.5 -67t-60.5 -96.5t-41.5 -113t-24 -116.5t-7.5 -107q0 -51 9 -96.5t30.5 -80.5t56.5 -55.5t86 -20.5q57 0 104.5 22.5t84.5 61t65 88.5t46 105 t27 110.5t9 105.5z" horiz-adv-x="967" glyph-name="d"/>
<glyph unicode="e" d="M807 543q-5 -23 -16.5 -36t-40.5 -13h-545q-6 -44 -7 -70t-1 -51q0 -48 11 -95t35 -84.5t63 -61t95 -23.5q44 0 80 7t65 17t50.5 21.5t36.5 19.5q17 9 32 8t23 -16l25 -45q4 -8 4 -15q0 -12 -8 -21t-21 -17q-54 -38 -131.5 -61t-159.5 -23q-90 0 -154 32t-105.5 85 t-61 123t-19.5 145q0 67 12.5 142.5t39 149.5t67 140.5t96.5 116.5q51 43 113 68.5t139 25.5q84 0 140.5 -30.5t90 -79.5t48 -110.5t14.5 -123.5q0 -32 -2.5 -62.5t-7.5 -62.5zM682 606q2 17 3 36.5t1 29.5q0 43 -9.5 83t-31 70t-57 48t-86.5 18q-56 0 -101.5 -25.5 t-80 -66.5t-57.5 -91.5t-34 -101.5h453z" horiz-adv-x="868" glyph-name="e"/>
<glyph unicode="f" d="M684 1386q0 -5 -1.5 -10t-4.5 -14l-16 -43q-7 -17 -20 -21.5t-30 0.5q-21 7 -34.5 9t-28.5 2q-34 0 -59 -15.5t-42.5 -42t-29 -61.5t-17.5 -74l-20 -121h145q16 0 23 -9.5t4 -24.5l-8 -48q-3 -15 -13.5 -24.5t-25.5 -9.5h-146l-137 -830q-5 -23 -15.5 -36t-41.5 -13h-39 q-29 0 -37.5 12.5t-5.5 34.5l139 832h-102q-16 0 -23 9.5t-4 24.5l8 48q3 15 13.5 24.5t25.5 9.5h103l20 125q11 64 33.5 119t58.5 96t85 64.5t114 23.5q26 0 55.5 -3t51.5 -11q9 -3 15.5 -9t6.5 -14z" horiz-adv-x="485" glyph-name="f"/>
<glyph unicode="g" d="M754 8q-15 -87 -44 -157t-78 -120t-120.5 -77t-171.5 -27q-38 0 -79 6t-80 16t-73 22.5t-57 25.5q-9 6 -14.5 11.5t-5.5 15.5q0 8 2 13.5t8 16.5l22 43q11 20 29 20t35 -10q50 -24 108 -41.5t121 -17.5q64 0 110 19t76.5 53t48 80.5t25.5 101.5l27 168q-18 -22 -46 -49 t-64.5 -50t-80.5 -39t-92 -16q-77 0 -132.5 28t-91 77.5t-52 116t-16.5 143.5q0 63 12 134.5t37 142t63 134.5t90 113t118 78t147 29q50 0 89.5 -17t69 -42.5t47.5 -54t25 -52.5l14 96q5 28 18 40.5t42 12.5h37q45 0 34 -51zM709 608q0 60 -13 111t-38 88.5t-60 58.5t-80 21 q-55 0 -99 -23.5t-77.5 -62t-58 -89.5t-40 -105.5t-23 -109.5t-7.5 -102q0 -57 11 -104t33.5 -80.5t57 -51.5t80.5 -18q50 0 92.5 22t77.5 59.5t62 85.5t45 100t27.5 103.5t9.5 96.5z" horiz-adv-x="958" glyph-name="g"/>
<glyph unicode="h" d="M774 45q-3 -25 -17 -35t-34 -10h-51q-41 0 -35 47l108 645q4 19 6.5 39t2.5 39q0 53 -22.5 86t-82.5 33q-42 0 -81.5 -13.5t-76.5 -36t-72 -52.5t-67 -64q-17 -17 -28 -31.5t-18 -30.5t-12 -36t-9 -47l-88 -529q-5 -23 -16 -36t-42 -13h-39q-28 0 -36 12.5t-5 34.5 l220 1301q3 26 14.5 36.5t34.5 10.5h45q28 0 36 -12t5 -33l-88 -523q39 43 82.5 77.5t89 58.5t91.5 36.5t91 12.5q58 0 99.5 -14.5t67.5 -40.5t38 -63.5t12 -82.5q0 -19 -1.5 -37.5t-6.5 -44.5l-115 -684v0z" horiz-adv-x="963" glyph-name="h"/>
<glyph unicode="i" d="M449 1313q0 -44 -30 -73.5t-75 -29.5q-32 0 -56 20t-24 60q0 45 28 75t75 30q32 0 57 -22t25 -60zM215 49q-5 -23 -15.5 -36t-41.5 -13h-39q-29 0 -37.5 12.5t-5.5 34.5l151 901q5 26 18 36.5t36 10.5h45q27 0 34.5 -11.5t4.5 -33.5z" horiz-adv-x="432" glyph-name="i"/>
<glyph unicode="j" d="M184 -145q-20 -115 -83 -171.5t-162 -56.5q-29 0 -54.5 5t-44.5 12q-16 6 -16 20t8 33l16 35q10 18 20.5 21.5t22.5 -1.5q19 -6 31.5 -7t22.5 -1q42 0 67.5 29.5t36.5 95.5l180 1079q5 26 18 36.5t36 10.5h45q28 0 35 -11.5t4 -33.5zM440 1313q0 -44 -29.5 -73.5 t-74.5 -29.5q-32 0 -56 20t-24 60q0 45 28 75t74 30q32 0 57 -22t25 -60z" horiz-adv-x="424" glyph-name="j"/>
<glyph unicode="k" d="M739 16q0 -9 -6.5 -12.5t-17.5 -3.5h-84q-38 0 -58 33l-299 487l-77 -471q-5 -23 -16 -36t-42 -13h-39q-28 0 -36 12.5t-5 34.5l220 1301q3 26 14.5 36.5t34.5 10.5h45q28 0 36 -12t5 -33l-131 -779l389 394q17 17 31.5 23.5t35.5 6.5h84q23 0 23 -14q0 -10 -21 -31 l-411 -403l311 -494q6 -9 10 -19t4 -18z" horiz-adv-x="825" glyph-name="k"/>
<glyph unicode="l" d="M197 49q-5 -23 -16 -36t-42 -13h-39q-28 0 -36 12.5t-5 34.5l220 1301q5 26 15.5 36.5t33.5 10.5h45q28 0 36 -12t5 -33l-217 -1301v0z" horiz-adv-x="395" glyph-name="l"/>
<glyph unicode="m" d="M1311 45q-3 -25 -17 -35t-32 -10h-52q-23 0 -30.5 12t-3.5 35l108 645q3 22 5.5 40.5t2.5 37.5q0 53 -21 86t-75 33q-36 0 -73 -13.5t-73.5 -36t-72 -52.5t-68.5 -64q-16 -17 -26.5 -31.5t-17.5 -30.5t-12 -36t-9 -47l-90 -531q-3 -23 -15 -35t-41 -12h-39 q-31 0 -38.5 12.5t-4.5 34.5l105 621q5 23 8.5 53t3.5 49q0 53 -21 86t-75 33q-36 0 -73 -13.5t-73.5 -36t-71.5 -52.5t-67 -64q-17 -17 -28 -31.5t-18 -30.5t-12 -36t-9 -47l-88 -529q-5 -23 -16 -36t-42 -13h-39q-28 0 -36 12.5t-5 34.5l152 901q5 26 16.5 36.5t34.5 10.5 h37q28 0 35 -11.5t4 -33.5l-23 -131q87 93 179 143t174 50q54 0 92.5 -13.5t63.5 -39t37 -61t13 -79.5q87 93 179 143t174 50q54 0 93.5 -14.5t64.5 -40.5t37 -63.5t12 -82.5q0 -19 -4 -48.5t-9 -55.5l-110 -662v0z" horiz-adv-x="1501" glyph-name="m"/>
<glyph unicode="n" d="M774 45q-3 -25 -17 -35t-34 -10h-51q-41 0 -35 47l108 645q5 26 7 45t2 37q0 53 -22.5 84t-82.5 31q-42 0 -81.5 -13.5t-76.5 -36t-72 -52.5t-67 -64q-17 -17 -28 -31.5t-18 -30.5t-12 -36t-9 -47l-88 -529q-5 -23 -16 -36t-42 -13h-39q-28 0 -36 12.5t-5 34.5l152 901 q5 26 16.5 36.5t34.5 10.5h37q28 0 35 -11.5t4 -33.5l-23 -131q87 93 179.5 143t185.5 50q58 0 99.5 -14.5t67.5 -40.5t38 -63.5t12 -82.5q0 -19 -3.5 -48t-8.5 -56l-111 -662v0z" horiz-adv-x="963" glyph-name="n"/>
<glyph unicode="o" d="M860 629q0 -68 -12 -142.5t-37.5 -146t-64.5 -136.5t-92.5 -113.5t-122.5 -77.5t-154 -29q-84 0 -145 31.5t-100.5 85t-58 124t-18.5 148.5q0 67 13 141t39 145t65.5 135t93.5 112.5t122 77t151 28.5q86 0 147 -31.5t99.5 -85t56.5 -122.5t18 -144zM397 111 q59 0 106 23.5t83.5 63t62 91.5t42 107.5t24.5 112t8 105.5q0 52 -9.5 101t-33 87t-62.5 60.5t-98 22.5t-105.5 -24t-82 -64.5t-61 -93t-41.5 -109t-23.5 -113t-7.5 -104.5q0 -51 9.5 -99t32 -85t61 -59.5t95.5 -22.5z" horiz-adv-x="911" glyph-name="o"/>
<glyph unicode="p" d="M924 655q0 -64 -11.5 -139t-36 -149.5t-62 -143.5t-89.5 -122t-118.5 -85t-149.5 -32q-50 0 -89 13.5t-69 35.5t-51.5 50.5t-36.5 59.5l-78 -469q-5 -24 -16.5 -35.5t-40.5 -11.5h-39q-26 0 -35 12.5t-4 36.5l213 1272q5 25 16.5 36t34.5 11h35q29 0 36.5 -12t4.5 -35 l-16 -102q29 35 62 65.5t71.5 53t82.5 35t95 12.5q78 0 133 -31t90 -81.5t51.5 -114.5t16.5 -130zM780 629q0 51 -9 98t-30 82.5t-55.5 56.5t-85.5 21q-57 0 -104.5 -23t-85 -61t-65.5 -88.5t-46.5 -105t-27.5 -110.5t-9 -106q0 -66 14 -118.5t40 -89.5t63 -56.5t82 -19.5 q58 0 104 25t81.5 66t60.5 95t41.5 111.5t24 115.5t7.5 107z" horiz-adv-x="967" glyph-name="p"/>
<glyph unicode="q" d="M707 -324q-5 -24 -17.5 -36.5t-40.5 -12.5h-39q-29 0 -37.5 11.5t-3.5 35.5l78 469q-27 -35 -57.5 -64t-67 -50t-80 -33t-96.5 -12q-74 0 -128.5 27t-90.5 75.5t-54 116.5t-18 149q0 68 12 143t37 148.5t64 140t93 117.5t123.5 81t156.5 30q47 0 83 -9t65 -23.5 t53.5 -33.5t48.5 -39l40 58q17 23 29.5 35t26.5 12h16q14 0 19 -11t2 -26zM754 778q-34 45 -93.5 77t-134.5 32q-61 0 -108.5 -24.5t-84 -65t-62 -94t-41.5 -111.5t-23.5 -117t-7.5 -110q0 -44 7 -89.5t26.5 -82.5t55 -60.5t91.5 -23.5q57 0 110 28.5t97 80.5t76 126t47 166 z" horiz-adv-x="967" glyph-name="q"/>
<glyph unicode="r" d="M711 965q0 -10 -11 -29l-36 -68q-14 -18 -31 -18q-12 0 -21 6q-20 11 -34 16t-31 5q-19 0 -40.5 -8.5t-43.5 -22.5t-43 -32t-39 -36q-23 -21 -38.5 -38t-25 -33.5t-15 -35.5t-9.5 -44l-98 -582q-5 -25 -17 -35t-35 -10h-45q-23 0 -33.5 10t-5.5 35l152 903q3 23 14.5 35 t34.5 12h43q44 0 35 -45l-19 -110q73 78 136.5 125t128.5 47q37 0 62.5 -5.5t51.5 -19.5q8 -5 10.5 -10.5t2.5 -11.5z" horiz-adv-x="627" glyph-name="r"/>
<glyph unicode="s" d="M664 303q0 -75 -24.5 -134.5t-70 -100.5t-109.5 -62.5t-143 -21.5q-35 0 -73.5 5.5t-76 14.5t-70.5 21.5t-56 27.5q-11 6 -18 14t-7 17q0 6 2 13.5t7 15.5l22 45q11 15 25 16.5t26 -4.5q45 -23 103.5 -42t124.5 -19q40 0 77 9.5t65.5 29.5t45 52.5t16.5 78.5q0 49 -35 88 t-120 79q-62 29 -110 56t-80.5 57.5t-49 68.5t-16.5 89q0 67 25 121.5t69 93t104.5 59.5t131.5 21q33 0 67.5 -4.5t66.5 -11t58.5 -15.5t44.5 -18q14 -10 14 -23q0 -6 -2.5 -13t-5.5 -14l-24 -51q-10 -15 -25.5 -14.5t-32.5 8.5q-45 20 -86.5 28.5t-89.5 8.5q-33 0 -65.5 -8 t-58.5 -26t-42 -46.5t-16 -69.5q0 -32 12 -56t37 -45t62.5 -40.5t87.5 -40.5q46 -21 85.5 -45.5t67.5 -55t44 -69.5t16 -88z" horiz-adv-x="743" glyph-name="s"/>
<glyph unicode="t" d="M487 45q4 -14 -4.5 -22.5t-25.5 -14.5q-15 -6 -35 -10.5t-42 -7.5t-43.5 -4.5t-39.5 -1.5q-92 0 -133 46t-41 126q0 32 6 71l109 652h-107q-17 0 -23.5 9.5t-3.5 26.5l9 46q6 34 39 34h106l45 269q5 26 17.5 36.5t35.5 10.5h43q29 0 36.5 -12t4.5 -33l-45 -271h156 q15 0 23.5 -8.5t5.5 -25.5l-9 -48q-3 -15 -13.5 -24.5t-27.5 -9.5h-155l-105 -627q-5 -23 -6.5 -43t-1.5 -37q0 -34 13.5 -52t54.5 -18q28 0 56 6.5t52 14.5q13 5 25 0.5t14 -17.5z" horiz-adv-x="563" glyph-name="t"/>
<glyph unicode="u" d="M764 47q-3 -26 -15.5 -36.5t-35.5 -10.5h-37q-28 0 -36 11.5t-5 33.5l22 131q-80 -93 -172.5 -142.5t-191.5 -49.5q-59 0 -99.5 14.5t-65.5 41.5t-36.5 64t-11.5 82q0 39 6 78l115 686q5 25 18.5 35t32.5 10h51q22 0 29 -12t4 -35l-109 -645q-3 -22 -5.5 -40.5 t-2.5 -37.5q0 -52 22.5 -85.5t82.5 -33.5q42 0 81.5 13.5t77 36t72.5 52.5t68 64q16 17 27 31.5t18.5 30.5t12 36t9.5 48l88 528q3 23 15 36t43 13h38q29 0 37 -12.5t4 -34.5l-151 -901v0z" horiz-adv-x="963" glyph-name="u"/>
<glyph unicode="v" d="M846 979q0 -6 -3.5 -15.5t-6.5 -15.5l-424 -897q-11 -23 -24.5 -37t-35.5 -14h-88q-21 0 -31.5 12t-13.5 35l-125 883q-3 20 -3.5 27t-0.5 12q0 26 31 26h78q17 0 22.5 -8.5t7.5 -23.5l97 -826l385 830q8 17 16 22.5t27 5.5h71q21 0 21 -16z" horiz-adv-x="764" glyph-name="v"/>
<glyph unicode="w" d="M1366 979q0 -8 -2.5 -16.5t-5.5 -16.5l-404 -891q-5 -10 -9.5 -19.5t-11.5 -17.5t-16.5 -13t-23.5 -5h-68q-23 0 -33 13.5t-12 35.5l-84 766l-321 -762q-8 -18 -22 -35.5t-34 -17.5h-79q-20 0 -28 15.5t-11 33.5l-111 897q-2 11 -2 15v10q0 24 33 24h74q18 0 24 -9t8 -28 l78 -790l338 793q8 20 18.5 27t28.5 7h76q25 0 30 -11t7 -30l80 -792l346 790q12 26 22 34.5t29 8.5h63q23 0 23 -16z" horiz-adv-x="1286" glyph-name="w"/>
<glyph unicode="x" d="M864 983q0 -9 -4 -16t-10 -15l-354 -450l223 -451q10 -20 10 -31q0 -9 -6 -14.5t-23 -5.5h-73q-20 0 -29.5 8.5t-17.5 24.5l-174 383l-302 -389q-14 -17 -24 -22t-27 -5h-80q-22 0 -22 14q0 8 3 14t11 15l379 469l-217 440q-6 13 -6 23q0 20 22 20h82q19 0 28.5 -8 t18.5 -26l162 -363l273 365q12 14 25.5 23t33.5 9h78q20 0 20 -12z" horiz-adv-x="823" glyph-name="x"/>
<glyph unicode="y" d="M870 979q0 -6 -2.5 -13.5t-7.5 -17.5l-493 -979q-38 -75 -73.5 -138t-76 -108t-90 -70.5t-115.5 -25.5q-34 0 -63.5 6.5t-44.5 12.5q-17 7 -17 22q0 11 7 25l18 47q6 15 17.5 18t23.5 0q28 -8 45.5 -10t30.5 -2q33 0 61 21.5t54 56t51 79t51 89.5l6 8l-158 918 q-3 15 -5.5 30t-2.5 21q0 15 9 20.5t20 5.5h75q19 0 24.5 -6.5t8.5 -23.5l119 -797l385 797q9 18 18.5 24t26.5 6h76q12 0 17 -5t5 -11z" horiz-adv-x="778" glyph-name="y"/>
<glyph unicode="z" d="M692 39q-6 -39 -41 -39h-608q-23 0 -31.5 8.5t-5.5 30.5l6 43q3 22 11 35t22 30l580 727h-461q-17 0 -26.5 8.5t-6.5 28.5l8 45q6 39 41 39h582q22 0 29 -10t4 -29l-7 -41q-3 -18 -11 -33.5t-23 -33.5l-574 -725h488q17 0 26.5 -8.5t5.5 -28.5l-8 -47v0z" horiz-adv-x="797" glyph-name="z"/>
<glyph unicode="{" d="M676 1319q-3 -22 -14 -32.5t-37 -10.5h-17q-63 0 -94 -54t-49 -157l-33 -176q-18 -97 -45 -162.5t-57 -108.5t-60.5 -66.5t-54.5 -35.5q18 -10 37.5 -27t36 -44.5t27 -68t10.5 -97.5q0 -58 -13 -129l-30 -162q-13 -65 -13 -117q0 -59 18.5 -92t63.5 -33h29q26 0 34 -10.5 t3 -30.5l-6 -39q-3 -17 -14 -28t-36 -11h-49q-77 0 -123 45q-27 28 -42 72t-15 104q0 23 2.5 49.5t7.5 55.5l29 156q8 40 11 76.5t3 70.5q0 75 -22.5 127.5t-77.5 69.5q-22 6 -26 15.5t-1 23.5l11 55q3 18 12.5 26t26.5 13q44 12 76 43.5t54.5 77t38 102.5t27.5 121l31 168 q18 102 52 165t83 95q31 20 66 28.5t75 8.5h33q25 0 32.5 -11.5t4.5 -29.5l-6 -35v0z" horiz-adv-x="608" glyph-name="braceleft"/>
<glyph unicode="|" d="M297 -340q0 -19 -6.5 -26t-28.5 -7h-65q-22 0 -28.5 7t-6.5 26v1841q0 19 6.5 26t28.5 7h65q22 0 28.5 -7t6.5 -26v-1841v0z" horiz-adv-x="479" glyph-name="bar"/>
<glyph unicode="}" d="M494 1174q0 -23 -3 -49.5t-8 -55.5l-28 -156q-8 -40 -11.5 -76.5t-3.5 -70.5q0 -75 22.5 -127.5t78.5 -69.5q21 -6 25 -15.5t1 -23.5l-10 -55q-3 -18 -12.5 -26t-26.5 -13q-45 -12 -77 -43.5t-54.5 -77t-38 -102.5t-26.5 -121l-31 -168q-19 -102 -52.5 -165t-82.5 -95 q-31 -20 -66 -28.5t-76 -8.5h-32q-25 0 -32.5 11.5t-4.5 29.5l6 35q3 22 14 32.5t37 10.5h16q31 0 54 13.5t40 40.5t29 66.5t21 90.5l33 176q18 97 45 162.5t57 108.5t60.5 66.5t54.5 35.5q-18 10 -37.5 26.5t-36 44.5t-27 68.5t-10.5 97.5q0 55 12 129l31 162q12 67 12 117 q0 59 -18.5 92t-63.5 33h-28q-26 0 -34 10.5t-3 30.5l6 39q3 17 13.5 28t35.5 11h49q78 0 123 -45q28 -28 43 -72t15 -104z" horiz-adv-x="608" glyph-name="braceright"/>
<glyph unicode="~" d="M895 729q0 -8 -3.5 -32t-12 -55.5t-23.5 -66.5t-38.5 -64t-57 -48t-78.5 -19q-53 0 -105.5 22t-103.5 48q-18 9 -40.5 21.5t-46 24t-47 19t-42.5 7.5q-31 0 -51 -12t-33.5 -30.5t-21 -41.5t-13.5 -45q-3 -14 -7.5 -20.5t-16.5 -6.5h-62q-9 0 -11.5 3t-2.5 9q0 8 3.5 32 t12 55.5t24 66.5t39.5 64t58 48t80 19q49 0 101.5 -22t103.5 -48q18 -9 40.5 -21t47 -23.5t48 -19t42.5 -7.5q32 0 53 15t34 36t20 43t10 35q3 18 8.5 22t13.5 4h66q12 0 12 -12z" horiz-adv-x="938" glyph-name="asciitilde"/>
<glyph unicode=" " horiz-adv-x="442" glyph-name="uni00A0"/>
<glyph unicode="¡" d="M195 573q5 25 17.5 34t31.5 9h30q19 0 29 -9t8 -34l-123 -911q-3 -26 -18 -35.5t-37 -9.5h-82q-20 0 -33.5 9t-7.5 38zM197 897q0 24 8.5 44.5t24 36t36.5 24t45 8.5q35 0 61.5 -21.5t26.5 -66.5q0 -50 -30.5 -82.5t-81.5 -32.5q-18 0 -34 6.5t-28.5 18t-20 28t-7.5 37.5 z" horiz-adv-x="467" glyph-name="exclamdown"/>
<glyph unicode="¢" d="M733 111q0 -13 -8 -22t-20 -17q-48 -32 -115.5 -57.5t-151.5 -28.5l-26 -191q-3 -23 -16.5 -34t-33.5 -11h-20q-19 0 -28.5 11t-6.5 34l29 195q-72 10 -125 42.5t-88 82.5t-52.5 116.5t-17.5 145.5q0 65 11 135t34.5 137t58.5 128t83 109t109 80.5t136 41.5l21 135 q3 23 15.5 34t31.5 11h20q40 0 37 -45l-20 -135q52 -7 100.5 -22.5t83.5 -35.5q19 -10 19 -26q0 -10 -13 -29l-26 -45q-13 -17 -29 -17t-29 7q-21 11 -54 22.5t-71 18.5l-114 -768q35 3 64.5 10.5t53.5 17.5t42.5 19.5t31.5 17.5q17 9 32.5 8t23.5 -16l24 -45q4 -8 4 -14z M197 399q0 -47 8 -92t27 -83t48.5 -65.5t73.5 -39.5l113 760q-48 -11 -87 -39t-69 -67.5t-51.5 -87t-35.5 -97t-20.5 -98.5t-6.5 -91z" horiz-adv-x="813" glyph-name="cent"/>
<glyph unicode="£" d="M850 41q-6 -41 -53 -41h-760q-45 0 -39 43l8 51q5 22 17 32.5t38 10.5h107q56 91 84.5 190.5t28.5 215.5q0 24 -1.5 47.5t-3.5 46.5h-143q-23 0 -32.5 11t-6.5 30l8 45q3 19 16 30t36 11h112q-2 26 -3 49.5t-1 46.5q0 42 2 82t8 72q14 83 45.5 153t83.5 120.5t126.5 79 t174.5 28.5q35 0 71 -5t70.5 -13.5t66 -19t57.5 -22.5q14 -6 18 -12t4 -12q0 -11 -10 -31l-31 -53q-9 -17 -21.5 -17.5t-31.5 7.5q-60 26 -116.5 36.5t-98.5 10.5q-61 0 -105.5 -19t-75 -52t-49 -77.5t-26.5 -95.5q-3 -17 -5 -34t-3 -36.5t-1.5 -43t-0.5 -54.5 q0 -17 2 -42.5t4 -45.5h252q25 0 31.5 -12.5t3.5 -30.5l-7 -43q-3 -19 -14.5 -30t-34.5 -11h-225q2 -26 3 -48.5t1 -43.5q0 -51 -5 -104t-17.5 -106t-33.5 -103t-52 -95h497q48 0 39 -41l-8 -55v0z" horiz-adv-x="924" glyph-name="sterling"/>
<glyph unicode="¤" d="M930 264q-14 -14 -23.5 -14t-29.5 18l-138 133q-49 -34 -96 -45.5t-96 -11.5q-48 0 -96 13.5t-93 45.5l-135 -131q-21 -21 -31.5 -22t-25.5 14l-37 35q-14 12 -13 22.5t21 30.5l135 140q-31 43 -46 91.5t-15 96.5q0 49 13.5 98t45.5 92l-135 138q-17 18 -18 27.5t14 25.5 l35 35q14 14 25 13.5t26 -15.5l137 -136q47 35 96 49.5t97 14.5q49 0 98.5 -13.5t95.5 -47.5l136 131q18 18 27.5 19t23.5 -13l35 -37q15 -16 15 -25t-15 -24l-134 -138q34 -46 48 -95.5t14 -98.5q0 -51 -16 -98t-48 -95l131 -135q19 -18 20 -28.5t-13 -24.5zM758 680 q0 43 -15 82t-42.5 68.5t-66.5 47t-87 17.5q-45 0 -82.5 -17t-64.5 -46.5t-41.5 -68.5t-14.5 -83q0 -43 15.5 -81.5t43 -67t64.5 -45.5t80 -17q46 0 85 16.5t67 45t43.5 67t15.5 82.5z" horiz-adv-x="1024" glyph-name="currency"/>
<glyph unicode="¥" d="M1120 1348q0 -15 -14 -35l-414 -602h185q24 0 30.5 -12.5t3.5 -30.5l-4 -27q-3 -19 -14.5 -30t-34.5 -11h-242l-28 -43l-17 -92h263q24 0 31.5 -12.5t4.5 -30.5l-4 -27q-3 -18 -15.5 -29.5t-35.5 -11.5h-262l-51 -309q-3 -23 -16 -34t-33 -11h-60q-20 0 -31 11t-6 34 l54 309h-265q-21 0 -29.5 11.5t-4.5 29.5l4 29q3 19 15 30t34 11h264l18 108l-10 27h-248q-21 0 -30.5 11t-5.5 30l4 29q3 18 16 29.5t35 11.5h190l-219 602q-6 15 -6 24q0 11 6 20t23 9h69q26 0 38 -7t20 -30l213 -618l415 618q14 22 26 29.5t38 7.5h74q26 0 26 -18z" horiz-adv-x="991" glyph-name="yen"/>
<glyph unicode="¦" d="M236 698q0 -18 -7 -25t-28 -7h-66q-22 0 -28.5 7t-6.5 25v652q0 18 6.5 25t28.5 7h66q21 0 28 -7t7 -25v-652zM236 -330q0 -18 -7 -25t-28 -7h-66q-22 0 -28.5 7t-6.5 25v652q0 18 6.5 25t28.5 7h66q21 0 28 -7t7 -25v-652z" horiz-adv-x="489" glyph-name="brokenbar"/>
<glyph unicode="§" d="M819 565q0 -50 -13.5 -96.5t-44 -90t-81 -84.5t-125.5 -81q66 -35 108.5 -69t67 -69t34 -72.5t9.5 -80.5q0 -65 -27.5 -119.5t-75.5 -93.5t-113 -60.5t-140 -21.5q-42 0 -86.5 9.5t-86 23t-77 29.5t-59.5 30q-29 17 -29 29q0 5 2.5 12.5t7.5 18.5l29 55q18 34 55 8 q26 -18 58 -34t66.5 -28t68.5 -19t65 -7q40 0 76 12t63.5 34.5t43.5 53t16 68.5q0 39 -13 68t-43 56t-80.5 56t-125.5 68q-73 37 -127.5 73t-90.5 75t-53.5 83t-17.5 97q0 54 14.5 101.5t46 90.5t81 82.5t120.5 77.5q-59 31 -99 61.5t-64.5 63t-35 68.5t-10.5 77 q0 61 23.5 112t67 87t104 56t135.5 20q96 0 164 -23t108 -49q8 -5 15.5 -11t7.5 -16q0 -5 -4.5 -13.5t-8.5 -14.5l-26 -47q-14 -25 -25.5 -28t-34.5 11q-20 12 -44.5 23.5t-50.5 20.5t-52 14.5t-49 5.5q-39 0 -73.5 -10.5t-59.5 -30t-39.5 -46.5t-14.5 -61q0 -35 12 -59.5 t40.5 -48.5t77 -51t122.5 -66q45 -24 77.5 -42.5t57 -35t43 -31.5t35.5 -32q38 -37 58 -86t20 -103zM676 543q0 37 -11 67t-37.5 58t-70 55.5t-108.5 60.5q-107 -58 -166.5 -121.5t-59.5 -138.5q0 -43 11.5 -72t38 -54t70 -52t108.5 -65q46 24 86.5 53.5t71.5 63t49 70 t18 75.5z" horiz-adv-x="870" glyph-name="section"/>
<glyph unicode="¨" d="M399 1245q0 -19 -7 -36t-20 -29.5t-30 -19.5t-37 -7q-29 0 -50.5 18.5t-21.5 53.5q0 40 25.5 67t67.5 27q29 0 51 -20t22 -54zM678 1245q0 -19 -7 -36t-20 -29.5t-30 -19.5t-37 -7q-29 0 -50.5 18.5t-21.5 53.5q0 40 25 67t67 27q29 0 51.5 -20t22.5 -54z" horiz-adv-x="653" glyph-name="dieresis"/>
<glyph unicode="©" d="M1544 682q0 -98 -25.5 -189t-71.5 -170t-110.5 -144t-143.5 -111t-170 -71.5t-189 -25.5q-99 0 -190 25.5t-170 71.5t-144 111t-111.5 144t-72 170t-25.5 189t25.5 189t72 170.5t111.5 144.5t144 111.5t170 72t190 25.5q98 0 189 -25.5t170 -72t143.5 -111.5 t110.5 -144.5t71.5 -170.5t25.5 -189zM1430 684q0 83 -21.5 160.5t-60.5 145t-94 123t-121.5 95.5t-143.5 62t-160 22q-124 0 -233.5 -48.5t-191.5 -131t-129.5 -193.5t-47.5 -235q0 -125 47.5 -235.5t129.5 -194t191.5 -132t233.5 -48.5q83 0 160 22t143.5 62t121.5 96.5 t94 124t60.5 145t21.5 160.5zM1116 356q0 -9 -6.5 -16.5t-15.5 -13.5q-41 -25 -108 -46.5t-150 -21.5q-69 0 -131.5 23.5t-110 75.5t-75 135.5t-27.5 203.5q0 88 21 164.5t64.5 132t110 87.5t156.5 32q44 0 80 -6t64.5 -15t49.5 -19t33 -17q19 -13 19 -29q0 -15 -11.5 -30.5 t-19.5 -26.5q-9 -13 -24 -16t-27 5q-28 16 -70.5 34t-99.5 18q-46 0 -79.5 -15t-57.5 -40.5t-39 -59t-24 -69.5t-12 -73t-3 -69q0 -52 10 -109t34.5 -104t66.5 -78t106 -31q29 0 53.5 4t47 11.5t45 18t46.5 24.5q15 9 27.5 7t22 -10t16.5 -20t12 -22l2 -4q4 -8 4 -15z" horiz-adv-x="1581" glyph-name="copyright"/>
<glyph unicode="ª" d="M690 1235q0 -12 -1.5 -24.5t-4.5 -30.5l-76 -402q-3 -18 -10.5 -29.5t-32.5 -11.5h-28q-23 0 -34.5 8.5t-4.5 34.5l4 19q-32 -26 -79.5 -48t-107.5 -22q-38 0 -70.5 11t-56 32t-36.5 51.5t-13 69.5q0 77 36 124t93.5 73t130 34.5t144.5 8.5h18l8 45q3 17 4.5 30t1.5 19 q0 14 -5.5 26t-19 21t-37 14.5t-58.5 5.5q-39 0 -75.5 -10t-78.5 -29q-17 -8 -32 -6.5t-23 17.5l-15 28q-4 8 -4 19t6 16.5t17 11.5q54 28 114.5 41t114.5 13q46 0 85 -10t67 -30t43.5 -50t15.5 -70zM543 1042q-47 0 -97.5 -2.5t-92.5 -16t-69.5 -41t-27.5 -77.5 q0 -32 22.5 -57t67.5 -25t81.5 19t64.5 41q11 9 20 25t12 36z" horiz-adv-x="674" glyph-name="ordfeminine"/>
<glyph unicode="«" d="M444 164q0 -6 -4.5 -13.5t-13.5 -13.5l-31 -18q-11 -6 -18 -7t-10 -1q-8 0 -15 6t-12 14l-229 354q-5 8 -7 14.5t-2 14.5q0 18 19 37l313 326q17 20 31 20q6 0 12.5 -2t14.5 -8l32 -27q6 -6 9.5 -11t3.5 -13q0 -7 -5.5 -14.5t-13.5 -16.5l-256 -287l176 -332q6 -15 6 -22 zM793 164q0 -14 -19 -27l-31 -18q-11 -6 -18 -7t-10 -1q-8 0 -15 6t-12 14l-229 354q-8 15 -8 29q0 19 18 37l313 326q19 20 31 20q6 0 12.5 -2t14.5 -8l32 -27q7 -6 10 -11t3 -13q0 -7 -5.5 -14.5t-13.5 -16.5l-256 -287l176 -332q7 -14 7 -22z" horiz-adv-x="926" glyph-name="guillemotleft"/>
<glyph unicode="¬" d="M983 502q0 -26 -9.5 -34.5t-31.5 -8.5h-41q-23 0 -33 8t-10 33v282h-700q-25 0 -33 10t-8 31v43q0 22 8 31.5t33 9.5h784q25 0 33 -9.5t8 -31.5v-364v0z" horiz-adv-x="1028" glyph-name="logicalnot"/>
<glyph unicode="­" d="M508 471q-3 -22 -15.5 -30.5t-29.5 -8.5h-377q-17 0 -26.5 8.5t-6.5 28.5l10 66q7 38 41 38h385q35 0 29 -38l-10 -64v0z" horiz-adv-x="559" glyph-name="uni00ad"/>
<glyph unicode="®" d="M1544 682q0 -98 -25.5 -189t-71.5 -170t-110.5 -144t-143.5 -111t-170 -71.5t-189 -25.5q-99 0 -190 25.5t-170 71.5t-144 111t-111.5 144t-72 170t-25.5 189t25.5 189t72 170.5t111.5 144.5t144 111.5t170 72t190 25.5q98 0 189 -25.5t170 -72t143.5 -111.5 t110.5 -144.5t71.5 -170.5t25.5 -189zM1430 684q0 83 -21.5 160.5t-60.5 145t-94 123t-121.5 95.5t-143.5 62t-160 22q-124 0 -233.5 -48.5t-191.5 -131t-129.5 -193.5t-47.5 -235q0 -125 47.5 -235.5t129.5 -194t191.5 -132t233.5 -48.5q83 0 160 22t143.5 62t121.5 96.5 t94 124t60.5 145t21.5 160.5zM1145 299q0 -14 -12 -19.5t-21 -5.5h-53q-20 0 -32.5 7t-25.5 28l-186 318h-135v-314q0 -18 -12 -28.5t-29 -10.5h-39q-17 0 -29 10.5t-12 28.5v744q0 17 11 28t30 11h191q67 0 127 -10.5t104 -37t70 -72.5t26 -118q0 -47 -14.5 -83t-39.5 -62 t-58 -43.5t-70 -26.5l197 -319q5 -10 8.5 -16t3.5 -9zM991 852q0 48 -13 76.5t-40.5 43.5t-69 20t-98.5 5h-90v-274h100q55 0 95 6t66 20.5t38 39.5t12 63z" horiz-adv-x="1581" glyph-name="registered"/>
<glyph unicode="¯" d="M743 1214q-6 -32 -41 -32h-512q-32 0 -26 32l6 46q6 32 39 32h512q35 0 29 -32l-7 -46v0z" horiz-adv-x="653" glyph-name="macron"/>
<glyph unicode="°" d="M696 1149q0 -51 -19 -96.5t-52 -79t-78 -53t-96 -19.5q-52 0 -97 19.5t-78.5 53t-53 79t-19.5 96.5t19.5 96t53 78.5t78.5 52.5t97 19q51 0 96 -19t78 -52.5t52 -78.5t19 -96zM606 1149q0 32 -12 60.5t-33 49.5t-49.5 33.5t-60.5 12.5t-61 -12.5t-50.5 -33.5t-34 -49.5 t-12.5 -60.5t12.5 -61t34 -50.5t50.5 -34t61 -12.5t60.5 12.5t49.5 34t33 50.5t12 61z" horiz-adv-x="670" glyph-name="degree"/>
<glyph unicode="±" d="M963 762q0 -22 -8 -31.5t-31 -9.5h-332v-330q0 -25 -9.5 -33t-31.5 -8h-43q-22 0 -31.5 8t-9.5 31v332h-330q-25 0 -33 9.5t-8 31.5v43q0 22 8 31.5t33 9.5h330v330q0 24 9.5 32.5t31.5 8.5h43q22 0 31.5 -8.5t9.5 -32.5v-330h330q24 0 32.5 -9.5t8.5 -31.5v-43zM963 147 q0 -21 -8 -31t-31 -10h-787q-25 0 -33 10t-8 31v43q0 22 8 31.5t33 9.5h785q24 0 32.5 -9.5t8.5 -31.5v-43z" horiz-adv-x="1028" glyph-name="plusminus"/>
<glyph unicode="²" d="M719 1198q0 -49 -18.5 -89.5t-48 -76t-67.5 -66.5t-77 -61q-17 -14 -39.5 -31.5t-47.5 -36.5t-50.5 -38t-48.5 -35h331q19 0 26.5 -7t4.5 -26l-8 -45q-3 -17 -11.5 -25t-27.5 -8h-490q-18 0 -25.5 6t-4.5 25l8 43q2 11 8 18.5t19 16.5q29 21 72.5 55t88.5 70t84.5 68.5 t61.5 50.5q20 17 41.5 36t39.5 41t30 46.5t12 52.5q0 45 -32 75.5t-89 30.5q-27 0 -55 -4.5t-53 -10.5t-44.5 -12.5t-29.5 -11.5q-29 -14 -39 -12t-17 16l-18 33q-6 12 -6 23q0 20 34 34q18 9 43.5 18t56.5 16.5t66.5 12.5t73.5 5q58 0 103.5 -16t77 -43t48.5 -63t17 -75z " horiz-adv-x="702" glyph-name="twosuperior"/>
<glyph unicode="³" d="M702 1223q0 -65 -35.5 -116.5t-103.5 -74.5q32 -9 54.5 -27t37 -40.5t21 -46.5t6.5 -46q0 -58 -25 -104t-67 -77.5t-97 -48.5t-114 -17q-28 0 -59.5 3.5t-63 10.5t-60 17t-49.5 22q-6 5 -12 9.5t-6 17.5q0 10 10 30l15 27q11 20 22.5 22.5t34.5 -10.5q43 -20 89 -30.5 t89 -10.5q34 0 62.5 9.5t49.5 28t32.5 45.5t11.5 61q0 24 -10.5 43t-29 31.5t-43 19t-52.5 6.5h-52q-20 0 -30.5 7t-8.5 30l7 33q6 34 47 34h55q27 0 52.5 7.5t45 23t31.5 38t12 52.5q0 38 -30.5 61t-92.5 23q-68 0 -167 -41q-20 -8 -34 -7.5t-20 17.5l-12 31q-6 15 -6 25 q0 12 11.5 21t21.5 14q9 4 31 12.5t52 16.5t66.5 14t75.5 6q112 0 174.5 -46t62.5 -126z" horiz-adv-x="702" glyph-name="threesuperior"/>
<glyph unicode="´" d="M735 1354q0 -8 -4 -14t-16 -15l-246 -190q-22 -17 -35.5 -22t-36.5 -5h-61q-6 0 -10 2t-4 10q0 9 12 21l174 186q13 14 23 22t19.5 11.5t20 4.5t25.5 1h119q20 0 20 -12z" horiz-adv-x="653" glyph-name="acute"/>
<glyph unicode="µ" d="M846 47q0 -26 -11 -36.5t-34 -10.5h-37q-29 0 -39 11.5t-10 33.5v131q-69 -96 -147.5 -144t-149.5 -48q-54 0 -92.5 12t-69.5 37v-361q0 -23 -10 -34t-39 -11h-43q-47 0 -47 47v1276q0 25 12.5 35t32.5 10h51q23 0 33 -12t10 -35v-715q0 -21 14.5 -40.5t37 -34t49 -23 t51.5 -8.5q65 0 132.5 38.5t123.5 106.5q13 17 21.5 31.5t13.5 30.5t6.5 36t1.5 48v528q0 23 9.5 36t41.5 13h39q29 0 39 -12.5t10 -34.5v-901v0z" horiz-adv-x="973" glyph-name="mu"/>
<glyph unicode="¶" d="M1196 1290q0 -18 -8.5 -28.5t-30.5 -10.5h-125v-1585q0 -18 -10 -28.5t-29 -10.5h-45q-18 0 -28.5 10.5t-10.5 28.5v1585h-133v-1585q0 -18 -10 -28.5t-29 -10.5h-45q-18 0 -28.5 10.5t-10.5 28.5v838q-30 -5 -52 -7.5t-39.5 -4.5t-32.5 -2.5t-31 -0.5q-88 0 -158 32.5 t-118.5 90t-74.5 138t-26 176.5q0 101 32.5 182.5t97 138.5t160.5 88t222 31h524q22 0 30.5 -10t8.5 -29v-37v0z" horiz-adv-x="1139" glyph-name="paragraph"/>
<glyph unicode="·" d="M354 696q0 -24 -8.5 -44.5t-24 -35.5t-36.5 -23.5t-45 -8.5q-35 0 -61.5 21.5t-26.5 66.5q0 49 30.5 81.5t81.5 32.5q18 0 34 -6t28.5 -18t20 -28.5t7.5 -37.5z" horiz-adv-x="428" glyph-name="periodcentered"/>
<glyph unicode="¸" d="M387 -199q0 -45 -18 -78t-49 -54t-71 -31.5t-85 -10.5q-40 0 -75 3.5t-64 13.5q-19 6 -27 13t0 26l12 32q6 16 15.5 17.5t27.5 -4.5q26 -8 56 -12.5t53 -4.5q18 0 37 2t34.5 9.5t26 22t10.5 38.5q0 55 -86 55q-14 0 -34.5 -1.5t-34.5 -4.5q-23 -5 -33 1.5t-10 19.5 q0 11 10 28l65 133h103l-51 -102q17 2 29 2h24q25 0 49.5 -7.5t43.5 -21.5t30.5 -35t11.5 -49z" horiz-adv-x="653" glyph-name="cedilla"/>
<glyph unicode="¹" d="M459 680q-3 -17 -12 -24t-29 -7h-56q-20 0 -27.5 7t-4.5 24l98 582l-135 -43q-19 -7 -26.5 -4t-12.5 16l-12 35q-2 6 -3 11.5t-1 8.5q0 16 11 22.5t30 12.5l192 63q19 7 28.5 9t20.5 2h23q20 0 27 -7.5t3 -25.5z" horiz-adv-x="670" glyph-name="onesuperior"/>
<glyph unicode="º" d="M735 1128q0 -73 -21.5 -144.5t-63.5 -128.5t-105.5 -92.5t-147.5 -35.5q-67 0 -113 23t-75 61t-42 87.5t-13 102.5q0 72 22 142.5t64.5 126.5t105 90.5t143.5 34.5q69 0 116 -22.5t76 -60t41.5 -85.5t12.5 -99zM410 829q54 0 93 27.5t63.5 70t36 94.5t11.5 101 q0 33 -6.5 63.5t-22 54.5t-42 38t-66.5 14q-52 0 -89.5 -27t-61.5 -69.5t-35.5 -95t-11.5 -103.5q0 -32 6.5 -62.5t21.5 -54t40 -37.5t63 -14z" horiz-adv-x="694" glyph-name="ordmasculine"/>
<glyph unicode="»" d="M831 494q0 -19 -18 -37l-313 -326q-19 -20 -31 -20q-6 0 -12.5 2t-14.5 8l-32 26q-7 7 -10 12t-3 13q0 6 5.5 13.5t13.5 17.5l256 286l-176 332q-3 8 -5 13t-2 10q0 13 19 26l31 19q11 6 18 7t10 1q8 0 15 -6t12 -14l229 -355q8 -13 8 -28zM483 494q0 -19 -18 -37 l-313 -326q-19 -20 -31 -20q-6 0 -12.5 2t-14.5 8l-33 26q-6 7 -9 12t-3 13q0 6 5.5 13.5t13.5 17.5l256 286l-177 332q-6 15 -6 23q0 14 19 26l30 19q11 6 18.5 7t10.5 1q8 0 15 -6t12 -14l229 -355q8 -13 8 -28z" horiz-adv-x="926" glyph-name="guillemotright"/>
<glyph unicode="¼" d="M1409 190q-3 -17 -12 -24.5t-29 -7.5h-70l-24 -154q-3 -20 -11.5 -26.5t-27.5 -6.5h-59q-17 0 -23.5 6.5t-3.5 26.5l25 154h-363q-15 0 -22.5 8t-4.5 27l7 34q2 13 8 22t18 23l418 414q14 14 26 22.5t33 8.5h66q20 0 25 -8t1 -25l-69 -426h69q20 0 26 -7t3 -24zM1241 553 l-293 -295h244zM459 680q-3 -17 -12 -24t-29 -7h-56q-20 0 -27.5 7t-4.5 24l98 582l-135 -43q-19 -7 -26.5 -4t-12.5 16l-12 35q-2 6 -3 11.5t-1 8.5q0 16 11 22.5t30 12.5l192 63q19 7 28.5 9t20.5 2h23q20 0 27 -7.5t3 -25.5zM1268 1378q0 -13 -13 -30l-874 -1348 q-14 -22 -29 -34.5t-35 -12.5h-53q-11 0 -15.5 5t-4.5 11q0 13 12 31l874 1348q14 21 29 34t35 13h53q11 0 16 -5.5t5 -11.5z" horiz-adv-x="1530" glyph-name="onequarter"/>
<glyph unicode="½" d="M1438 545q0 -49 -18.5 -89.5t-48 -76t-67.5 -66.5t-77 -61q-17 -14 -39.5 -31.5t-47.5 -36.5t-51 -38t-49 -35h332q19 0 26.5 -7.5t4.5 -25.5l-8 -45q-3 -17 -12 -25t-27 -8h-490q-18 0 -26 6t-4 25l8 43q2 11 8 18t18 17q19 14 45.5 34.5t56 43.5t60 47.5t58 46.5 t50.5 40.5t38 30.5q20 17 41.5 36.5t39.5 41t29.5 46.5t11.5 52q0 45 -31.5 76t-88.5 31q-27 0 -55 -4.5t-53 -10.5t-45 -13t-30 -11q-29 -14 -38.5 -12t-16.5 16l-18 33q-6 12 -6 22q0 21 34 35q18 9 43 18t56 16.5t67 12t74 4.5q58 0 103.5 -16t77 -43t48.5 -62.5 t17 -74.5zM459 680q-3 -17 -12 -24t-29 -7h-56q-20 0 -27.5 7t-4.5 24l98 582l-135 -43q-19 -7 -26.5 -4t-12.5 16l-12 35q-2 6 -3 11.5t-1 8.5q0 16 11 22.5t30 12.5l192 63q19 7 28.5 9t20.5 2h23q20 0 27 -7.5t3 -25.5zM1247 1378q0 -12 -12 -30l-875 -1348 q-14 -22 -28.5 -34.5t-34.5 -12.5h-53q-11 0 -16 5t-5 11q0 14 13 31l874 1348q14 21 29 34t35 13h53q11 0 15.5 -5.5t4.5 -11.5z" horiz-adv-x="1530" glyph-name="onehalf"/>
<glyph unicode="¾" d="M702 1223q0 -65 -35.5 -116.5t-103.5 -74.5q32 -9 54.5 -27t37 -40.5t21 -46.5t6.5 -46q0 -58 -25 -104t-67 -77.5t-97 -48.5t-114 -17q-28 0 -59.5 3.5t-63 10.5t-60 17t-49.5 22q-6 5 -12 9.5t-6 17.5q0 10 10 30l15 27q11 20 22.5 22.5t34.5 -10.5q43 -20 89 -30.5 t89 -10.5q34 0 62.5 9.5t49.5 28t32.5 45.5t11.5 61q0 24 -10.5 43t-29 31.5t-43 19t-52.5 6.5h-52q-20 0 -30.5 7t-8.5 30l7 33q6 34 47 34h55q27 0 52.5 7.5t45 23t31.5 38t12 52.5q0 38 -30.5 61t-92.5 23q-68 0 -167 -41q-20 -8 -34 -7.5t-20 17.5l-12 31q-6 15 -6 25 q0 12 11.5 21t21.5 14q9 4 31 12.5t52 16.5t66.5 14t75.5 6q112 0 174.5 -46t62.5 -126zM1386 258q20 0 26 -7t3 -24l-6 -37q-3 -17 -12 -24.5t-29 -7.5h-70l-24 -154q-3 -20 -11.5 -26.5t-27.5 -6.5h-59q-17 0 -23.5 6.5t-3.5 26.5l25 154h-363q-15 0 -22.5 8t-4.5 27l7 34 q2 13 8 22t18 23l418 414q14 14 26 22.5t33 8.5h66q20 0 25 -8t1 -25l-69 -426h69zM1241 553l-293 -295h244zM1337 1378q0 -12 -12 -30l-874 -1348q-14 -22 -29 -34.5t-35 -12.5h-53q-11 0 -16 5t-5 11q0 14 13 31l874 1348q14 21 29 34t35 13h53q11 0 15.5 -5.5t4.5 -11.5z " horiz-adv-x="1530" glyph-name="threequarters"/>
<glyph unicode="¿" d="M649 -270q0 -14 -11.5 -23.5t-25.5 -15.5q-38 -16 -75 -28.5t-75 -21.5t-77.5 -13.5t-83.5 -4.5q-75 0 -133.5 20t-99 54.5t-61.5 81t-21 98.5q0 56 18.5 106t49.5 94.5t71.5 85t83.5 77.5q46 38 79 67.5t55.5 60.5t37.5 69t25 93l6 35q5 34 18 46t35 12h33q8 0 16 -2.5 t13.5 -9t8 -18.5t-0.5 -30l-15 -94q-9 -54 -30 -96t-51.5 -78t-68.5 -69.5t-81 -69.5q-29 -23 -58 -50.5t-52.5 -60t-38.5 -70.5t-15 -81q0 -29 10 -55.5t32.5 -46t57.5 -31t86 -11.5q56 0 117.5 12t132.5 43q26 11 39 10t23 -20l20 -45q6 -12 6 -20zM608 924 q0 -50 -30.5 -82.5t-81.5 -32.5q-18 0 -34 6.5t-28.5 18t-20 28t-7.5 37.5q0 24 8.5 44.5t24 36t36.5 24t45 8.5q35 0 61.5 -21.5t26.5 -66.5z" horiz-adv-x="793" glyph-name="questiondown"/>
<glyph unicode="À" d="M1001 82q4 -16 5.5 -27t1.5 -16q0 -17 -8 -28t-31 -11h-68q-20 0 -28 7.5t-11 29.5l-53 315h-559l-158 -311q-12 -23 -22.5 -32t-30.5 -9h-70q-28 0 -28 25q0 15 10 32l657 1282q11 23 24.5 32t35.5 9h67q22 0 32 -9t15 -32zM672 1190l-357 -711h473zM780 1493 q0 -6 -5 -11t-16 -5h-53q-25 0 -37 5t-26 22l-189 190q-14 14 -14 25q0 9 8 12.5t19 3.5h100q14 0 24.5 -1t19 -4.5t16 -11.5t16.5 -22l131 -186q6 -9 6 -17z" horiz-adv-x="1085" glyph-name="Agrave"/>
<glyph unicode="Á" d="M1001 82q4 -16 5.5 -27t1.5 -16q0 -17 -8 -28t-31 -11h-68q-20 0 -28 7.5t-11 29.5l-53 315h-559l-158 -311q-12 -23 -22.5 -32t-30.5 -9h-70q-28 0 -28 25q0 15 10 32l657 1282q11 23 24.5 32t35.5 9h67q22 0 32 -9t15 -32zM672 1190l-357 -711h473zM1036 1723 q0 -8 -4 -14t-16 -15l-246 -190q-22 -17 -35.5 -22t-36.5 -5h-61q-6 0 -10 2t-4 10q0 9 12 21l174 186q13 14 23 22t19.5 11.5t20 4.5t25.5 1h119q20 0 20 -12z" horiz-adv-x="1085" glyph-name="Aacute"/>
<glyph unicode="Â" d="M1001 82q4 -16 5.5 -27t1.5 -16q0 -17 -8 -28t-31 -11h-68q-20 0 -28 7.5t-11 29.5l-53 315h-559l-158 -311q-12 -23 -22.5 -32t-30.5 -9h-70q-28 0 -28 25q0 15 10 32l657 1282q11 23 24.5 32t35.5 9h67q22 0 32 -9t15 -32zM672 1190l-357 -711h473zM975 1493 q0 -9 -6.5 -12.5t-14.5 -3.5h-47q-25 0 -37.5 5t-28.5 22l-104 127l-178 -127q-11 -8 -18.5 -13t-14.5 -8t-15 -4.5t-20 -1.5h-41q-20 0 -20 14q0 9 12 21l197 184q12 14 21.5 22t18.5 11.5t18.5 4.5t21.5 1h63q12 0 21 -1t17 -4.5t15 -11.5t15 -22l118 -186q7 -11 7 -17z " horiz-adv-x="1085" glyph-name="Acircumflex"/>
<glyph unicode="Ã" d="M1001 82q4 -16 5.5 -27t1.5 -16q0 -17 -8 -28t-31 -11h-68q-20 0 -28 7.5t-11 29.5l-53 315h-559l-158 -311q-12 -23 -22.5 -32t-30.5 -9h-70q-28 0 -28 25q0 15 10 32l657 1282q11 23 24.5 32t35.5 9h67q22 0 32 -9t15 -32zM672 1190l-357 -711h473zM1042 1675 q-1 -18 -13 -50.5t-35 -64t-58 -54.5t-81 -23q-38 0 -71 14.5t-63.5 31.5t-59 31.5t-55.5 14.5q-35 0 -53.5 -20.5t-32.5 -51.5q-5 -12 -10.5 -18.5t-20.5 -6.5h-43q-9 0 -11.5 5t-2.5 14q1 19 13 51t34.5 63t57 53.5t81.5 22.5q36 0 69 -14.5t64 -31.5t60 -31.5t57 -14.5 q18 0 32.5 8t25 19.5t17.5 24.5t11 22q8 25 26 25h48q9 0 11.5 -5t2.5 -14z" horiz-adv-x="1085" glyph-name="Atilde"/>
<glyph unicode="Ä" d="M1001 82q4 -16 5.5 -27t1.5 -16q0 -17 -8 -28t-31 -11h-68q-20 0 -28 7.5t-11 29.5l-53 315h-559l-158 -311q-12 -23 -22.5 -32t-30.5 -9h-70q-28 0 -28 25q0 15 10 32l657 1282q11 23 24.5 32t35.5 9h67q22 0 32 -9t15 -32zM672 1190l-357 -711h473zM662 1573 q0 -19 -7 -36t-20 -29.5t-30 -19.5t-37 -7q-29 0 -50.5 18.5t-21.5 53.5q0 40 25.5 67t67.5 27q29 0 51 -20t22 -54zM941 1573q0 -19 -7 -36t-20 -29.5t-30 -19.5t-37 -7q-29 0 -50.5 18.5t-21.5 53.5q0 40 25 67t67 27q29 0 51.5 -20t22.5 -54z" horiz-adv-x="1085" glyph-name="Adieresis"/>
<glyph unicode="Å" d="M1001 82q4 -16 5.5 -27t1.5 -16q0 -17 -8 -28t-31 -11h-68q-20 0 -28 7.5t-11 29.5l-53 315h-559l-158 -311q-12 -23 -22.5 -32t-30.5 -9h-70q-28 0 -28 25q0 15 10 32l657 1282q11 23 24.5 32t35.5 9h67q22 0 32 -9t15 -32zM672 1190l-357 -711h473zM803 1614 q0 34 -20.5 55.5t-57.5 21.5q-16 0 -32 -5.5t-29 -17t-21 -29t-8 -40.5q0 -32 19 -54.5t57 -22.5q16 0 32.5 5.5t29.5 17t21.5 29t8.5 40.5zM870 1622q0 -36 -13 -66.5t-36 -52.5t-53.5 -34.5t-65.5 -12.5q-58 0 -96.5 35t-38.5 100q0 36 13.5 66.5t36 52.5t53 34.5 t65.5 12.5q59 0 97 -35t38 -100z" horiz-adv-x="1085" glyph-name="Aring"/>
<glyph unicode="Æ" d="M1345 43q-6 -43 -51 -43h-622q-19 0 -28.5 11t-6.5 34l51 307h-387l-193 -309q-14 -22 -24 -32.5t-29 -10.5h-73q-16 0 -25 7t-6 20q0 6 3 14t9 16l793 1270q14 22 26.5 30.5t32.5 8.5h684q20 0 31 -11.5t8 -31.5l-8 -41q-6 -43 -51 -43h-498l-78 -461h420q45 0 39 -43 l-8 -41q-3 -20 -16 -31.5t-36 -11.5h-419l-86 -516h520q23 0 31.5 -11.5t5.5 -31.5zM838 1227h-5l-452 -748h330z" horiz-adv-x="1477" glyph-name="AE"/>
<glyph unicode="Ç" d="M930 115q0 -11 -9.5 -20t-21.5 -17q-32 -20 -71 -39t-85 -34t-100 -24.5t-115 -9.5l-28 -59q17 2 29 2h24q25 0 49.5 -7.5t43.5 -21.5t30.5 -35t11.5 -49q0 -45 -18 -78t-49 -54t-71 -31.5t-85 -10.5q-40 0 -75 3.5t-64 13.5q-19 6 -27 13t0 26l12 32q6 16 15.5 17.5 t27.5 -4.5q26 -8 56 -12.5t53 -4.5q18 0 37 2t34.5 9.5t26 22t10.5 38.5q0 55 -86 55q-14 0 -34.5 -1.5t-34.5 -4.5q-23 -5 -33 1.5t-10 19.5q0 11 10 28l49 101q-69 15 -130 53.5t-107 101t-72.5 149.5t-26.5 201q0 96 14 201t45 205.5t79.5 191.5t118.5 160t161.5 109.5 t208.5 40.5q51 0 97 -9t85 -22t68.5 -27.5t46.5 -25.5q12 -8 16 -15.5t4 -13.5t-2.5 -14.5t-11.5 -22.5l-29 -47q-11 -15 -23.5 -16.5t-25.5 6.5q-46 29 -107.5 49t-142.5 20q-82 0 -146.5 -35.5t-113.5 -95t-83.5 -136.5t-56.5 -159.5t-32 -164.5t-10 -152 q0 -82 16.5 -155.5t52 -129t91.5 -88t135 -32.5q26 0 47 1.5t39.5 5t36.5 8.5t39 13q46 17 75.5 33t57.5 33q18 11 32 6t19 -16l29 -62q4 -8 4 -16z" horiz-adv-x="1022" glyph-name="Ccedilla"/>
<glyph unicode="È" d="M822 43q-6 -43 -51 -43h-651q-43 0 -37 45l213 1276q5 20 18 32.5t33 12.5h631q18 0 29 -11.5t8 -31.5l-9 -41q-6 -43 -49 -43h-528l-78 -461h449q45 0 39 -43l-9 -41q-3 -20 -15.5 -31.5t-35.5 -11.5h-448l-86 -516h548q23 0 31.5 -11.5t5.5 -31.5l-8 -49v0zM762 1493 q0 -6 -5 -11t-16 -5h-53q-25 0 -37 5t-26 22l-189 190q-14 14 -14 25q0 9 8 12.5t19 3.5h100q14 0 24.5 -1t19 -4.5t16 -11.5t16.5 -22l131 -186q6 -9 6 -17z" horiz-adv-x="950" glyph-name="Egrave"/>
<glyph unicode="É" d="M822 43q-6 -43 -51 -43h-651q-43 0 -37 45l213 1276q5 20 18 32.5t33 12.5h631q18 0 29 -11.5t8 -31.5l-9 -41q-6 -43 -49 -43h-528l-78 -461h449q45 0 39 -43l-9 -41q-3 -20 -15.5 -31.5t-35.5 -11.5h-448l-86 -516h548q23 0 31.5 -11.5t5.5 -31.5l-8 -49v0zM942 1723 q0 -8 -4 -14t-16 -15l-246 -190q-22 -17 -35.5 -22t-36.5 -5h-61q-6 0 -10 2t-4 10q0 9 12 21l174 186q13 14 23 22t19.5 11.5t20 4.5t25.5 1h119q20 0 20 -12z" horiz-adv-x="950" glyph-name="Eacute"/>
<glyph unicode="Ê" d="M822 43q-6 -43 -51 -43h-651q-43 0 -37 45l213 1276q5 20 18 32.5t33 12.5h631q18 0 29 -11.5t8 -31.5l-9 -41q-6 -43 -49 -43h-528l-78 -461h449q45 0 39 -43l-9 -41q-3 -20 -15.5 -31.5t-35.5 -11.5h-448l-86 -516h548q23 0 31.5 -11.5t5.5 -31.5l-8 -49v0zM930 1493 q0 -9 -6.5 -12.5t-14.5 -3.5h-47q-25 0 -37.5 5t-28.5 22l-104 127l-178 -127q-11 -8 -18.5 -13t-14.5 -8t-15 -4.5t-20 -1.5h-41q-20 0 -20 14q0 9 12 21l197 184q12 14 21.5 22t18.5 11.5t18.5 4.5t21.5 1h63q12 0 21 -1t17 -4.5t15 -11.5t15 -22l118 -186q7 -11 7 -17z " horiz-adv-x="950" glyph-name="Ecircumflex"/>
<glyph unicode="Ë" d="M822 43q-6 -43 -51 -43h-651q-43 0 -37 45l213 1276q5 20 18 32.5t33 12.5h631q18 0 29 -11.5t8 -31.5l-9 -41q-6 -43 -49 -43h-528l-78 -461h449q45 0 39 -43l-9 -41q-3 -20 -15.5 -31.5t-35.5 -11.5h-448l-86 -516h548q23 0 31.5 -11.5t5.5 -31.5l-8 -49v0zM625 1573 q0 -19 -7 -36t-20 -29.5t-30 -19.5t-37 -7q-29 0 -50.5 18.5t-21.5 53.5q0 40 25.5 67t67.5 27q29 0 51 -20t22 -54zM904 1573q0 -19 -7 -36t-20 -29.5t-30 -19.5t-37 -7q-29 0 -50.5 18.5t-21.5 53.5q0 40 25 67t67 27q29 0 51.5 -20t22.5 -54z" horiz-adv-x="950" glyph-name="Edieresis"/>
<glyph unicode="Ì" d="M223 45q-6 -45 -49 -45h-59q-43 0 -37 45l213 1276q9 45 51 45h59q20 0 30 -11t5 -34l-213 -1276v0zM479 1493q0 -6 -5 -11t-16 -5h-53q-25 0 -37 5t-26 22l-189 190q-14 14 -14 25q0 9 8 12.5t19 3.5h100q14 0 24.5 -1t19 -4.5t16 -11.5t16.5 -22l131 -186q6 -9 6 -17z " horiz-adv-x="442" glyph-name="Igrave"/>
<glyph unicode="Í" d="M223 45q-6 -45 -49 -45h-59q-43 0 -37 45l213 1276q9 45 51 45h59q20 0 30 -11t5 -34l-213 -1276v0zM694 1723q0 -8 -4 -14t-16 -15l-246 -190q-22 -17 -35.5 -22t-36.5 -5h-61q-6 0 -10 2t-4 10q0 9 12 21l174 186q13 14 23 22t19.5 11.5t20 4.5t25.5 1h119q20 0 20 -12 z" horiz-adv-x="442" glyph-name="Iacute"/>
<glyph unicode="Î" d="M223 45q-6 -45 -49 -45h-59q-43 0 -37 45l213 1276q9 45 51 45h59q20 0 30 -11t5 -34l-213 -1276v0zM651 1493q0 -9 -6.5 -12.5t-14.5 -3.5h-47q-25 0 -37.5 5t-28.5 22l-104 127l-178 -127q-11 -8 -18.5 -13t-14.5 -8t-15 -4.5t-20 -1.5h-41q-20 0 -20 14q0 9 12 21 l197 184q12 14 21.5 22t18.5 11.5t18.5 4.5t21.5 1h63q12 0 21 -1t17 -4.5t15 -11.5t15 -22l118 -186q7 -11 7 -17z" horiz-adv-x="442" glyph-name="Icircumflex"/>
<glyph unicode="Ï" d="M223 45q-6 -45 -49 -45h-59q-43 0 -37 45l213 1276q9 45 51 45h59q20 0 30 -11t5 -34l-213 -1276v0zM338 1573q0 -19 -7 -36t-20 -29.5t-30 -19.5t-37 -7q-29 0 -50.5 18.5t-21.5 53.5q0 40 25.5 67t67.5 27q29 0 51 -20t22 -54zM617 1573q0 -19 -7 -36t-20 -29.5 t-30 -19.5t-37 -7q-29 0 -50.5 18.5t-21.5 53.5q0 40 25 67t67 27q29 0 51.5 -20t22.5 -54z" horiz-adv-x="442" glyph-name="Idieresis"/>
<glyph unicode="Ð" d="M1098 856q0 -105 -19 -209.5t-58.5 -200t-99.5 -177t-141.5 -141.5t-186 -94t-231.5 -34h-241q-29 0 -37.5 12t-5.5 35l102 606h-114q-25 0 -31.5 10t-3.5 31l8 45q3 22 12.5 31.5t34.5 9.5h115l90 539q5 25 17 36t40 11h219q138 0 238 -38t165 -106t96.5 -161.5 t31.5 -204.5zM377 135q102 0 183 27.5t143.5 76.5t107 116t72.5 146.5t41.5 168t13.5 180.5q0 115 -30.5 190t-82 119.5t-120 62t-144.5 17.5h-137l-78 -459h219q23 0 29.5 -9.5t3.5 -31.5l-8 -45q-3 -21 -12.5 -31t-30.5 -10h-221l-86 -518h137z" horiz-adv-x="1130" glyph-name="Eth"/>
<glyph unicode="Ñ" d="M973 45q-3 -23 -16 -34t-33 -11h-45q-20 0 -32 11t-22 34l-436 1073l-174 -1073q-6 -45 -49 -45h-51q-43 0 -37 45l213 1276q5 20 18 32.5t33 12.5h59q20 0 31 -11t21 -34l428 -1045l168 1045q9 45 49 45h53q20 0 30 -11t5 -34l-213 -1276v0zM1089 1675q-1 -18 -13 -50.5 t-35 -64t-58 -54.5t-81 -23q-38 0 -71 14.5t-63.5 31.5t-59 31.5t-55.5 14.5q-35 0 -53.5 -20.5t-32.5 -51.5q-5 -12 -10.5 -18.5t-20.5 -6.5h-43q-9 0 -11.5 5t-2.5 14q1 19 13 51t34.5 63t57 53.5t81.5 22.5q36 0 69 -14.5t64 -31.5t60 -31.5t57 -14.5q18 0 32.5 8 t25 19.5t17.5 24.5t11 22q8 25 26 25h48q9 0 11.5 -5t2.5 -14z" horiz-adv-x="1192" glyph-name="Ntilde"/>
<glyph unicode="Ò" d="M1087 930q0 -66 -6.5 -142.5t-21 -156t-37.5 -159.5t-57 -153.5t-78.5 -137t-102 -110t-129 -73.5t-157.5 -27q-109 0 -184.5 40t-122.5 105.5t-68 148.5t-21 169q0 87 12 192t39 212t71.5 207t110.5 178t154 125t203 47q109 0 184.5 -40t122 -105.5t67.5 -149t21 -170.5 zM510 106q83 0 146 41t109.5 108t78 153t50 175.5t26.5 176t8 155.5q0 73 -11.5 136t-40 109.5t-76 73t-118.5 26.5q-82 0 -145.5 -41t-110 -107.5t-78 -152t-51 -175.5t-27.5 -176.5t-8 -154.5q0 -73 11.5 -136.5t40 -110t76.5 -73.5t120 -27zM797 1493q0 -6 -5 -11t-16 -5 h-53q-25 0 -37 5t-26 22l-189 190q-14 14 -14 25q0 9 8 12.5t19 3.5h100q14 0 24.5 -1t19 -4.5t16 -11.5t16.5 -22l131 -186q6 -9 6 -17z" glyph-name="Ograve"/>
<glyph unicode="Ó" d="M1087 930q0 -66 -6.5 -142.5t-21 -156t-37.5 -159.5t-57 -153.5t-78.5 -137t-102 -110t-129 -73.5t-157.5 -27q-109 0 -184.5 40t-122.5 105.5t-68 148.5t-21 169q0 87 12 192t39 212t71.5 207t110.5 178t154 125t203 47q109 0 184.5 -40t122 -105.5t67.5 -149t21 -170.5 zM510 106q83 0 146 41t109.5 108t78 153t50 175.5t26.5 176t8 155.5q0 73 -11.5 136t-40 109.5t-76 73t-118.5 26.5q-82 0 -145.5 -41t-110 -107.5t-78 -152t-51 -175.5t-27.5 -176.5t-8 -154.5q0 -73 11.5 -136.5t40 -110t76.5 -73.5t120 -27zM1018 1723q0 -8 -4 -14 t-16 -15l-246 -190q-22 -17 -35.5 -22t-36.5 -5h-61q-6 0 -10 2t-4 10q0 9 12 21l174 186q13 14 23 22t19.5 11.5t20 4.5t25.5 1h119q20 0 20 -12z" glyph-name="Oacute"/>
<glyph unicode="Ô" d="M1087 930q0 -66 -6.5 -142.5t-21 -156t-37.5 -159.5t-57 -153.5t-78.5 -137t-102 -110t-129 -73.5t-157.5 -27q-109 0 -184.5 40t-122.5 105.5t-68 148.5t-21 169q0 87 12 192t39 212t71.5 207t110.5 178t154 125t203 47q109 0 184.5 -40t122 -105.5t67.5 -149t21 -170.5 zM510 106q83 0 146 41t109.5 108t78 153t50 175.5t26.5 176t8 155.5q0 73 -11.5 136t-40 109.5t-76 73t-118.5 26.5q-82 0 -145.5 -41t-110 -107.5t-78 -152t-51 -175.5t-27.5 -176.5t-8 -154.5q0 -73 11.5 -136.5t40 -110t76.5 -73.5t120 -27zM985 1493q0 -9 -6.5 -12.5 t-14.5 -3.5h-47q-25 0 -37.5 5t-28.5 22l-104 127l-178 -127q-11 -8 -18.5 -13t-14.5 -8t-15 -4.5t-20 -1.5h-41q-20 0 -20 14q0 9 12 21l197 184q12 14 21.5 22t18.5 11.5t18.5 4.5t21.5 1h63q12 0 21 -1t17 -4.5t15 -11.5t15 -22l118 -186q7 -11 7 -17z" glyph-name="Ocircumflex"/>
<glyph unicode="Õ" d="M1087 930q0 -66 -6.5 -142.5t-21 -156t-37.5 -159.5t-57 -153.5t-78.5 -137t-102 -110t-129 -73.5t-157.5 -27q-109 0 -184.5 40t-122.5 105.5t-68 148.5t-21 169q0 87 12 192t39 212t71.5 207t110.5 178t154 125t203 47q109 0 184.5 -40t122 -105.5t67.5 -149t21 -170.5 zM510 106q83 0 146 41t109.5 108t78 153t50 175.5t26.5 176t8 155.5q0 73 -11.5 136t-40 109.5t-76 73t-118.5 26.5q-82 0 -145.5 -41t-110 -107.5t-78 -152t-51 -175.5t-27.5 -176.5t-8 -154.5q0 -73 11.5 -136.5t40 -110t76.5 -73.5t120 -27zM1034 1675q-1 -18 -13 -50.5 t-35 -64t-58 -54.5t-81 -23q-38 0 -71 14.5t-63.5 31.5t-59 31.5t-55.5 14.5q-35 0 -53.5 -20.5t-32.5 -51.5q-5 -12 -10.5 -18.5t-20.5 -6.5h-43q-9 0 -11.5 5t-2.5 14q1 19 13 51t34.5 63t57 53.5t81.5 22.5q36 0 69 -14.5t64 -31.5t60 -31.5t57 -14.5q18 0 32.5 8 t25 19.5t17.5 24.5t11 22q8 25 26 25h48q9 0 11.5 -5t2.5 -14z" glyph-name="Otilde"/>
<glyph unicode="Ö" d="M1087 930q0 -66 -6.5 -142.5t-21 -156t-37.5 -159.5t-57 -153.5t-78.5 -137t-102 -110t-129 -73.5t-157.5 -27q-109 0 -184.5 40t-122.5 105.5t-68 148.5t-21 169q0 87 12 192t39 212t71.5 207t110.5 178t154 125t203 47q109 0 184.5 -40t122 -105.5t67.5 -149t21 -170.5 zM510 106q83 0 146 41t109.5 108t78 153t50 175.5t26.5 176t8 155.5q0 73 -11.5 136t-40 109.5t-76 73t-118.5 26.5q-82 0 -145.5 -41t-110 -107.5t-78 -152t-51 -175.5t-27.5 -176.5t-8 -154.5q0 -73 11.5 -136.5t40 -110t76.5 -73.5t120 -27zM682 1573q0 -19 -7 -36 t-20 -29.5t-30 -19.5t-37 -7q-29 0 -50.5 18.5t-21.5 53.5q0 40 25.5 67t67.5 27q29 0 51 -20t22 -54zM961 1573q0 -19 -7 -36t-20 -29.5t-30 -19.5t-37 -7q-29 0 -50.5 18.5t-21.5 53.5q0 40 25 67t67 27q29 0 51.5 -20t22.5 -54z" glyph-name="Odieresis"/>
<glyph unicode="×" d="M854 399q0 -12 -14 -26l-41 -41q-17 -15 -25 -15q-5 0 -10.5 2.5t-13.5 10.5l-265 262l-260 -260q-15 -15 -24 -15q-10 0 -25 15l-41 41q-14 14 -14 22q0 6 2 12.5t10 14.5l264 260l-262 260q-14 14 -14 25q0 10 14 24l41 41q15 15 23 15q6 0 11.5 -3t14.5 -12l260 -258 l263 258q9 9 14 12t10 3q8 0 25 -15l41 -41q14 -14 14 -22q0 -5 -2.5 -11.5t-11.5 -15.5l-263 -260l265 -260q14 -14 14 -23z" horiz-adv-x="864" glyph-name="multiply"/>
<glyph unicode="Ø" d="M1087 930q0 -66 -6.5 -142.5t-21 -156t-37.5 -159.5t-57 -153.5t-78.5 -137t-102 -110t-129 -73.5t-157.5 -27q-97 0 -167 31t-116 84l-45 -66q-36 -49 -61 -49h-58q-28 0 -28 21q2 8 5 14.5t11 16.5l117 153q-28 59 -41 124.5t-13 133.5q0 87 12 192t39 212t71.5 207 t110.5 178t154 125t203 47q96 0 164.5 -31t116.5 -84l51 68q17 21 31 34t32 13h60q20 0 20 -15q0 -9 -3 -16t-9 -16l-121 -160q28 -59 40.5 -124.5t12.5 -133.5zM510 106q83 0 146 41t109.5 108t78 153t50 175.5t26.5 176t8 155.5q0 31 -1.5 61t-6.5 58l-611 -821 q28 -50 77 -78.5t124 -28.5zM682 1260q-82 0 -145.5 -41t-110 -107.5t-78 -152t-51 -175.5t-27.5 -176.5t-8 -154.5q0 -32 1.5 -61.5t6.5 -57.5l609 819q-28 50 -75.5 78.5t-121.5 28.5z" glyph-name="Oslash"/>
<glyph unicode="Ù" d="M970 393q-20 -120 -65 -201t-110.5 -130t-150 -70t-182.5 -21q-86 0 -153.5 25.5t-114.5 72t-71.5 112.5t-24.5 147q0 11 1.5 32t4 44t5.5 44.5t5 34.5l141 838q3 20 16 32.5t33 12.5h62q18 0 28 -11t5 -34l-152 -911q-3 -19 -4.5 -40t-1.5 -36q0 -59 19 -102.5t52.5 -72 t79.5 -42t99 -13.5q64 0 119.5 15.5t99.5 50t74.5 90.5t44.5 137l153 924q5 23 18 34t33 11h60q20 0 30 -11t5 -34l-158 -928v0zM815 1493q0 -6 -5 -11t-16 -5h-53q-25 0 -37 5t-26 22l-189 190q-14 14 -14 25q0 9 8 12.5t19 3.5h100q14 0 24.5 -1t19 -4.5t16 -11.5 t16.5 -22l131 -186q6 -9 6 -17z" horiz-adv-x="1110" glyph-name="Ugrave"/>
<glyph unicode="Ú" d="M970 393q-20 -120 -65 -201t-110.5 -130t-150 -70t-182.5 -21q-86 0 -153.5 25.5t-114.5 72t-71.5 112.5t-24.5 147q0 11 1.5 32t4 44t5.5 44.5t5 34.5l141 838q3 20 16 32.5t33 12.5h62q18 0 28 -11t5 -34l-152 -911q-3 -19 -4.5 -40t-1.5 -36q0 -59 19 -102.5t52.5 -72 t79.5 -42t99 -13.5q64 0 119.5 15.5t99.5 50t74.5 90.5t44.5 137l153 924q5 23 18 34t33 11h60q20 0 30 -11t5 -34l-158 -928v0zM1018 1723q0 -8 -4 -14t-16 -15l-246 -190q-22 -17 -35.5 -22t-36.5 -5h-61q-6 0 -10 2t-4 10q0 9 12 21l174 186q13 14 23 22t19.5 11.5 t20 4.5t25.5 1h119q20 0 20 -12z" horiz-adv-x="1110" glyph-name="Uacute"/>
<glyph unicode="Û" d="M970 393q-20 -120 -65 -201t-110.5 -130t-150 -70t-182.5 -21q-86 0 -153.5 25.5t-114.5 72t-71.5 112.5t-24.5 147q0 11 1.5 32t4 44t5.5 44.5t5 34.5l141 838q3 20 16 32.5t33 12.5h62q18 0 28 -11t5 -34l-152 -911q-3 -19 -4.5 -40t-1.5 -36q0 -59 19 -102.5t52.5 -72 t79.5 -42t99 -13.5q64 0 119.5 15.5t99.5 50t74.5 90.5t44.5 137l153 924q5 23 18 34t33 11h60q20 0 30 -11t5 -34l-158 -928v0zM989 1493q0 -9 -6.5 -12.5t-14.5 -3.5h-47q-25 0 -37.5 5t-28.5 22l-104 127l-178 -127q-11 -8 -18.5 -13t-14.5 -8t-15 -4.5t-20 -1.5h-41 q-20 0 -20 14q0 9 12 21l197 184q12 14 21.5 22t18.5 11.5t18.5 4.5t21.5 1h63q12 0 21 -1t17 -4.5t15 -11.5t15 -22l118 -186q7 -11 7 -17z" horiz-adv-x="1110" glyph-name="Ucircumflex"/>
<glyph unicode="Ü" d="M970 393q-20 -120 -65 -201t-110.5 -130t-150 -70t-182.5 -21q-86 0 -153.5 25.5t-114.5 72t-71.5 112.5t-24.5 147q0 11 1.5 32t4 44t5.5 44.5t5 34.5l141 838q3 20 16 32.5t33 12.5h62q18 0 28 -11t5 -34l-152 -911q-3 -19 -4.5 -40t-1.5 -36q0 -59 19 -102.5t52.5 -72 t79.5 -42t99 -13.5q64 0 119.5 15.5t99.5 50t74.5 90.5t44.5 137l153 924q5 23 18 34t33 11h60q20 0 30 -11t5 -34l-158 -928v0zM684 1573q0 -19 -7 -36t-20 -29.5t-30 -19.5t-37 -7q-29 0 -50.5 18.5t-21.5 53.5q0 40 25.5 67t67.5 27q29 0 51 -20t22 -54zM963 1573 q0 -19 -7 -36t-20 -29.5t-30 -19.5t-37 -7q-29 0 -50.5 18.5t-21.5 53.5q0 40 25 67t67 27q29 0 51.5 -20t22.5 -54z" horiz-adv-x="1110" glyph-name="Udieresis"/>
<glyph unicode="Ý" d="M1087 1348q0 -15 -14 -35l-518 -756l-86 -512q-3 -23 -16 -34t-33 -11h-60q-20 0 -30.5 11t-5.5 34l90 528l-269 740q-6 15 -6 24q0 11 6 20t23 9h70q26 0 37.5 -7t19.5 -30l213 -618l416 618q13 22 25 29.5t38 7.5h74q26 0 26 -18zM909 1723q0 -8 -4 -14t-16 -15 l-246 -190q-22 -17 -35.5 -22t-36.5 -5h-61q-6 0 -10 2t-4 10q0 9 12 21l174 186q13 14 23 22t19.5 11.5t20 4.5t25.5 1h119q20 0 20 -12z" horiz-adv-x="924" glyph-name="Yacute"/>
<glyph unicode="Þ" d="M1012 772q0 -111 -37 -198.5t-106 -147.5t-167.5 -91.5t-220.5 -31.5h-215l-43 -258q-6 -45 -49 -45h-59q-43 0 -37 45l213 1276q9 45 49 45h59q43 0 37 -45l-37 -221h172q89 0 169 -18.5t140.5 -58.5t96 -102t35.5 -149zM858 760q0 62 -25 103t-69.5 65.5t-106 34.5 t-135.5 10h-143l-92 -543h180q88 0 160 15.5t123.5 53t79.5 101t28 160.5z" horiz-adv-x="999" glyph-name="Thorn"/>
<glyph unicode="ß" d="M918 309q0 -83 -27.5 -144t-76 -101.5t-114.5 -60t-143 -19.5q-28 0 -56 4t-53 9.5t-45 11.5t-32 11q-27 10 -27 23q0 6 6 23l25 61q5 12 11 14t11 2q11 0 29 -6q38 -14 82.5 -21t81.5 -7q94 0 143 45t49 133q0 28 -9.5 53t-29 50.5t-50 53.5t-72.5 62q-26 21 -51 43 t-44.5 47.5t-31 55.5t-11.5 67q0 35 10.5 66.5t29.5 60t46 56t60 54.5q23 19 49 42.5t48.5 50.5t37 58t14.5 67q0 61 -45 95t-123 34q-58 0 -100.5 -16.5t-71.5 -49t-47.5 -79.5t-28.5 -107l-167 -1006q-4 -20 -16 -32.5t-32 -12.5h-53q-21 0 -29.5 12.5t-5.5 32.5l170 1008 q31 181 130.5 275.5t279.5 94.5q137 0 211 -65q32 -29 50 -68t18 -86q0 -49 -15.5 -91.5t-41.5 -81t-62 -74t-76 -70.5q-15 -13 -33 -29t-33.5 -35t-25.5 -40t-10 -44q0 -16 6 -31.5t23 -36t46.5 -48t77.5 -68.5q31 -28 57.5 -54.5t46 -56t30 -62.5t10.5 -73z" horiz-adv-x="1022" glyph-name="germandbls"/>
<glyph unicode="à" d="M680 45q-3 -20 -12.5 -32.5t-34.5 -12.5h-41q-22 0 -33 9.5t-6 37.5l14 76q-25 -26 -54.5 -51t-65.5 -44.5t-79.5 -31.5t-95.5 -12t-97 17t-78 48.5t-51.5 77.5t-18.5 104q0 78 24 135.5t65 98t96.5 66t119 40t131.5 20t135 5.5h39l20 125q2 9 3.5 18t1.5 19 q0 26 -9 49.5t-30.5 41t-58.5 28t-93 10.5q-72 0 -128.5 -20.5t-100.5 -43.5q-17 -9 -32.5 -7t-23.5 18l-24 45q-4 8 -4 14q0 12 8 22.5t20 16.5q75 42 160 62t162 20q63 0 116 -15t91.5 -45t60 -74.5t21.5 -103.5q0 -7 -0.5 -18t-2 -23t-3 -23.5t-3.5 -19.5zM618 492 q-47 -1 -98 -3t-101 -9t-95.5 -22t-80 -42t-55 -68t-20.5 -100q0 -29 7.5 -56t23.5 -48t40 -33.5t56 -12.5q37 0 71 10t64 26.5t56.5 37t48.5 41.5q23 20 37 52t20 67zM590 1124q0 -6 -5 -11t-16 -5h-53q-25 0 -37 5t-26 22l-189 190q-14 14 -14 25q0 9 8 12.5t19 3.5h100 q14 0 24.5 -1t19 -4.5t16 -11.5t16.5 -22l131 -186q6 -9 6 -17z" horiz-adv-x="870" glyph-name="agrave"/>
<glyph unicode="á" d="M680 45q-3 -20 -12.5 -32.5t-34.5 -12.5h-41q-22 0 -33 9.5t-6 37.5l14 76q-25 -26 -54.5 -51t-65.5 -44.5t-79.5 -31.5t-95.5 -12t-97 17t-78 48.5t-51.5 77.5t-18.5 104q0 78 24 135.5t65 98t96.5 66t119 40t131.5 20t135 5.5h39l20 125q2 9 3.5 18t1.5 19 q0 26 -9 49.5t-30.5 41t-58.5 28t-93 10.5q-72 0 -128.5 -20.5t-100.5 -43.5q-17 -9 -32.5 -7t-23.5 18l-24 45q-4 8 -4 14q0 12 8 22.5t20 16.5q75 42 160 62t162 20q63 0 116 -15t91.5 -45t60 -74.5t21.5 -103.5q0 -7 -0.5 -18t-2 -23t-3 -23.5t-3.5 -19.5zM618 492 q-47 -1 -98 -3t-101 -9t-95.5 -22t-80 -42t-55 -68t-20.5 -100q0 -29 7.5 -56t23.5 -48t40 -33.5t56 -12.5q37 0 71 10t64 26.5t56.5 37t48.5 41.5q23 20 37 52t20 67zM793 1354q0 -8 -4 -14t-16 -15l-246 -190q-22 -17 -35.5 -22t-36.5 -5h-61q-6 0 -10 2t-4 10q0 9 12 21 l174 186q13 14 23 22t19.5 11.5t20 4.5t25.5 1h119q20 0 20 -12z" horiz-adv-x="870" glyph-name="aacute"/>
<glyph unicode="â" d="M680 45q-3 -20 -12.5 -32.5t-34.5 -12.5h-41q-22 0 -33 9.5t-6 37.5l14 76q-25 -26 -54.5 -51t-65.5 -44.5t-79.5 -31.5t-95.5 -12t-97 17t-78 48.5t-51.5 77.5t-18.5 104q0 78 24 135.5t65 98t96.5 66t119 40t131.5 20t135 5.5h39l20 125q2 9 3.5 18t1.5 19 q0 26 -9 49.5t-30.5 41t-58.5 28t-93 10.5q-72 0 -128.5 -20.5t-100.5 -43.5q-17 -9 -32.5 -7t-23.5 18l-24 45q-4 8 -4 14q0 12 8 22.5t20 16.5q75 42 160 62t162 20q63 0 116 -15t91.5 -45t60 -74.5t21.5 -103.5q0 -7 -0.5 -18t-2 -23t-3 -23.5t-3.5 -19.5zM618 492 q-47 -1 -98 -3t-101 -9t-95.5 -22t-80 -42t-55 -68t-20.5 -100q0 -29 7.5 -56t23.5 -48t40 -33.5t56 -12.5q37 0 71 10t64 26.5t56.5 37t48.5 41.5q23 20 37 52t20 67zM791 1124q0 -9 -6.5 -12.5t-14.5 -3.5h-47q-25 0 -37.5 5t-28.5 22l-104 127l-178 -127 q-11 -8 -18.5 -13t-14.5 -8t-15 -4.5t-20 -1.5h-41q-20 0 -20 14q0 9 12 21l197 184q12 14 21.5 22t18.5 11.5t18.5 4.5t21.5 1h63q12 0 21 -1t17 -4.5t15 -11.5t15 -22l118 -186q7 -11 7 -17z" horiz-adv-x="870" glyph-name="acircumflex"/>
<glyph unicode="ã" d="M680 45q-3 -20 -12.5 -32.5t-34.5 -12.5h-41q-22 0 -33 9.5t-6 37.5l14 76q-25 -26 -54.5 -51t-65.5 -44.5t-79.5 -31.5t-95.5 -12t-97 17t-78 48.5t-51.5 77.5t-18.5 104q0 78 24 135.5t65 98t96.5 66t119 40t131.5 20t135 5.5h39l20 125q2 9 3.5 18t1.5 19 q0 26 -9 49.5t-30.5 41t-58.5 28t-93 10.5q-72 0 -128.5 -20.5t-100.5 -43.5q-17 -9 -32.5 -7t-23.5 18l-24 45q-4 8 -4 14q0 12 8 22.5t20 16.5q75 42 160 62t162 20q63 0 116 -15t91.5 -45t60 -74.5t21.5 -103.5q0 -7 -0.5 -18t-2 -23t-3 -23.5t-3.5 -19.5zM618 492 q-47 -1 -98 -3t-101 -9t-95.5 -22t-80 -42t-55 -68t-20.5 -100q0 -29 7.5 -56t23.5 -48t40 -33.5t56 -12.5q37 0 71 10t64 26.5t56.5 37t48.5 41.5q23 20 37 52t20 67zM833 1327q-1 -18 -13 -50.5t-35 -64t-58 -54.5t-81 -23q-38 0 -71 14.5t-63.5 31.5t-59 31.5t-55.5 14.5 q-35 0 -53.5 -20.5t-32.5 -51.5q-5 -12 -10.5 -18.5t-20.5 -6.5h-43q-9 0 -11.5 5t-2.5 14q1 19 13 51t34.5 63t57 53.5t81.5 22.5q36 0 69 -14.5t64 -31.5t60 -31.5t57 -14.5q18 0 32.5 8t25 19.5t17.5 24.5t11 22q8 25 26 25h48q9 0 11.5 -5t2.5 -14z" horiz-adv-x="870" glyph-name="atilde"/>
<glyph unicode="ä" d="M680 45q-3 -20 -12.5 -32.5t-34.5 -12.5h-41q-22 0 -33 9.5t-6 37.5l14 76q-25 -26 -54.5 -51t-65.5 -44.5t-79.5 -31.5t-95.5 -12t-97 17t-78 48.5t-51.5 77.5t-18.5 104q0 78 24 135.5t65 98t96.5 66t119 40t131.5 20t135 5.5h39l20 125q2 9 3.5 18t1.5 19 q0 26 -9 49.5t-30.5 41t-58.5 28t-93 10.5q-72 0 -128.5 -20.5t-100.5 -43.5q-17 -9 -32.5 -7t-23.5 18l-24 45q-4 8 -4 14q0 12 8 22.5t20 16.5q75 42 160 62t162 20q63 0 116 -15t91.5 -45t60 -74.5t21.5 -103.5q0 -7 -0.5 -18t-2 -23t-3 -23.5t-3.5 -19.5zM618 492 q-47 -1 -98 -3t-101 -9t-95.5 -22t-80 -42t-55 -68t-20.5 -100q0 -29 7.5 -56t23.5 -48t40 -33.5t56 -12.5q37 0 71 10t64 26.5t56.5 37t48.5 41.5q23 20 37 52t20 67zM465 1245q0 -19 -7 -36t-20 -29.5t-30 -19.5t-37 -7q-29 0 -50.5 18.5t-21.5 53.5q0 40 25.5 67t67.5 27 q29 0 51 -20t22 -54zM744 1245q0 -19 -7 -36t-20 -29.5t-30 -19.5t-37 -7q-29 0 -50.5 18.5t-21.5 53.5q0 40 25 67t67 27q29 0 51.5 -20t22.5 -54z" horiz-adv-x="870" glyph-name="adieresis"/>
<glyph unicode="å" d="M680 45q-3 -20 -12.5 -32.5t-34.5 -12.5h-41q-22 0 -33 9.5t-6 37.5l14 76q-25 -26 -54.5 -51t-65.5 -44.5t-79.5 -31.5t-95.5 -12t-97 17t-78 48.5t-51.5 77.5t-18.5 104q0 78 24 135.5t65 98t96.5 66t119 40t131.5 20t135 5.5h39l20 125q2 9 3.5 18t1.5 19 q0 26 -9 49.5t-30.5 41t-58.5 28t-93 10.5q-72 0 -128.5 -20.5t-100.5 -43.5q-17 -9 -32.5 -7t-23.5 18l-24 45q-4 8 -4 14q0 12 8 22.5t20 16.5q75 42 160 62t162 20q63 0 116 -15t91.5 -45t60 -74.5t21.5 -103.5q0 -7 -0.5 -18t-2 -23t-3 -23.5t-3.5 -19.5zM618 492 q-47 -1 -98 -3t-101 -9t-95.5 -22t-80 -42t-55 -68t-20.5 -100q0 -29 7.5 -56t23.5 -48t40 -33.5t56 -12.5q37 0 71 10t64 26.5t56.5 37t48.5 41.5q23 20 37 52t20 67zM613 1266q0 34 -20.5 55.5t-57.5 21.5q-16 0 -32 -5.5t-29 -17t-21 -29t-8 -40.5q0 -32 19 -54.5 t57 -22.5q16 0 32.5 5.5t29.5 17t21.5 29t8.5 40.5zM680 1274q0 -36 -13 -66.5t-36 -52.5t-53.5 -34.5t-65.5 -12.5q-58 0 -96.5 35t-38.5 100q0 36 13.5 66.5t36 52.5t53 34.5t65.5 12.5q59 0 97 -35t38 -100z" horiz-adv-x="870" glyph-name="aring"/>
<glyph unicode="æ" d="M1350 543q-5 -23 -17 -35t-41 -12h-544q-7 -44 -8 -71t-1 -52q0 -48 11 -95t35.5 -84.5t63.5 -61t95 -23.5q44 0 80 7t65 17t50.5 21.5t36.5 19.5q17 9 32 8t23 -16l24 -45q2 -3 3.5 -7t1.5 -8q0 -12 -8.5 -21t-20.5 -17q-54 -38 -131.5 -61t-159.5 -23q-61 0 -108 15 t-82.5 41.5t-59.5 63t-39 80.5q-36 -59 -79.5 -97.5t-91.5 -61.5t-98.5 -32t-100.5 -9q-121 0 -187.5 65t-66.5 182q0 78 24 136.5t65.5 100t97.5 69t119.5 43t131.5 22t135 6.5h39l18 113q2 9 3.5 18t1.5 19q0 26 -8 49.5t-28.5 41t-56.5 28t-92 10.5q-72 0 -131 -20.5 t-104 -43.5q-17 -9 -32.5 -7t-23.5 18l-24 45q-4 8 -4 14q0 12 8 22.5t20 16.5q75 42 160 62t162 20q100 0 167.5 -39t92.5 -117q51 69 125 111.5t174 42.5q84 0 140 -30.5t90 -79.5t48.5 -110.5t14.5 -123.5q0 -32 -2.5 -62.5t-7.5 -62.5zM621 500q-47 -1 -98.5 -3 t-102 -10.5t-96 -24.5t-80.5 -44t-55.5 -69.5t-20.5 -100.5q0 -29 7.5 -56t23.5 -48t40 -33.5t56 -12.5q74 0 134.5 32t105.5 83q20 23 37.5 57t23.5 76zM1225 606q2 17 3 36.5t1 29.5q0 43 -9.5 83t-31.5 70t-57 48t-87 18q-56 0 -101.5 -25.5t-79.5 -66.5t-57 -91.5 t-34 -101.5h453z" horiz-adv-x="1411" glyph-name="ae"/>
<glyph unicode="ç" d="M733 111q0 -13 -8 -22t-20 -17q-51 -35 -128 -61.5t-184 -26.5l-35 -72q17 2 29 2h25q25 0 49.5 -7.5t43.5 -21.5t30.5 -35t11.5 -49q0 -45 -18.5 -78t-49 -54t-71 -31.5t-84.5 -10.5q-41 0 -76 3.5t-64 13.5q-18 6 -26 13t0 26l12 32q6 16 15 17.5t28 -4.5 q26 -8 56 -12.5t53 -4.5q18 0 37 2t34.5 9.5t26 22t10.5 38.5q0 55 -86 55q-14 0 -35 -1.5t-35 -4.5q-23 -5 -33 1.5t-10 19.5q0 5 3 12.5t8 15.5l57 117q-125 31 -185.5 130t-60.5 249q0 69 12.5 143.5t38.5 145t66 133.5t94 110.5t123 75t154 27.5q31 0 63.5 -5t63 -13 t58 -19.5t48.5 -24.5q19 -10 19 -26q0 -10 -13 -29l-26 -45q-13 -17 -29 -17t-29 7q-14 7 -33.5 14.5t-42.5 14.5t-48 11.5t-50 4.5q-58 0 -105 -23t-83 -61.5t-62 -89t-42.5 -104.5t-24.5 -108t-8 -100q0 -54 11 -106t37 -92.5t68.5 -65t104.5 -24.5q44 0 80 7.5t64.5 18 t50 22t36.5 19.5q17 9 32.5 8t23.5 -16l24 -45q4 -8 4 -14z" horiz-adv-x="813" glyph-name="ccedilla"/>
<glyph unicode="è" d="M807 543q-5 -23 -16.5 -36t-40.5 -13h-545q-6 -44 -7 -70t-1 -51q0 -48 11 -95t35 -84.5t63 -61t95 -23.5q44 0 80 7t65 17t50.5 21.5t36.5 19.5q17 9 32 8t23 -16l25 -45q4 -8 4 -15q0 -12 -8 -21t-21 -17q-54 -38 -131.5 -61t-159.5 -23q-90 0 -154 32t-105.5 85 t-61 123t-19.5 145q0 67 12.5 142.5t39 149.5t67 140.5t96.5 116.5q51 43 113 68.5t139 25.5q84 0 140.5 -30.5t90 -79.5t48 -110.5t14.5 -123.5q0 -32 -2.5 -62.5t-7.5 -62.5zM682 606q2 17 3 36.5t1 29.5q0 43 -9.5 83t-31 70t-57 48t-86.5 18q-56 0 -101.5 -25.5 t-80 -66.5t-57.5 -91.5t-34 -101.5h453zM631 1124q0 -6 -5 -11t-16 -5h-53q-25 0 -37 5t-26 22l-189 190q-14 14 -14 25q0 9 8 12.5t19 3.5h100q14 0 24.5 -1t19 -4.5t16 -11.5t16.5 -22l131 -186q6 -9 6 -17z" horiz-adv-x="868" glyph-name="egrave"/>
<glyph unicode="é" d="M807 543q-5 -23 -16.5 -36t-40.5 -13h-545q-6 -44 -7 -70t-1 -51q0 -48 11 -95t35 -84.5t63 -61t95 -23.5q44 0 80 7t65 17t50.5 21.5t36.5 19.5q17 9 32 8t23 -16l25 -45q4 -8 4 -15q0 -12 -8 -21t-21 -17q-54 -38 -131.5 -61t-159.5 -23q-90 0 -154 32t-105.5 85 t-61 123t-19.5 145q0 67 12.5 142.5t39 149.5t67 140.5t96.5 116.5q51 43 113 68.5t139 25.5q84 0 140.5 -30.5t90 -79.5t48 -110.5t14.5 -123.5q0 -32 -2.5 -62.5t-7.5 -62.5zM682 606q2 17 3 36.5t1 29.5q0 43 -9.5 83t-31 70t-57 48t-86.5 18q-56 0 -101.5 -25.5 t-80 -66.5t-57.5 -91.5t-34 -101.5h453zM811 1354q0 -8 -4 -14t-16 -15l-246 -190q-22 -17 -35.5 -22t-36.5 -5h-61q-6 0 -10 2t-4 10q0 9 12 21l174 186q13 14 23 22t19.5 11.5t20 4.5t25.5 1h119q20 0 20 -12z" horiz-adv-x="868" glyph-name="eacute"/>
<glyph unicode="ê" d="M807 543q-5 -23 -16.5 -36t-40.5 -13h-545q-6 -44 -7 -70t-1 -51q0 -48 11 -95t35 -84.5t63 -61t95 -23.5q44 0 80 7t65 17t50.5 21.5t36.5 19.5q17 9 32 8t23 -16l25 -45q4 -8 4 -15q0 -12 -8 -21t-21 -17q-54 -38 -131.5 -61t-159.5 -23q-90 0 -154 32t-105.5 85 t-61 123t-19.5 145q0 67 12.5 142.5t39 149.5t67 140.5t96.5 116.5q51 43 113 68.5t139 25.5q84 0 140.5 -30.5t90 -79.5t48 -110.5t14.5 -123.5q0 -32 -2.5 -62.5t-7.5 -62.5zM682 606q2 17 3 36.5t1 29.5q0 43 -9.5 83t-31 70t-57 48t-86.5 18q-56 0 -101.5 -25.5 t-80 -66.5t-57.5 -91.5t-34 -101.5h453zM803 1124q0 -9 -6.5 -12.5t-14.5 -3.5h-47q-25 0 -37.5 5t-28.5 22l-104 127l-178 -127q-11 -8 -18.5 -13t-14.5 -8t-15 -4.5t-20 -1.5h-41q-20 0 -20 14q0 9 12 21l197 184q12 14 21.5 22t18.5 11.5t18.5 4.5t21.5 1h63q12 0 21 -1 t17 -4.5t15 -11.5t15 -22l118 -186q7 -11 7 -17z" horiz-adv-x="868" glyph-name="ecircumflex"/>
<glyph unicode="ë" d="M807 543q-5 -23 -16.5 -36t-40.5 -13h-545q-6 -44 -7 -70t-1 -51q0 -48 11 -95t35 -84.5t63 -61t95 -23.5q44 0 80 7t65 17t50.5 21.5t36.5 19.5q17 9 32 8t23 -16l25 -45q4 -8 4 -15q0 -12 -8 -21t-21 -17q-54 -38 -131.5 -61t-159.5 -23q-90 0 -154 32t-105.5 85 t-61 123t-19.5 145q0 67 12.5 142.5t39 149.5t67 140.5t96.5 116.5q51 43 113 68.5t139 25.5q84 0 140.5 -30.5t90 -79.5t48 -110.5t14.5 -123.5q0 -32 -2.5 -62.5t-7.5 -62.5zM682 606q2 17 3 36.5t1 29.5q0 43 -9.5 83t-31 70t-57 48t-86.5 18q-56 0 -101.5 -25.5 t-80 -66.5t-57.5 -91.5t-34 -101.5h453zM485 1245q0 -19 -7 -36t-20 -29.5t-30 -19.5t-37 -7q-29 0 -50.5 18.5t-21.5 53.5q0 40 25.5 67t67.5 27q29 0 51 -20t22 -54zM764 1245q0 -19 -7 -36t-20 -29.5t-30 -19.5t-37 -7q-29 0 -50.5 18.5t-21.5 53.5q0 40 25 67t67 27 q29 0 51.5 -20t22.5 -54z" horiz-adv-x="868" glyph-name="edieresis"/>
<glyph unicode="ì" d="M215 49q-5 -23 -15.5 -36t-41.5 -13h-39q-29 0 -37.5 12.5t-5.5 34.5l151 901q5 26 18 36.5t36 10.5h45q27 0 34.5 -11.5t4.5 -33.5zM453 1124q0 -6 -5 -11t-16 -5h-53q-25 0 -37 5t-26 22l-189 190q-14 14 -14 25q0 9 8 12.5t19 3.5h100q14 0 24.5 -1t19 -4.5t16 -11.5 t16.5 -22l131 -186q6 -9 6 -17z" horiz-adv-x="432" glyph-name="igrave"/>
<glyph unicode="í" d="M215 49q-5 -23 -15.5 -36t-41.5 -13h-39q-29 0 -37.5 12.5t-5.5 34.5l151 901q5 26 18 36.5t36 10.5h45q27 0 34.5 -11.5t4.5 -33.5zM592 1354q0 -8 -4 -14t-16 -15l-246 -190q-22 -17 -35.5 -22t-36.5 -5h-61q-6 0 -10 2t-4 10q0 9 12 21l174 186q13 14 23 22t19.5 11.5 t20 4.5t25.5 1h119q20 0 20 -12z" horiz-adv-x="432" glyph-name="iacute"/>
<glyph unicode="î" d="M215 49q-5 -23 -15.5 -36t-41.5 -13h-39q-29 0 -37.5 12.5t-5.5 34.5l151 901q5 26 18 36.5t36 10.5h45q27 0 34.5 -11.5t4.5 -33.5zM588 1124q0 -9 -6.5 -12.5t-14.5 -3.5h-47q-25 0 -37.5 5t-28.5 22l-104 127l-178 -127q-11 -8 -18.5 -13t-14.5 -8t-15 -4.5t-20 -1.5 h-41q-20 0 -20 14q0 9 12 21l197 184q12 14 21.5 22t18.5 11.5t18.5 4.5t21.5 1h63q12 0 21 -1t17 -4.5t15 -11.5t15 -22l118 -186q7 -11 7 -17z" horiz-adv-x="432" glyph-name="icircumflex"/>
<glyph unicode="ï" d="M215 49q-5 -23 -15.5 -36t-41.5 -13h-39q-29 0 -37.5 12.5t-5.5 34.5l151 901q5 26 18 36.5t36 10.5h45q27 0 34.5 -11.5t4.5 -33.5zM272 1245q0 -19 -7 -36t-20 -29.5t-30 -19.5t-37 -7q-29 0 -50.5 18.5t-21.5 53.5q0 40 25.5 67t67.5 27q29 0 51 -20t22 -54zM551 1245 q0 -19 -7 -36t-20 -29.5t-30 -19.5t-37 -7q-29 0 -50.5 18.5t-21.5 53.5q0 40 25 67t67 27q29 0 51.5 -20t22.5 -54z" horiz-adv-x="432" glyph-name="idieresis"/>
<glyph unicode="ð" d="M860 696q0 -72 -9 -153t-30.5 -160.5t-57.5 -151.5t-90 -127t-128 -87.5t-172 -32.5q-87 0 -148 33t-99 87t-55.5 124t-17.5 145q0 63 12.5 132t38 135t64 126.5t90.5 105.5t117.5 72t144.5 27q60 0 106.5 -19t80.5 -45q-5 39 -12.5 74.5t-18.5 70.5t-26 70.5t-34 75.5 l-159 -70q-22 -9 -30.5 -8t-16.5 17l-19 41q-8 15 -1 25t24 18l161 67q-14 26 -27.5 52t-29.5 51q-3 6 -5.5 10t-0.5 10q0 5 5 8.5t13 3.5h58q21 0 32 -8t19 -20q9 -11 14 -17.5t8.5 -12.5t7.5 -12.5t11 -17.5l160 70q21 9 27.5 6.5t13.5 -16.5l18 -39q14 -29 -18 -43 l-154 -66q65 -122 99 -260t34 -291zM395 111q59 0 106 21.5t83 58t61.5 85t42 102t24 109.5t7.5 107q0 50 -10 96t-33 81t-62.5 56t-97.5 21t-104 -21t-82 -56.5t-61.5 -82.5t-42 -99.5t-24 -107t-7.5 -104.5q0 -49 9.5 -97t33 -85.5t62 -60.5t95.5 -23z" horiz-adv-x="918" glyph-name="eth"/>
<glyph unicode="ñ" d="M774 45q-3 -25 -17 -35t-34 -10h-51q-41 0 -35 47l108 645q5 26 7 45t2 37q0 53 -22.5 84t-82.5 31q-42 0 -81.5 -13.5t-76.5 -36t-72 -52.5t-67 -64q-17 -17 -28 -31.5t-18 -30.5t-12 -36t-9 -47l-88 -529q-5 -23 -16 -36t-42 -13h-39q-28 0 -36 12.5t-5 34.5l152 901 q5 26 16.5 36.5t34.5 10.5h37q28 0 35 -11.5t4 -33.5l-23 -131q87 93 179.5 143t185.5 50q58 0 99.5 -14.5t67.5 -40.5t38 -63.5t12 -82.5q0 -19 -3.5 -48t-8.5 -56l-111 -662v0zM915 1327q-1 -18 -13 -50.5t-35 -64t-58 -54.5t-81 -23q-38 0 -71 14.5t-63.5 31.5t-59 31.5 t-55.5 14.5q-35 0 -53.5 -20.5t-32.5 -51.5q-5 -12 -10.5 -18.5t-20.5 -6.5h-43q-9 0 -11.5 5t-2.5 14q1 19 13 51t34.5 63t57 53.5t81.5 22.5q36 0 69 -14.5t64 -31.5t60 -31.5t57 -14.5q18 0 32.5 8t25 19.5t17.5 24.5t11 22q8 25 26 25h48q9 0 11.5 -5t2.5 -14z" horiz-adv-x="963" glyph-name="ntilde"/>
<glyph unicode="ò" d="M860 629q0 -68 -12 -142.5t-37.5 -146t-64.5 -136.5t-92.5 -113.5t-122.5 -77.5t-154 -29q-84 0 -145 31.5t-100.5 85t-58 124t-18.5 148.5q0 67 13 141t39 145t65.5 135t93.5 112.5t122 77t151 28.5q86 0 147 -31.5t99.5 -85t56.5 -122.5t18 -144zM397 111 q59 0 106 23.5t83.5 63t62 91.5t42 107.5t24.5 112t8 105.5q0 52 -9.5 101t-33 87t-62.5 60.5t-98 22.5t-105.5 -24t-82 -64.5t-61 -93t-41.5 -109t-23.5 -113t-7.5 -104.5q0 -51 9.5 -99t32 -85t61 -59.5t95.5 -22.5zM631 1124q0 -6 -5 -11t-16 -5h-53q-25 0 -37 5t-26 22 l-189 190q-14 14 -14 25q0 9 8 12.5t19 3.5h100q14 0 24.5 -1t19 -4.5t16 -11.5t16.5 -22l131 -186q6 -9 6 -17z" horiz-adv-x="911" glyph-name="ograve"/>
<glyph unicode="ó" d="M860 629q0 -68 -12 -142.5t-37.5 -146t-64.5 -136.5t-92.5 -113.5t-122.5 -77.5t-154 -29q-84 0 -145 31.5t-100.5 85t-58 124t-18.5 148.5q0 67 13 141t39 145t65.5 135t93.5 112.5t122 77t151 28.5q86 0 147 -31.5t99.5 -85t56.5 -122.5t18 -144zM397 111 q59 0 106 23.5t83.5 63t62 91.5t42 107.5t24.5 112t8 105.5q0 52 -9.5 101t-33 87t-62.5 60.5t-98 22.5t-105.5 -24t-82 -64.5t-61 -93t-41.5 -109t-23.5 -113t-7.5 -104.5q0 -51 9.5 -99t32 -85t61 -59.5t95.5 -22.5zM852 1354q0 -8 -4 -14t-16 -15l-246 -190 q-22 -17 -35.5 -22t-36.5 -5h-61q-6 0 -10 2t-4 10q0 9 12 21l174 186q13 14 23 22t19.5 11.5t20 4.5t25.5 1h119q20 0 20 -12z" horiz-adv-x="911" glyph-name="oacute"/>
<glyph unicode="ô" d="M860 629q0 -68 -12 -142.5t-37.5 -146t-64.5 -136.5t-92.5 -113.5t-122.5 -77.5t-154 -29q-84 0 -145 31.5t-100.5 85t-58 124t-18.5 148.5q0 67 13 141t39 145t65.5 135t93.5 112.5t122 77t151 28.5q86 0 147 -31.5t99.5 -85t56.5 -122.5t18 -144zM397 111 q59 0 106 23.5t83.5 63t62 91.5t42 107.5t24.5 112t8 105.5q0 52 -9.5 101t-33 87t-62.5 60.5t-98 22.5t-105.5 -24t-82 -64.5t-61 -93t-41.5 -109t-23.5 -113t-7.5 -104.5q0 -51 9.5 -99t32 -85t61 -59.5t95.5 -22.5zM813 1124q0 -9 -6.5 -12.5t-14.5 -3.5h-47 q-25 0 -37.5 5t-28.5 22l-104 127l-178 -127q-11 -8 -18.5 -13t-14.5 -8t-15 -4.5t-20 -1.5h-41q-20 0 -20 14q0 9 12 21l197 184q12 14 21.5 22t18.5 11.5t18.5 4.5t21.5 1h63q12 0 21 -1t17 -4.5t15 -11.5t15 -22l118 -186q7 -11 7 -17z" horiz-adv-x="911" glyph-name="ocircumflex"/>
<glyph unicode="õ" d="M860 629q0 -68 -12 -142.5t-37.5 -146t-64.5 -136.5t-92.5 -113.5t-122.5 -77.5t-154 -29q-84 0 -145 31.5t-100.5 85t-58 124t-18.5 148.5q0 67 13 141t39 145t65.5 135t93.5 112.5t122 77t151 28.5q86 0 147 -31.5t99.5 -85t56.5 -122.5t18 -144zM397 111 q59 0 106 23.5t83.5 63t62 91.5t42 107.5t24.5 112t8 105.5q0 52 -9.5 101t-33 87t-62.5 60.5t-98 22.5t-105.5 -24t-82 -64.5t-61 -93t-41.5 -109t-23.5 -113t-7.5 -104.5q0 -51 9.5 -99t32 -85t61 -59.5t95.5 -22.5zM848 1327q-1 -18 -13 -50.5t-35 -64t-58 -54.5t-81 -23 q-38 0 -71 14.5t-63.5 31.5t-59 31.5t-55.5 14.5q-35 0 -53.5 -20.5t-32.5 -51.5q-5 -12 -10.5 -18.5t-20.5 -6.5h-43q-9 0 -11.5 5t-2.5 14q1 19 13 51t34.5 63t57 53.5t81.5 22.5q36 0 69 -14.5t64 -31.5t60 -31.5t57 -14.5q18 0 32.5 8t25 19.5t17.5 24.5t11 22 q8 25 26 25h48q9 0 11.5 -5t2.5 -14z" horiz-adv-x="911" glyph-name="otilde"/>
<glyph unicode="ö" d="M860 629q0 -68 -12 -142.5t-37.5 -146t-64.5 -136.5t-92.5 -113.5t-122.5 -77.5t-154 -29q-84 0 -145 31.5t-100.5 85t-58 124t-18.5 148.5q0 67 13 141t39 145t65.5 135t93.5 112.5t122 77t151 28.5q86 0 147 -31.5t99.5 -85t56.5 -122.5t18 -144zM397 111 q59 0 106 23.5t83.5 63t62 91.5t42 107.5t24.5 112t8 105.5q0 52 -9.5 101t-33 87t-62.5 60.5t-98 22.5t-105.5 -24t-82 -64.5t-61 -93t-41.5 -109t-23.5 -113t-7.5 -104.5q0 -51 9.5 -99t32 -85t61 -59.5t95.5 -22.5zM504 1245q0 -19 -7 -36t-20 -29.5t-30 -19.5t-37 -7 q-29 0 -50.5 18.5t-21.5 53.5q0 40 25.5 67t67.5 27q29 0 51 -20t22 -54zM783 1245q0 -19 -7 -36t-20 -29.5t-30 -19.5t-37 -7q-29 0 -50.5 18.5t-21.5 53.5q0 40 25 67t67 27q29 0 51.5 -20t22.5 -54z" horiz-adv-x="911" glyph-name="odieresis"/>
<glyph unicode="÷" d="M647 1018q0 -42 -28 -70t-70 -28t-70 28t-28 70t28 70t70 28t70 -28t28 -70zM983 662q0 -22 -8 -31.5t-31 -9.5h-786q-25 0 -33 9.5t-8 31.5v43q0 21 8 30.5t33 9.5h784q25 0 33 -9.5t8 -30.5v-43zM647 348q0 -42 -28 -70t-70 -28t-70 28t-28 70t28 70t70 28t70 -28 t28 -70z" horiz-adv-x="1028" glyph-name="divide"/>
<glyph unicode="ø" d="M860 629q0 -68 -12 -142.5t-37.5 -146t-64.5 -136.5t-92.5 -113.5t-122.5 -77.5t-154 -29q-68 0 -120.5 20t-90.5 55l-23 -26q-18 -23 -33.5 -36t-27.5 -13h-57q-27 0 -27 20q0 9 4 16t10 15l92 108q-26 50 -37.5 108.5t-11.5 121.5q0 67 13 141t39 145t65.5 135 t93.5 112.5t122 77t151 28.5q69 0 121.5 -21.5t91.5 -58.5l26 33q17 21 32 34t34 13h57q13 0 17 -6.5t4 -12.5q0 -14 -13 -28l-96 -117q25 -48 36 -103.5t11 -115.5zM520 885q-59 0 -105.5 -24t-82 -64.5t-61 -93t-41.5 -109t-23.5 -113t-7.5 -104.5q0 -28 2 -55.5t8 -53.5 l455 557q-25 28 -59.5 44t-84.5 16zM397 111q59 0 106 23.5t83.5 63t62 91.5t42 107.5t24.5 112t8 105.5q0 28 -3 56t-9 53l-455 -555q23 -26 57.5 -41.5t83.5 -15.5z" horiz-adv-x="911" glyph-name="oslash"/>
<glyph unicode="ù" d="M764 47q-3 -26 -15.5 -36.5t-35.5 -10.5h-37q-28 0 -36 11.5t-5 33.5l22 131q-80 -93 -172.5 -142.5t-191.5 -49.5q-59 0 -99.5 14.5t-65.5 41.5t-36.5 64t-11.5 82q0 39 6 78l115 686q5 25 18.5 35t32.5 10h51q22 0 29 -12t4 -35l-109 -645q-3 -22 -5.5 -40.5 t-2.5 -37.5q0 -52 22.5 -85.5t82.5 -33.5q42 0 81.5 13.5t77 36t72.5 52.5t68 64q16 17 27 31.5t18.5 30.5t12 36t9.5 48l88 528q3 23 15 36t43 13h38q29 0 37 -12.5t4 -34.5l-151 -901v0zM676 1124q0 -6 -5 -11t-16 -5h-53q-25 0 -37 5t-26 22l-189 190q-14 14 -14 25 q0 9 8 12.5t19 3.5h100q14 0 24.5 -1t19 -4.5t16 -11.5t16.5 -22l131 -186q6 -9 6 -17z" horiz-adv-x="963" glyph-name="ugrave"/>
<glyph unicode="ú" d="M764 47q-3 -26 -15.5 -36.5t-35.5 -10.5h-37q-28 0 -36 11.5t-5 33.5l22 131q-80 -93 -172.5 -142.5t-191.5 -49.5q-59 0 -99.5 14.5t-65.5 41.5t-36.5 64t-11.5 82q0 39 6 78l115 686q5 25 18.5 35t32.5 10h51q22 0 29 -12t4 -35l-109 -645q-3 -22 -5.5 -40.5 t-2.5 -37.5q0 -52 22.5 -85.5t82.5 -33.5q42 0 81.5 13.5t77 36t72.5 52.5t68 64q16 17 27 31.5t18.5 30.5t12 36t9.5 48l88 528q3 23 15 36t43 13h38q29 0 37 -12.5t4 -34.5l-151 -901v0zM864 1354q0 -8 -4 -14t-16 -15l-246 -190q-22 -17 -35.5 -22t-36.5 -5h-61 q-6 0 -10 2t-4 10q0 9 12 21l174 186q13 14 23 22t19.5 11.5t20 4.5t25.5 1h119q20 0 20 -12z" horiz-adv-x="963" glyph-name="uacute"/>
<glyph unicode="û" d="M764 47q-3 -26 -15.5 -36.5t-35.5 -10.5h-37q-28 0 -36 11.5t-5 33.5l22 131q-80 -93 -172.5 -142.5t-191.5 -49.5q-59 0 -99.5 14.5t-65.5 41.5t-36.5 64t-11.5 82q0 39 6 78l115 686q5 25 18.5 35t32.5 10h51q22 0 29 -12t4 -35l-109 -645q-3 -22 -5.5 -40.5 t-2.5 -37.5q0 -52 22.5 -85.5t82.5 -33.5q42 0 81.5 13.5t77 36t72.5 52.5t68 64q16 17 27 31.5t18.5 30.5t12 36t9.5 48l88 528q3 23 15 36t43 13h38q29 0 37 -12.5t4 -34.5l-151 -901v0zM862 1124q0 -9 -6.5 -12.5t-14.5 -3.5h-47q-25 0 -37.5 5t-28.5 22l-104 127 l-178 -127q-11 -8 -18.5 -13t-14.5 -8t-15 -4.5t-20 -1.5h-41q-20 0 -20 14q0 9 12 21l197 184q12 14 21.5 22t18.5 11.5t18.5 4.5t21.5 1h63q12 0 21 -1t17 -4.5t15 -11.5t15 -22l118 -186q7 -11 7 -17z" horiz-adv-x="963" glyph-name="ucircumflex"/>
<glyph unicode="ü" d="M764 47q-3 -26 -15.5 -36.5t-35.5 -10.5h-37q-28 0 -36 11.5t-5 33.5l22 131q-80 -93 -172.5 -142.5t-191.5 -49.5q-59 0 -99.5 14.5t-65.5 41.5t-36.5 64t-11.5 82q0 39 6 78l115 686q5 25 18.5 35t32.5 10h51q22 0 29 -12t4 -35l-109 -645q-3 -22 -5.5 -40.5 t-2.5 -37.5q0 -52 22.5 -85.5t82.5 -33.5q42 0 81.5 13.5t77 36t72.5 52.5t68 64q16 17 27 31.5t18.5 30.5t12 36t9.5 48l88 528q3 23 15 36t43 13h38q29 0 37 -12.5t4 -34.5l-151 -901v0zM535 1245q0 -19 -7 -36t-20 -29.5t-30 -19.5t-37 -7q-29 0 -50.5 18.5t-21.5 53.5 q0 40 25.5 67t67.5 27q29 0 51 -20t22 -54zM814 1245q0 -19 -7 -36t-20 -29.5t-30 -19.5t-37 -7q-29 0 -50.5 18.5t-21.5 53.5q0 40 25 67t67 27q29 0 51.5 -20t22.5 -54z" horiz-adv-x="963" glyph-name="udieresis"/>
<glyph unicode="ý" d="M870 979q0 -6 -2.5 -13.5t-7.5 -17.5l-493 -979q-38 -75 -73.5 -138t-76 -108t-90 -70.5t-115.5 -25.5q-34 0 -63.5 6.5t-44.5 12.5q-17 7 -17 22q0 11 7 25l18 47q6 15 17.5 18t23.5 0q28 -8 45.5 -10t30.5 -2q33 0 61 21.5t54 56t51 79t51 89.5l6 8l-158 918 q-3 15 -5.5 30t-2.5 21q0 15 9 20.5t20 5.5h75q19 0 24.5 -6.5t8.5 -23.5l119 -797l385 797q9 18 18.5 24t26.5 6h76q12 0 17 -5t5 -11zM807 1354q0 -8 -4 -14t-16 -15l-246 -190q-22 -17 -35.5 -22t-36.5 -5h-61q-6 0 -10 2t-4 10q0 9 12 21l174 186q13 14 23 22t19.5 11.5 t20 4.5t25.5 1h119q20 0 20 -12z" horiz-adv-x="778" glyph-name="yacute"/>
<glyph unicode="þ" d="M924 641q0 -66 -11 -141t-34 -148t-59.5 -139.5t-87.5 -117.5t-117 -81t-148 -30q-53 0 -92.5 12t-70 34t-53 51t-40.5 64l-78 -471q-5 -24 -16.5 -35.5t-40.5 -11.5h-39q-26 0 -35 12.5t-4 36.5l278 1670q5 24 17.5 36.5t38.5 12.5h39q29 0 38.5 -11.5t4.5 -35.5 l-84 -496q27 31 59.5 60t70.5 51.5t83 35.5t98 13q73 0 126.5 -28t88 -77.5t51.5 -117.5t17 -148zM780 627q0 43 -7 89.5t-26.5 84t-55 62t-91.5 24.5t-103 -22.5t-85 -61t-66.5 -88.5t-47.5 -104.5t-28.5 -111t-9.5 -106.5q0 -57 12.5 -108.5t38.5 -90.5t65 -62t93 -23 q56 0 101 25t79.5 66.5t59.5 95.5t40.5 111.5t23 114.5t7.5 105z" horiz-adv-x="967" glyph-name="thorn"/>
<glyph unicode="ı" d="M215 49q-5 -23 -15.5 -36t-41.5 -13h-39q-29 0 -37.5 12.5t-5.5 34.5l151 901q5 26 18 36.5t36 10.5h45q27 0 34.5 -11.5t4.5 -33.5z" horiz-adv-x="432" glyph-name="dotlessi"/>
<glyph unicode="ˆ" d="M705 1124q0 -9 -6.5 -12.5t-14.5 -3.5h-47q-25 0 -37.5 5t-28.5 22l-104 127l-178 -127q-11 -8 -18.5 -13t-14.5 -8t-15 -4.5t-20 -1.5h-41q-20 0 -20 14q0 9 12 21l197 184q12 14 21.5 22t18.5 11.5t18.5 4.5t21.5 1h63q12 0 21 -1t17 -4.5t15 -11.5t15 -22l118 -186 q7 -11 7 -17z" horiz-adv-x="653" glyph-name="circumflex"/>
<glyph unicode="˚" d="M545 1266q0 34 -20.5 55.5t-57.5 21.5q-16 0 -32 -5.5t-29 -17t-21 -29t-8 -40.5q0 -32 19 -54.5t57 -22.5q16 0 32.5 5.5t29.5 17t21.5 29t8.5 40.5zM612 1274q0 -36 -13 -66.5t-36 -52.5t-53.5 -34.5t-65.5 -12.5q-58 0 -96.5 35t-38.5 100q0 36 13.5 66.5t36 52.5 t53 34.5t65.5 12.5q59 0 97 -35t38 -100z" horiz-adv-x="653" glyph-name="ring"/>
<glyph unicode="˜" d="M762 1327q-1 -18 -13 -50.5t-35 -64t-58 -54.5t-81 -23q-38 0 -71 14.5t-63.5 31.5t-59 31.5t-55.5 14.5q-35 0 -53.5 -20.5t-32.5 -51.5q-5 -12 -10.5 -18.5t-20.5 -6.5h-43q-9 0 -11.5 5t-2.5 14q1 19 13 51t34.5 63t57 53.5t81.5 22.5q36 0 69 -14.5t64 -31.5 t60 -31.5t57 -14.5q18 0 32.5 8t25 19.5t17.5 24.5t11 22q8 25 26 25h48q9 0 11.5 -5t2.5 -14z" horiz-adv-x="653" glyph-name="tilde"/>
</font>
</defs>
</svg>
