<?xml version="1.0" encoding="UTF-8" standalone="no"?>
<!DOCTYPE svg  PUBLIC '-//W3C//DTD SVG 1.1//EN'  'http://www.w3.org/Graphics/SVG/1.1/DTD/svg11.dtd'>
<svg xmlns="http://www.w3.org/2000/svg">
<defs>
<font id="NBS-Bold" horiz-adv-x="999">
<font-face underline-position="-63" font-weight="700" descent="-410" panose-1="2 11 8 3 3 3 3 2 2 4" units-per-em="2048" unicode-range="U+0020-25CA" bbox="-121 -424 2415 1816" x-height="995" underline-thickness="129" font-family="NBS" ascent="1638" cap-height="1366"/>
<missing-glyph horiz-adv-x="2048"/>
<glyph glyph-name=".notdef" horiz-adv-x="2048"/>
<glyph glyph-name=".null" horiz-adv-x="0"/>
<glyph glyph-name="nonmarkingreturn" horiz-adv-x="2048"/>
<glyph glyph-name="space" horiz-adv-x="492" unicode=" "/>
<glyph glyph-name="exclam" horiz-adv-x="543" unicode="!" d="M428 139q0 -32 -12.5 -60.5t-33.5 -49.5t-49.5 -33t-60.5 -12t-60.5 12t-49.5 33t-33 49.5t-12 60.5t12 60.5t33 49.5t49.5 33.5t60.5 12.5t60.5 -12.5t49.5 -33.5t33.5 -49.5t12.5 -60.5zM373 471q-2 -29 -16.5 -42t-39.5 -13h-90q-24 0 -38.5 13t-16.5 42l-51 862v6 q0 56 59 56h185q29 0 44 -14t15 -41v-7z"/>
<glyph glyph-name="quotedbl" horiz-adv-x="874" unicode='&quot;' d="M733 920q-3 -29 -18.5 -42.5t-40.5 -13.5h-74q-25 0 -40.5 13.5t-18.5 42.5l-35 413q-3 31 12.5 46.5t46.5 15.5h144q29 0 44 -14t15 -39v-9zM336 920q-3 -29 -19 -42.5t-41 -13.5h-73q-25 0 -41 13.5t-19 42.5l-34 413q-1 6 -1 12q0 22 14.5 36t45.5 14h143 q29 0 44.5 -14t15.5 -39v-9z"/>
<glyph glyph-name="numbersign" horiz-adv-x="1255" unicode="#" d="M557 774l-22 -182h167l25 182h-170zM1192 834q0 -28 -13 -44t-42 -16h-174l-23 -182h133q29 0 44.5 -15t15.5 -42v-115q0 -28 -13.5 -44t-42.5 -16h-172l-39 -294q-5 -38 -17 -52t-40 -14h-152q-14 0 -20.5 7.5t-8.5 18.5t-1.5 23.5t2.5 22.5l41 288h-170l-39 -294 q-5 -38 -17.5 -52t-40.5 -14h-151q-14 0 -21 7.5t-9 18.5t-1.5 23.5t2.5 22.5l41 288h-139q-59 0 -59 58v114q0 28 13 44t42 16h176l25 182h-146q-29 0 -44 15t-15 42v115q0 28 13 44t42 16h182l43 294q7 38 17.5 52t38.5 14h151q14 0 21 -7.5t9 -18.5t1 -23.5t-2 -22.5 l-41 -288h168l43 294q6 38 16.5 52t38.5 14h152q14 0 20.5 -7.5t9 -18.5t1 -23.5t-2.5 -22.5l-41 -288h136q59 0 59 -58v-114z"/>
<glyph glyph-name="dollar" horiz-adv-x="995" unicode="$" d="M600 -186q0 -29 -15 -46.5t-46 -17.5h-86q-32 0 -48 17.5t-16 46.5v159q-96 13 -174.5 41t-132.5 60q-17 9 -28 16.5t-11 20.5q0 9 4.5 20t9.5 21l68 137q11 23 30 25.5t44 -13.5q32 -18 67.5 -35t71.5 -30t71 -21t66 -8q93 0 141 38t48 103q0 29 -10 55t-33 49.5 t-62 45.5t-96 45q-107 40 -183 81.5t-125 92.5t-71.5 115.5t-22.5 150.5q0 79 26 142t72 109.5t108 76t134 41.5v143q0 29 16 46.5t48 17.5h86q31 0 46 -17.5t15 -46.5v-143q82 -13 143 -37t113 -51q17 -10 23 -16.5t6 -14.5q0 -13 -10 -33l-62 -139q-9 -20 -24.5 -28 t-40.5 3q-31 15 -63.5 30t-65.5 27t-67 19.5t-68 7.5q-47 0 -79.5 -10t-52.5 -27.5t-29 -39.5t-9 -46q0 -30 10 -54t36.5 -47t73.5 -47t121 -54q76 -31 142 -64t114.5 -79.5t76.5 -112.5t28 -162q0 -84 -24 -152t-67 -118t-103.5 -82t-133.5 -45v-166z"/>
<glyph glyph-name="percent" horiz-adv-x="1696" unicode="%" d="M1440 301q0 31 -6 63.5t-21.5 59t-41.5 43t-66 16.5t-66.5 -16.5t-42 -43t-21.5 -59t-6 -63.5t6.5 -62t22 -56.5t42 -41.5t65.5 -16q40 0 66.5 16t41.5 41.5t21 57t6 61.5zM1642 305q0 -62 -18 -125t-58 -114t-104 -83t-157 -32q-91 0 -154.5 31t-103.5 81.5t-58 113.5 t-18 128q0 64 18.5 127.5t59 113t104 80.5t152.5 31q92 0 156 -31.5t104.5 -81.5t58.5 -113t18 -126zM1303 1370q0 -11 -4.5 -22t-12.5 -25l-647 -1307q-19 -37 -34.5 -51t-43.5 -14h-129q-12 0 -21.5 6.5t-9.5 17.5t4.5 22.5t12.5 25.5l647 1306q19 37 34.5 51.5t43.5 14.5 h129q12 0 21.5 -7t9.5 -18zM524 1038q0 31 -6 64t-21.5 59t-41.5 43t-66 17t-66 -17t-41.5 -43t-21.5 -59t-6 -64t6.5 -62t22 -56.5t41.5 -41.5t65 -16q41 0 67 16t41 41.5t21 57t6 61.5zM727 1042q0 -62 -18 -125t-58 -114t-104.5 -83t-157.5 -32q-91 0 -154.5 31 t-103.5 81.5t-58 113.5t-18 128q0 64 19 127.5t59.5 113.5t103.5 81t152 31q92 0 156.5 -31.5t105 -82t58.5 -113.5t18 -126z"/>
<glyph glyph-name="ampersand" horiz-adv-x="1225" unicode="&amp;" d="M446 569q-54 -46 -80 -94t-26 -108q0 -38 15.5 -68t42 -51t62 -32t75.5 -11q34 0 81.5 8.5t92.5 40.5zM635 1067q0 31 -9 56.5t-24 42.5t-35.5 26.5t-42.5 9.5q-24 0 -44.5 -10t-35.5 -27.5t-23.5 -42t-8.5 -53.5q0 -23 4.5 -45t15.5 -46t29.5 -51.5t46.5 -60.5 q32 27 56 51.5t39.5 48.5t23.5 48.5t8 52.5zM1202 23q0 -23 -39 -23h-178q-35 0 -55.5 11t-46.5 40l-31 33q-72 -56 -156.5 -84.5t-183.5 -28.5q-98 0 -178.5 25.5t-137.5 73.5t-88.5 116.5t-31.5 155.5q0 67 19 123t51 103.5t74 87t89 73.5q-42 53 -70 96.5t-44.5 81.5 t-23.5 74t-7 74q0 76 25.5 138.5t73.5 107.5t116 69.5t153 24.5q76 0 139.5 -22t109 -62.5t71 -99t25.5 -130.5q0 -104 -54.5 -194t-177.5 -180l211 -254q11 24 18 53t7 63v9q0 34 14 51.5t49 17.5h100q25 0 40.5 -4.5t24 -13.5t11 -22.5t2.5 -31.5q0 -85 -22.5 -167 t-73.5 -154l156 -188q9 -13 14.5 -22.5t5.5 -20.5z"/>
<glyph glyph-name="quotesingle" horiz-adv-x="477" unicode="&apos;" d="M336 920q-3 -29 -19 -42.5t-41 -13.5h-73q-25 0 -41 13.5t-19 42.5l-34 413q-1 6 -1 12q0 22 14.5 36t45.5 14h143q29 0 44.5 -14t15.5 -39v-9z"/>
<glyph glyph-name="parenleft" horiz-adv-x="664" unicode="(" d="M641 -352q0 -10 -8.5 -15.5t-36.5 -5.5h-158q-17 0 -32 8.5t-29 22.5q-61 75 -117 169.5t-99 203.5t-69 230t-26 249t24 248t65.5 228t98 203t121.5 173q15 17 29.5 25t37.5 8h166q16 0 23.5 -7t7.5 -18q0 -9 -6 -16t-17 -23q-77 -98 -132.5 -196.5t-92.5 -200 t-54.5 -207t-17.5 -217.5q0 -124 20.5 -232.5t59 -207.5t92 -191t119.5 -182q11 -14 21 -27t10 -22z"/>
<glyph glyph-name="parenright" horiz-adv-x="664" unicode=")" d="M600 512q0 -128 -24 -248t-65.5 -228t-98 -203t-121.5 -173q-16 -17 -30.5 -25t-37.5 -8h-166q-15 0 -22.5 7t-7.5 18q0 9 5.5 16t16.5 23q154 196 225.5 396.5t71.5 424.5q0 124 -20.5 232.5t-59 207.5t-92 191t-119.5 182q-11 14 -20.5 27t-9.5 22t8.5 15t36.5 6h157 q17 0 32.5 -8.5t29.5 -22.5q61 -75 117 -169.5t99 -203.5t69 -230.5t26 -248.5z"/>
<glyph glyph-name="asterisk" horiz-adv-x="829" unicode="*" d="M786 1055q0 -23 -16.5 -27.5t-48.5 -7.5l-213 -16l162 -142q11 -9 25 -21.5t14 -23.5q0 -17 -19 -31l-125 -90q-13 -10 -26 -10q-8 0 -14.5 5.5t-11.5 14t-9 17t-6 14.5l-82 199l-84 -197q-3 -8 -7.5 -17t-9.5 -17t-11 -13.5t-13 -5.5q-12 0 -25 10l-125 90 q-20 16 -20 31q0 7 4.5 14t11 13t13 11t10.5 9l164 140l-213 18q-10 1 -21.5 2.5t-21.5 5.5t-16.5 10t-6.5 15q0 3 1 7t3 9l47 148q5 14 13.5 21t17.5 7q11 0 25.5 -8t23.5 -14l182 -113l-49 209q-3 12 -5.5 24.5t-2.5 20.5q0 12 10 20.5t27 8.5h156q17 0 26.5 -8.5 t9.5 -20.5q0 -8 -2.5 -20.5t-5.5 -24.5l-49 -209l182 113q13 6 25 14t25 8q9 0 17 -7t13 -21l47 -146q2 -5 3 -10t1 -8z"/>
<glyph glyph-name="plus" horiz-adv-x="1063" unicode="+" d="M977 629q0 -28 -13.5 -44t-45.5 -16h-261v-280q0 -60 -57 -60h-125q-28 0 -43.5 13.5t-15.5 42.5v284h-269q-59 0 -59 58v114q0 28 13 44t42 16h273v282q0 29 15.5 42.5t43.5 13.5h123q28 0 43.5 -14t15.5 -46v-278h265q29 0 42 -16t13 -44v-112z"/>
<glyph glyph-name="comma" horiz-adv-x="510" unicode="," d="M412 125q0 -50 -15 -99t-39 -95.5t-55 -90t-63 -82.5q-20 -24 -39 -24q-16 0 -29 10l-47 31q-21 12 -21 32q0 18 19 43q10 14 22.5 33t24.5 39t22 40.5t15 37.5q-50 8 -78.5 48t-28.5 91q0 32 11 60.5t30.5 49.5t47.5 33.5t63 12.5q34 0 63.5 -12t51 -34.5t33.5 -54 t12 -69.5z"/>
<glyph glyph-name="hyphen" horiz-adv-x="616" unicode="-" d="M571 436q0 -28 -13.5 -43.5t-45.5 -15.5h-406q-59 0 -59 57v135q0 28 13 44t42 16h414q29 0 42 -16t13 -44v-133z"/>
<glyph glyph-name="period" horiz-adv-x="510" unicode="." d="M412 139q0 -32 -12.5 -60.5t-33.5 -49.5t-49.5 -33t-60.5 -12t-60.5 12t-49.5 33t-33.5 49.5t-12.5 60.5t12.5 60.5t33.5 49.5t49.5 33.5t60.5 12.5t60.5 -12.5t49.5 -33.5t33.5 -49.5t12.5 -60.5z"/>
<glyph glyph-name="slash" horiz-adv-x="776" unicode="/" d="M780 1397q0 -13 -3.5 -26.5t-8.5 -22.5l-522 -1360q-14 -37 -30 -51.5t-44 -14.5h-145q-13 0 -21 7t-8 18q0 12 4.5 26.5t7.5 22.5l522 1362q14 37 30 51t44 14h146q12 0 20 -7.5t8 -18.5z"/>
<glyph glyph-name="zero" horiz-adv-x="1122" unicode="0" d="M776 682q0 103 -11 190.5t-36.5 151.5t-66.5 99.5t-101 35.5q-58 0 -98.5 -35.5t-66 -99.5t-37 -151.5t-11.5 -190.5t11.5 -190t37 -150.5t66 -99t98.5 -35.5q60 0 101 35.5t66.5 99t36.5 150.5t11 190zM1055 682q0 -188 -36.5 -323t-101.5 -221t-156 -126.5t-200 -40.5 q-105 0 -195 39.5t-155.5 125t-103 220t-37.5 324.5q0 194 38 330t104 221.5t155.5 124.5t193.5 39q105 0 195.5 -39t157 -124t104 -221t37.5 -329z"/>
<glyph glyph-name="one" horiz-adv-x="791" unicode="1" d="M614 63q0 -27 -15.5 -45t-49.5 -18h-143q-33 0 -49.5 17t-16.5 46v1020l-195 -82q-32 -14 -50.5 -6.5t-31.5 35.5l-51 119q-5 12 -6.5 22.5t-1.5 16.5q0 12 13 23.5t30 17.5l301 125q34 14 61 20t56 6h86q63 0 63 -67v-1250z"/>
<glyph glyph-name="two" horiz-adv-x="997" unicode="2" d="M930 63q0 -34 -17.5 -48.5t-46.5 -14.5h-778q-31 0 -46 17.5t-15 48.5v86q0 23 4.5 39.5t21.5 33.5q26 26 62.5 63.5t77 80.5t83 87.5t80.5 85.5t69 75t50 55q46 51 75.5 94.5t46 81t22.5 70.5t6 65q0 46 -13 79.5t-35.5 55t-54.5 31.5t-69 10q-40 0 -82.5 -13.5 t-79.5 -31t-63.5 -34t-34.5 -21.5q-22 -14 -36.5 -19.5t-25.5 -3.5t-20 13t-19 30l-53 107q-6 12 -10 24t-4 21q0 17 11 26.5t30 20.5q30 18 73.5 39t96.5 38t114.5 28.5t126.5 11.5q123 0 205 -34.5t131 -91.5t69.5 -131t20.5 -153q0 -70 -20.5 -136t-56 -128.5t-82 -121.5 t-97.5 -114q-59 -62 -118.5 -119.5t-114.5 -111.5h452q29 0 46.5 -16t17.5 -48v-127z"/>
<glyph glyph-name="three" horiz-adv-x="1065" unicode="3" d="M967 391q0 -96 -33 -173.5t-94.5 -132.5t-149.5 -84.5t-198 -29.5q-69 0 -134 11.5t-119.5 28.5t-97.5 36.5t-69 36.5q-16 11 -21.5 17.5t-5.5 17.5q0 9 3 17.5t9 21.5l62 121q13 28 24 30.5t14 2.5q19 0 54 -21q24 -14 54.5 -29t67.5 -27t80 -20t91 -8q40 0 74 14 t58.5 40t38 63t13.5 82q0 43 -13.5 79t-40 62.5t-65.5 41.5t-90 15h-131q-31 0 -48 16t-17 48v100q0 32 17 47.5t48 15.5h135q88 0 138.5 48t50.5 129q0 68 -47.5 109.5t-135.5 41.5q-36 0 -74 -9t-73 -22.5t-65.5 -29t-51.5 -27.5q-40 -23 -58.5 -17.5t-31.5 29.5l-61 125 q-5 10 -8 18.5t-3 16.5q0 16 9.5 25t29.5 20q31 17 75.5 36t98.5 34.5t115.5 26t126.5 10.5q99 0 178 -22.5t134.5 -67t85.5 -111t30 -154.5q0 -102 -50.5 -183.5t-150.5 -131.5q57 -19 99 -54t69 -79.5t40.5 -96t13.5 -104.5z"/>
<glyph glyph-name="four" horiz-adv-x="1085" unicode="4" d="M633 963l-320 -431h320v431zM1038 369q0 -32 -17 -48t-48 -16h-74v-242q0 -27 -15.5 -45t-49.5 -18h-136q-32 0 -48.5 17t-16.5 46v242h-522q-31 0 -48.5 16t-17.5 48v147q0 22 8 39t19 31l536 729q23 32 47 48.5t62 16.5h119q63 0 63 -67v-781h74q31 0 48 -15.5 t17 -47.5v-100z"/>
<glyph glyph-name="five" horiz-adv-x="1067" unicode="5" d="M985 446q0 -104 -31 -191.5t-93 -150.5t-155 -98t-217 -35q-138 0 -242 29.5t-177 73.5q-35 20 -35 37q0 14 10 34l64 127q14 26 32 31.5t54 -14.5q33 -18 65.5 -33.5t68 -26t74.5 -16.5t86 -6q99 0 158.5 59.5t59.5 171.5q0 49 -13.5 92.5t-41 75.5t-69.5 51t-98 19 q-57 0 -109 -11t-108 -26q-21 -6 -35.5 -9.5t-25 -2.5t-19 7t-18.5 19l-51 66q-13 15 -16 27.5t-3 27.5q0 8 1 19t3 26l58 484q3 30 19.5 46.5t54.5 16.5h610q31 0 48 -14.5t17 -48.5v-127q0 -32 -17 -48t-48 -16h-461l-27 -223q19 4 37 7.5t36.5 6t39.5 3.5t47 1 q109 0 195.5 -36.5t147 -99.5t92.5 -147t32 -178z"/>
<glyph glyph-name="six" horiz-adv-x="1137" unicode="6" d="M784 434q0 110 -52 173t-142 63q-68 0 -123 -26.5t-92 -63.5q0 -8 -1 -16.5t-1 -16.5q0 -52 9 -112t33 -111t66 -85t109 -34q43 0 79 16.5t61.5 46.5t39.5 72.5t14 93.5zM1063 438q0 -105 -34 -191t-96 -147.5t-148.5 -95t-192.5 -33.5q-138 0 -233.5 53.5t-154 141 t-84.5 199t-26 227.5q0 190 39 339.5t110 252.5t170.5 157t221.5 54q57 0 104 -5.5t84.5 -14t66 -18t48.5 -18.5q17 -8 26 -18t9 -27q0 -6 -3.5 -14.5t-6.5 -17.5l-52 -121q-9 -23 -24 -27.5t-43 4.5l-51 17t-47 14t-48 9t-53 3q-64 0 -109 -25.5t-76 -72t-50.5 -111.5 t-32.5 -143q44 37 107.5 64.5t152.5 27.5q97 0 175.5 -33.5t134 -94.5t86 -146.5t30.5 -188.5z"/>
<glyph glyph-name="seven" horiz-adv-x="909" unicode="7" d="M928 1257q0 -20 -7 -39t-20 -40q-44 -73 -90 -159.5t-90 -181.5t-86 -196t-79.5 -202t-69.5 -199.5t-56 -188.5q-3 -11 -7.5 -22t-13 -21t-21.5 -16t-32 -6h-151q-29 0 -41 13.5t-12 39.5q0 4 1.5 12t3 16.5t3 16l2.5 12.5q14 60 41 141.5t62.5 174.5t77 191.5 t84.5 191.5t85 175t78 142h-541q-31 0 -48 16t-17 48v127q0 34 17 48.5t48 14.5h815q32 0 48 -17t16 -46v-46z"/>
<glyph glyph-name="eight" horiz-adv-x="1147" unicode="8" d="M780 401q0 61 -17.5 103t-46 67t-66 36t-77.5 11q-38 0 -75 -11t-65.5 -36t-46 -67t-17.5 -103q0 -42 13 -79t38.5 -65t63.5 -44t89 -16q52 0 90.5 16.5t64.5 44.5t39 65t13 78zM756 1016q0 28 -10 55t-32 49t-57 35.5t-84 13.5t-83.5 -14t-56 -36.5t-31 -49.5t-9.5 -53 q0 -42 13 -74.5t37 -54t57 -32.5t73 -11q82 0 132.5 43.5t50.5 128.5zM1053 383q0 -108 -36 -186t-99.5 -128.5t-151.5 -74t-193 -23.5q-104 0 -191.5 24t-151 74.5t-99 128t-35.5 185.5q0 69 17.5 124.5t47.5 99t70 76t84 54.5q-43 19 -77 50.5t-58 71t-36.5 85.5t-12.5 94 q0 79 29 144.5t85 113t138.5 73.5t189.5 26q108 0 191 -26t139.5 -73t85.5 -112.5t29 -143.5q0 -49 -12.5 -95t-36 -85.5t-58 -71t-77.5 -51.5q44 -21 84 -53.5t70 -76t47.5 -99.5t17.5 -125z"/>
<glyph glyph-name="nine" horiz-adv-x="1137" unicode="9" d="M764 786q2 8 2 16.5v16.5q0 50 -8.5 103.5t-28.5 101.5q-12 29 -29 54t-39.5 43.5t-50 29t-61.5 10.5q-43 0 -79 -16.5t-61.5 -46.5t-40 -72.5t-14.5 -93.5q0 -55 14.5 -98.5t40 -74t61.5 -47t79 -16.5q68 0 123 26.5t92 63.5zM1044 788q0 -191 -31 -338.5t-98 -250.5 q-71 -113 -177.5 -170.5t-233.5 -57.5q-112 0 -198.5 21t-139.5 43q-17 8 -26 18t-9 27q0 6 3.5 14.5t6.5 18.5l49 120q10 23 26 29t42 -6q54 -25 115 -38t129 -13q62 0 108.5 28.5t77.5 77.5q15 25 28 56t22.5 64t15.5 65.5t8 60.5q-45 -37 -108 -64.5t-152 -27.5 q-97 0 -175.5 33.5t-134 94.5t-86 146.5t-30.5 188.5q0 105 34 191t96.5 147.5t149.5 95t193 33.5q92 0 164 -25.5t127 -69t93.5 -102.5t63.5 -126.5t36 -140t11 -143.5z"/>
<glyph glyph-name="colon" horiz-adv-x="510" unicode=":" d="M412 139q0 -32 -12.5 -60.5t-33.5 -49.5t-49.5 -33t-60.5 -12t-60.5 12t-49.5 33t-33.5 49.5t-12.5 60.5t12.5 60.5t33.5 49.5t49.5 33.5t60.5 12.5t60.5 -12.5t49.5 -33.5t33.5 -49.5t12.5 -60.5zM412 856q0 -32 -12.5 -60.5t-33.5 -49.5t-49.5 -33.5t-60.5 -12.5 t-60.5 12.5t-49.5 33.5t-33.5 49.5t-12.5 60.5t12.5 60.5t33.5 49.5t49.5 33.5t60.5 12.5t60.5 -12.5t49.5 -33.5t33.5 -49.5t12.5 -60.5z"/>
<glyph glyph-name="semicolon" horiz-adv-x="510" unicode=";" d="M412 125q0 -50 -15 -99t-39 -95.5t-55 -90t-63 -82.5q-16 -20 -26.5 -21.5t-13.5 -1.5q-14 0 -28 9l-47 31q-22 14 -21.5 32.5t19.5 42.5q10 14 22.5 33t24.5 39t22 40.5t15 37.5q-50 8 -78.5 48t-28.5 91q0 32 11 60.5t30.5 49.5t47.5 33.5t63 12.5q34 0 63.5 -12 t51 -34.5t33.5 -54t12 -69.5zM412 856q0 -32 -12.5 -60.5t-33.5 -49.5t-49.5 -33.5t-60.5 -12.5t-60.5 12.5t-49.5 33.5t-33.5 49.5t-12.5 60.5t12.5 60.5t33.5 49.5t49.5 33.5t60.5 12.5t60.5 -12.5t49.5 -33.5t33.5 -49.5t12.5 -60.5z"/>
<glyph glyph-name="less" horiz-adv-x="1133" unicode="&lt;" d="M1026 956q0 -24 -14 -37t-39 -22l-594 -221l594 -225q25 -10 39 -22.5t14 -37.5v-153q0 -17 -8 -27t-21 -10q-17 0 -45 10l-800 336q-28 12 -46 27t-18 44v107q0 29 17.5 46t48.5 30l798 336q28 10 45 10q13 0 21 -10t8 -27v-154z"/>
<glyph glyph-name="equal" horiz-adv-x="1083" unicode="=" d="M997 414q0 -28 -13.5 -44t-45.5 -16h-791q-59 0 -59 58v114q0 28 13 44t42 16h799q29 0 42 -16t13 -44v-112zM997 825q0 -28 -13.5 -43.5t-45.5 -15.5h-791q-59 0 -59 57v115q0 28 13 43.5t42 15.5h799q29 0 42 -15.5t13 -43.5v-113z"/>
<glyph glyph-name="greater" horiz-adv-x="1133" unicode="&gt;" d="M1047 623q0 -29 -17.5 -46.5t-48.5 -29.5l-799 -336q-12 -5 -24.5 -7.5t-20.5 -2.5q-12 0 -20 10t-8 27v153q0 25 14 37.5t39 22.5l594 221l-594 225q-25 9 -39 22t-14 37v154q0 17 8 27t20 10q8 0 20.5 -2.5t24.5 -7.5l801 -336q28 -13 46 -28t18 -44v-106z"/>
<glyph glyph-name="question" horiz-adv-x="850" unicode="?" d="M545 139q0 -32 -12.5 -60.5t-33.5 -49.5t-49.5 -33t-60.5 -12t-60.5 12t-49.5 33t-33.5 49.5t-12.5 60.5t12.5 60.5t33.5 49.5t49.5 33.5t60.5 12.5t60.5 -12.5t49.5 -33.5t33.5 -49.5t12.5 -60.5zM801 1073q0 -56 -15 -101.5t-40.5 -84.5t-58 -72.5t-66.5 -64.5 q-32 -29 -55.5 -49.5t-39 -43t-23 -51.5t-7.5 -76v-45q0 -38 -15.5 -53.5t-44.5 -15.5h-108q-28 0 -44 15.5t-16 55.5v105q0 57 16.5 101t42 80t56.5 65t61 55q21 18 39.5 36.5t32 39t21.5 43t8 49.5q0 48 -33.5 74t-99.5 26q-32 0 -64.5 -8t-63.5 -20.5t-59 -27.5t-51 -30 q-37 -23 -56 -20t-36 35l-57 104q-7 11 -13 26t-6 23q0 11 9 19t32 22q34 20 76.5 40t91 35.5t103 25.5t112.5 10q93 0 162.5 -23.5t116 -66.5t69.5 -102t23 -130z"/>
<glyph glyph-name="at" horiz-adv-x="1800" unicode="@" d="M1706 639q0 -117 -30 -221.5t-90.5 -182.5t-151.5 -123.5t-213 -45.5q-65 0 -121 26.5t-84 77.5q-23 -26 -52.5 -45.5t-62.5 -32t-66.5 -18.5t-64.5 -6q-62 0 -111.5 26.5t-85 73t-54.5 109.5t-19 137q0 57 11 119.5t32.5 122.5t54 114t75 95t95.5 65t117 24 q46 0 92 -23.5t80 -56.5q3 11 7.5 22.5t13 21.5t21 16t31.5 6h123q29 0 41.5 -13.5t12.5 -39.5q0 -10 -2.5 -29t-4.5 -29l-51 -368q-3 -26 -5.5 -55.5t-2.5 -69.5t17.5 -55t37.5 -15q39 0 75.5 25t65 73t45.5 117t17 158q0 111 -36 212.5t-105 178.5t-170.5 122.5 t-233.5 45.5q-91 0 -174 -27.5t-155 -77t-130 -117.5t-99.5 -149t-64 -172t-22.5 -186q0 -170 48 -291.5t131 -199t194 -114t236 -36.5q51 0 108 8.5t113.5 24t110.5 37.5t100 49q20 12 36.5 12.5t30.5 -16.5l64 -82q5 -5 8.5 -11.5t3.5 -17.5q0 -23 -20 -37 q-53 -38 -123 -68.5t-145.5 -52t-150 -33.5t-136.5 -12q-174 0 -324 47t-260.5 148t-174 260.5t-63.5 384.5q0 121 29.5 237t84 219t132 189t173 148.5t206.5 97.5t233 35q171 0 310 -59.5t237.5 -162.5t151.5 -240.5t53 -293.5zM1026 672q-25 21 -48 37t-48 16 q-49 0 -82 -30t-52.5 -75t-27.5 -97t-8 -95q0 -39 8 -65.5t22 -43t33.5 -23.5t42.5 -7q25 0 46.5 11.5t38 30t27 42.5t13.5 49z"/>
<glyph glyph-name="A" horiz-adv-x="1188" unicode="A" d="M584 938l-148 -449h295zM1176 31q0 -14 -13 -22.5t-33 -8.5h-186q-28 0 -45 16t-27 45l-61 187h-453l-61 -185q-11 -32 -27.5 -47.5t-44.5 -15.5h-166q-18 0 -31.5 8.5t-13.5 22.5q0 20 4 30.5t9 24.5l424 1235q11 31 27.5 45t45.5 14h135q29 0 46 -14t28 -45l428 -1233 q6 -17 10.5 -28.5t4.5 -28.5z"/>
<glyph glyph-name="B" horiz-adv-x="1147" unicode="B" d="M803 420q0 106 -78 153q-68 41 -193 41h-112v-374h135q124 0 186 41.5t62 138.5zM764 995q0 68 -47 104t-144 36h-153v-289h69q54 0 103 6.5t86 21.5q40 17 63 46t23 75zM1090 397q0 -108 -36 -183.5t-105.5 -123t-170 -69t-229.5 -21.5h-344q-32 0 -48 17.5t-16 48.5 v1234q0 31 16 48.5t48 17.5h366q105 0 192 -17t149 -56t96 -101t34 -152q0 -118 -59.5 -189.5t-165.5 -109.5q62 -16 112.5 -44.5t86 -71t55 -99.5t19.5 -129z"/>
<glyph glyph-name="C" horiz-adv-x="1081" unicode="C" d="M1053 98q0 -9 -4.5 -16t-20.5 -16q-31 -17 -75 -34t-97.5 -30.5t-113 -22t-121.5 -8.5q-113 0 -213.5 39.5t-176 127t-119.5 226t-44 336.5q0 139 34 265t105 221.5t179.5 152t258.5 56.5q64 0 120 -9t101.5 -21.5t79 -27t51.5 -24.5q13 -8 17 -15.5t4 -13.5t-2 -13 t-8 -20l-68 -153q-9 -20 -25.5 -26.5t-31.5 1.5q-6 3 -28 14.5t-54 23.5t-72 22t-82 10q-78 0 -134 -35.5t-91 -98t-51.5 -147t-16.5 -182.5q0 -113 20.5 -198.5t57 -143t85.5 -86.5t106 -29q37 0 81 5.5t84 21.5q42 15 66.5 27t50.5 26q19 9 35.5 6t24.5 -20l75 -158 q5 -8 9 -17.5t4 -15.5z"/>
<glyph glyph-name="D" horiz-adv-x="1186" unicode="D" d="M834 680q0 230 -82.5 339t-262.5 109h-69v-882h69q100 0 166.5 31t106 88t56 137t16.5 178zM1120 670q0 -138 -35 -259.5t-110 -213t-193 -144.5t-284 -53h-293q-32 0 -48 17.5t-16 48.5v1234q0 31 16 48.5t48 17.5h309q172 0 288.5 -54t187 -148t100.5 -221t30 -273z "/>
<glyph glyph-name="E" horiz-adv-x="1022" unicode="E" d="M956 63q0 -32 -17 -47.5t-48 -15.5h-686q-32 0 -48 17.5t-16 48.5v1234q0 31 16 48.5t48 17.5h663q31 0 48.5 -15.5t17.5 -47.5v-115q0 -32 -17.5 -48t-48.5 -16h-448v-293h368q31 0 48.5 -15.5t17.5 -47.5v-115q0 -32 -17.5 -47.5t-48.5 -15.5h-368v-336h471 q31 0 48 -16t17 -48v-127z"/>
<glyph glyph-name="F" horiz-adv-x="995" unicode="F" d="M934 1188q0 -32 -17.5 -48t-48.5 -16h-448v-313h368q31 0 48.5 -15.5t17.5 -47.5v-115q0 -32 -17.5 -48t-48.5 -16h-368v-506q0 -32 -17.5 -47.5t-48.5 -15.5h-149q-32 0 -48 17.5t-16 48.5v1234q0 31 16 48.5t48 17.5h663q31 0 48.5 -15.5t17.5 -47.5v-115z"/>
<glyph glyph-name="G" horiz-adv-x="1155" unicode="G" d="M1065 104q0 -44 -45 -63q-33 -15 -78 -28t-97.5 -22.5t-109.5 -14.5t-114 -5q-113 0 -213.5 39.5t-176 127t-119.5 226t-44 336.5q0 139 35 265t108 221.5t185 152t266 56.5q66 0 124.5 -9.5t106 -23t82.5 -29t53 -26.5q12 -8 16.5 -14.5t4.5 -12.5t-2 -14t-9 -21 l-67 -153q-10 -22 -27 -27.5t-31 2.5q-24 14 -52.5 27.5t-60 24.5t-66 17.5t-70.5 6.5q-81 0 -139.5 -35.5t-96.5 -98t-56 -147t-18 -182.5q0 -230 71.5 -346.5t197.5 -116.5q38 0 79.5 4t83.5 17v225h-116q-31 0 -48.5 15.5t-17.5 47.5v115q0 32 18 48t50 16h329 q32 0 48 -17.5t16 -48.5v-535z"/>
<glyph glyph-name="H" horiz-adv-x="1237" unicode="H" d="M1098 66q0 -31 -16 -48.5t-48 -17.5h-151q-32 0 -48 17.5t-16 48.5v524h-399v-524q0 -31 -16 -48.5t-48 -17.5h-151q-32 0 -48 17.5t-16 48.5v1234q0 31 16 48.5t48 17.5h151q32 0 48 -17.5t16 -48.5v-469h399v469q0 31 16 48.5t48 17.5h151q32 0 48 -17.5t16 -48.5 v-1234z"/>
<glyph glyph-name="I" horiz-adv-x="559" unicode="I" d="M420 66q0 -31 -16 -48.5t-48 -17.5h-151q-32 0 -48 17.5t-16 48.5v1234q0 31 16 48.5t48 17.5h151q32 0 48 -17.5t16 -48.5v-1234z"/>
<glyph glyph-name="J" horiz-adv-x="686" unicode="J" d="M567 281q0 -153 -88 -231.5t-252 -78.5q-72 0 -122.5 10t-79.5 19q-27 9 -27 33q0 8 1.5 16t4.5 19l37 141q6 25 21 31t36 0q25 -8 48 -12.5t55 -4.5q52 0 70 32t18 83v962q0 31 15.5 48.5t47.5 17.5h152q32 0 47.5 -17.5t15.5 -48.5v-1019z"/>
<glyph glyph-name="K" horiz-adv-x="1135" unicode="K" d="M1118 23q0 -11 -6.5 -17t-17.5 -6h-242q-28 0 -47.5 11t-38.5 42l-346 563v-550q0 -31 -16 -48.5t-48 -17.5h-151q-32 0 -48 17.5t-16 48.5v1234q0 31 16 48.5t48 17.5h151q32 0 48 -17.5t16 -48.5v-536l354 547q23 34 42 44.5t48 10.5h219q19 0 25 -6.5t6 -16.5 q0 -8 -5 -18t-13 -22l-416 -601l422 -641q16 -22 16 -38z"/>
<glyph glyph-name="L" horiz-adv-x="952" unicode="L" d="M915 63q0 -32 -17 -47.5t-48 -15.5h-645q-32 0 -48 17.5t-16 48.5v1234q0 31 16 48.5t48 17.5h149q31 0 48.5 -15.5t17.5 -47.5v-1049h430q31 0 48 -16t17 -48v-127z"/>
<glyph glyph-name="M" horiz-adv-x="1561" unicode="M" d="M1421 63q0 -29 -15.5 -46t-49.5 -17h-139q-35 0 -50.5 17.5t-15.5 48.5v700l-238 -518q-15 -35 -30.5 -48.5t-44.5 -13.5h-111q-29 0 -44.5 13t-31.5 47l-239 514v-694q0 -31 -16 -48.5t-50 -17.5h-139q-34 0 -50 17.5t-16 48.5v1234q0 66 66 66h155q57 0 80 -51 l342 -742l336 727q16 32 33.5 49t52.5 17h150q34 0 49.5 -17.5t15.5 -48.5v-1237z"/>
<glyph glyph-name="N" horiz-adv-x="1257" unicode="N" d="M1118 66q0 -31 -15.5 -48.5t-47.5 -17.5h-152q-34 0 -52 12.5t-32 38.5l-407 776v-761q0 -66 -64 -66h-143q-34 0 -49 18.5t-15 47.5v1234q0 66 64 66h168q29 0 47.5 -10t34.5 -39l393 -750v733q0 66 63 66h144q32 0 47.5 -17.5t15.5 -48.5v-1234z"/>
<glyph glyph-name="O" horiz-adv-x="1167" unicode="O" d="M815 682q0 47 -3 100t-11.5 104t-24 97.5t-41 82t-62.5 56.5t-87 21q-51 0 -88 -21t-63 -56.5t-42 -82t-24.5 -97.5t-11.5 -104t-3 -100t3 -99.5t11.5 -103.5t24.5 -97t42 -81.5t63 -56.5t88 -21q50 0 87 21t62.5 56.5t41 82t24 97.5t11.5 103t3 99zM1102 682 q0 -81 -9.5 -165t-33 -163t-61.5 -149t-95.5 -122t-135.5 -82t-181 -30q-104 0 -183 30t-136.5 82t-95.5 122t-61 149t-32.5 163t-9.5 165t9.5 166t32.5 164t61 149t95.5 122t135.5 82t182 30t182.5 -30t136 -82t96 -122t61.5 -149t32.5 -164t9.5 -166z"/>
<glyph glyph-name="P" horiz-adv-x="1075" unicode="P" d="M735 940q0 47 -11.5 83.5t-39.5 61t-74 37.5t-116 13h-74v-387h90q61 0 103.5 13.5t69.5 38t39.5 60t12.5 80.5zM1022 938q0 -117 -38.5 -198t-102.5 -130.5t-146 -71.5t-170 -22h-145v-450q0 -31 -16 -48.5t-48 -17.5h-151q-32 0 -48 17.5t-16 48.5v1234q0 31 16 48.5 t48 17.5h334q95 0 182.5 -19.5t154 -68.5t106.5 -131.5t40 -208.5z"/>
<glyph glyph-name="Q" horiz-adv-x="1167" unicode="Q" d="M815 682q0 47 -3 100t-11.5 104t-24 97.5t-41 82t-62.5 56.5t-87 21q-51 0 -88 -21t-63 -56.5t-42 -82t-24.5 -97.5t-11.5 -104t-3 -100t3 -99.5t11.5 -103.5t24.5 -97t42 -81.5t63 -56.5t88 -21q50 0 87 21t62.5 56.5t41 82t24 97.5t11.5 103t3 99zM1102 682 q0 -73 -7.5 -148.5t-26 -147.5t-48 -138t-74 -119t-105 -91t-139.5 -54v-47q0 -45 21.5 -62.5t71.5 -17.5q21 0 42.5 4.5t36.5 7.5q22 5 32.5 -2.5t15.5 -30.5l22 -123q2 -9 3 -17t1 -13q0 -16 -37 -25q-26 -6 -65 -12t-96 -6q-77 0 -132.5 20.5t-91 58t-52.5 91t-17 120.5 v56q-77 18 -136 56.5t-102.5 92t-72.5 118.5t-46 136.5t-24.5 146t-7.5 146.5q0 81 9.5 166t32.5 164t61 149t95.5 122t135.5 82t182 30t182.5 -30t136 -82t96 -122t61.5 -149t32.5 -164t9.5 -166z"/>
<glyph glyph-name="R" horiz-adv-x="1120" unicode="R" d="M741 950q0 48 -12 82.5t-42 57.5t-80.5 34t-127.5 11h-59v-353h76q71 0 118.5 11.5t75.5 33.5t39.5 53t11.5 70zM1087 23q0 -11 -6.5 -17t-27.5 -6h-213q-63 0 -92 59l-252 492h-76v-485q0 -31 -16 -48.5t-48 -17.5h-151q-32 0 -48 17.5t-16 48.5v1234q0 31 16 48.5 t48 17.5h340q103 0 191 -20t153 -67.5t102 -126t37 -194.5q0 -82 -22.5 -145.5t-58.5 -109t-81.5 -74.5t-91.5 -43l295 -523q8 -14 13 -22.5t5 -17.5z"/>
<glyph glyph-name="S" horiz-adv-x="995" unicode="S" d="M946 391q0 -103 -34 -181.5t-94 -131.5t-143.5 -80t-182.5 -27q-66 0 -125 10t-111 25.5t-96 35t-78 38.5q-17 9 -28 17.5t-11 21.5q0 9 4.5 20t9.5 21l70 141q11 23 30.5 25.5t45.5 -13.5q33 -19 69.5 -36.5t73 -30.5t72 -21t67.5 -8q94 0 143.5 38.5t49.5 104.5 q0 30 -10 56.5t-34 51t-64 47t-99 44.5q-109 41 -187 83.5t-127.5 95t-72.5 118.5t-23 154q0 94 35.5 165.5t96 120.5t141 74t170.5 25q66 0 121 -8t101.5 -22t86 -32t74.5 -37q17 -9 22.5 -15.5t5.5 -14.5q0 -10 -2.5 -18t-7.5 -17l-63 -141q-10 -22 -25.5 -29.5t-40.5 4.5 q-32 15 -65 30t-67 27t-69 19.5t-69 7.5q-48 0 -81.5 -10.5t-54 -27.5t-29.5 -39.5t-9 -47.5q0 -31 10 -55.5t37 -48t75.5 -48t125.5 -55.5q77 -32 144 -65.5t116.5 -81.5t77.5 -115t28 -164z"/>
<glyph glyph-name="T" horiz-adv-x="977" unicode="T" d="M961 1174q0 -29 -17.5 -45.5t-48.5 -16.5h-266v-1046q0 -31 -16 -48.5t-48 -17.5h-151q-32 0 -48 17.5t-16 48.5v1046h-266q-31 0 -48.5 16.5t-17.5 45.5v131q0 29 17.5 45t48.5 16h811q31 0 48.5 -16t17.5 -45v-131z"/>
<glyph glyph-name="U" horiz-adv-x="1194" unicode="U" d="M1075 459q0 -129 -39 -221.5t-106 -151.5t-157 -87t-191 -28q-102 0 -187.5 32.5t-146.5 94t-95 150.5t-34 201v851q0 31 16 48.5t48 17.5h151q32 0 48 -17.5t16 -48.5v-841q0 -63 15.5 -108t42.5 -73.5t63.5 -41.5t78.5 -13q39 0 75 12.5t63.5 40t44 72t16.5 109.5v843 q0 31 15.5 48.5t47.5 17.5h152q32 0 47.5 -17.5t15.5 -48.5v-841z"/>
<glyph glyph-name="V" horiz-adv-x="1102" unicode="V" d="M1116 1335q0 -8 -2.5 -22.5t-7.5 -28.5l-412 -1249q-11 -32 -27.5 -48t-45.5 -16h-140q-53 0 -71 60l-412 1257q-5 14 -7.5 26.5t-2.5 20.5q0 19 14 25t33 6h178q32 0 48 -17t26 -46l268 -900l279 902q9 31 28.5 46t42.5 15h162q26 0 37.5 -8.5t11.5 -22.5z"/>
<glyph glyph-name="W" horiz-adv-x="1647" unicode="W" d="M1655 1337q0 -9 -3.5 -25.5t-6.5 -27.5l-322 -1249q-18 -64 -72 -64h-135q-51 0 -69 60l-220 768l-221 -764q-18 -64 -71 -64h-136q-26 0 -43.5 14.5t-25.5 45.5l-322 1257q-3 14 -5.5 27.5t-2.5 21.5q0 29 45 29h168q31 0 48 -17t24 -46l192 -879l232 881q15 61 69 61 h111q35 0 49.5 -17t22.5 -46l221 -879l202 881q8 32 27.5 46.5t42.5 14.5h152q49 0 49 -29z"/>
<glyph glyph-name="X" horiz-adv-x="1130" unicode="X" d="M1114 27q0 -13 -10 -20t-35 -7h-211q-32 0 -50 17t-34 46l-217 402l-219 -404q-16 -29 -35 -45t-51 -16h-189q-24 0 -34.5 7t-10.5 20q0 9 5.5 22.5t13.5 26.5l371 620l-355 596q-8 13 -12 26t-4 21q0 27 41 27h213q34 0 52 -16.5t32 -42.5l194 -363l193 361 q15 29 34.5 45t51.5 16h190q23 0 33 -7t10 -20q0 -17 -16 -47l-346 -577l379 -639q8 -14 12 -27.5t4 -21.5z"/>
<glyph glyph-name="Y" horiz-adv-x="1006" unicode="Y" d="M1034 1337q0 -8 -6 -22t-12 -27l-363 -745v-477q0 -31 -15.5 -48.5t-47.5 -17.5h-152q-32 0 -47.5 17.5t-15.5 48.5v473l-375 753q-5 10 -10.5 23.5t-5.5 21.5q0 13 9.5 21t31.5 8h202q52 0 82 -68l209 -460l205 460q12 29 32.5 48.5t49.5 19.5h188q41 0 41 -29z"/>
<glyph glyph-name="Z" horiz-adv-x="1042" unicode="Z" d="M999 63q0 -32 -17 -47.5t-48 -15.5h-825q-32 0 -48 17.5t-16 48.5v86q0 16 1.5 28.5t6 24.5t11.5 24.5t18 28.5l557 866h-514q-31 0 -48.5 16t-17.5 48v115q0 32 17.5 47.5t48.5 15.5h793q29 0 46 -15t17 -46v-86q0 -18 -2 -31.5t-6.5 -26t-11.5 -25t-17 -28.5l-559 -866 h549q29 0 47 -15t18 -49v-115z"/>
<glyph glyph-name="bracketleft" horiz-adv-x="674" unicode="[" d="M631 -309q0 -32 -17.5 -48t-48.5 -16h-381q-32 0 -47.5 17.5t-15.5 48.5v1607q0 31 15.5 48.5t47.5 17.5h359q31 0 48 -15.5t17 -47.5v-76q0 -32 -17 -48t-48 -16h-183v-1321h205q31 0 48.5 -15.5t17.5 -47.5v-88z"/>
<glyph glyph-name="backslash" horiz-adv-x="776" unicode="\" d="M780 -53q0 -11 -8 -18t-20 -7h-146q-28 0 -44 14.5t-30 51.5l-522 1360q-5 9 -8.5 22.5t-3.5 26.5q0 11 8 18.5t21 7.5h145q28 0 44 -14t30 -51l522 -1362q3 -8 7.5 -22.5t4.5 -26.5z"/>
<glyph glyph-name="bracketright" horiz-adv-x="674" unicode="]" d="M555 -307q0 -31 -15.5 -48.5t-47.5 -17.5h-381q-31 0 -48.5 16t-17.5 48v88q0 32 17.5 47.5t48.5 15.5h204v1321h-182q-31 0 -48 16t-17 48v76q0 32 17 47.5t48 15.5h359q32 0 47.5 -17.5t15.5 -48.5v-1607z"/>
<glyph glyph-name="asciicircum" horiz-adv-x="930" unicode="^" d="M887 799q0 -13 -12 -21t-29 -8h-133q-25 0 -40 15t-28 38l-186 342l-189 -342q-12 -23 -27 -38t-40 -15h-117q-17 0 -29 8t-12 21q0 8 4 20t10 25l279 487q12 28 27.5 46t44.5 18h106q29 0 46 -17.5t30 -48.5l280 -485q7 -13 11 -25t4 -20z"/>
<glyph glyph-name="underscore" horiz-adv-x="874" unicode="_" d="M889 -229q0 -27 -27 -27h-854q-26 0 -26 25v77q0 27 24 27h858q25 0 25 -27v-75z"/>
<glyph glyph-name="grave" horiz-adv-x="668" unicode="`" d="M512 1124q0 -16 -25 -16h-110q-28 0 -47 9t-37 26l-182 170q-25 21 -25 39q0 14 27 14h174q35 0 56.5 -9t41.5 -38l109 -158q8 -11 13 -20.5t5 -16.5z"/>
<glyph glyph-name="a" horiz-adv-x="965" unicode="a" d="M602 436q-139 -6 -204.5 -43t-65.5 -112q0 -29 9 -47t23 -29t30.5 -15t31.5 -4q35 0 67.5 14.5t63.5 39.5q22 17 33.5 37t11.5 51v108zM868 66q0 -29 -14 -47.5t-51 -18.5h-115q-38 0 -54 18t-16 50v26q-49 -49 -118 -79.5t-156 -30.5q-65 0 -116.5 21.5t-87.5 60 t-55 91.5t-19 117q0 75 23 130t62.5 94t92 63t111 38t119.5 19.5t118 6.5h10v61q-3 53 -29.5 79t-85.5 26q-74 0 -137 -21t-112 -47q-20 -11 -36.5 -7.5t-25.5 23.5l-61 127q-6 12 -6 25q0 25 28 37q34 17 77 32t91 26.5t100 18.5t103 7q85 0 152 -16.5t113 -54t70.5 -97 t24.5 -144.5v-634z"/>
<glyph glyph-name="b" horiz-adv-x="1028" unicode="b" d="M686 492q0 63 -7 116.5t-22.5 92.5t-42 61t-65.5 22q-174 0 -174 -299q0 -62 10 -112.5t31 -86.5t54 -55.5t79 -19.5q40 0 66 23.5t42 63t22.5 90t6.5 104.5zM965 494q0 -95 -20 -186.5t-64.5 -163.5t-116 -116t-174.5 -44q-37 0 -71.5 8.5t-65 23.5t-55 36.5t-40.5 47.5 v-32q0 -32 -15.5 -50t-55.5 -18h-113q-37 0 -51 18.5t-14 49.5v1257q0 34 15.5 52t53.5 18h125q42 0 57 -18t15 -50v-420q19 22 42.5 41t52 33t63 22.5t75.5 8.5q94 0 161.5 -43.5t111 -115.5t64 -165.5t20.5 -193.5z"/>
<glyph glyph-name="c" horiz-adv-x="897" unicode="c" d="M860 104q0 -12 -9 -22t-28 -21q-49 -31 -132 -54t-195 -23q-86 0 -164 29t-137 92t-94 162.5t-35 240.5q0 102 27 193.5t81 160.5t135 109.5t189 40.5q47 0 86 -4t73.5 -11.5t66.5 -19.5t64 -27q19 -9 28 -19.5t9 -27.5q0 -9 -4 -21.5t-10 -23.5l-51 -98 q-14 -26 -29.5 -28t-38.5 9q-24 12 -44 19.5t-38.5 12.5t-37.5 7t-42 2q-50 0 -85 -22.5t-57.5 -61t-33 -90.5t-10.5 -112q0 -56 9.5 -107.5t31 -90.5t56 -62t83.5 -23q59 0 102.5 13.5t82.5 33.5q34 17 51.5 15t30.5 -25l59 -111q5 -9 7.5 -15t2.5 -20z"/>
<glyph glyph-name="d" horiz-adv-x="1028" unicode="d" d="M655 485q0 150 -39 224.5t-124 74.5q-42 0 -70 -22t-45.5 -61t-25 -92.5t-7.5 -116.5q0 -54 6.5 -104.5t22 -90t42 -63t66.5 -23.5q46 0 79 19.5t54 55.5t31 86.5t10 112.5zM922 68q0 -31 -14.5 -49.5t-51.5 -18.5h-113q-40 0 -55.5 18t-15.5 50v32q-16 -26 -40.5 -47.5 t-54.5 -36.5t-65 -23.5t-72 -8.5q-103 0 -174 44t-115.5 116t-64.5 163.5t-20 186.5q0 100 21.5 193.5t66.5 165.5t113.5 115.5t162.5 43.5q47 0 82.5 -9.5t62.5 -23.5t46 -30.5t34 -30.5v409q0 32 15 50t57 18h125q38 0 54 -18t16 -52v-1257z"/>
<glyph glyph-name="e" horiz-adv-x="961" unicode="e" d="M631 606q-2 40 -11 74.5t-25.5 60t-41 40t-57.5 14.5q-63 0 -102.5 -43t-47.5 -146h285zM907 473q0 -23 -13 -38t-38 -15h-512v-8q2 -40 10 -77.5t27.5 -66t53 -46t87.5 -17.5q56 0 108 14.5t83 30.5q37 17 57.5 20.5t34.5 -22.5l57 -103q8 -12 12.5 -22.5t4.5 -18.5 q0 -11 -7.5 -19t-21.5 -17q-65 -38 -153.5 -61t-184.5 -23q-125 0 -210 42.5t-137.5 112.5t-75.5 161t-23 189q0 67 10.5 132t32.5 123t57 107t84 85t112.5 56t143.5 20q90 0 163.5 -34t126.5 -101.5t82 -168.5t29 -235z"/>
<glyph glyph-name="f" horiz-adv-x="651" unicode="f" d="M700 1372q0 -10 -6 -29l-35 -135q-5 -20 -18.5 -24.5t-32.5 0.5q-12 3 -35.5 10.5t-54.5 7.5q-46 0 -62 -27.5t-16 -70.5v-109h133q26 0 41 -14.5t15 -40.5v-121q0 -25 -13.5 -40t-42.5 -15h-133v-694q0 -34 -14.5 -52t-56.5 -18h-125q-38 0 -54 18t-16 50v696h-94 q-26 0 -40.5 15t-14.5 40v121q0 25 14.5 40t40.5 15h94v125q0 69 17.5 125t56.5 95.5t101 61t151 21.5q54 0 100.5 -9t71.5 -17q8 -3 18 -9.5t10 -15.5z"/>
<glyph glyph-name="g" horiz-adv-x="1018" unicode="g" d="M645 510q0 144 -43.5 209t-116.5 65q-41 0 -68.5 -22t-43.5 -58.5t-22.5 -84.5t-6.5 -99q0 -84 11 -137.5t30 -84t45.5 -42.5t56.5 -12q40 0 70 19.5t49.5 54.5t29 84t9.5 108zM911 8q0 -87 -19 -157t-65.5 -120t-124.5 -77t-196 -27q-56 0 -110.5 6.5t-103 16t-88 21.5 t-65.5 24q-11 5 -18.5 13t-7.5 24q0 9 6 24l55 129q9 22 26.5 29.5t43.5 -4.5q51 -25 112.5 -43.5t139.5 -18.5q40 0 68.5 11.5t46.5 32.5t26 49t8 61v119q-17 -23 -41 -42t-51.5 -33t-56.5 -22t-56 -8q-96 0 -166.5 40t-116.5 108.5t-68.5 160t-22.5 195.5q0 57 9 116 t28.5 113.5t49.5 102.5t71.5 83.5t94.5 56t119 20.5q76 0 134.5 -32t89.5 -85v27q0 35 14.5 54t56.5 19h115q34 0 48.5 -18t14.5 -53v-916z"/>
<glyph glyph-name="h" d="M903 66q0 -31 -15 -48.5t-50 -17.5h-138q-32 0 -47.5 18t-15.5 50v608q0 52 -22 75t-56 23q-35 0 -70 -18t-63 -49q-15 -16 -24.5 -30t-15.5 -30t-8.5 -36t-2.5 -48v-493q0 -34 -15 -52t-57 -18h-125q-38 0 -53.5 18t-15.5 50v1259q0 32 15.5 50t49.5 18h131 q38 0 54 -17.5t16 -48.5v-446q17 18 42 40t59 42t78.5 33.5t100.5 13.5q248 0 248 -281v-665z" unicode="h"/>
<glyph glyph-name="i" horiz-adv-x="498" unicode="i" d="M383 70q0 -34 -15 -52t-57 -18h-125q-38 0 -53.5 18t-15.5 50v860q0 67 65 67h131q39 0 54.5 -17t15.5 -48v-860zM395 1270q0 -30 -11.5 -56.5t-31 -46.5t-46 -31.5t-56.5 -11.5t-56.5 11.5t-46.5 31.5t-31.5 46.5t-11.5 56.5t11.5 56.5t31.5 46t46.5 31t56.5 11.5 t56.5 -11.5t46 -31t31 -46t11.5 -56.5z"/>
<glyph glyph-name="j" horiz-adv-x="498" unicode="j" d="M383 -82q0 -143 -76.5 -217t-208.5 -74q-59 0 -110 8.5t-88 20.5q-8 3 -14.5 8t-6.5 14q0 7 2 14t4 15l37 139q5 14 17.5 20.5t27.5 0.5q17 -6 40.5 -12.5t37.5 -6.5q40 0 56 28.5t16 100.5v951q0 67 65 67h131q39 0 54.5 -17t15.5 -48v-1012zM395 1270 q0 -30 -11.5 -56.5t-31 -46.5t-46 -31.5t-56.5 -11.5t-56.5 11.5t-46.5 31.5t-31.5 46.5t-11.5 56.5t11.5 56.5t31.5 46t46.5 31t56.5 11.5t56.5 -11.5t46 -31t31 -46t11.5 -56.5z"/>
<glyph glyph-name="k" horiz-adv-x="991" unicode="k" d="M983 23q0 -23 -39 -23h-199q-35 0 -57.5 10.5t-44.5 42.5l-260 406v-389q0 -34 -15 -52t-57 -18h-125q-38 0 -53.5 18t-15.5 50v1259q0 32 15.5 50t49.5 18h131q39 0 54.5 -17.5t15.5 -48.5v-760l258 375q11 15 21 25t21.5 16t25.5 8t32 2h181q18 0 28.5 -5t10.5 -17 q0 -11 -5.5 -20.5t-13.5 -20.5l-307 -408l328 -458q9 -13 14.5 -22.5t5.5 -20.5z"/>
<glyph glyph-name="l" horiz-adv-x="498" unicode="l" d="M383 70q0 -34 -15 -52t-57 -18h-125q-38 0 -53.5 18t-15.5 50v1259q0 32 15.5 50t49.5 18h131q39 0 54.5 -17.5t15.5 -48.5v-1259z"/>
<glyph glyph-name="m" horiz-adv-x="1507" unicode="m" d="M1411 66q0 -31 -15 -48.5t-50 -17.5h-138q-32 0 -47.5 18t-15.5 50v608q0 52 -21.5 75t-52.5 23q-35 0 -69 -21.5t-60 -45.5q-26 -26 -37.5 -60t-11.5 -84v-497q0 -31 -15.5 -48.5t-50.5 -17.5h-137q-32 0 -47.5 18t-15.5 50v608q0 52 -21.5 75t-52.5 23q-32 0 -66.5 -19 t-62.5 -48q-26 -29 -37.5 -63t-11.5 -81v-493q0 -34 -15 -52t-57 -18h-125q-38 0 -53.5 18t-15.5 50v860q0 67 65 67h115q38 0 53.5 -17t15.5 -48v-66q19 22 46 47.5t63 48t81.5 37.5t100.5 15q87 0 144 -37t81 -113q60 69 132 109.5t161 40.5q119 0 181.5 -70t62.5 -211 v-665z"/>
<glyph glyph-name="n" d="M903 66q0 -31 -15 -48.5t-50 -17.5h-138q-32 0 -47.5 18t-15.5 50v608q0 52 -22 75t-56 23q-35 0 -70 -18t-63 -49q-15 -16 -24.5 -30t-15.5 -30t-8.5 -36t-2.5 -48v-493q0 -34 -15 -52t-57 -18h-125q-38 0 -53.5 18t-15.5 50v860q0 67 65 67h115q38 0 53.5 -17t15.5 -48 v-66q19 22 46 47.5t64 48t83.5 37.5t103.5 15q248 0 248 -281v-665z" unicode="n"/>
<glyph glyph-name="o" horiz-adv-x="995" unicode="o" d="M653 496q0 55 -6 106.5t-23 91.5t-47.5 64t-78.5 24q-47 0 -77 -24t-47 -64t-23.5 -91.5t-6.5 -106.5q0 -53 6.5 -104t23.5 -91t47 -64t77 -24q48 0 78.5 24t47.5 64t23 91t6 104zM932 500q0 -96 -24.5 -188.5t-77 -165.5t-134.5 -117.5t-198 -44.5q-114 0 -196 44.5 t-134.5 117t-77 165t-24.5 189.5q0 95 24.5 187t77 164t134.5 116.5t196 44.5q77 0 139.5 -20.5t110.5 -56.5t83 -84.5t57.5 -105.5t33 -119.5t10.5 -125.5z"/>
<glyph glyph-name="p" horiz-adv-x="1028" unicode="p" d="M686 504q0 54 -6.5 104.5t-22.5 89.5t-42 62.5t-66 23.5q-46 0 -79 -19.5t-54 -55.5t-31 -86.5t-10 -112.5q0 -150 39.5 -224.5t124.5 -74.5q41 0 69 22t45.5 61.5t25 93t7.5 116.5zM965 502q0 -101 -22 -194.5t-67 -165.5t-113.5 -115t-162.5 -43q-47 0 -82.5 9 t-62.5 23t-46 30.5t-34 31.5v-383q0 -32 -15 -50t-57 -18h-125q-38 0 -53.5 18t-15.5 52v1231q0 31 14 49t51 18h113q40 0 55.5 -17.5t15.5 -49.5v-33q16 26 40.5 47.5t55 37t65 24t71.5 8.5q103 0 174.5 -44t116 -116t64.5 -163.5t20 -186.5z"/>
<glyph glyph-name="q" horiz-adv-x="1028" unicode="q" d="M655 715q-15 13 -33 25.5t-38 22t-41.5 15.5t-42.5 6q-46 0 -76 -23.5t-48 -62.5t-25 -89.5t-7 -104.5q0 -63 7 -116.5t22.5 -93t42 -61.5t65.5 -22q174 0 174 299v205zM922 -303q0 -34 -16 -52t-54 -18h-125q-42 0 -57 18t-15 50v393q-38 -43 -94.5 -73.5t-138.5 -30.5 q-94 0 -161 43t-110.5 115t-64 165.5t-20.5 194.5q0 95 21.5 186.5t68.5 163.5t122 116t183 44q55 0 99 -9t79 -24t62.5 -33.5t50.5 -36.5l30 52q16 26 29.5 38.5t38.5 12.5h24q26 0 37 -15t11 -43v-1257z"/>
<glyph glyph-name="r" horiz-adv-x="758" unicode="r" d="M772 956q0 -8 -2 -16l-4 -16l-45 -162q-3 -14 -10.5 -25.5t-24.5 -11.5q-9 0 -24 6q-17 6 -39 12.5t-45 6.5q-41 0 -79.5 -24t-66.5 -52q-20 -20 -31.5 -37t-17 -35t-7 -39t-1.5 -49v-448q0 -32 -18 -49t-50 -17h-131q-32 0 -49.5 15.5t-17.5 50.5v862q0 31 15.5 49 t47.5 18h121q65 0 65 -65v-92q24 31 52.5 62t62.5 56t73.5 40.5t84.5 15.5q14 0 31 -2.5t34.5 -6.5t33 -9.5t26.5 -12.5q16 -10 16 -25z"/>
<glyph glyph-name="s" horiz-adv-x="788" unicode="s" d="M758 295q0 -83 -29.5 -142t-80 -96.5t-116.5 -55t-139 -17.5q-99 0 -179 22.5t-142 54.5q-23 13 -31 21t-8 20q0 8 5.5 19t10.5 22l45 97q13 27 29.5 33t44.5 -7q18 -8 41.5 -18t52 -20t60.5 -16.5t67 -6.5q37 0 60 7t36 18t18 24.5t5 26.5q0 14 -4.5 26.5t-18.5 25.5 t-40.5 26.5t-71.5 29.5q-87 31 -148.5 63t-100.5 69.5t-57 85t-18 110.5q0 66 24.5 120.5t69.5 93t107.5 60t138.5 21.5q85 0 160.5 -18t134.5 -50q14 -8 23.5 -16.5t9.5 -18.5q0 -8 -5.5 -20t-9.5 -19l-47 -104q-12 -29 -31 -30.5t-53 12.5q-18 7 -41.5 15.5t-48 15.5 t-49.5 11.5t-47 4.5q-43 0 -66.5 -18.5t-23.5 -49.5q0 -16 5 -29t18 -24.5t35.5 -22.5t58.5 -22q61 -20 123 -45t111.5 -62.5t80.5 -92t31 -134.5z"/>
<glyph glyph-name="t" horiz-adv-x="711" unicode="t" d="M702 31q0 -10 -24 -19q-32 -12 -88 -20t-125 -8q-62 0 -115 15.5t-91.5 51.5t-60.5 94t-22 144v475h-100q-26 0 -41 15t-15 40v121q0 25 15 40t41 15h100v248q0 32 16 50t50 18h131q40 0 54.5 -18t14.5 -50v-248h154q55 0 55 -55v-121q0 -25 -13 -40t-42 -15h-154v-457 q0 -57 19 -79.5t67 -22.5q10 0 21.5 2t22 4.5t19 5t13.5 4.5q28 9 39 1t19 -36l32 -123q3 -9 5.5 -18t2.5 -14z"/>
<glyph glyph-name="u" d="M893 68q0 -32 -16 -50t-50 -18h-114q-38 0 -54 17.5t-16 48.5v65q-18 -21 -45 -47t-64 -48t-83.5 -37t-104.5 -15q-248 0 -248 280v666q0 31 15.5 48t50.5 17h137q64 0 64 -67v-609q0 -52 21.5 -75t55.5 -23q35 0 70.5 18.5t62.5 49.5q15 16 25 30t16 30t8.5 35.5 t2.5 47.5v494q0 34 14.5 51.5t56.5 17.5h125q38 0 54 -17.5t16 -49.5v-860z" unicode="u"/>
<glyph glyph-name="v" horiz-adv-x="852" unicode="v" d="M860 973q0 -8 -2.5 -23.5t-7.5 -27.5l-268 -859q-10 -29 -26.5 -46t-45.5 -17h-172q-29 0 -45 17t-27 49l-272 856q-3 12 -6.5 27.5t-3.5 23.5q0 12 9.5 17t26.5 5h189q25 0 38 -13.5t21 -39.5l162 -586l164 586q8 26 21.5 39.5t37.5 13.5h170q37 0 37 -22z"/>
<glyph glyph-name="w" horiz-adv-x="1391" unicode="w" d="M1399 973q0 -8 -3.5 -23.5t-6.5 -27.5l-248 -859q-8 -29 -25.5 -46t-46.5 -17h-166q-29 0 -45.5 17t-26.5 49l-133 458l-133 -461q-8 -29 -25 -46t-46 -17h-166q-29 0 -46 17t-26 49l-252 856q-3 12 -6.5 27.5t-3.5 23.5q0 22 37 22h178q25 0 38 -12.5t21 -40.5l156 -596 l145 596q7 26 21 39.5t39 13.5h153q49 0 60 -53l143 -596l158 596q8 26 21 39.5t38 13.5h160q17 0 27 -5t10 -17z"/>
<glyph glyph-name="x" horiz-adv-x="936" unicode="x" d="M920 23q0 -10 -8.5 -16.5t-26.5 -6.5h-207q-32 0 -51 12.5t-37 46.5l-131 232l-131 -234q-19 -32 -39 -44.5t-49 -12.5h-185q-17 0 -27 4.5t-10 18.5q0 8 5 17t14 23l280 439l-274 432q-16 26 -16 39q0 22 39 22h200q35 0 54 -14.5t34 -40.5l117 -211l121 215 q17 29 36.5 40t45.5 11h182q25 0 33 -5.5t8 -16.5q0 -16 -18 -43l-265 -412l289 -457q8 -12 12.5 -21t4.5 -17z"/>
<glyph glyph-name="y" horiz-adv-x="883" unicode="y" d="M891 973q0 -8 -2.5 -23.5t-7.5 -27.5l-312 -961q-27 -85 -56.5 -148t-72.5 -104t-104 -61.5t-152 -20.5q-45 0 -87 10.5t-62 18.5q-14 6 -17 20q-3 10 1 19t6 14l36 139q4 10 9.5 15.5t17.5 5.5q4 0 15 -3.5t26 -7t32 -7t34 -3.5q27 0 45.5 8t31.5 25t22.5 44t20.5 65 l4 12l-305 920q-5 12 -7.5 27.5t-2.5 23.5q0 22 37 22h188q25 0 38.5 -13.5t21.5 -39.5l166 -571l170 571q8 26 21 39.5t38 13.5h170q37 0 37 -22z"/>
<glyph glyph-name="z" horiz-adv-x="850" unicode="z" d="M793 59q0 -26 -15 -42.5t-41 -16.5h-620q-37 0 -50.5 15t-13.5 44v111q0 31 6.5 52.5t26.5 47.5l377 486h-342q-28 0 -44 14.5t-16 42.5v123q0 28 15 43.5t41 15.5h610q34 0 46.5 -15.5t12.5 -43.5v-109q0 -34 -7 -55.5t-25 -44.5l-377 -485h356q26 0 43 -14.5t17 -43.5 v-125z"/>
<glyph glyph-name="braceleft" horiz-adv-x="729" unicode="{" d="M686 -309q0 -32 -17 -48t-48 -16h-50q-45 0 -89.5 4t-92.5 21q-40 13 -71.5 38.5t-53.5 60t-33.5 77t-11.5 90.5v158q0 73 -3 127t-13.5 92.5t-32.5 62t-59 35.5q-31 10 -48.5 23t-17.5 45v90q0 32 17.5 45t48.5 22q37 12 59 35.5t32.5 62t13.5 93t3 127.5v168 q0 48 11.5 90.5t33.5 77t53.5 60t71.5 38.5q48 17 92.5 21t89.5 4h50q31 0 48 -16t17 -48v-76q0 -32 -17 -47.5t-48 -15.5h-29q-52 0 -81 -6.5t-42.5 -28.5t-16.5 -64t-3 -112v-82q0 -73 -6 -133t-23.5 -108t-48.5 -84.5t-82 -61.5v-8q51 -26 82 -63t48.5 -85.5t23.5 -109 t6 -133.5v-72q0 -71 3 -112.5t16.5 -63.5t42.5 -28.5t81 -6.5h29q31 0 48 -15.5t17 -47.5v-76z"/>
<glyph glyph-name="bar" horiz-adv-x="549" unicode="|" d="M383 -307q0 -31 -16 -48.5t-48 -17.5h-88q-32 0 -47.5 17.5t-15.5 48.5v1773q0 31 15.5 48.5t47.5 17.5h88q32 0 48 -17.5t16 -48.5v-1773z"/>
<glyph glyph-name="braceright" horiz-adv-x="729" unicode="}" d="M686 471q0 -32 -17 -45t-48 -23q-38 -11 -59.5 -34.5t-32.5 -62t-14 -93t-3 -127.5v-168q0 -48 -11.5 -90.5t-33.5 -77t-53.5 -60t-71.5 -38.5q-48 -17 -92.5 -21t-89.5 -4h-49q-31 0 -48.5 16t-17.5 48v76q0 32 17.5 47.5t48.5 15.5h28q52 0 81.5 6.5t43 28.5t16.5 63.5 t3 112.5v82q0 73 6 133t23 108t48 84t82 62v8q-51 25 -82 62t-48 86t-23 109.5t-6 133.5v72q0 70 -3 112t-16.5 64t-43 28.5t-81.5 6.5h-28q-31 0 -48.5 15.5t-17.5 47.5v76q0 32 17.5 48t48.5 16h49q45 0 89.5 -4t92.5 -21q40 -13 71.5 -38.5t53.5 -60t33.5 -77t11.5 -90.5 v-158q0 -73 3 -127.5t14 -92.5t32.5 -62t59.5 -35q31 -10 48 -23t17 -45v-90z"/>
<glyph glyph-name="asciitilde" horiz-adv-x="932" unicode="~" d="M879 721q0 -16 -3.5 -44t-13 -61t-26 -66.5t-43 -61t-63.5 -45t-87 -17.5q-49 0 -99.5 18t-97.5 39q-46 22 -85 40t-64 18q-20 0 -33.5 -8.5t-22 -21t-13.5 -27t-7 -25.5q-2 -16 -10.5 -24.5t-30.5 -8.5h-92q-17 0 -25 9.5t-8 25.5t3.5 44.5t13 61t26.5 66.5t43.5 61 t63.5 44.5t88 17.5q48 0 99.5 -19t99.5 -41q46 -21 85 -38t64 -17q18 0 31 8t21 20.5t13 27t7 26.5q2 19 10.5 26t24.5 7h98q17 0 25 -10t8 -25z"/>
<glyph glyph-name="uni00A0" horiz-adv-x="492" unicode=" "/>
<glyph glyph-name="exclamdown" horiz-adv-x="543" unicode="¡" d="M424 -311v-6q0 -56 -59 -56h-185q-29 0 -45 15t-14 47l51 835q2 29 16.5 42.5t38.5 13.5h90q25 0 39.5 -13.5t16.5 -42.5zM428 856q0 -32 -12.5 -60.5t-33.5 -49.5t-49.5 -33.5t-60.5 -12.5t-60.5 12.5t-49.5 33.5t-33 49.5t-12 60.5t12 60.5t33 49.5t49.5 33.5 t60.5 12.5t60.5 -12.5t49.5 -33.5t33.5 -49.5t12.5 -60.5z"/>
<glyph glyph-name="cent" horiz-adv-x="897" unicode="¢" d="M598 -184q0 -31 -15.5 -48.5t-47.5 -17.5h-89q-32 0 -47.5 17.5t-15.5 48.5v182q-67 16 -125 54t-100.5 100.5t-67 150.5t-24.5 205q0 87 19.5 167t59 145t99 111t139.5 66v140q0 31 15.5 48t47.5 17h89q32 0 47.5 -17t15.5 -48v-131q54 -7 99 -20.5t91 -35.5 q19 -9 28 -19.5t9 -27.5q0 -9 -4 -21.5t-10 -23.5l-51 -98q-14 -26 -29.5 -28t-38.5 9q-24 12 -44 19.5t-38.5 12.5t-37.5 7t-42 2q-50 0 -85 -22.5t-57.5 -61t-33 -90.5t-10.5 -112q0 -56 9.5 -107.5t31 -90.5t56 -62t83.5 -23q59 0 102.5 13.5t82.5 33.5q34 17 51.5 15 t30.5 -25l59 -111q5 -9 7.5 -15t2.5 -20q0 -12 -9 -22t-28 -21q-37 -23 -94 -42.5t-131 -28.5v-174z"/>
<glyph glyph-name="sterling" horiz-adv-x="987" unicode="£" d="M975 63q0 -32 -17.5 -47.5t-48.5 -15.5h-809q-31 0 -48 15.5t-17 47.5v115q0 34 18 49t47 15h109q12 24 20.5 50.5t14 57t8 67t2.5 81.5q0 10 -1 22.5t-2.5 24.5t-2.5 21.5t-2 13.5h-140q-59 0 -59 57v115q0 27 13 43t42 16h95q-13 40 -27 97.5t-14 123.5q0 88 29 155.5 t83 113.5t131.5 70t175.5 24q93 0 178 -22t156 -60q17 -10 23 -16.5t6 -14.5q0 -9 -2.5 -17t-7.5 -18l-64 -123q-11 -21 -26 -29t-39 5q-32 15 -58 26.5t-50.5 19t-48.5 11.5t-50 4q-52 0 -84.5 -13.5t-50.5 -35t-24.5 -49.5t-6.5 -57q0 -23 1.5 -43t5.5 -42t10.5 -48 l15.5 -62h205q29 0 42 -16t13 -43v-113q0 -28 -14 -43.5t-46 -15.5h-157q1 -9 2.5 -23t2 -27.5t1 -26t0.5 -18.5q0 -75 -12.5 -133t-32.5 -110h446q29 0 47.5 -15t18.5 -49v-115z"/>
<glyph glyph-name="currency" horiz-adv-x="1268" unicode="¤" d="M881 688q0 55 -21.5 100t-56 77t-78 49.5t-88.5 17.5q-54 0 -100 -20t-79.5 -53.5t-52 -78t-18.5 -92.5q0 -51 19.5 -96t53 -79.5t79 -54.5t96.5 -20t95.5 20t78 54t53 79.5t19.5 96.5zM1096 684q0 -69 -18 -129t-50 -113l105 -96q11 -9 15.5 -22t4.5 -25t-4.5 -24 t-13.5 -21l-64 -61q-23 -21 -49 -21q-23 0 -41 18l-100 103q-53 -34 -116.5 -52t-129.5 -18q-53 0 -119 16t-129 54l-100 -103q-20 -18 -45 -18q-27 0 -47 21l-60 63q-9 9 -13.5 21t-4.5 24t4.5 24t15.5 21l101 96q-29 51 -47.5 112.5t-18.5 129.5q0 69 17 130.5t49 109.5 l-101 100q-11 11 -15.5 23t-4.5 24t4.5 24t13.5 21l60 62q17 20 45 20q24 0 47 -18l104 -103q63 35 128 52.5t116 17.5q56 0 122 -17t122 -51l102 101q9 9 20.5 13.5t22.5 4.5q12 0 24 -4.5t23 -15.5l64 -62q9 -9 13.5 -21t4.5 -24q0 -14 -4.5 -26t-15.5 -21l-105 -100 q35 -54 51.5 -116t16.5 -124z"/>
<glyph glyph-name="yen" horiz-adv-x="1069" unicode="¥" d="M1061 1337q0 -8 -6 -22t-13 -27l-256 -526h136q21 0 31 -11.5t10 -31.5v-84q0 -43 -43 -43h-218l-22 -49v-56h242q41 0 41 -43v-84q0 -20 -10 -31.5t-33 -11.5h-240v-251q0 -31 -16 -48.5t-48 -17.5h-151q-32 0 -48 17.5t-16 48.5v251h-239q-43 0 -43 43v84 q0 20 8.5 31.5t30.5 11.5h243v52l-26 53h-213q-43 0 -43 43v84q0 20 8.5 31.5t30.5 11.5h133l-264 530q-5 10 -11 23.5t-6 21.5q0 13 10 21t31 8h203q50 0 82 -68l209 -460l205 460q12 29 32 48.5t49 19.5h189q41 0 41 -29z"/>
<glyph glyph-name="brokenbar" horiz-adv-x="549" unicode="¦" d="M383 -307q0 -31 -16 -48.5t-48 -17.5h-88q-32 0 -47.5 17.5t-15.5 48.5v606q0 31 15.5 48.5t47.5 17.5h88q32 0 48 -17.5t16 -48.5v-606zM383 715q0 -31 -16 -48.5t-48 -17.5h-88q-32 0 -47.5 17.5t-15.5 48.5v602q0 31 15.5 48t47.5 17h88q32 0 48 -17t16 -48v-602z"/>
<glyph glyph-name="section" horiz-adv-x="942" unicode="§" d="M627 465q0 34 -12.5 64t-38.5 60t-66.5 62.5t-97.5 71.5q-41 -35 -68 -80t-27 -96q0 -35 12.5 -65t38.5 -60t66.5 -62t97.5 -71q41 35 68 80t27 96zM868 510q0 -106 -48 -195.5t-130 -160.5q30 -29 51 -55.5t33.5 -54.5t18.5 -59.5t6 -70.5q0 -63 -22.5 -117t-69 -93.5 t-118.5 -62t-171 -22.5q-81 0 -158.5 18t-136.5 50q-14 8 -23.5 16.5t-9.5 17.5q0 8 5.5 20.5t8.5 18.5l48 105q12 29 30.5 30.5t53.5 -12.5q18 -8 42.5 -16t50.5 -15t52.5 -11.5t48.5 -4.5q37 0 61 5t38 14t19 21.5t5 27.5q0 19 -13 40.5t-39 47t-66.5 57t-94.5 70.5 q-62 43 -110.5 82.5t-82.5 84t-52 96.5t-19 120q0 106 48 195.5t130 160.5q-30 29 -51 55.5t-33.5 54.5t-18.5 59.5t-6 70.5q0 66 24.5 120.5t69.5 93t107.5 60t138.5 21.5q85 0 160.5 -18t134.5 -50q14 -8 23.5 -16.5t9.5 -18.5q0 -8 -5.5 -20t-8.5 -19l-47 -104 q-13 -29 -31.5 -31t-52.5 12q-19 8 -42 16.5t-48 15.5t-50 11.5t-47 4.5q-43 0 -66.5 -18.5t-23.5 -49.5q0 -38 52 -87.5t161 -127.5q66 -47 117.5 -87.5t85.5 -88.5q31 -42 46 -92t15 -115z"/>
<glyph glyph-name="dieresis" horiz-adv-x="668" unicode="¨" d="M281 1237q0 -26 -10 -48t-26.5 -39t-39 -26.5t-47.5 -9.5q-26 0 -48 9.5t-39 26.5t-26.5 39t-9.5 48q0 25 9.5 47.5t26.5 39.5t39 26.5t48 9.5q25 0 47.5 -9.5t39 -26.5t26.5 -39.5t10 -47.5zM635 1237q0 -26 -9.5 -48t-26.5 -39t-39.5 -26.5t-47.5 -9.5q-26 0 -48 9.5 t-39 26.5t-26.5 39t-9.5 48q0 25 9.5 47.5t26.5 39.5t39 26.5t48 9.5q25 0 47.5 -9.5t39.5 -26.5t26.5 -39.5t9.5 -47.5z"/>
<glyph glyph-name="copyright" horiz-adv-x="1538" unicode="©" d="M1022 391q0 -12 -6.5 -19t-14.5 -12q-40 -24 -98 -37.5t-123 -13.5q-64 0 -120 18.5t-98 63t-66.5 117.5t-24.5 182q0 77 19 143.5t58.5 115t99.5 76.5t143 28q35 0 66.5 -5t57 -12.5t44 -15.5t28.5 -14q17 -12 17 -27q0 -7 -7 -23l-34 -77q-8 -16 -22 -21t-23 0 q-33 17 -61.5 25t-63.5 8q-76 0 -109 -57.5t-33 -155.5q0 -56 10 -95.5t27.5 -64.5t41 -36t50.5 -11q18 0 34 1t33 5t36.5 11.5t44.5 19.5q12 6 26.5 3.5t22.5 -19.5l41 -86q4 -10 4 -15zM1282 682q0 115 -37 216.5t-104 177t-161.5 119.5t-209.5 44t-209.5 -44 t-161.5 -119.5t-104 -177t-37 -216.5t37 -216.5t104 -177t161.5 -119.5t209.5 -44t209.5 44t161.5 119.5t104 177t37 216.5zM1444 682q0 -98 -23 -188.5t-65 -169t-102.5 -143.5t-135 -111t-162.5 -71.5t-186 -25.5t-186 24t-162.5 68.5t-135 107.5t-102.5 142t-65 171.5 t-23 195.5q0 98 23 188.5t65 169t102.5 143.5t135 111t162.5 71.5t186 25.5q147 0 270.5 -53t213 -147t140 -224.5t50.5 -284.5z"/>
<glyph glyph-name="ordfeminine" horiz-adv-x="690" unicode="ª" d="M408 1001q-87 -3 -125.5 -26t-38.5 -70q0 -17 5 -28t13 -17.5t17 -9t18 -2.5q23 0 45 9.5t39 25.5q14 9 20.5 22t6.5 33v63zM596 764q0 -22 -11 -35.5t-36 -13.5h-78q-29 0 -40 13t-11 36v4q-32 -29 -77 -47.5t-97 -18.5q-45 0 -80.5 15t-60 41.5t-37.5 63t-13 79.5 q0 75 32.5 121t83 71.5t111 34.5t117.5 11h9v32q0 66 -68 66q-46 0 -88 -14t-76 -31q-14 -6 -27.5 -4.5t-21.5 18.5l-37 80q-3 6 -4.5 12t-1.5 9q0 19 20 32q22 11 51 21t61.5 18t67.5 12.5t70 4.5q57 0 102 -11.5t76 -37t47.5 -66t16.5 -98.5v-418z"/>
<glyph glyph-name="guillemotleft" horiz-adv-x="1096" unicode="«" d="M575 150q0 -11 -8 -20.5t-20 -18.5l-92 -52q-14 -9 -22 -11.5t-13 -2.5q-11 0 -20 4t-23 23l-268 342q-10 12 -16.5 28.5t-6.5 42.5q0 25 8.5 44t18.5 30l274 342q14 19 23 23t20 4q5 0 13 -2.5t22 -12.5l82 -51q12 -9 20 -18.5t8 -20.5q0 -8 -5 -19t-13 -22l-215 -284 l215 -308q8 -11 13 -21.5t5 -18.5zM1012 150q0 -11 -8.5 -20.5t-20.5 -18.5l-92 -52q-14 -9 -22 -11.5t-13 -2.5q-11 0 -20 4t-23 23l-268 342q-10 12 -16.5 28.5t-6.5 42.5q0 25 9 44t18 30l274 342q14 19 23 23t20 4q5 0 13 -2.5t22 -12.5l82 -51q12 -9 20.5 -18.5 t8.5 -20.5q0 -8 -5.5 -19t-13.5 -22l-215 -284l215 -308q8 -11 13.5 -21.5t5.5 -18.5z"/>
<glyph glyph-name="logicalnot" horiz-adv-x="1061" unicode="¬" d="M975 401q0 -29 -15 -44t-42 -15h-125q-28 0 -44 13t-16 42v285h-586q-59 0 -59 57v115q0 28 13 43.5t42 15.5h777q29 0 42 -15.5t13 -43.5v-453z"/>
<glyph glyph-name="uni00ad" horiz-adv-x="616" unicode="­" d="M571 436q0 -28 -13.5 -43.5t-45.5 -15.5h-406q-59 0 -59 57v135q0 28 13 44t42 16h414q29 0 42 -16t13 -44v-133z"/>
<glyph glyph-name="registered" horiz-adv-x="1538" unicode="®" d="M1282 682q0 115 -37 216.5t-104 177t-161.5 119.5t-209.5 44t-209.5 -44t-161.5 -119.5t-104 -177t-37 -216.5t37 -216.5t104 -177t161.5 -119.5t209.5 -44t209.5 44t161.5 119.5t104 177t37 216.5zM1444 682q0 -98 -23 -188.5t-65 -169t-102.5 -143.5t-135 -111 t-162.5 -71.5t-186 -25.5t-186 24t-162.5 68.5t-135 107.5t-102.5 142t-65 171.5t-23 195.5q0 98 23 188.5t65 169t102.5 143.5t135 111t162.5 71.5t186 25.5q147 0 270.5 -53t213 -147t140 -224.5t50.5 -284.5zM860 819q0 45 -31.5 64.5t-103.5 19.5h-33v-158h41 q68 0 97.5 19.5t29.5 54.5zM1053 360q0 -12 -7.5 -20t-27.5 -8h-111q-20 0 -35 9.5t-24 29.5l-119 233h-37v-223q0 -49 -47 -49h-74q-26 0 -36.5 13t-10.5 36v614q0 22 10.5 35.5t36.5 13.5h179q58 0 108 -10t86.5 -34.5t57 -67.5t20.5 -109q0 -38 -11 -70t-29 -56.5 t-41.5 -41.5t-47.5 -26l147 -238q5 -8 9 -16t4 -15z"/>
<glyph glyph-name="macron" horiz-adv-x="682" unicode="¯" d="M94 1143q-59 0 -59 57v68q0 28 13 43.5t42 15.5h504q29 0 42 -15.5t13 -43.5v-66q0 -28 -13 -43.5t-42 -15.5h-500z"/>
<glyph glyph-name="degree" horiz-adv-x="733" unicode="°" d="M485 1108q0 54 -30.5 89.5t-87.5 35.5t-89 -35.5t-32 -89.5q0 -26 8.5 -48t24 -39t38 -26.5t50.5 -9.5q57 0 87.5 35t30.5 88zM649 1108q0 -60 -22.5 -111.5t-60.5 -90t-89.5 -60t-109.5 -21.5q-62 0 -114 21.5t-89 60t-57.5 90t-20.5 111.5q0 61 22 114t60.5 91t89.5 60 t109 22q63 0 115 -22t89 -60t57.5 -91t20.5 -114z"/>
<glyph glyph-name="plusminus" horiz-adv-x="1063" unicode="±" d="M977 59q0 -27 -13.5 -43t-45.5 -16h-771q-59 0 -59 57v115q0 28 13 43.5t42 15.5h779q29 0 42 -15.5t13 -43.5v-113zM977 758q0 -28 -13.5 -44t-45.5 -16h-261v-239q0 -60 -57 -60h-125q-28 0 -43.5 13.5t-15.5 42.5v243h-269q-59 0 -59 58v114q0 28 13 44t42 16h273v241 q0 29 15.5 42.5t43.5 13.5h123q28 0 43.5 -14t15.5 -46v-237h265q29 0 42 -16t13 -44v-112z"/>
<glyph glyph-name="twosuperior" horiz-adv-x="674" unicode="²" d="M610 686q0 -26 -12.5 -36.5t-34.5 -10.5h-450q-25 0 -36 12.5t-11 34.5v55q0 30 24 56q60 60 114 109t105 100q48 48 66 84t18 65q0 38 -27 59t-67 21q-37 0 -69.5 -9.5t-61.5 -25.5q-17 -9 -32.5 -4.5t-29.5 27.5l-28 51q-6 12 -6 22q0 22 28 41q15 10 36.5 20.5 t49.5 18.5t64.5 13.5t81.5 5.5q67 0 114.5 -18.5t77.5 -49.5t44 -70.5t14 -82.5q0 -66 -32 -124.5t-83 -115.5q-31 -35 -66.5 -69t-72.5 -66h235q22 0 34.5 -12.5t12.5 -36.5v-64z"/>
<glyph glyph-name="threesuperior" horiz-adv-x="690" unicode="³" d="M606 854q0 -54 -21.5 -98t-59.5 -75.5t-90 -49t-113 -17.5q-33 0 -66 4.5t-62.5 13t-54.5 19.5t-43 23q-14 11 -22 22t-8 25t8 29l26 49q16 29 36.5 32t41.5 -10q22 -12 55 -25.5t76 -13.5q48 0 76.5 17.5t28.5 60.5q0 23 -8.5 38t-22.5 24t-31.5 12.5t-36.5 3.5h-65 q-28 0 -42.5 15.5t-14.5 41.5v49q0 58 57 58h67q15 0 31 4t29 13t21 23t8 34q0 17 -9.5 27.5t-23.5 16t-31.5 7.5t-32.5 2q-32 0 -63 -12t-49 -23q-22 -12 -43 -9t-35 32q-6 11 -15 25.5t-14 25.5q-6 12 -6 24q0 29 33 49q15 11 39 20.5t52 17t58.5 12t59.5 4.5 q55 0 104 -12.5t86 -37.5t58.5 -62.5t21.5 -86.5q0 -22 -6.5 -46t-20.5 -46t-38 -41.5t-58 -32.5q71 -18 102 -63t31 -113z"/>
<glyph glyph-name="acute" horiz-adv-x="668" unicode="´" d="M584 1352q0 -17 -25 -39l-182 -170q-19 -17 -37.5 -26t-46.5 -9h-111q-24 0 -24 16q0 7 5 16.5t13 20.5l109 158q20 29 41.5 38t56.5 9h174q27 0 27 -14z"/>
<glyph glyph-name="mu" d="M893 68q0 -32 -16 -50t-50 -18h-114q-38 0 -54 17.5t-16 48.5v65q-14 -20 -38.5 -45.5t-57 -48t-72 -38t-84.5 -15.5h-14t-12 2v-293q0 -31 -15.5 -48.5t-50.5 -17.5h-137q-32 0 -48 18t-16 50v1235q0 31 15.5 48t50.5 17h137q64 0 64 -67v-609q0 -52 21.5 -75t55.5 -23 q35 0 70.5 18.5t62.5 49.5q15 16 25 30t16 30t8.5 35.5t2.5 47.5v494q0 34 14.5 51.5t56.5 17.5h125q38 0 54 -17.5t16 -49.5v-860z" unicode="µ"/>
<glyph glyph-name="paragraph" horiz-adv-x="1262" unicode="¶" d="M1239 1182q0 -28 -13.5 -44t-45.5 -16h-78v-1429q0 -31 -16 -48.5t-48 -17.5h-88q-32 0 -47.5 17.5t-15.5 48.5v1429h-131v-1429q0 -31 -16 -48.5t-48 -17.5h-88q-32 0 -47.5 17.5t-15.5 48.5v805q-42 -7 -67.5 -8t-51.5 -1q-88 0 -158 32.5t-118.5 90t-74.5 138 t-26 176.5q0 101 32.5 182.5t97 138.5t160.5 88t222 31h627q29 0 42 -16t13 -43v-125z"/>
<glyph glyph-name="periodcentered" horiz-adv-x="510" unicode="·" d="M412 682q0 -32 -12.5 -60.5t-33.5 -49.5t-49.5 -33.5t-60.5 -12.5t-60.5 12.5t-49.5 33.5t-33.5 49.5t-12.5 60.5t12.5 60.5t33.5 49.5t49.5 33.5t60.5 12.5t60.5 -12.5t49.5 -33.5t33.5 -49.5t12.5 -60.5z"/>
<glyph glyph-name="cedilla" horiz-adv-x="567" unicode="¸" d="M508 -203q0 -52 -19.5 -90t-54.5 -62.5t-84 -36t-108 -11.5q-42 0 -87 6.5t-92 29.5q-22 14 -22 33q0 7 6 21l37 80q8 17 22 18.5t29 -4.5q34 -13 62.5 -18t50.5 -5q35 0 50 8.5t15 26.5q0 19 -11 29t-34 18q-11 3 -23.5 6t-31.5 7q-26 5 -39.5 12t-13.5 29q0 8 6 20 l53 100h184l-32 -67q8 -2 16 -4.5t16 -5.5q56 -20 80.5 -58t24.5 -82z"/>
<glyph glyph-name="onesuperior" horiz-adv-x="713" unicode="¹" d="M475 694q0 -23 -14 -39t-45 -16h-72q-29 0 -44 15.5t-15 39.5v492l-88 -29q-22 -6 -40 -2t-30 33l-25 57q-6 15 -6 27q0 28 35 41l174 67q16 8 33.5 11.5t34.5 3.5h43q28 0 43.5 -15t15.5 -43v-643z"/>
<glyph glyph-name="ordmasculine" horiz-adv-x="694" unicode="º" d="M446 1047q0 35 -4 68.5t-14.5 59t-30.5 41t-51 15.5q-29 0 -48 -15.5t-29.5 -41t-14.5 -59t-4 -68.5q0 -34 4 -66.5t14.5 -58t29.5 -41t48 -15.5q31 0 51 15.5t30.5 41t14.5 58t4 66.5zM641 1051q0 -64 -16.5 -126.5t-52.5 -112t-92 -80t-134 -30.5q-76 0 -131 30 t-90.5 79t-52.5 112t-17 128q0 63 17 124.5t52.5 110.5t90.5 79t131 30q78 0 134 -30.5t92 -79.5t52.5 -110.5t16.5 -123.5z"/>
<glyph glyph-name="guillemotright" horiz-adv-x="1096" unicode="»" d="M575 487q0 -24 -8.5 -43t-17.5 -30l-275 -342q-14 -19 -23 -23t-20 -4q-5 0 -12.5 2.5t-21.5 11.5l-82 52q-13 9 -21 18.5t-8 20.5q0 8 5 18.5t13 21.5l215 285l-215 307q-8 11 -13 22t-5 19q0 11 8 20.5t21 18.5l92 51q14 10 22 12.5t13 2.5q11 0 20 -4t23 -23l268 -342 q9 -12 15.5 -29t6.5 -43zM1012 487q0 -24 -9 -43t-18 -30l-274 -342q-14 -19 -23 -23t-20 -4q-5 0 -13 2.5t-22 11.5l-82 52q-12 9 -20.5 18.5t-8.5 20.5q0 8 5.5 18.5t13.5 21.5l215 285l-215 307q-8 11 -13.5 22t-5.5 19q0 11 8.5 20.5t20.5 18.5l92 51q14 10 22 12.5 t13 2.5q11 0 20 -4t23 -23l268 -342q9 -12 16 -29t7 -43z"/>
<glyph glyph-name="onequarter" horiz-adv-x="1559" unicode="¼" d="M1196 483l-174 -207h162zM1454 180q0 -29 -15.5 -44t-41.5 -15h-31v-94q0 -23 -16 -39.5t-45 -16.5h-62q-31 0 -45 15.5t-14 40.5v94h-299q-28 0 -44 13.5t-16 45.5v47q0 16 6 33t15 31l323 393q14 20 33.5 31.5t42.5 11.5h60q29 0 45 -15.5t16 -43.5v-392h31 q25 0 41 -13.5t16 -45.5v-37zM1178 1370q0 -11 -4.5 -22t-12.5 -25l-647 -1307q-19 -37 -34.5 -51t-43.5 -14h-129q-12 0 -21.5 6.5t-9.5 17.5t4.5 22.5t12.5 25.5l647 1306q19 37 34.5 51.5t43.5 14.5h129q12 0 21.5 -7t9.5 -18zM457 694q0 -23 -14.5 -39t-45.5 -16h-71 q-29 0 -44.5 15.5t-15.5 39.5v492l-88 -29q-21 -6 -39 -2t-30 33l-25 57q-6 15 -6 27q0 29 35 41l174 67q15 8 32.5 11.5t34.5 3.5h43q28 0 44 -15t16 -43v-643z"/>
<glyph glyph-name="onehalf" horiz-adv-x="1559" unicode="½" d="M477 694q0 -23 -14 -39t-45 -16h-72q-29 0 -44 15.5t-15 39.5v492l-88 -29q-22 -6 -40 -2t-30 33l-25 57q-6 15 -6 27q0 28 35 41l174 67q16 7 33.5 11t34.5 4h43q28 0 43.5 -15t15.5 -43v-643zM1178 1370q0 -11 -4.5 -22t-12.5 -25l-647 -1307q-19 -37 -34.5 -51 t-43.5 -14h-129q-12 0 -21.5 6.5t-9.5 17.5t4.5 22.5t12.5 25.5l647 1306q19 37 34.5 51.5t43.5 14.5h129q12 0 21.5 -7t9.5 -18zM1470 47q0 -26 -12.5 -36.5t-34.5 -10.5h-450q-25 0 -36 12.5t-11 34.5v55q0 30 24 56q60 60 114 109t105 100q48 48 66 84t18 65q0 38 -27 59 t-67 21q-37 0 -69.5 -9.5t-61.5 -25.5q-17 -9 -32 -4.5t-29 27.5l-29 51q-6 12 -6 22q0 23 29 41q30 20 85 39t146 19q67 0 114.5 -18.5t77.5 -49.5t44 -70.5t14 -82.5q0 -65 -32 -124t-83 -116q-31 -35 -66.5 -69t-72.5 -66h235q22 0 34.5 -12.5t12.5 -36.5v-64z"/>
<glyph glyph-name="threequarters" horiz-adv-x="1559" unicode="¾" d="M1217 483l-175 -207h162zM1475 180q0 -29 -16 -44t-42 -15h-31v-94q0 -23 -16 -39.5t-45 -16.5h-61q-31 0 -45.5 15.5t-14.5 40.5v94h-299q-28 0 -43.5 13.5t-15.5 45.5v47q0 16 5.5 33t14.5 31l324 393q14 20 33.5 31.5t42.5 11.5h59q29 0 45 -15.5t16 -43.5v-392h31 q25 0 41.5 -13.5t16.5 -45.5v-37zM1198 1370q0 -11 -4 -22t-12 -25l-647 -1307q-19 -37 -34.5 -51t-43.5 -14h-129q-13 0 -22 6.5t-9 17.5t4 22.5t12 25.5l648 1306q18 37 33.5 51.5t43.5 14.5h129q13 0 22 -7t9 -18zM575 854q0 -54 -21.5 -98t-59 -75.5t-90 -49 t-113.5 -17.5q-33 0 -65.5 4.5t-62 13t-54.5 19.5t-43 23q-14 11 -22.5 22t-8.5 25t8 29l27 49q15 29 35.5 32t41.5 -10q22 -12 55 -25.5t77 -13.5q48 0 76 17.5t28 60.5q0 23 -8.5 38t-22 24t-31.5 12.5t-36 3.5h-66q-28 0 -42.5 15.5t-14.5 41.5v49q0 58 57 58h68 q15 0 31 4t28.5 13t20.5 23t8 34q0 17 -9.5 27.5t-23.5 16t-31 7.5t-32 2q-32 0 -63.5 -12t-49.5 -23q-22 -12 -43 -9t-35 32q-6 11 -15 25.5t-14 25.5q-6 12 -6 24q0 29 33 49q15 11 39 20.5t52 17t58.5 12t59.5 4.5q55 0 104 -12.5t86 -37.5t58.5 -62.5t21.5 -86.5 q0 -22 -6 -46t-20.5 -46t-38 -41.5t-58.5 -32.5q72 -18 102.5 -63t30.5 -113z"/>
<glyph glyph-name="questiondown" horiz-adv-x="850" unicode="¿" d="M846 -242q0 -11 -9 -19t-32 -22q-34 -20 -76.5 -39.5t-91.5 -35.5t-103.5 -25.5t-111.5 -9.5q-93 0 -162.5 23.5t-116 66.5t-69.5 101.5t-23 129.5q0 56 15 101t40.5 82.5t57.5 70t67 64.5q32 29 55.5 49.5t39 42.5t23 51t7.5 76v45q0 38 15.5 54t44.5 16h108 q28 0 44 -16t16 -56v-105q0 -53 -13.5 -94t-35.5 -74t-49.5 -59.5t-55.5 -50.5q-24 -21 -46.5 -41.5t-39.5 -42.5t-27 -46.5t-10 -53.5q0 -48 33.5 -74.5t99.5 -26.5q32 0 64.5 8t63.5 20.5t59 27.5t51 30q37 23 56 20.5t36 -34.5l57 -105q7 -11 13 -26t6 -23zM618 856 q0 -32 -12 -60.5t-33 -49.5t-49.5 -33.5t-60.5 -12.5t-60.5 12.5t-49.5 33.5t-33.5 49.5t-12.5 60.5t12.5 60.5t33.5 49.5t49.5 33.5t60.5 12.5t60.5 -12.5t49.5 -33.5t33 -49.5t12 -60.5z"/>
<glyph glyph-name="Agrave" horiz-adv-x="1188" unicode="À" d="M584 938l-148 -449h295zM1176 31q0 -14 -13 -22.5t-33 -8.5h-186q-28 0 -45 16t-27 45l-61 187h-453l-61 -185q-11 -32 -27.5 -47.5t-44.5 -15.5h-166q-18 0 -31.5 8.5t-13.5 22.5q0 20 4 30.5t9 24.5l424 1235q11 31 27.5 45t45.5 14h135q29 0 46 -14t28 -45l428 -1233 q6 -17 10.5 -28.5t4.5 -28.5zM707 1495q0 -16 -25 -16h-110q-28 0 -47 9t-37 26l-182 170q-25 21 -25 39q0 14 27 14h174q35 0 56.5 -9t41.5 -38l109 -158q8 -11 13 -20.5t5 -16.5z"/>
<glyph glyph-name="Aacute" horiz-adv-x="1188" unicode="Á" d="M584 938l-148 -449h295zM1176 31q0 -14 -13 -22.5t-33 -8.5h-186q-28 0 -45 16t-27 45l-61 187h-453l-61 -185q-11 -32 -27.5 -47.5t-44.5 -15.5h-166q-18 0 -31.5 8.5t-13.5 22.5q0 20 4 30.5t9 24.5l424 1235q11 31 27.5 45t45.5 14h135q29 0 46 -14t28 -45l428 -1233 q6 -17 10.5 -28.5t4.5 -28.5zM897 1723q0 -17 -25 -39l-182 -170q-19 -17 -37.5 -26t-46.5 -9h-111q-24 0 -24 16q0 7 5 16.5t13 20.5l109 158q20 29 41.5 38t56.5 9h174q27 0 27 -14z"/>
<glyph glyph-name="Acircumflex" horiz-adv-x="1188" unicode="Â" d="M584 938l-148 -449h295zM1176 31q0 -14 -13 -22.5t-33 -8.5h-186q-28 0 -45 16t-27 45l-61 187h-453l-61 -185q-11 -32 -27.5 -47.5t-44.5 -15.5h-166q-18 0 -31.5 8.5t-13.5 22.5q0 20 4 30.5t9 24.5l424 1235q11 31 27.5 45t45.5 14h135q29 0 46 -14t28 -45l428 -1233 q6 -17 10.5 -28.5t4.5 -28.5zM915 1495q0 -16 -26 -16h-123q-15 0 -25.5 1.5t-19 5t-18 10.5t-23.5 18l-94 78l-95 -78q-14 -11 -23.5 -18t-19 -10.5t-19.5 -5t-24 -1.5h-108q-25 0 -25 16q0 7 5.5 15.5t13.5 19.5l131 160q20 25 39 36t51 11h164q23 0 43 -8.5t43 -36.5 l133 -162q9 -12 14.5 -22t5.5 -13z"/>
<glyph glyph-name="Atilde" horiz-adv-x="1188" unicode="Ã" d="M584 938l-148 -449h295zM1176 31q0 -14 -13 -22.5t-33 -8.5h-186q-28 0 -45 16t-27 45l-61 187h-453l-61 -185q-11 -32 -27.5 -47.5t-44.5 -15.5h-166q-18 0 -31.5 8.5t-13.5 22.5q0 20 4 30.5t9 24.5l424 1235q11 31 27.5 45t45.5 14h135q29 0 46 -14t28 -45l428 -1233 q6 -17 10.5 -28.5t4.5 -28.5zM912 1710q0 -12 -2.5 -33.5t-10 -47t-20 -52.5t-32.5 -48.5t-48.5 -35.5t-66.5 -14t-77.5 13.5t-75 30t-65.5 30.5t-50 14q-15 0 -24.5 -6.5t-16 -16t-10 -20.5t-5.5 -20q-2 -13 -8.5 -19t-23.5 -6h-72q-25 0 -25 27q0 12 2.5 34t10 47.5 t20.5 52t33.5 48.5t49 35.5t67.5 13.5q37 0 76 -14t75 -30.5t66.5 -30t50.5 -13.5q14 0 23.5 6.5t15.5 16t9 20.5t5 20q2 14 10 19.5t19 5.5h76q24 0 24 -27z"/>
<glyph glyph-name="Adieresis" horiz-adv-x="1188" unicode="Ä" d="M584 938l-148 -449h295zM1176 31q0 -14 -13 -22.5t-33 -8.5h-186q-28 0 -45 16t-27 45l-61 187h-453l-61 -185q-11 -32 -27.5 -47.5t-44.5 -15.5h-166q-18 0 -31.5 8.5t-13.5 22.5q0 20 4 30.5t9 24.5l424 1235q11 31 27.5 45t45.5 14h135q29 0 46 -14t28 -45l428 -1233 q6 -17 10.5 -28.5t4.5 -28.5zM541 1608q0 -26 -10 -48t-26.5 -39t-39 -26.5t-47.5 -9.5q-26 0 -48 9.5t-39 26.5t-26.5 39t-9.5 48q0 25 9.5 47.5t26.5 39.5t39 26.5t48 9.5q25 0 47.5 -9.5t39 -26.5t26.5 -39.5t10 -47.5zM895 1608q0 -26 -9.5 -48t-26.5 -39t-39.5 -26.5 t-47.5 -9.5q-26 0 -48 9.5t-39 26.5t-26.5 39t-9.5 48q0 25 9.5 47.5t26.5 39.5t39 26.5t48 9.5q25 0 47.5 -9.5t39.5 -26.5t26.5 -39.5t9.5 -47.5z"/>
<glyph glyph-name="Aring" horiz-adv-x="1188" unicode="Å" d="M584 938l-148 -449h295zM1176 31q0 -14 -13 -22.5t-33 -8.5h-186q-28 0 -45 16t-27 45l-61 187h-453l-61 -185q-11 -32 -27.5 -47.5t-44.5 -15.5h-166q-18 0 -31.5 8.5t-13.5 22.5q0 20 4 30.5t9 24.5l424 1235q11 31 27.5 45t45.5 14h135q29 0 46 -14t28 -45l428 -1233 q6 -17 10.5 -28.5t4.5 -28.5zM680 1630q0 19 -7 35t-19 28t-28 18.5t-34 6.5q-38 0 -61 -24t-25 -64q0 -38 25 -64t61 -26q18 0 34 7t28 19t19 28.5t7 35.5zM784 1630q0 -41 -15 -75t-40.5 -59.5t-61 -39.5t-75.5 -14q-44 0 -79 14t-59.5 39.5t-37.5 59.5t-13 75t14 75 t39.5 59t60 38.5t75.5 13.5q43 0 78.5 -13.5t61 -38.5t39 -59t13.5 -75z"/>
<glyph glyph-name="AE" horiz-adv-x="1573" unicode="Æ" d="M692 1124h-12l-211 -569h223v569zM1507 63q0 -32 -17 -47.5t-48 -15.5h-686q-32 0 -48 17.5t-16 48.5v247h-313l-92 -252q-11 -31 -30 -46t-42 -15h-162q-26 0 -37.5 8.5t-11.5 22.5q0 8 2.5 22.5t7.5 28.5l459 1194q19 46 41 68t64 22h841q31 0 48.5 -15.5t17.5 -47.5 v-115q0 -32 -17.5 -48t-48.5 -16h-448v-293h368q31 0 48.5 -15.5t17.5 -47.5v-115q0 -32 -17.5 -47.5t-48.5 -15.5h-368v-336h471q31 0 48 -16t17 -48v-127z"/>
<glyph glyph-name="Ccedilla" horiz-adv-x="1081" unicode="Ç" d="M1053 98q0 -9 -4.5 -16t-20.5 -16q-29 -15 -68 -30.5t-86.5 -28.5t-100.5 -22t-109 -12l-23 -47q16 -3 33 -10q56 -20 80 -58t24 -81q0 -52 -19.5 -90t-54.5 -62.5t-84 -36.5t-108 -12q-42 0 -87 7t-91 30q-23 12 -23 33q0 8 6 20l37 80q8 17 22 19t30 -5q34 -12 62 -17 t50 -5q35 0 50.5 8t15.5 27q0 18 -11 28.5t-34 18.5q-11 3 -24 6t-32 6q-26 5 -39.5 12t-13.5 29q0 7 6 21l49 92q-89 20 -165 71t-132 138t-88 212t-32 293q0 139 34 265t105 221.5t179.5 152t258.5 56.5q64 0 120 -9t101.5 -21.5t79 -27t51.5 -24.5q13 -8 17 -15.5 t4 -13.5t-2 -13t-8 -20l-68 -153q-9 -20 -25.5 -26.5t-31.5 1.5q-6 3 -28 14.5t-54 23.5t-72 22t-82 10q-78 0 -134 -35.5t-91 -98t-51.5 -147t-16.5 -182.5q0 -113 20.5 -198.5t57 -143t85.5 -86.5t106 -29q37 0 81 5.5t84 21.5q42 15 66.5 27t50.5 26q19 9 35.5 6 t24.5 -20l75 -158q5 -8 9 -17.5t4 -15.5z"/>
<glyph glyph-name="Egrave" horiz-adv-x="1022" unicode="È" d="M956 63q0 -32 -17 -47.5t-48 -15.5h-686q-32 0 -48 17.5t-16 48.5v1234q0 31 16 48.5t48 17.5h663q31 0 48.5 -15.5t17.5 -47.5v-115q0 -32 -17.5 -48t-48.5 -16h-448v-293h368q31 0 48.5 -15.5t17.5 -47.5v-115q0 -32 -17.5 -47.5t-48.5 -15.5h-368v-336h471 q31 0 48 -16t17 -48v-127zM692 1495q0 -16 -25 -16h-110q-28 0 -47 9t-37 26l-182 170q-25 21 -25 39q0 14 27 14h174q35 0 56.5 -9t41.5 -38l109 -158q8 -11 13 -20.5t5 -16.5z"/>
<glyph glyph-name="Eacute" horiz-adv-x="1022" unicode="É" d="M956 63q0 -32 -17 -47.5t-48 -15.5h-686q-32 0 -48 17.5t-16 48.5v1234q0 31 16 48.5t48 17.5h663q31 0 48.5 -15.5t17.5 -47.5v-115q0 -32 -17.5 -48t-48.5 -16h-448v-293h368q31 0 48.5 -15.5t17.5 -47.5v-115q0 -32 -17.5 -47.5t-48.5 -15.5h-368v-336h471 q31 0 48 -16t17 -48v-127zM793 1723q0 -17 -25 -39l-182 -170q-19 -17 -37.5 -26t-46.5 -9h-111q-24 0 -24 16q0 7 5 16.5t13 20.5l109 158q20 29 41.5 38t56.5 9h174q27 0 27 -14z"/>
<glyph glyph-name="Ecircumflex" horiz-adv-x="1022" unicode="Ê" d="M956 63q0 -32 -17 -47.5t-48 -15.5h-686q-32 0 -48 17.5t-16 48.5v1234q0 31 16 48.5t48 17.5h663q31 0 48.5 -15.5t17.5 -47.5v-115q0 -32 -17.5 -48t-48.5 -16h-448v-293h368q31 0 48.5 -15.5t17.5 -47.5v-115q0 -32 -17.5 -47.5t-48.5 -15.5h-368v-336h471 q31 0 48 -16t17 -48v-127zM864 1495q0 -16 -26 -16h-123q-15 0 -25.5 1.5t-19 5t-18 10.5t-23.5 18l-94 78l-95 -78q-14 -11 -23.5 -18t-19 -10.5t-19.5 -5t-24 -1.5h-108q-25 0 -25 16q0 7 5.5 15.5t13.5 19.5l131 160q20 25 39 36t51 11h164q23 0 43 -8.5t43 -36.5 l133 -162q9 -12 14.5 -22t5.5 -13z"/>
<glyph glyph-name="Edieresis" horiz-adv-x="1022" unicode="Ë" d="M956 63q0 -32 -17 -47.5t-48 -15.5h-686q-32 0 -48 17.5t-16 48.5v1234q0 31 16 48.5t48 17.5h663q31 0 48.5 -15.5t17.5 -47.5v-115q0 -32 -17.5 -48t-48.5 -16h-448v-293h368q31 0 48.5 -15.5t17.5 -47.5v-115q0 -32 -17.5 -47.5t-48.5 -15.5h-368v-336h471 q31 0 48 -16t17 -48v-127zM479 1608q0 -26 -10 -48t-26.5 -39t-39 -26.5t-47.5 -9.5q-26 0 -48 9.5t-39 26.5t-26.5 39t-9.5 48q0 25 9.5 47.5t26.5 39.5t39 26.5t48 9.5q25 0 47.5 -9.5t39 -26.5t26.5 -39.5t10 -47.5zM833 1608q0 -26 -9.5 -48t-26.5 -39t-39.5 -26.5 t-47.5 -9.5q-26 0 -48 9.5t-39 26.5t-26.5 39t-9.5 48q0 25 9.5 47.5t26.5 39.5t39 26.5t48 9.5q25 0 47.5 -9.5t39.5 -26.5t26.5 -39.5t9.5 -47.5z"/>
<glyph glyph-name="Igrave" horiz-adv-x="559" unicode="Ì" d="M420 66q0 -31 -16 -48.5t-48 -17.5h-151q-32 0 -48 17.5t-16 48.5v1234q0 31 16 48.5t48 17.5h151q32 0 48 -17.5t16 -48.5v-1234zM412 1495q0 -16 -25 -16h-110q-28 0 -47 9t-37 26l-182 170q-25 21 -25 39q0 14 27 14h174q35 0 56.5 -9t41.5 -38l109 -158 q8 -11 13 -20.5t5 -16.5z"/>
<glyph glyph-name="Iacute" horiz-adv-x="559" unicode="Í" d="M420 66q0 -31 -16 -48.5t-48 -17.5h-151q-32 0 -48 17.5t-16 48.5v1234q0 31 16 48.5t48 17.5h151q32 0 48 -17.5t16 -48.5v-1234zM569 1723q0 -17 -25 -39l-182 -170q-19 -17 -37.5 -26t-46.5 -9h-111q-24 0 -24 16q0 7 5 16.5t13 20.5l109 158q20 29 41.5 38t56.5 9 h174q27 0 27 -14z"/>
<glyph glyph-name="Icircumflex" horiz-adv-x="559" unicode="Î" d="M420 66q0 -31 -16 -48.5t-48 -17.5h-151q-32 0 -48 17.5t-16 48.5v1234q0 31 16 48.5t48 17.5h151q32 0 48 -17.5t16 -48.5v-1234zM604 1495q0 -16 -26 -16h-123q-15 0 -25.5 1.5t-19 5t-18 10.5t-23.5 18l-94 78l-95 -78q-14 -11 -23.5 -18t-19 -10.5t-19.5 -5t-24 -1.5 h-108q-25 0 -25 16q0 7 5.5 15.5t13.5 19.5l131 160q20 25 39 36t51 11h164q23 0 43 -8.5t43 -36.5l133 -162q9 -12 14.5 -22t5.5 -13z"/>
<glyph glyph-name="Idieresis" horiz-adv-x="559" unicode="Ï" d="M420 66q0 -31 -16 -48.5t-48 -17.5h-151q-32 0 -48 17.5t-16 48.5v1234q0 31 16 48.5t48 17.5h151q32 0 48 -17.5t16 -48.5v-1234zM228 1608q0 -26 -10 -48t-26.5 -39t-39 -26.5t-47.5 -9.5q-26 0 -48 9.5t-39 26.5t-26.5 39t-9.5 48q0 25 9.5 47.5t26.5 39.5t39 26.5 t48 9.5q25 0 47.5 -9.5t39 -26.5t26.5 -39.5t10 -47.5zM582 1608q0 -26 -9.5 -48t-26.5 -39t-39.5 -26.5t-47.5 -9.5q-26 0 -48 9.5t-39 26.5t-26.5 39t-9.5 48q0 25 9.5 47.5t26.5 39.5t39 26.5t48 9.5q25 0 47.5 -9.5t39.5 -26.5t26.5 -39.5t9.5 -47.5z"/>
<glyph glyph-name="Eth" horiz-adv-x="1186" unicode="Ð" d="M834 680q0 230 -82.5 339t-262.5 109h-69v-303h139q29 0 42 -15.5t13 -43.5v-133q0 -28 -13.5 -44t-45.5 -16h-135v-327h69q100 0 166.5 31t106 88t56 137t16.5 178zM1120 670q0 -138 -35 -259.5t-110 -213t-193 -144.5t-284 -53h-293q-32 0 -48 17.5t-16 48.5v507h-88 q-59 0 -59 58v135q0 28 13 43.5t42 15.5h92v475q0 31 16 48.5t48 17.5h309q172 0 288.5 -54t187 -148t100.5 -221t30 -273z"/>
<glyph glyph-name="Ntilde" horiz-adv-x="1257" unicode="Ñ" d="M1118 66q0 -31 -15.5 -48.5t-47.5 -17.5h-152q-34 0 -52 12.5t-32 38.5l-407 776v-761q0 -66 -64 -66h-143q-34 0 -49 18.5t-15 47.5v1234q0 66 64 66h168q29 0 47.5 -10t34.5 -39l393 -750v733q0 66 63 66h144q32 0 47.5 -17.5t15.5 -48.5v-1234zM932 1710 q0 -12 -2.5 -33.5t-10 -47t-20 -52.5t-32.5 -48.5t-48.5 -35.5t-66.5 -14t-77.5 13.5t-75 30t-65.5 30.5t-50 14q-15 0 -24.5 -6.5t-16 -16t-10 -20.5t-5.5 -20q-2 -13 -8.5 -19t-23.5 -6h-72q-25 0 -25 27q0 12 2.5 34t10 47.5t20.5 52t33.5 48.5t49 35.5t67.5 13.5 q37 0 76 -14t75 -30.5t66.5 -30t50.5 -13.5q14 0 23.5 6.5t15.5 16t9 20.5t5 20q2 14 10 19.5t19 5.5h76q24 0 24 -27z"/>
<glyph glyph-name="Ograve" horiz-adv-x="1167" unicode="Ò" d="M815 682q0 47 -3 100t-11.5 104t-24 97.5t-41 82t-62.5 56.5t-87 21q-51 0 -88 -21t-63 -56.5t-42 -82t-24.5 -97.5t-11.5 -104t-3 -100t3 -99.5t11.5 -103.5t24.5 -97t42 -81.5t63 -56.5t88 -21q50 0 87 21t62.5 56.5t41 82t24 97.5t11.5 103t3 99zM1102 682 q0 -81 -9.5 -165t-33 -163t-61.5 -149t-95.5 -122t-135.5 -82t-181 -30q-104 0 -183 30t-136.5 82t-95.5 122t-61 149t-32.5 163t-9.5 165t9.5 166t32.5 164t61 149t95.5 122t135.5 82t182 30t182.5 -30t136 -82t96 -122t61.5 -149t32.5 -164t9.5 -166zM715 1495 q0 -16 -25 -16h-110q-28 0 -47 9t-37 26l-182 170q-25 21 -25 39q0 14 27 14h174q35 0 56.5 -9t41.5 -38l109 -158q8 -11 13 -20.5t5 -16.5z"/>
<glyph glyph-name="Oacute" horiz-adv-x="1167" unicode="Ó" d="M815 682q0 47 -3 100t-11.5 104t-24 97.5t-41 82t-62.5 56.5t-87 21q-51 0 -88 -21t-63 -56.5t-42 -82t-24.5 -97.5t-11.5 -104t-3 -100t3 -99.5t11.5 -103.5t24.5 -97t42 -81.5t63 -56.5t88 -21q50 0 87 21t62.5 56.5t41 82t24 97.5t11.5 103t3 99zM1102 682 q0 -81 -9.5 -165t-33 -163t-61.5 -149t-95.5 -122t-135.5 -82t-181 -30q-104 0 -183 30t-136.5 82t-95.5 122t-61 149t-32.5 163t-9.5 165t9.5 166t32.5 164t61 149t95.5 122t135.5 82t182 30t182.5 -30t136 -82t96 -122t61.5 -149t32.5 -164t9.5 -166zM858 1723 q0 -17 -25 -39l-182 -170q-19 -17 -37.5 -26t-46.5 -9h-111q-24 0 -24 16q0 7 5 16.5t13 20.5l109 158q20 29 41.5 38t56.5 9h174q27 0 27 -14z"/>
<glyph glyph-name="Ocircumflex" horiz-adv-x="1167" unicode="Ô" d="M815 682q0 47 -3 100t-11.5 104t-24 97.5t-41 82t-62.5 56.5t-87 21q-51 0 -88 -21t-63 -56.5t-42 -82t-24.5 -97.5t-11.5 -104t-3 -100t3 -99.5t11.5 -103.5t24.5 -97t42 -81.5t63 -56.5t88 -21q50 0 87 21t62.5 56.5t41 82t24 97.5t11.5 103t3 99zM1102 682 q0 -81 -9.5 -165t-33 -163t-61.5 -149t-95.5 -122t-135.5 -82t-181 -30q-104 0 -183 30t-136.5 82t-95.5 122t-61 149t-32.5 163t-9.5 165t9.5 166t32.5 164t61 149t95.5 122t135.5 82t182 30t182.5 -30t136 -82t96 -122t61.5 -149t32.5 -164t9.5 -166zM905 1495 q0 -16 -26 -16h-123q-15 0 -25.5 1.5t-19 5t-18 10.5t-23.5 18l-94 78l-95 -78q-14 -11 -23.5 -18t-19 -10.5t-19.5 -5t-24 -1.5h-108q-25 0 -25 16q0 7 5.5 15.5t13.5 19.5l131 160q20 25 39 36t51 11h164q23 0 43 -8.5t43 -36.5l133 -162q9 -12 14.5 -22t5.5 -13z"/>
<glyph glyph-name="Otilde" horiz-adv-x="1167" unicode="Õ" d="M815 682q0 47 -3 100t-11.5 104t-24 97.5t-41 82t-62.5 56.5t-87 21q-51 0 -88 -21t-63 -56.5t-42 -82t-24.5 -97.5t-11.5 -104t-3 -100t3 -99.5t11.5 -103.5t24.5 -97t42 -81.5t63 -56.5t88 -21q50 0 87 21t62.5 56.5t41 82t24 97.5t11.5 103t3 99zM1102 682 q0 -81 -9.5 -165t-33 -163t-61.5 -149t-95.5 -122t-135.5 -82t-181 -30q-104 0 -183 30t-136.5 82t-95.5 122t-61 149t-32.5 163t-9.5 165t9.5 166t32.5 164t61 149t95.5 122t135.5 82t182 30t182.5 -30t136 -82t96 -122t61.5 -149t32.5 -164t9.5 -166zM901 1710 q0 -12 -2.5 -33.5t-10 -47t-20 -52.5t-32.5 -48.5t-48.5 -35.5t-66.5 -14t-77.5 13.5t-75 30t-65.5 30.5t-50 14q-15 0 -24.5 -6.5t-16 -16t-10 -20.5t-5.5 -20q-2 -13 -8.5 -19t-23.5 -6h-72q-25 0 -25 27q0 12 2.5 34t10 47.5t20.5 52t33.5 48.5t49 35.5t67.5 13.5 q37 0 76 -14t75 -30.5t66.5 -30t50.5 -13.5q14 0 23.5 6.5t15.5 16t9 20.5t5 20q2 14 10 19.5t19 5.5h76q24 0 24 -27z"/>
<glyph glyph-name="Odieresis" horiz-adv-x="1167" unicode="Ö" d="M815 682q0 47 -3 100t-11.5 104t-24 97.5t-41 82t-62.5 56.5t-87 21q-51 0 -88 -21t-63 -56.5t-42 -82t-24.5 -97.5t-11.5 -104t-3 -100t3 -99.5t11.5 -103.5t24.5 -97t42 -81.5t63 -56.5t88 -21q50 0 87 21t62.5 56.5t41 82t24 97.5t11.5 103t3 99zM1102 682 q0 -81 -9.5 -165t-33 -163t-61.5 -149t-95.5 -122t-135.5 -82t-181 -30q-104 0 -183 30t-136.5 82t-95.5 122t-61 149t-32.5 163t-9.5 165t9.5 166t32.5 164t61 149t95.5 122t135.5 82t182 30t182.5 -30t136 -82t96 -122t61.5 -149t32.5 -164t9.5 -166zM535 1608 q0 -26 -10 -48t-26.5 -39t-39 -26.5t-47.5 -9.5q-26 0 -48 9.5t-39 26.5t-26.5 39t-9.5 48q0 25 9.5 47.5t26.5 39.5t39 26.5t48 9.5q25 0 47.5 -9.5t39 -26.5t26.5 -39.5t10 -47.5zM889 1608q0 -26 -9.5 -48t-26.5 -39t-39.5 -26.5t-47.5 -9.5q-26 0 -48 9.5t-39 26.5 t-26.5 39t-9.5 48q0 25 9.5 47.5t26.5 39.5t39 26.5t48 9.5q25 0 47.5 -9.5t39.5 -26.5t26.5 -39.5t9.5 -47.5z"/>
<glyph glyph-name="multiply" horiz-adv-x="1147" unicode="×" d="M981 412q9 -11 14.5 -21.5t5.5 -21.5t-5.5 -20.5t-14.5 -18.5l-72 -74q-11 -11 -21.5 -17t-21.5 -6q-18 0 -37 21l-256 254l-249 -248q-11 -11 -20.5 -16.5t-20.5 -5.5q-21 0 -41 20l-72 72q-23 23 -23 43q0 18 19 39l252 252l-248 249q-20 19 -20 37q0 21 22 43l72 72 q11 11 20.5 16.5t20.5 5.5q19 0 43 -22l245 -246l252 252q21 19 39 19q20 0 43 -23l70 -70q22 -22 22 -43q0 -11 -5.5 -20.5t-16.5 -20.5l-248 -249z"/>
<glyph glyph-name="Oslash" horiz-adv-x="1167" unicode="Ø" d="M354 682q0 -43 2 -90.5t9 -93.5l358 581q-25 29 -58.5 46.5t-78.5 17.5q-51 0 -88 -21t-63 -56.5t-42 -82t-24.5 -97.5t-11.5 -104t-3 -100zM815 682q0 45 -2 95t-10 100l-361 -586q25 -31 60.5 -49.5t83.5 -18.5q50 0 87 21t62.5 56.5t41 82t24 97.5t11.5 103t3 99z M1094 1370q0 -11 -4.5 -22t-12.5 -25l-90 -145q32 -53 54 -113t35.5 -124t19.5 -129.5t6 -129.5q0 -81 -9.5 -165t-33 -163t-61.5 -149t-95.5 -122t-135.5 -82t-181 -30q-91 0 -162 23t-125 63l-12 -20q-11 -18 -19.5 -30.5t-16.5 -20.5t-18 -11.5t-24 -3.5h-109 q-12 0 -21 7t-9 18t4 22t12 25l92 150q-32 52 -53 111.5t-33.5 122.5t-18 127.5t-5.5 127.5q0 81 9.5 166t32.5 164t61 149t95.5 122t135.5 82t182 30q88 0 157.5 -22t124.5 -62l11 18q21 35 35.5 50.5t41.5 15.5h109q12 0 21.5 -7t9.5 -18z"/>
<glyph glyph-name="Ugrave" horiz-adv-x="1194" unicode="Ù" d="M1075 459q0 -129 -39 -221.5t-106 -151.5t-157 -87t-191 -28q-102 0 -187.5 32.5t-146.5 94t-95 150.5t-34 201v851q0 31 16 48.5t48 17.5h151q32 0 48 -17.5t16 -48.5v-841q0 -63 15.5 -108t42.5 -73.5t63.5 -41.5t78.5 -13q39 0 75 12.5t63.5 40t44 72t16.5 109.5v843 q0 31 15.5 48.5t47.5 17.5h152q32 0 47.5 -17.5t15.5 -48.5v-841zM752 1495q0 -16 -25 -16h-110q-28 0 -47 9t-37 26l-182 170q-25 21 -25 39q0 14 27 14h174q35 0 56.5 -9t41.5 -38l109 -158q8 -11 13 -20.5t5 -16.5z"/>
<glyph glyph-name="Uacute" horiz-adv-x="1194" unicode="Ú" d="M1075 459q0 -129 -39 -221.5t-106 -151.5t-157 -87t-191 -28q-102 0 -187.5 32.5t-146.5 94t-95 150.5t-34 201v851q0 31 16 48.5t48 17.5h151q32 0 48 -17.5t16 -48.5v-841q0 -63 15.5 -108t42.5 -73.5t63.5 -41.5t78.5 -13q39 0 75 12.5t63.5 40t44 72t16.5 109.5v843 q0 31 15.5 48.5t47.5 17.5h152q32 0 47.5 -17.5t15.5 -48.5v-841zM840 1723q0 -17 -25 -39l-182 -170q-19 -17 -37.5 -26t-46.5 -9h-111q-24 0 -24 16q0 7 5 16.5t13 20.5l109 158q20 29 41.5 38t56.5 9h174q27 0 27 -14z"/>
<glyph glyph-name="Ucircumflex" horiz-adv-x="1194" unicode="Û" d="M1075 459q0 -129 -39 -221.5t-106 -151.5t-157 -87t-191 -28q-102 0 -187.5 32.5t-146.5 94t-95 150.5t-34 201v851q0 31 16 48.5t48 17.5h151q32 0 48 -17.5t16 -48.5v-841q0 -63 15.5 -108t42.5 -73.5t63.5 -41.5t78.5 -13q39 0 75 12.5t63.5 40t44 72t16.5 109.5v843 q0 31 15.5 48.5t47.5 17.5h152q32 0 47.5 -17.5t15.5 -48.5v-841zM928 1495q0 -16 -26 -16h-123q-15 0 -25.5 1.5t-19 5t-18 10.5t-23.5 18l-94 78l-95 -78q-14 -11 -23.5 -18t-19 -10.5t-19.5 -5t-24 -1.5h-108q-25 0 -25 16q0 7 5.5 15.5t13.5 19.5l131 160q20 25 39 36 t51 11h164q23 0 43 -8.5t43 -36.5l133 -162q9 -12 14.5 -22t5.5 -13z"/>
<glyph glyph-name="Udieresis" horiz-adv-x="1194" unicode="Ü" d="M1075 459q0 -129 -39 -221.5t-106 -151.5t-157 -87t-191 -28q-102 0 -187.5 32.5t-146.5 94t-95 150.5t-34 201v851q0 31 16 48.5t48 17.5h151q32 0 48 -17.5t16 -48.5v-841q0 -63 15.5 -108t42.5 -73.5t63.5 -41.5t78.5 -13q39 0 75 12.5t63.5 40t44 72t16.5 109.5v843 q0 31 15.5 48.5t47.5 17.5h152q32 0 47.5 -17.5t15.5 -48.5v-841zM553 1608q0 -26 -10 -48t-26.5 -39t-39 -26.5t-47.5 -9.5q-26 0 -48 9.5t-39 26.5t-26.5 39t-9.5 48q0 25 9.5 47.5t26.5 39.5t39 26.5t48 9.5q25 0 47.5 -9.5t39 -26.5t26.5 -39.5t10 -47.5zM907 1608 q0 -26 -9.5 -48t-26.5 -39t-39.5 -26.5t-47.5 -9.5q-26 0 -48 9.5t-39 26.5t-26.5 39t-9.5 48q0 25 9.5 47.5t26.5 39.5t39 26.5t48 9.5q25 0 47.5 -9.5t39.5 -26.5t26.5 -39.5t9.5 -47.5z"/>
<glyph glyph-name="Yacute" horiz-adv-x="1006" unicode="Ý" d="M1034 1337q0 -8 -6 -22t-12 -27l-363 -745v-477q0 -31 -15.5 -48.5t-47.5 -17.5h-152q-32 0 -47.5 17.5t-15.5 48.5v473l-375 753q-5 10 -10.5 23.5t-5.5 21.5q0 13 9.5 21t31.5 8h202q52 0 82 -68l209 -460l205 460q12 29 32.5 48.5t49.5 19.5h188q41 0 41 -29z M793 1723q0 -17 -25 -39l-182 -170q-19 -17 -37.5 -26t-46.5 -9h-111q-24 0 -24 16q0 7 5 16.5t13 20.5l109 158q20 29 41.5 38t56.5 9h174q27 0 27 -14z"/>
<glyph glyph-name="Thorn" horiz-adv-x="1075" unicode="Þ" d="M735 686q0 47 -11.5 83.5t-39.5 61t-74 37.5t-116 13h-74v-387h90q61 0 103.5 13.5t69.5 38t39.5 60t12.5 80.5zM1022 684q0 -117 -38.5 -198t-102.5 -130.5t-146 -71.5t-170 -22h-145v-196q0 -31 -16 -48.5t-48 -17.5h-151q-32 0 -48 17.5t-16 48.5v1234q0 31 16 48.5 t48 17.5h151q32 0 48 -17.5t16 -48.5v-188h119q95 0 182.5 -19.5t154 -68.5t106.5 -131.5t40 -208.5z"/>
<glyph glyph-name="germandbls" horiz-adv-x="1063" unicode="ß" d="M1032 295q0 -75 -26 -132.5t-73.5 -96.5t-114.5 -59.5t-148 -20.5q-53 0 -108.5 7.5t-92.5 24.5q-14 7 -20.5 16.5t-6.5 18.5q0 11 2 19.5t7 19.5l36 105q7 17 16 23.5t21 6.5q8 0 18 -2.5t19 -5.5t23 -5.5t29 -4.5t29.5 -3t25.5 -1q21 0 42 3.5t37.5 13t26.5 26.5t10 43 q0 66 -163 182q-37 26 -66.5 52t-49.5 54.5t-31 61.5t-11 74q0 27 6 52.5t19.5 51.5t34 53.5t50.5 59.5q51 52 77 92t26 78q0 40 -33 68t-98 28q-30 0 -59 -5.5t-52 -24.5t-37 -55.5t-14 -98.5v-951q0 -30 -14 -46.5t-45 -16.5h-146q-31 0 -46 16.5t-15 46.5v928 q0 124 34 207t92.5 133.5t137.5 72t170 21.5q31 0 66 -4t69.5 -12.5t67.5 -21.5t61 -31q32 -21 55 -46.5t37.5 -52.5t21.5 -53.5t7 -48.5q0 -77 -24.5 -134.5t-73.5 -111.5q-37 -40 -59.5 -65t-35 -41.5t-16.5 -28t-4 -24.5q0 -19 7.5 -34.5t24 -32.5t42.5 -38t63 -49 q95 -74 133.5 -148.5t38.5 -152.5z"/>
<glyph glyph-name="agrave" horiz-adv-x="965" unicode="à" d="M602 436q-139 -6 -204.5 -43t-65.5 -112q0 -29 9 -47t23 -29t30.5 -15t31.5 -4q35 0 67.5 14.5t63.5 39.5q22 17 33.5 37t11.5 51v108zM868 66q0 -29 -14 -47.5t-51 -18.5h-115q-38 0 -54 18t-16 50v26q-49 -49 -118 -79.5t-156 -30.5q-65 0 -116.5 21.5t-87.5 60 t-55 91.5t-19 117q0 75 23 130t62.5 94t92 63t111 38t119.5 19.5t118 6.5h10v61q-3 53 -29.5 79t-85.5 26q-74 0 -137 -21t-112 -47q-20 -11 -36.5 -7.5t-25.5 23.5l-61 127q-6 12 -6 25q0 25 28 37q34 17 77 32t91 26.5t100 18.5t103 7q85 0 152 -16.5t113 -54t70.5 -97 t24.5 -144.5v-634zM635 1124q0 -16 -25 -16h-110q-28 0 -47 9t-37 26l-182 170q-25 21 -25 39q0 14 27 14h174q35 0 56.5 -9t41.5 -38l109 -158q8 -11 13 -20.5t5 -16.5z"/>
<glyph glyph-name="aacute" horiz-adv-x="965" unicode="á" d="M602 436q-139 -6 -204.5 -43t-65.5 -112q0 -29 9 -47t23 -29t30.5 -15t31.5 -4q35 0 67.5 14.5t63.5 39.5q22 17 33.5 37t11.5 51v108zM868 66q0 -29 -14 -47.5t-51 -18.5h-115q-38 0 -54 18t-16 50v26q-49 -49 -118 -79.5t-156 -30.5q-65 0 -116.5 21.5t-87.5 60 t-55 91.5t-19 117q0 75 23 130t62.5 94t92 63t111 38t119.5 19.5t118 6.5h10v61q-3 53 -29.5 79t-85.5 26q-74 0 -137 -21t-112 -47q-20 -11 -36.5 -7.5t-25.5 23.5l-61 127q-6 12 -6 25q0 25 28 37q34 17 77 32t91 26.5t100 18.5t103 7q85 0 152 -16.5t113 -54t70.5 -97 t24.5 -144.5v-634zM768 1352q0 -17 -25 -39l-182 -170q-19 -17 -37.5 -26t-46.5 -9h-111q-24 0 -24 16q0 7 5 16.5t13 20.5l109 158q20 29 41.5 38t56.5 9h174q27 0 27 -14z"/>
<glyph glyph-name="acircumflex" horiz-adv-x="965" unicode="â" d="M602 436q-139 -6 -204.5 -43t-65.5 -112q0 -29 9 -47t23 -29t30.5 -15t31.5 -4q35 0 67.5 14.5t63.5 39.5q22 17 33.5 37t11.5 51v108zM868 66q0 -29 -14 -47.5t-51 -18.5h-115q-38 0 -54 18t-16 50v26q-49 -49 -118 -79.5t-156 -30.5q-65 0 -116.5 21.5t-87.5 60 t-55 91.5t-19 117q0 75 23 130t62.5 94t92 63t111 38t119.5 19.5t118 6.5h10v61q-3 53 -29.5 79t-85.5 26q-74 0 -137 -21t-112 -47q-20 -11 -36.5 -7.5t-25.5 23.5l-61 127q-6 12 -6 25q0 25 28 37q34 17 77 32t91 26.5t100 18.5t103 7q85 0 152 -16.5t113 -54t70.5 -97 t24.5 -144.5v-634zM817 1124q0 -16 -26 -16h-123q-15 0 -25.5 1.5t-19 5t-18 10.5t-23.5 18l-94 78l-95 -78q-14 -11 -23.5 -18t-19 -10.5t-19.5 -5t-24 -1.5h-108q-25 0 -25 16q0 7 5.5 15.5t13.5 19.5l131 160q20 25 39 36t51 11h164q23 0 43 -8.5t43 -36.5l133 -162 q9 -12 14.5 -22t5.5 -13z"/>
<glyph glyph-name="atilde" horiz-adv-x="965" unicode="ã" d="M602 436q-139 -6 -204.5 -43t-65.5 -112q0 -29 9 -47t23 -29t30.5 -15t31.5 -4q35 0 67.5 14.5t63.5 39.5q22 17 33.5 37t11.5 51v108zM868 66q0 -29 -14 -47.5t-51 -18.5h-115q-38 0 -54 18t-16 50v26q-49 -49 -118 -79.5t-156 -30.5q-65 0 -116.5 21.5t-87.5 60 t-55 91.5t-19 117q0 75 23 130t62.5 94t92 63t111 38t119.5 19.5t118 6.5h10v61q-3 53 -29.5 79t-85.5 26q-74 0 -137 -21t-112 -47q-20 -11 -36.5 -7.5t-25.5 23.5l-61 127q-6 12 -6 25q0 25 28 37q34 17 77 32t91 26.5t100 18.5t103 7q85 0 152 -16.5t113 -54t70.5 -97 t24.5 -144.5v-634zM799 1339q0 -12 -2.5 -33.5t-10 -47t-20 -52.5t-32.5 -48.5t-48.5 -35.5t-66.5 -14t-77.5 13.5t-75 30t-65.5 30.5t-50 14q-15 0 -24.5 -6.5t-16 -16t-10 -20.5t-5.5 -20q-2 -13 -8.5 -19t-23.5 -6h-72q-25 0 -25 27q0 12 2.5 34t10 47.5t20.5 52 t33.5 48.5t49 35.5t67.5 13.5q37 0 76 -14t75 -30.5t66.5 -30t50.5 -13.5q14 0 23.5 6.5t15.5 16t9 20.5t5 20q2 14 10 19.5t19 5.5h76q24 0 24 -27z"/>
<glyph glyph-name="adieresis" horiz-adv-x="965" unicode="ä" d="M602 436q-139 -6 -204.5 -43t-65.5 -112q0 -29 9 -47t23 -29t30.5 -15t31.5 -4q35 0 67.5 14.5t63.5 39.5q22 17 33.5 37t11.5 51v108zM868 66q0 -29 -14 -47.5t-51 -18.5h-115q-38 0 -54 18t-16 50v26q-49 -49 -118 -79.5t-156 -30.5q-65 0 -116.5 21.5t-87.5 60 t-55 91.5t-19 117q0 75 23 130t62.5 94t92 63t111 38t119.5 19.5t118 6.5h10v61q-3 53 -29.5 79t-85.5 26q-74 0 -137 -21t-112 -47q-20 -11 -36.5 -7.5t-25.5 23.5l-61 127q-6 12 -6 25q0 25 28 37q34 17 77 32t91 26.5t100 18.5t103 7q85 0 152 -16.5t113 -54t70.5 -97 t24.5 -144.5v-634zM428 1237q0 -26 -10 -48t-26.5 -39t-39 -26.5t-47.5 -9.5q-26 0 -48 9.5t-39 26.5t-26.5 39t-9.5 48q0 25 9.5 47.5t26.5 39.5t39 26.5t48 9.5q25 0 47.5 -9.5t39 -26.5t26.5 -39.5t10 -47.5zM782 1237q0 -26 -9.5 -48t-26.5 -39t-39.5 -26.5t-47.5 -9.5 q-26 0 -48 9.5t-39 26.5t-26.5 39t-9.5 48q0 25 9.5 47.5t26.5 39.5t39 26.5t48 9.5q25 0 47.5 -9.5t39.5 -26.5t26.5 -39.5t9.5 -47.5z"/>
<glyph glyph-name="aring" horiz-adv-x="965" unicode="å" d="M602 436q-139 -6 -204.5 -43t-65.5 -112q0 -29 9 -47t23 -29t30.5 -15t31.5 -4q35 0 67.5 14.5t63.5 39.5q22 17 33.5 37t11.5 51v108zM868 66q0 -29 -14 -47.5t-51 -18.5h-115q-38 0 -54 18t-16 50v26q-49 -49 -118 -79.5t-156 -30.5q-65 0 -116.5 21.5t-87.5 60 t-55 91.5t-19 117q0 75 23 130t62.5 94t92 63t111 38t119.5 19.5t118 6.5h10v61q-3 53 -29.5 79t-85.5 26q-74 0 -137 -21t-112 -47q-20 -11 -36.5 -7.5t-25.5 23.5l-61 127q-6 12 -6 25q0 25 28 37q34 17 77 32t91 26.5t100 18.5t103 7q85 0 152 -16.5t113 -54t70.5 -97 t24.5 -144.5v-634zM582 1259q0 19 -7 35t-19 28t-28 18.5t-34 6.5q-38 0 -61 -24t-25 -64q0 -38 25 -64t61 -26q18 0 34 7t28 19t19 28.5t7 35.5zM686 1259q0 -41 -15 -75t-40.5 -59.5t-61 -39.5t-75.5 -14q-44 0 -79 14t-59.5 39.5t-37.5 59.5t-13 75t14 75t39.5 59 t60 38.5t75.5 13.5q43 0 78.5 -13.5t61 -38.5t39 -59t13.5 -75z"/>
<glyph glyph-name="ae" horiz-adv-x="1475" unicode="æ" d="M602 430q-140 0 -205 -37t-65 -112q0 -26 10 -43.5t24.5 -28t31.5 -15t32 -4.5q35 0 65.5 8.5t61.5 32.5q45 36 45 97v102zM1145 614q-2 40 -11 73.5t-25.5 57.5t-41 37t-57.5 13q-32 0 -57.5 -9t-45 -30t-31.5 -55.5t-16 -86.5h285zM1421 483q0 -23 -13 -38t-38 -15 h-512v-6q0 -40 7.5 -79.5t27.5 -70.5t54.5 -50t88.5 -19q56 0 108 14.5t83 30.5q37 17 57.5 20.5t34.5 -22.5l57 -103q8 -12 12.5 -22.5t4.5 -18.5q0 -11 -7.5 -19t-21.5 -17q-65 -38 -153.5 -61t-184.5 -23q-100 0 -180.5 37t-126.5 102q-35 -44 -74.5 -71t-82 -42 t-85.5 -20.5t-84 -5.5q-81 0 -142.5 21.5t-102.5 60t-61.5 91.5t-20.5 117q0 75 23.5 130t63.5 93t93 62t112 37t120 17.5t118 4.5h6v68q0 105 -115 105q-74 0 -137 -21t-112 -47q-20 -11 -36.5 -7.5t-25.5 23.5l-61 127q-6 12 -6 25q0 25 28 37q34 17 77 32t91 26.5 t100 18.5t103 7q90 0 153 -19.5t109 -70.5q46 45 109.5 67.5t140.5 22.5q90 0 164 -32t126.5 -97.5t81.5 -165t29 -234.5z"/>
<glyph glyph-name="ccedilla" horiz-adv-x="897" unicode="ç" d="M860 104q0 -12 -9 -22t-28 -21q-43 -26 -110.5 -47.5t-157.5 -27.5l-25 -45q8 -2 16.5 -5t16.5 -6q56 -20 80.5 -58t24.5 -81q0 -52 -19.5 -90t-55 -62.5t-84.5 -36.5t-108 -12q-42 0 -86.5 7t-91.5 30q-22 13 -22 33q0 7 6 21l37 79q8 17 21.5 19t29.5 -4 q34 -13 62.5 -18t50.5 -5q35 0 50 8t15 27t-11 29t-34 18q-11 3 -24 6t-31 6q-26 5 -40 12.5t-14 28.5q0 7 7 21l49 92q-65 17 -121.5 55t-98 100.5t-65.5 150t-24 202.5q0 102 27 193.5t81 160.5t135 109.5t189 40.5q47 0 86 -4t73.5 -11.5t66.5 -19.5t64 -27 q19 -9 28 -19.5t9 -27.5q0 -9 -4 -21.5t-10 -23.5l-51 -98q-14 -26 -29.5 -28t-38.5 9q-24 12 -44 19.5t-38.5 12.5t-37.5 7t-42 2q-50 0 -85 -22.5t-57.5 -61t-33 -90.5t-10.5 -112q0 -56 9.5 -107.5t31 -90.5t56 -62t83.5 -23q59 0 102.5 13.5t82.5 33.5q34 17 51.5 15 t30.5 -25l59 -111q5 -9 7.5 -15t2.5 -20z"/>
<glyph glyph-name="egrave" horiz-adv-x="961" unicode="è" d="M631 606q-2 40 -11 74.5t-25.5 60t-41 40t-57.5 14.5q-63 0 -102.5 -43t-47.5 -146h285zM907 473q0 -23 -13 -38t-38 -15h-512v-8q2 -40 10 -77.5t27.5 -66t53 -46t87.5 -17.5q56 0 108 14.5t83 30.5q37 17 57.5 20.5t34.5 -22.5l57 -103q8 -12 12.5 -22.5t4.5 -18.5 q0 -11 -7.5 -19t-21.5 -17q-65 -38 -153.5 -61t-184.5 -23q-125 0 -210 42.5t-137.5 112.5t-75.5 161t-23 189q0 67 10.5 132t32.5 123t57 107t84 85t112.5 56t143.5 20q90 0 163.5 -34t126.5 -101.5t82 -168.5t29 -235zM649 1124q0 -16 -25 -16h-110q-28 0 -47 9t-37 26 l-182 170q-25 21 -25 39q0 14 27 14h174q35 0 56.5 -9t41.5 -38l109 -158q8 -11 13 -20.5t5 -16.5z"/>
<glyph glyph-name="eacute" horiz-adv-x="961" unicode="é" d="M631 606q-2 40 -11 74.5t-25.5 60t-41 40t-57.5 14.5q-63 0 -102.5 -43t-47.5 -146h285zM907 473q0 -23 -13 -38t-38 -15h-512v-8q2 -40 10 -77.5t27.5 -66t53 -46t87.5 -17.5q56 0 108 14.5t83 30.5q37 17 57.5 20.5t34.5 -22.5l57 -103q8 -12 12.5 -22.5t4.5 -18.5 q0 -11 -7.5 -19t-21.5 -17q-65 -38 -153.5 -61t-184.5 -23q-125 0 -210 42.5t-137.5 112.5t-75.5 161t-23 189q0 67 10.5 132t32.5 123t57 107t84 85t112.5 56t143.5 20q90 0 163.5 -34t126.5 -101.5t82 -168.5t29 -235zM756 1352q0 -17 -25 -39l-182 -170 q-19 -17 -37.5 -26t-46.5 -9h-111q-24 0 -24 16q0 7 5 16.5t13 20.5l109 158q20 29 41.5 38t56.5 9h174q27 0 27 -14z"/>
<glyph glyph-name="ecircumflex" horiz-adv-x="961" unicode="ê" d="M631 606q-2 40 -11 74.5t-25.5 60t-41 40t-57.5 14.5q-63 0 -102.5 -43t-47.5 -146h285zM907 473q0 -23 -13 -38t-38 -15h-512v-8q2 -40 10 -77.5t27.5 -66t53 -46t87.5 -17.5q56 0 108 14.5t83 30.5q37 17 57.5 20.5t34.5 -22.5l57 -103q8 -12 12.5 -22.5t4.5 -18.5 q0 -11 -7.5 -19t-21.5 -17q-65 -38 -153.5 -61t-184.5 -23q-125 0 -210 42.5t-137.5 112.5t-75.5 161t-23 189q0 67 10.5 132t32.5 123t57 107t84 85t112.5 56t143.5 20q90 0 163.5 -34t126.5 -101.5t82 -168.5t29 -235zM813 1124q0 -16 -26 -16h-123q-15 0 -25.5 1.5t-19 5 t-18 10.5t-23.5 18l-94 78l-95 -78q-14 -11 -23.5 -18t-19 -10.5t-19.5 -5t-24 -1.5h-108q-25 0 -25 16q0 7 5.5 15.5t13.5 19.5l131 160q20 25 39 36t51 11h164q23 0 43 -8.5t43 -36.5l133 -162q9 -12 14.5 -22t5.5 -13z"/>
<glyph glyph-name="edieresis" horiz-adv-x="961" unicode="ë" d="M631 606q-2 40 -11 74.5t-25.5 60t-41 40t-57.5 14.5q-63 0 -102.5 -43t-47.5 -146h285zM907 473q0 -23 -13 -38t-38 -15h-512v-8q2 -40 10 -77.5t27.5 -66t53 -46t87.5 -17.5q56 0 108 14.5t83 30.5q37 17 57.5 20.5t34.5 -22.5l57 -103q8 -12 12.5 -22.5t4.5 -18.5 q0 -11 -7.5 -19t-21.5 -17q-65 -38 -153.5 -61t-184.5 -23q-125 0 -210 42.5t-137.5 112.5t-75.5 161t-23 189q0 67 10.5 132t32.5 123t57 107t84 85t112.5 56t143.5 20q90 0 163.5 -34t126.5 -101.5t82 -168.5t29 -235zM443 1237q0 -26 -10 -48t-26.5 -39t-39 -26.5 t-47.5 -9.5q-26 0 -48 9.5t-39 26.5t-26.5 39t-9.5 48q0 25 9.5 47.5t26.5 39.5t39 26.5t48 9.5q25 0 47.5 -9.5t39 -26.5t26.5 -39.5t10 -47.5zM797 1237q0 -26 -9.5 -48t-26.5 -39t-39.5 -26.5t-47.5 -9.5q-26 0 -48 9.5t-39 26.5t-26.5 39t-9.5 48q0 25 9.5 47.5 t26.5 39.5t39 26.5t48 9.5q25 0 47.5 -9.5t39.5 -26.5t26.5 -39.5t9.5 -47.5z"/>
<glyph glyph-name="igrave" horiz-adv-x="498" unicode="ì" d="M383 70q0 -34 -15 -52t-57 -18h-125q-38 0 -53.5 18t-15.5 50v860q0 67 65 67h131q39 0 54.5 -17t15.5 -48v-860zM418 1124q0 -16 -25 -16h-110q-28 0 -47 9t-37 26l-182 170q-25 21 -25 39q0 14 27 14h174q35 0 56.5 -9t41.5 -38l109 -158q8 -11 13 -20.5t5 -16.5z"/>
<glyph glyph-name="iacute" horiz-adv-x="498" unicode="í" d="M383 70q0 -34 -15 -52t-57 -18h-125q-38 0 -53.5 18t-15.5 50v860q0 67 65 67h131q39 0 54.5 -17t15.5 -48v-860zM508 1352q0 -17 -25 -39l-182 -170q-19 -17 -37.5 -26t-46.5 -9h-111q-24 0 -24 16q0 7 5 16.5t13 20.5l109 158q20 29 41.5 38t56.5 9h174q27 0 27 -14z "/>
<glyph glyph-name="icircumflex" horiz-adv-x="498" unicode="î" d="M383 70q0 -34 -15 -52t-57 -18h-125q-38 0 -53.5 18t-15.5 50v860q0 67 65 67h131q39 0 54.5 -17t15.5 -48v-860zM571 1124q0 -16 -26 -16h-123q-15 0 -25.5 1.5t-19 5t-18 10.5t-23.5 18l-94 78l-95 -78q-14 -11 -23.5 -18t-19 -10.5t-19.5 -5t-24 -1.5h-108 q-25 0 -25 16q0 7 5.5 15.5t13.5 19.5l131 160q20 25 39 36t51 11h164q23 0 43 -8.5t43 -36.5l133 -162q9 -12 14.5 -22t5.5 -13z"/>
<glyph glyph-name="idieresis" horiz-adv-x="498" unicode="ï" d="M383 70q0 -34 -15 -52t-57 -18h-125q-38 0 -53.5 18t-15.5 50v860q0 67 65 67h131q39 0 54.5 -17t15.5 -48v-860zM197 1237q0 -26 -10 -48t-26.5 -39t-39 -26.5t-47.5 -9.5q-26 0 -48 9.5t-39 26.5t-26.5 39t-9.5 48q0 25 9.5 47.5t26.5 39.5t39 26.5t48 9.5 q25 0 47.5 -9.5t39 -26.5t26.5 -39.5t10 -47.5zM551 1237q0 -26 -9.5 -48t-26.5 -39t-39.5 -26.5t-47.5 -9.5q-26 0 -48 9.5t-39 26.5t-26.5 39t-9.5 48q0 25 9.5 47.5t26.5 39.5t39 26.5t48 9.5q25 0 47.5 -9.5t39.5 -26.5t26.5 -39.5t9.5 -47.5z"/>
<glyph glyph-name="eth" horiz-adv-x="1006" unicode="ð" d="M653 496q0 55 -6 100t-23 77.5t-47.5 50t-78.5 17.5q-47 0 -77 -17.5t-47 -50t-23.5 -77.5t-6.5 -100q0 -53 6.5 -104t23.5 -91t47 -64t77 -24q48 0 78.5 24t47.5 64t23 91t6 104zM932 500q0 -96 -24.5 -188.5t-77 -165.5t-134.5 -117.5t-198 -44.5q-114 0 -196 38.5 t-134.5 107.5t-77 163.5t-24.5 206.5q0 87 23 170t73 147.5t130.5 104t194.5 39.5q7 0 18 -0.5t22.5 -1.5t22 -3t17.5 -4q-3 12 -12.5 31.5t-22 42.5t-27 45.5t-26.5 40.5l-121 -72q-18 -11 -32 -5t-23 22l-39 63q-10 15 -10 28q0 18 20 30l115 69q-12 16 -26 33.5t-29 35.5 t-29.5 36t-25.5 34q-5 7 -8 15t-3 14q0 8 7.5 12.5t15.5 4.5h190q19 0 33 -8.5t27 -20.5l49 -49l108 59q19 11 33.5 6.5t22.5 -18.5l39 -66q11 -17 8 -31.5t-25 -25.5l-84 -49q54 -78 98 -160t75.5 -171.5t49 -188t17.5 -209.5z"/>
<glyph glyph-name="ntilde" d="M903 66q0 -31 -15 -48.5t-50 -17.5h-138q-32 0 -47.5 18t-15.5 50v608q0 52 -22 75t-56 23q-35 0 -70 -18t-63 -49q-15 -16 -24.5 -30t-15.5 -30t-8.5 -36t-2.5 -48v-493q0 -34 -15 -52t-57 -18h-125q-38 0 -53.5 18t-15.5 50v860q0 67 65 67h115q38 0 53.5 -17t15.5 -48 v-66q19 22 46 47.5t64 48t83.5 37.5t103.5 15q248 0 248 -281v-665zM817 1339q0 -12 -2.5 -33.5t-10 -47t-20 -52.5t-32.5 -48.5t-48.5 -35.5t-66.5 -14t-77.5 13.5t-75 30t-65.5 30.5t-50 14q-15 0 -24.5 -6.5t-16 -16t-10 -20.5t-5.5 -20q-2 -13 -8.5 -19t-23.5 -6h-72 q-25 0 -25 27q0 12 2.5 34t10 47.5t20.5 52t33.5 48.5t49 35.5t67.5 13.5q37 0 76 -14t75 -30.5t66.5 -30t50.5 -13.5q14 0 23.5 6.5t15.5 16t9 20.5t5 20q2 14 10 19.5t19 5.5h76q24 0 24 -27z" unicode="ñ"/>
<glyph glyph-name="ograve" horiz-adv-x="995" unicode="ò" d="M653 496q0 55 -6 106.5t-23 91.5t-47.5 64t-78.5 24q-47 0 -77 -24t-47 -64t-23.5 -91.5t-6.5 -106.5q0 -53 6.5 -104t23.5 -91t47 -64t77 -24q48 0 78.5 24t47.5 64t23 91t6 104zM932 500q0 -96 -24.5 -188.5t-77 -165.5t-134.5 -117.5t-198 -44.5q-114 0 -196 44.5 t-134.5 117t-77 165t-24.5 189.5q0 95 24.5 187t77 164t134.5 116.5t196 44.5q77 0 139.5 -20.5t110.5 -56.5t83 -84.5t57.5 -105.5t33 -119.5t10.5 -125.5zM635 1124q0 -16 -25 -16h-110q-28 0 -47 9t-37 26l-182 170q-25 21 -25 39q0 14 27 14h174q35 0 56.5 -9t41.5 -38 l109 -158q8 -11 13 -20.5t5 -16.5z"/>
<glyph glyph-name="oacute" horiz-adv-x="995" unicode="ó" d="M653 496q0 55 -6 106.5t-23 91.5t-47.5 64t-78.5 24q-47 0 -77 -24t-47 -64t-23.5 -91.5t-6.5 -106.5q0 -53 6.5 -104t23.5 -91t47 -64t77 -24q48 0 78.5 24t47.5 64t23 91t6 104zM932 500q0 -96 -24.5 -188.5t-77 -165.5t-134.5 -117.5t-198 -44.5q-114 0 -196 44.5 t-134.5 117t-77 165t-24.5 189.5q0 95 24.5 187t77 164t134.5 116.5t196 44.5q77 0 139.5 -20.5t110.5 -56.5t83 -84.5t57.5 -105.5t33 -119.5t10.5 -125.5zM768 1352q0 -17 -25 -39l-182 -170q-19 -17 -37.5 -26t-46.5 -9h-111q-24 0 -24 16q0 7 5 16.5t13 20.5l109 158 q20 29 41.5 38t56.5 9h174q27 0 27 -14z"/>
<glyph glyph-name="ocircumflex" horiz-adv-x="995" unicode="ô" d="M653 496q0 55 -6 106.5t-23 91.5t-47.5 64t-78.5 24q-47 0 -77 -24t-47 -64t-23.5 -91.5t-6.5 -106.5q0 -53 6.5 -104t23.5 -91t47 -64t77 -24q48 0 78.5 24t47.5 64t23 91t6 104zM932 500q0 -96 -24.5 -188.5t-77 -165.5t-134.5 -117.5t-198 -44.5q-114 0 -196 44.5 t-134.5 117t-77 165t-24.5 189.5q0 95 24.5 187t77 164t134.5 116.5t196 44.5q77 0 139.5 -20.5t110.5 -56.5t83 -84.5t57.5 -105.5t33 -119.5t10.5 -125.5zM821 1124q0 -16 -26 -16h-123q-15 0 -25.5 1.5t-19 5t-18 10.5t-23.5 18l-94 78l-95 -78q-14 -11 -23.5 -18 t-19 -10.5t-19.5 -5t-24 -1.5h-108q-25 0 -25 16q0 7 5.5 15.5t13.5 19.5l131 160q20 25 39 36t51 11h164q23 0 43 -8.5t43 -36.5l133 -162q9 -12 14.5 -22t5.5 -13z"/>
<glyph glyph-name="otilde" horiz-adv-x="995" unicode="õ" d="M653 496q0 55 -6 106.5t-23 91.5t-47.5 64t-78.5 24q-47 0 -77 -24t-47 -64t-23.5 -91.5t-6.5 -106.5q0 -53 6.5 -104t23.5 -91t47 -64t77 -24q48 0 78.5 24t47.5 64t23 91t6 104zM932 500q0 -96 -24.5 -188.5t-77 -165.5t-134.5 -117.5t-198 -44.5q-114 0 -196 44.5 t-134.5 117t-77 165t-24.5 189.5q0 95 24.5 187t77 164t134.5 116.5t196 44.5q77 0 139.5 -20.5t110.5 -56.5t83 -84.5t57.5 -105.5t33 -119.5t10.5 -125.5zM815 1339q0 -12 -2.5 -33.5t-10 -47t-20 -52.5t-32.5 -48.5t-48.5 -35.5t-66.5 -14t-77.5 13.5t-75 30t-65.5 30.5 t-50 14q-15 0 -24.5 -6.5t-16 -16t-10 -20.5t-5.5 -20q-2 -13 -8.5 -19t-23.5 -6h-72q-25 0 -25 27q0 12 2.5 34t10 47.5t20.5 52t33.5 48.5t49 35.5t67.5 13.5q37 0 76 -14t75 -30.5t66.5 -30t50.5 -13.5q14 0 23.5 6.5t15.5 16t9 20.5t5 20q2 14 10 19.5t19 5.5h76 q24 0 24 -27z"/>
<glyph glyph-name="odieresis" horiz-adv-x="995" unicode="ö" d="M653 496q0 55 -6 106.5t-23 91.5t-47.5 64t-78.5 24q-47 0 -77 -24t-47 -64t-23.5 -91.5t-6.5 -106.5q0 -53 6.5 -104t23.5 -91t47 -64t77 -24q48 0 78.5 24t47.5 64t23 91t6 104zM932 500q0 -96 -24.5 -188.5t-77 -165.5t-134.5 -117.5t-198 -44.5q-114 0 -196 44.5 t-134.5 117t-77 165t-24.5 189.5q0 95 24.5 187t77 164t134.5 116.5t196 44.5q77 0 139.5 -20.5t110.5 -56.5t83 -84.5t57.5 -105.5t33 -119.5t10.5 -125.5zM445 1237q0 -26 -10 -48t-26.5 -39t-39 -26.5t-47.5 -9.5q-26 0 -48 9.5t-39 26.5t-26.5 39t-9.5 48q0 25 9.5 47.5 t26.5 39.5t39 26.5t48 9.5q25 0 47.5 -9.5t39 -26.5t26.5 -39.5t10 -47.5zM799 1237q0 -26 -9.5 -48t-26.5 -39t-39.5 -26.5t-47.5 -9.5q-26 0 -48 9.5t-39 26.5t-26.5 39t-9.5 48q0 25 9.5 47.5t26.5 39.5t39 26.5t48 9.5q25 0 47.5 -9.5t39.5 -26.5t26.5 -39.5t9.5 -47.5z "/>
<glyph glyph-name="divide" horiz-adv-x="1083" unicode="÷" d="M690 317q0 -30 -11.5 -57t-31.5 -47t-46.5 -31.5t-57.5 -11.5t-58 11.5t-47 31.5t-31.5 47t-11.5 57q0 31 11.5 58t31.5 47t47 31.5t58 11.5t57.5 -11.5t46.5 -31.5t31.5 -47t11.5 -58zM997 614q0 -27 -13.5 -43t-45.5 -16h-791q-59 0 -59 57v115q0 28 13 43.5t42 15.5 h799q29 0 42 -15.5t13 -43.5v-113zM690 1024q0 -31 -11.5 -57.5t-31.5 -46.5t-46.5 -31.5t-57.5 -11.5t-58 11.5t-47 31.5t-31.5 46.5t-11.5 57.5t11.5 57.5t31.5 46.5t47 31.5t58 11.5t57.5 -11.5t46.5 -31.5t31.5 -46.5t11.5 -57.5z"/>
<glyph glyph-name="oslash" horiz-adv-x="995" unicode="ø" d="M334 496q0 -9 0.5 -22t1.5 -26.5t2 -26t2 -20.5l248 347q-22 18 -44 26t-46 8q-47 0 -78.5 -24t-50.5 -64t-27 -91.5t-8 -106.5zM664 496q0 9 -1 23t-2 29t-3 29t-3 23l-249 -348q17 -20 41.5 -29.5t50.5 -9.5q48 0 80 24t51 64t27 91t8 104zM932 987q0 -11 -3.5 -23 t-13.5 -24l-75 -104q48 -72 70 -159.5t22 -176.5q0 -96 -24.5 -188.5t-77 -165.5t-134.5 -117.5t-198 -44.5q-68 0 -123.5 15.5t-102.5 43.5l-10 -12q-20 -23 -34.5 -35t-37.5 -12h-100q-12 0 -21.5 6.5t-9.5 17.5t3.5 23t13.5 24l78 109q-47 71 -67.5 158t-20.5 178 q0 95 24.5 187t77 164t134.5 116.5t196 44.5q66 0 121 -16t100 -44l8 13q17 26 34 36.5t40 10.5h100q13 0 22 -7t9 -18z"/>
<glyph glyph-name="ugrave" d="M893 68q0 -32 -16 -50t-50 -18h-114q-38 0 -54 17.5t-16 48.5v65q-18 -21 -45 -47t-64 -48t-83.5 -37t-104.5 -15q-248 0 -248 280v666q0 31 15.5 48t50.5 17h137q64 0 64 -67v-609q0 -52 21.5 -75t55.5 -23q35 0 70.5 18.5t62.5 49.5q15 16 25 30t16 30t8.5 35.5 t2.5 47.5v494q0 34 14.5 51.5t56.5 17.5h125q38 0 54 -17.5t16 -49.5v-860zM651 1124q0 -16 -25 -16h-110q-28 0 -47 9t-37 26l-182 170q-25 21 -25 39q0 14 27 14h174q35 0 56.5 -9t41.5 -38l109 -158q8 -11 13 -20.5t5 -16.5z" unicode="ù"/>
<glyph glyph-name="uacute" d="M893 68q0 -32 -16 -50t-50 -18h-114q-38 0 -54 17.5t-16 48.5v65q-18 -21 -45 -47t-64 -48t-83.5 -37t-104.5 -15q-248 0 -248 280v666q0 31 15.5 48t50.5 17h137q64 0 64 -67v-609q0 -52 21.5 -75t55.5 -23q35 0 70.5 18.5t62.5 49.5q15 16 25 30t16 30t8.5 35.5 t2.5 47.5v494q0 34 14.5 51.5t56.5 17.5h125q38 0 54 -17.5t16 -49.5v-860zM750 1352q0 -17 -25 -39l-182 -170q-19 -17 -37.5 -26t-46.5 -9h-111q-24 0 -24 16q0 7 5 16.5t13 20.5l109 158q20 29 41.5 38t56.5 9h174q27 0 27 -14z" unicode="ú"/>
<glyph glyph-name="ucircumflex" d="M893 68q0 -32 -16 -50t-50 -18h-114q-38 0 -54 17.5t-16 48.5v65q-18 -21 -45 -47t-64 -48t-83.5 -37t-104.5 -15q-248 0 -248 280v666q0 31 15.5 48t50.5 17h137q64 0 64 -67v-609q0 -52 21.5 -75t55.5 -23q35 0 70.5 18.5t62.5 49.5q15 16 25 30t16 30t8.5 35.5 t2.5 47.5v494q0 34 14.5 51.5t56.5 17.5h125q38 0 54 -17.5t16 -49.5v-860zM821 1124q0 -16 -26 -16h-123q-15 0 -25.5 1.5t-19 5t-18 10.5t-23.5 18l-94 78l-95 -78q-14 -11 -23.5 -18t-19 -10.5t-19.5 -5t-24 -1.5h-108q-25 0 -25 16q0 7 5.5 15.5t13.5 19.5l131 160 q20 25 39 36t51 11h164q23 0 43 -8.5t43 -36.5l133 -162q9 -12 14.5 -22t5.5 -13z" unicode="û"/>
<glyph glyph-name="udieresis" d="M893 68q0 -32 -16 -50t-50 -18h-114q-38 0 -54 17.5t-16 48.5v65q-18 -21 -45 -47t-64 -48t-83.5 -37t-104.5 -15q-248 0 -248 280v666q0 31 15.5 48t50.5 17h137q64 0 64 -67v-609q0 -52 21.5 -75t55.5 -23q35 0 70.5 18.5t62.5 49.5q15 16 25 30t16 30t8.5 35.5 t2.5 47.5v494q0 34 14.5 51.5t56.5 17.5h125q38 0 54 -17.5t16 -49.5v-860zM443 1237q0 -26 -10 -48t-26.5 -39t-39 -26.5t-47.5 -9.5q-26 0 -48 9.5t-39 26.5t-26.5 39t-9.5 48q0 25 9.5 47.5t26.5 39.5t39 26.5t48 9.5q25 0 47.5 -9.5t39 -26.5t26.5 -39.5t10 -47.5z M797 1237q0 -26 -9.5 -48t-26.5 -39t-39.5 -26.5t-47.5 -9.5q-26 0 -48 9.5t-39 26.5t-26.5 39t-9.5 48q0 25 9.5 47.5t26.5 39.5t39 26.5t48 9.5q25 0 47.5 -9.5t39.5 -26.5t26.5 -39.5t9.5 -47.5z" unicode="ü"/>
<glyph glyph-name="yacute" horiz-adv-x="883" unicode="ý" d="M891 973q0 -8 -2.5 -23.5t-7.5 -27.5l-312 -961q-27 -85 -56.5 -148t-72.5 -104t-104 -61.5t-152 -20.5q-45 0 -87 10.5t-62 18.5q-14 6 -17 20q-3 10 1 19t6 14l36 139q4 10 9.5 15.5t17.5 5.5q4 0 15 -3.5t26 -7t32 -7t34 -3.5q27 0 45.5 8t31.5 25t22.5 44t20.5 65 l4 12l-305 920q-5 12 -7.5 27.5t-2.5 23.5q0 22 37 22h188q25 0 38.5 -13.5t21.5 -39.5l166 -571l170 571q8 26 21 39.5t38 13.5h170q37 0 37 -22zM700 1352q0 -17 -25 -39l-182 -170q-19 -17 -37.5 -26t-46.5 -9h-111q-24 0 -24 16q0 7 5 16.5t13 20.5l109 158 q20 29 41.5 38t56.5 9h174q27 0 27 -14z"/>
<glyph glyph-name="thorn" horiz-adv-x="1028" unicode="þ" d="M686 492q0 63 -7 116.5t-22.5 92.5t-42 61t-65.5 22q-174 0 -174 -299q0 -134 43 -204t131 -70q40 0 66 23.5t42 63t22.5 90t6.5 104.5zM965 494q0 -95 -20 -186.5t-64.5 -163.5t-116 -116t-174.5 -44q-66 0 -123 25t-92 69v-381q0 -34 -16 -52t-54 -18h-125 q-42 0 -56.5 18t-14.5 50v1630q0 34 15.5 52t53.5 18h125q42 0 57 -18t15 -50v-420q19 22 42.5 41t52 33t63 22.5t75.5 8.5q94 0 161.5 -43.5t111 -115.5t64 -165.5t20.5 -193.5z"/>
<glyph glyph-name="dotlessi" horiz-adv-x="498" unicode="ı" d="M383 70q0 -34 -15 -52t-57 -18h-125q-38 0 -53.5 18t-15.5 50v860q0 67 65 67h131q39 0 54.5 -17t15.5 -48v-860z"/>
<glyph glyph-name="OE" horiz-adv-x="1683" unicode="Œ" d="M803 1106q-35 12 -75.5 18t-82.5 6q-96 0 -155.5 -37t-92 -98.5t-44 -143t-11.5 -169.5q0 -86 15.5 -166.5t50 -142.5t88.5 -99.5t131 -37.5q55 0 98 3.5t78 18.5v848zM1618 63q0 -32 -17.5 -47.5t-48.5 -15.5h-727q-38 -5 -69.5 -8t-57.5 -4.5t-48.5 -2.5t-43.5 -1 q-99 0 -178 28t-140.5 76.5t-105.5 115.5t-72 144.5t-41.5 162.5t-13.5 171t13.5 171.5t41.5 163.5t72 144.5t105 115.5t140 77t177 28q24 0 45 -0.5t46 -2t55.5 -5t74.5 -8.5h705q31 0 48 -15.5t17 -47.5v-115q0 -32 -17 -48t-48 -16h-449v-293h369q31 0 48.5 -15.5 t17.5 -47.5v-115q0 -32 -17.5 -47.5t-48.5 -15.5h-369v-336h471q31 0 48.5 -16t17.5 -48v-127z"/>
<glyph glyph-name="oe" horiz-adv-x="1526" unicode="œ" d="M653 496q0 55 -6 106.5t-23 91.5t-47.5 64t-78.5 24q-47 0 -77 -24t-47 -64t-23.5 -91.5t-6.5 -106.5q0 -53 6.5 -104t23.5 -91t47 -64t77 -24q48 0 78.5 24t47.5 64t23 91t6 104zM1196 606q-2 40 -11 74.5t-25.5 60t-41 40t-57.5 14.5q-63 0 -102.5 -43t-47.5 -146h285z M1473 473q0 -23 -13.5 -38t-38.5 -15h-512v-8q2 -40 10 -77.5t27.5 -66t53 -46t87.5 -17.5q56 0 108 14.5t83 30.5q37 17 57.5 20.5t34.5 -22.5l57 -103q17 -25 17 -41q0 -11 -7.5 -19t-21.5 -17q-65 -38 -153.5 -61t-184.5 -23q-109 0 -181.5 32.5t-119.5 87.5 q-46 -55 -117.5 -87.5t-166.5 -32.5q-115 0 -196 44.5t-132 117t-74.5 165t-23.5 189.5q0 95 24.5 187t77 164t134.5 116.5t196 44.5q97 0 165.5 -33.5t114.5 -89.5q47 57 117.5 90t175.5 33q90 0 164 -34t127 -101.5t82 -168.5t29 -235z"/>
<glyph glyph-name="Scaron" horiz-adv-x="995" unicode="Š" d="M946 391q0 -103 -34 -181.5t-94 -131.5t-143.5 -80t-182.5 -27q-66 0 -125 10t-111 25.5t-96 35t-78 38.5q-17 9 -28 17.5t-11 21.5q0 9 4.5 20t9.5 21l70 141q11 23 30.5 25.5t45.5 -13.5q33 -19 69.5 -36.5t73 -30.5t72 -21t67.5 -8q94 0 143.5 38.5t49.5 104.5 q0 30 -10 56.5t-34 51t-64 47t-99 44.5q-109 41 -187 83.5t-127.5 95t-72.5 118.5t-23 154q0 94 35.5 165.5t96 120.5t141 74t170.5 25q66 0 121 -8t101.5 -22t86 -32t74.5 -37q17 -9 22.5 -15.5t5.5 -14.5q0 -10 -2.5 -18t-7.5 -17l-63 -141q-10 -22 -25.5 -29.5t-40.5 4.5 q-32 15 -65 30t-67 27t-69 19.5t-69 7.5q-48 0 -81.5 -10.5t-54 -27.5t-29.5 -39.5t-9 -47.5q0 -31 10 -55.5t37 -48t75.5 -48t125.5 -55.5q77 -32 144 -65.5t116.5 -81.5t77.5 -115t28 -164zM819 1721q0 -7 -5 -15.5t-13 -19.5l-131 -160q-20 -25 -39 -36t-51 -11h-164 q-23 0 -43 8.5t-43 36.5l-133 162q-9 12 -15 22t-6 13q0 8 7.5 12t19.5 4h123q15 0 25.5 -1.5t19 -5t18 -10.5t23.5 -18l94 -78l94 78q14 11 24 18t19 10.5t19 5t24 1.5h109q24 0 24 -16z"/>
<glyph glyph-name="scaron" horiz-adv-x="788" unicode="š" d="M758 295q0 -83 -29.5 -142t-80 -96.5t-116.5 -55t-139 -17.5q-99 0 -179 22.5t-142 54.5q-23 13 -31 21t-8 20q0 8 5.5 19t10.5 22l45 97q13 27 29.5 33t44.5 -7q18 -8 41.5 -18t52 -20t60.5 -16.5t67 -6.5q37 0 60 7t36 18t18 24.5t5 26.5q0 14 -4.5 26.5t-18.5 25.5 t-40.5 26.5t-71.5 29.5q-87 31 -148.5 63t-100.5 69.5t-57 85t-18 110.5q0 66 24.5 120.5t69.5 93t107.5 60t138.5 21.5q85 0 160.5 -18t134.5 -50q14 -8 23.5 -16.5t9.5 -18.5q0 -8 -5.5 -20t-9.5 -19l-47 -104q-12 -29 -31 -30.5t-53 12.5q-18 7 -41.5 15.5t-48 15.5 t-49.5 11.5t-47 4.5q-43 0 -66.5 -18.5t-23.5 -49.5q0 -16 5 -29t18 -24.5t35.5 -22.5t58.5 -22q61 -20 123 -45t111.5 -62.5t80.5 -92t31 -134.5zM717 1350q0 -7 -5 -15.5t-13 -19.5l-131 -160q-20 -25 -39 -36t-51 -11h-164q-23 0 -43 8.5t-43 36.5l-133 162q-9 12 -15 22 t-6 13q0 8 7.5 12t19.5 4h123q15 0 25.5 -1.5t19 -5t18 -10.5t23.5 -18l94 -78l94 78q14 11 24 18t19 10.5t19 5t24 1.5h109q24 0 24 -16z"/>
<glyph glyph-name="Ydieresis" horiz-adv-x="1006" unicode="Ÿ" d="M1034 1337q0 -8 -6 -22t-12 -27l-363 -745v-477q0 -31 -15.5 -48.5t-47.5 -17.5h-152q-32 0 -47.5 17.5t-15.5 48.5v473l-375 753q-5 10 -10.5 23.5t-5.5 21.5q0 13 9.5 21t31.5 8h202q52 0 82 -68l209 -460l205 460q12 29 32.5 48.5t49.5 19.5h188q41 0 41 -29z M461 1608q0 -26 -10 -48t-26.5 -39t-39 -26.5t-47.5 -9.5q-26 0 -48 9.5t-39 26.5t-26.5 39t-9.5 48q0 25 9.5 47.5t26.5 39.5t39 26.5t48 9.5q25 0 47.5 -9.5t39 -26.5t26.5 -39.5t10 -47.5zM815 1608q0 -26 -9.5 -48t-26.5 -39t-39.5 -26.5t-47.5 -9.5q-26 0 -48 9.5 t-39 26.5t-26.5 39t-9.5 48q0 25 9.5 47.5t26.5 39.5t39 26.5t48 9.5q25 0 47.5 -9.5t39.5 -26.5t26.5 -39.5t9.5 -47.5z"/>
<glyph glyph-name="circumflex" horiz-adv-x="668" unicode="ˆ" d="M657 1124q0 -16 -26 -16h-123q-15 0 -25.5 1.5t-19 5t-18 10.5t-23.5 18l-94 78l-95 -78q-14 -11 -23.5 -18t-19 -10.5t-19.5 -5t-24 -1.5h-108q-25 0 -25 16q0 7 5.5 15.5t13.5 19.5l131 160q20 25 39 36t51 11h164q23 0 43 -8.5t43 -36.5l133 -162q9 -12 14.5 -22 t5.5 -13z"/>
<glyph glyph-name="caron" horiz-adv-x="668" unicode="ˇ" d="M657 1350q0 -7 -5 -15.5t-13 -19.5l-131 -160q-20 -25 -39 -36t-51 -11h-164q-23 0 -43 8.5t-43 36.5l-133 162q-9 12 -15 22t-6 13q0 8 7.5 12t19.5 4h123q15 0 25.5 -1.5t19 -5t18 -10.5t23.5 -18l94 -78l94 78q14 11 24 18t19 10.5t19 5t24 1.5h109q24 0 24 -16z"/>
<glyph glyph-name="ring" horiz-adv-x="567" unicode="˚" d="M367 1198q0 19 -7 35t-19 28t-28 18.5t-34 6.5q-38 0 -61 -24t-25 -64q0 -38 25 -64t61 -26q18 0 34 7t28 19t19 28.5t7 35.5zM471 1198q0 -41 -15 -75t-40.5 -59.5t-61 -39.5t-75.5 -14q-44 0 -79 14t-59.5 39.5t-37.5 59.5t-13 75t14 75t39.5 59t60 38.5t75.5 13.5 q43 0 78.5 -13.5t61 -38.5t39 -59t13.5 -75z"/>
<glyph glyph-name="tilde" horiz-adv-x="668" unicode="˜" d="M651 1339q0 -12 -2.5 -33.5t-10 -47t-20 -52.5t-32.5 -48.5t-48.5 -35.5t-66.5 -14t-77.5 13.5t-75 30t-65.5 30.5t-50 14q-15 0 -24.5 -6.5t-16 -16t-10 -20.5t-5.5 -20q-2 -13 -8.5 -19t-23.5 -6h-72q-25 0 -25 27q0 12 2.5 34t10 47.5t20.5 52t33.5 48.5t49 35.5 t67.5 13.5q37 0 76 -14t75 -30.5t66.5 -30t50.5 -13.5q14 0 23.5 6.5t15.5 16t9 20.5t5 20q2 14 10 19.5t19 5.5h76q24 0 24 -27z"/>
<glyph glyph-name="uni03bc" d="M893 68q0 -32 -16 -50t-50 -18h-114q-38 0 -54 17.5t-16 48.5v65q-14 -20 -38.5 -45.5t-57 -48t-72 -38t-84.5 -15.5h-14t-12 2v-293q0 -31 -15.5 -48.5t-50.5 -17.5h-137q-32 0 -48 18t-16 50v1235q0 31 15.5 48t50.5 17h137q64 0 64 -67v-609q0 -52 21.5 -75t55.5 -23 q35 0 70.5 18.5t62.5 49.5q15 16 25 30t16 30t8.5 35.5t2.5 47.5v494q0 34 14.5 51.5t56.5 17.5h125q38 0 54 -17.5t16 -49.5v-860z" unicode="μ"/>
<glyph glyph-name="pi" horiz-adv-x="1305" unicode="π" d="M1190 815q0 -28 -15.5 -43.5t-44.5 -15.5h-131v-437q0 -18 1.5 -36.5t7 -33t16.5 -23.5t29 -9q9 0 19 2.5t18 5.5q27 10 39 0.5t18 -37.5l22 -116q4 -19 1 -35.5t-23 -24.5q-32 -12 -73.5 -20t-92.5 -8q-54 0 -99.5 15.5t-78.5 51.5t-51.5 94t-18.5 144v467h-170v-428 q0 -100 -4.5 -159.5t-9.5 -90.5q-5 -40 -28 -59t-60 -19h-168q-19 0 -29 8t-10 21q0 11 3.5 25t6.5 28q16 66 24.5 149.5t8.5 171.5v353h-121q-28 0 -43.5 14.5t-15.5 42.5v123q0 28 14.5 43.5t40.5 15.5h958q28 0 44 -14.5t16 -42.5v-123z"/>
<glyph glyph-name="endash" horiz-adv-x="754" unicode="–" d="M774 436q0 -28 -13.5 -43.5t-45.5 -15.5h-674q-59 0 -59 57v135q0 28 13 44t42 16h682q29 0 42 -16t13 -44v-133z"/>
<glyph glyph-name="emdash" horiz-adv-x="1520" unicode="—" d="M1540 436q0 -28 -13.5 -43.5t-45.5 -15.5h-1440q-59 0 -59 57v135q0 28 13 44t42 16h1448q29 0 42 -16t13 -44v-133z"/>
<glyph glyph-name="quoteleft" horiz-adv-x="510" unicode="‘" d="M412 989q0 -32 -11 -60.5t-30.5 -49.5t-48 -33t-62.5 -12q-35 0 -64 12t-50.5 34.5t-33.5 53.5t-12 70q0 50 15 98.5t39 95t55 90t63 82.5q20 25 41 25q14 0 27 -11l47 -30q21 -17 21 -33q0 -18 -19 -43q-10 -14 -22.5 -32.5t-24.5 -39t-22 -41t-15 -37.5 q25 -4 44.5 -16.5t33.5 -31.5t21.5 -42.5t7.5 -48.5z"/>
<glyph glyph-name="quotesinglbase" horiz-adv-x="510" unicode="‚" d="M412 125q0 -50 -15 -99t-39 -95.5t-55 -90t-63 -82.5q-18 -22 -41 -22q-16 0 -27 8l-47 31q-21 12 -21 32q0 18 19 43q10 14 22.5 33t24.5 39t22 40.5t15 37.5q-50 8 -78.5 48t-28.5 91q0 32 11 60.5t30.5 49.5t47.5 33.5t63 12.5q34 0 63.5 -12t51 -34.5t33.5 -54 t12 -69.5z"/>
<glyph glyph-name="quotedblleft" horiz-adv-x="920" unicode="“" d="M412 989q0 -32 -11 -60.5t-30.5 -49.5t-48 -33t-62.5 -12q-35 0 -64 12t-50.5 34.5t-33.5 53.5t-12 70q0 50 15 98.5t39 95t55 90t63 82.5q20 25 41 25q14 0 27 -11l47 -30q21 -17 21 -33q0 -18 -19 -43q-10 -14 -22.5 -32.5t-24.5 -39t-22 -41t-15 -37.5 q25 -4 44.5 -16.5t33.5 -31.5t21.5 -42.5t7.5 -48.5zM821 989q0 -32 -10.5 -60.5t-30.5 -49.5t-48 -33t-62 -12q-35 0 -64 12t-50.5 34.5t-33.5 53.5t-12 70q0 50 15 98.5t39 95t55 90t63 82.5q19 25 41 25q13 0 27 -11l47 -30q20 -16 20 -33q0 -19 -18 -43 q-10 -14 -22.5 -32.5t-24.5 -39t-22 -41t-15 -37.5q24 -4 44 -16.5t33.5 -31.5t21 -42.5t7.5 -48.5z"/>
<glyph glyph-name="quotedblright" horiz-adv-x="920" unicode="”" d="M412 1225q0 -50 -15 -99t-39 -95.5t-55 -90t-63 -82.5q-18 -22 -41 -22q-16 0 -27 8l-47 30q-21 13 -21 33q0 18 19 43q10 14 22.5 33t24.5 39t22 40.5t15 37.5q-25 4 -44.5 16.5t-33.5 31t-21.5 42t-7.5 49.5q0 32 11 60.5t30.5 49.5t47.5 33.5t63 12.5q34 0 63.5 -12 t51 -34.5t33.5 -54t12 -69.5zM821 1225q0 -50 -15 -99t-39 -95.5t-55 -90t-63 -82.5q-17 -22 -41 -22q-15 0 -26 8l-47 30q-21 13 -21 33q0 19 18 43q10 14 22.5 33t24.5 39t22 40.5t15 37.5q-24 4 -44 16.5t-33.5 31t-21 42t-7.5 49.5q0 32 10.5 60.5t30.5 49.5t48 33.5 t63 12.5q34 0 63.5 -12t50.5 -34.5t33 -54t12 -69.5z"/>
<glyph glyph-name="dagger" d="M915 864q0 -32 -17 -47.5t-48 -15.5h-242v-1108q0 -31 -15.5 -48.5t-47.5 -17.5h-88q-32 0 -48 17.5t-16 48.5v1108h-241q-31 0 -48.5 15.5t-17.5 47.5v68q0 32 17.5 47.5t48.5 15.5h241v334q0 31 16 48.5t48 17.5h88q32 0 47.5 -17.5t15.5 -48.5v-334h242q31 0 48 -15.5 t17 -47.5v-68z" unicode="†"/>
<glyph glyph-name="daggerdbl" d="M915 63q0 -32 -17 -47.5t-48 -15.5h-242v-307q0 -31 -15.5 -48.5t-47.5 -17.5h-88q-32 0 -48 17.5t-16 48.5v307h-241q-31 0 -48.5 15.5t-17.5 47.5v68q0 32 17.5 48t48.5 16h241v606h-241q-31 0 -48.5 15.5t-17.5 47.5v68q0 32 17.5 47.5t48.5 15.5h241v305 q0 31 16 48.5t48 17.5h88q32 0 47.5 -17.5t15.5 -48.5v-305h242q31 0 48 -15.5t17 -47.5v-68q0 -32 -17 -47.5t-48 -15.5h-242v-606h242q31 0 48 -16t17 -48v-68z" unicode="‡"/>
<glyph glyph-name="ellipsis" horiz-adv-x="1559" unicode="…" d="M412 139q0 -32 -12.5 -60.5t-33.5 -49.5t-49.5 -33t-60.5 -12t-60.5 12t-49.5 33t-33.5 49.5t-12.5 60.5t12.5 60.5t33.5 49.5t49.5 33.5t60.5 12.5t60.5 -12.5t49.5 -33.5t33.5 -49.5t12.5 -60.5zM936 139q0 -32 -12.5 -60.5t-33.5 -49.5t-49.5 -33t-60.5 -12t-60.5 12 t-49.5 33t-33 49.5t-12 60.5t12 60.5t33 49.5t49.5 33.5t60.5 12.5t60.5 -12.5t49.5 -33.5t33.5 -49.5t12.5 -60.5zM1460 139q0 -32 -12 -60.5t-33 -49.5t-49.5 -33t-60.5 -12t-60.5 12t-49.5 33t-33.5 49.5t-12.5 60.5t12.5 60.5t33.5 49.5t49.5 33.5t60.5 12.5t60.5 -12.5 t49.5 -33.5t33 -49.5t12 -60.5z"/>
<glyph glyph-name="perthousand" horiz-adv-x="2468" unicode="‰" d="M2212 301q0 31 -6 63.5t-21.5 59t-41.5 43t-66 16.5t-66 -16.5t-41.5 -43t-21.5 -59t-6 -63.5t6.5 -62t22 -56.5t41.5 -41.5t65 -16q40 0 66.5 16t41.5 41.5t21 57t6 61.5zM2415 305q0 -62 -18 -125t-58.5 -114t-104.5 -83t-157 -32q-91 0 -154.5 31t-103.5 81.5 t-58 113.5t-18 128q0 64 18.5 127.5t59 113t104 80.5t152.5 31q92 0 156 -31.5t104.5 -81.5t59 -113t18.5 -126zM1440 301q0 31 -6 63.5t-21.5 59t-41.5 43t-66 16.5t-66.5 -16.5t-42 -43t-21.5 -59t-6 -63.5t6.5 -62t22 -56.5t42 -41.5t65.5 -16q40 0 66.5 16t41.5 41.5 t21 57t6 61.5zM1642 305q0 -62 -18 -125t-58 -114t-104 -83t-157 -32q-91 0 -154.5 31t-103.5 81.5t-58 113.5t-18 128q0 64 18.5 127.5t59 113t104 80.5t152.5 31q92 0 156 -31.5t104.5 -81.5t58.5 -113t18 -126zM1303 1370q0 -11 -4.5 -22t-12.5 -25l-647 -1307 q-19 -37 -34.5 -51t-43.5 -14h-129q-12 0 -21.5 6.5t-9.5 17.5t4.5 22.5t12.5 25.5l647 1306q19 37 34.5 51.5t43.5 14.5h129q12 0 21.5 -7t9.5 -18zM524 1038q0 31 -6 64t-21.5 59t-41.5 43t-66 17t-66 -17t-41.5 -43t-21.5 -59t-6 -64t6.5 -62t22 -56.5t41.5 -41.5t65 -16 q41 0 67 16t41 41.5t21 57t6 61.5zM727 1042q0 -62 -18 -125t-58 -114t-104.5 -83t-157.5 -32q-91 0 -154.5 31t-103.5 81.5t-58 113.5t-18 128q0 64 19 127.5t59.5 113.5t103.5 81t152 31q92 0 156.5 -31.5t105 -82t58.5 -113.5t18 -126z"/>
<glyph glyph-name="guilsinglleft" horiz-adv-x="659" unicode="‹" d="M575 150q0 -11 -8 -20.5t-20 -18.5l-92 -52q-14 -9 -22 -11.5t-13 -2.5q-11 0 -20 4t-23 23l-268 342q-10 12 -16.5 28.5t-6.5 42.5q0 25 8.5 44t18.5 30l274 342q14 19 23 23t20 4q5 0 13 -2.5t22 -12.5l82 -51q12 -8 20 -16.5t8 -22.5q0 -8 -5 -19t-13 -22l-215 -284 l215 -308q8 -11 13 -21.5t5 -18.5z"/>
<glyph glyph-name="guilsinglright" horiz-adv-x="659" unicode="›" d="M575 487q0 -24 -8.5 -43t-17.5 -30l-275 -342q-14 -19 -23 -23t-20 -4q-5 0 -12.5 2.5t-21.5 11.5l-82 52q-13 8 -21 16.5t-8 22.5q0 9 5 19t13 21l215 285l-215 307q-8 11 -13 21.5t-5 19.5q0 24 29 39l92 51q25 15 35 15q11 0 20 -4t23 -23l268 -342q9 -12 15.5 -29 t6.5 -43z"/>
<glyph glyph-name="fraction" horiz-adv-x="887" unicode="⁄" d="M895 1370q0 -11 -4 -22t-12 -25l-648 -1307q-18 -37 -34 -51t-43 -14h-129q-13 0 -22 6.5t-9 17.5t4 22.5t12 25.5l647 1306q19 37 34.5 51.5t43.5 14.5h129q13 0 22 -7t9 -18z"/>
<glyph glyph-name="Euro" horiz-adv-x="1079" unicode="€" d="M1063 90q0 -9 -4.5 -16t-20.5 -17q-62 -34 -153.5 -60t-216.5 -26q-95 0 -177.5 24t-148 80t-111.5 148t-67 228h-74q-59 0 -59 57v53q0 28 13 44t42 16h61q-2 18 -2 38v41v25h-55q-59 0 -59 57v54q0 27 13 43t42 16h76q18 106 60 197.5t109 158.5t161 105.5t217 38.5 q64 0 113 -9t86 -21.5t63.5 -27t44.5 -24.5q12 -8 16 -15.5t4 -13.5t-2 -13t-8 -20l-65 -143q-10 -20 -26 -26.5t-32 1.5q-14 7 -35.5 17.5t-47.5 20t-54 16t-55 6.5q-113 0 -183.5 -62t-93.5 -186h324q29 0 44 -15t15 -42v-54q0 -27 -13 -43t-42 -16h-344v-45q0 -16 -1 -30 t1 -29h278q60 0 60 -58v-53q0 -28 -13.5 -43.5t-42.5 -15.5h-264q11 -48 32.5 -89.5t54.5 -72t78 -48.5t104 -18q27 0 51.5 2.5t49.5 9t53 18t63 30.5q18 9 34.5 5.5t24.5 -20.5l70 -145q5 -8 8.5 -17.5t3.5 -15.5z"/>
<glyph glyph-name="trademark" horiz-adv-x="1325" unicode="™" d="M1221 733q0 -25 -12 -38t-40 -13h-59q-53 0 -53 51v348l-78 -168q-11 -23 -21.5 -32t-31.5 -9h-47q-20 0 -32.5 7.5t-23.5 31.5l-75 162v-340q0 -51 -54 -51h-61q-49 0 -49 51v582q0 51 49 51h88q38 0 55 -35l125 -276l127 270q9 20 21 30.5t38 10.5h82q28 0 40 -13 t12 -38v-582zM514 1257q0 -21 -12.5 -35t-40.5 -14h-109v-475q0 -51 -51 -51h-68q-49 0 -49 51v475h-110q-26 0 -40 14t-14 35v60q0 22 14 35.5t40 13.5h387q28 0 40.5 -13.5t12.5 -35.5v-60z"/>
<glyph glyph-name="partialdiff" horiz-adv-x="1161" unicode="∂" d="M782 582q-11 31 -32.5 56.5t-49 42.5t-60.5 26.5t-67 9.5q-51 0 -94.5 -23t-75 -67.5t-49.5 -110t-18 -151.5q0 -81 37.5 -129t105.5 -48q51 0 95 23.5t80 63.5t63.5 93t44.5 111q8 26 12.5 51.5t7.5 51.5zM1098 868q0 -46 -2 -88t-7 -82.5t-13 -81.5t-19 -86 q-31 -114 -81.5 -216t-120.5 -178t-160.5 -120.5t-200.5 -44.5q-95 0 -173 29.5t-133.5 82.5t-86.5 126t-31 160q0 148 41.5 255t110 176t156.5 101.5t181 32.5q36 0 75 -7t74.5 -19.5t65 -29.5t47.5 -38l3.5 21t2 18.5t0.5 20.5v26q0 67 -16 112t-46 73t-74 40t-101 12 q-51 0 -99 -12t-90 -31q-23 -11 -38.5 -13.5t-26 2t-17 17t-12.5 33.5l-20 80q-4 18 -4 30.5t5.5 22t16 17.5t27.5 16q25 12 56.5 24t68 22.5t77 17t84.5 6.5q109 0 197.5 -35t151.5 -102t97 -165t34 -225z"/>
<glyph glyph-name="product" horiz-adv-x="1278" unicode="∏" d="M1139 -182q0 -31 -16 -48.5t-48 -17.5h-151q-32 0 -48 17.5t-16 48.5v1306h-440v-1306q0 -31 -16 -48.5t-48 -17.5h-151q-32 0 -48 17.5t-16 48.5v1482q0 31 16 48.5t48 17.5h870q32 0 48 -17.5t16 -48.5v-1482z"/>
<glyph glyph-name="summation" horiz-adv-x="1135" unicode="∑" d="M1040 -184q0 -32 -17 -48t-48 -16h-825q-33 0 -48.5 17.5t-15.5 48.5v86q0 16 2 28.5t6.5 24t11.5 24t17 29.5l348 578l-334 520q-10 16 -17 28.5t-11.5 25t-6.5 26t-2 31.5v86q0 31 17.5 46t46.5 15h792q31 0 48.5 -15.5t17.5 -47.5v-115q0 -32 -17.5 -48t-48.5 -16 h-514l267 -411q9 -16 19.5 -39.5t10.5 -52.5v-62q0 -29 -10.5 -54t-19.5 -40l-283 -471h549q29 0 47 -15t18 -49v-114z"/>
<glyph glyph-name="minus" horiz-adv-x="1083" unicode="−" d="M997 618q0 -27 -13.5 -43t-45.5 -16h-791q-29 0 -44 15t-15 42v115q0 28 13 44t42 16h799q29 0 42 -16t13 -44v-113z"/>
<glyph glyph-name="radical" horiz-adv-x="1038" unicode="√" d="M1010 1366q20 0 28 -12t8 -23q0 -6 -2 -12l-309 -1286q-3 -11 -12 -22t-25 -11h-200q-14 0 -23 9.5t-12 17.5l-217 512l-68 -43q-14 -10 -28 -6t-23 20l-70 111q-6 8 -6 19q0 4 2.5 14.5t16.5 19.5l254 160q15 9 35 6.5t28 -19.5l201 -487l233 1003q3 11 13.5 20t25.5 9 h150z"/>
<glyph glyph-name="infinity" horiz-adv-x="1657" unicode="∞" d="M459 426q33 0 64 14t59.5 38t54 56t47.5 68q-24 36 -50 67t-54.5 54t-59 36t-63.5 13q-38 0 -67.5 -14.5t-50 -38.5t-31.5 -55.5t-11 -65.5q0 -35 11.5 -66.5t33 -55t51.5 -37t66 -13.5zM1358 604q0 34 -9.5 64.5t-29 53.5t-49.5 36.5t-70 13.5q-34 0 -64.5 -13 t-58 -35.5t-53 -53.5t-49.5 -68q23 -38 49 -70.5t54.5 -56t59.5 -36.5t64 -13q39 0 68.5 15t49 40t29 57t9.5 66zM1604 606q0 -86 -27.5 -159.5t-78.5 -127.5t-125 -85t-167 -31q-111 0 -208 48.5t-169 139.5q-35 -39 -75.5 -73.5t-86.5 -60t-97.5 -40t-108.5 -14.5 q-84 0 -157.5 26t-129 76t-87.5 124.5t-32 172.5q0 93 32.5 166.5t87.5 124t128.5 77.5t155.5 27q63 0 116.5 -15t99.5 -40.5t85.5 -60t73.5 -74.5q27 34 63 68t82 61t101 44t120 17q94 0 168.5 -29.5t127 -82t80.5 -124t28 -155.5z"/>
<glyph glyph-name="approxequal" horiz-adv-x="1085" unicode="≈" d="M999 453q0 -17 -8 -34t-20 -28q-14 -12 -34.5 -25t-49 -24.5t-65.5 -19t-85 -7.5q-57 0 -115.5 19.5t-111.5 42.5l-42 18t-43.5 16.5t-47 12t-53.5 4.5q-51 0 -93.5 -18t-83.5 -52q-8 -8 -15.5 -12t-18.5 -4q-10 0 -17.5 6.5t-7.5 20.5v139q0 17 8 33.5t21 27.5 q14 12 34 25t48.5 24.5t65.5 19t85 7.5q57 0 117 -19t113 -42q21 -9 42 -18.5t43 -17t47 -12t54 -4.5q51 0 92.5 18t81.5 52q16 16 35 16q9 0 16.5 -6t7.5 -20v-139zM999 840q0 -17 -8 -34t-20 -28q-14 -11 -34.5 -24.5t-49 -25t-65.5 -19t-85 -7.5q-57 0 -115.5 19.5 t-111.5 42.5l-42 18t-43.5 16.5t-47 12t-53.5 4.5q-51 0 -93.5 -17.5t-83.5 -52.5q-8 -8 -15.5 -12t-18.5 -4q-10 0 -17.5 6.5t-7.5 20.5v139q0 17 8 33.5t21 27.5q14 12 34 25t48.5 24.5t65.5 19t85 7.5q57 0 116 -19t112 -42q21 -9 42 -18.5t43 -16.5t47 -11.5t54 -4.5 q51 0 93.5 17.5t82.5 51.5q8 8 16 12.5t19 4.5q9 0 16.5 -6.5t7.5 -20.5v-139z"/>
<glyph glyph-name="notequal" horiz-adv-x="1083" unicode="≠" d="M997 414q0 -28 -13.5 -44t-45.5 -16h-391l-51 -155q-13 -37 -27.5 -51.5t-42.5 -14.5h-147q-25 0 -25 25q0 9 2.5 21t7.5 26l49 149h-166q-59 0 -59 58v114q0 28 13 44t42 16h248l62 180h-306q-59 0 -59 57v115q0 28 13 43.5t42 15.5h387l54 158q12 37 26.5 51.5 t42.5 14.5h148q11 0 17.5 -7t6.5 -18q0 -9 -2.5 -21t-7.5 -26l-51 -152h178q29 0 42 -15.5t13 -43.5v-113q0 -28 -13.5 -43.5t-45.5 -15.5h-252l-61 -180h317q29 0 42 -16t13 -44v-112z"/>
<glyph glyph-name="lessequal" horiz-adv-x="1114" unicode="≤" d="M1028 59q0 -27 -13.5 -43t-45.5 -16h-822q-59 0 -59 57v115q0 28 13 43.5t42 15.5h830q29 0 42 -15.5t13 -43.5v-113zM1028 356q0 -17 -8 -27t-21 -10q-8 0 -20 3t-25 8l-800 336q-28 12 -46 27t-18 44v107q0 29 17.5 46t48.5 30l798 335q13 5 25 8t20 3q13 0 21 -10 t8 -27v-154q0 -25 -14 -37.5t-39 -21.5l-594 -221l594 -226q25 -9 39 -21.5t14 -37.5v-154z"/>
<glyph glyph-name="greaterequal" horiz-adv-x="1114" unicode="≥" d="M1028 59q0 -27 -13.5 -43t-45.5 -16h-822q-59 0 -59 57v115q0 28 13 43.5t42 15.5h830q29 0 42 -15.5t13 -43.5v-113zM1028 737q0 -29 -18 -44t-45 -27l-801 -336q-13 -5 -25 -8t-20 -3q-13 0 -21 10t-8 27v154q0 25 14.5 37.5t38.5 21.5l594 226l-594 221 q-24 9 -38.5 21.5t-14.5 37.5v154q0 17 8 27t21 10q8 0 20 -3t25 -8l799 -335q31 -13 48 -30t17 -46v-107z"/>
<glyph glyph-name="lozenge" horiz-adv-x="981" unicode="◊" d="M492 1092l-179 -506l179 -527l178 527zM928 561q0 -29 -2.5 -43t-7.5 -26l-273 -672q-12 -32 -27.5 -49t-44.5 -17h-163q-29 0 -44.5 17t-27.5 49l-272 672q-5 12 -8 26t-3 43q0 41 11 68l268 674q11 29 27 46t45 17h172q29 0 44.5 -17t26.5 -46l269 -674 q5 -13 7.5 -29.5t2.5 -38.5z"/>
</font>
</defs>
</svg>
