<?xml version="1.0" standalone="no"?>
<!DOCTYPE svg PUBLIC "-//W3C//DTD SVG 1.1//EN" "http://www.w3.org/Graphics/SVG/1.1/DTD/svg11.dtd" >
<svg xmlns="http://www.w3.org/2000/svg" xmlns:xlink="http://www.w3.org/1999/xlink" version="1.1">
<metadata></metadata>
<defs>
<font id="rn_house_sansregular" horiz-adv-x="1134" >
<font-face units-per-em="2048" ascent="1526" descent="-522" />
<missing-glyph horiz-adv-x="430" />
<glyph unicode="&#xfb01;" horiz-adv-x="1105" d="M57 819v174h95v211q0 77 26 137.5t69 97t95 55.5t109 19q120 0 208 -79l-81 -140q-61 52 -119 52q-51 0 -87 -33t-36 -94v-226h258v-174h-258v-819h-184v819h-95zM754 1364q0 61 33 91t87 30q53 0 87 -30t34 -91q0 -62 -33.5 -91.5t-87.5 -29.5q-55 0 -87.5 29t-32.5 92z M782 0v993h185v-993h-185z" />
<glyph unicode="&#xfb02;" horiz-adv-x="1105" d="M57 819v174h95v211q0 77 26 137.5t69 97t95 55.5t109 19q120 0 208 -79l-81 -140q-61 52 -119 52q-51 0 -87 -33t-36 -94v-226h258v-174h-258v-819h-184v819h-95zM782 0v1495h185v-1495h-185z" />
<glyph horiz-adv-x="0" />
<glyph horiz-adv-x="682" />
<glyph unicode=" "  horiz-adv-x="430" />
<glyph unicode="&#x09;" horiz-adv-x="430" />
<glyph unicode="&#xa0;" horiz-adv-x="430" />
<glyph unicode="!" horiz-adv-x="645" d="M188 133q0 63 35.5 98t98.5 35t98 -35t35 -98t-35 -98t-98 -35t-98.5 35t-35.5 98zM219 1454h205q0 -96 -0.5 -176.5t-2 -155.5t-2.5 -123t-4.5 -114.5t-4 -92t-6 -93.5t-6 -81t-7.5 -92t-8 -92h-123q-1 13 -8 92t-7.5 92t-6 81t-6 93.5t-4 92t-4.5 114.5t-2.5 123 t-2 155.5t-0.5 176.5z" />
<glyph unicode="&#x22;" horiz-adv-x="821" d="M162 870v613h164v-613h-164zM504 870v613h164v-613h-164z" />
<glyph unicode="#" horiz-adv-x="1392" d="M88 436l25 156h229l45 293h-229l24 155h230l65 414h166l-65 -414h331l66 414h166l-66 -414h230l-25 -155h-229l-45 -293h229l-25 -156h-229l-70 -436h-166l70 436h-332l-69 -436h-166l69 436h-229zM508 592h332l47 293h-332z" />
<glyph unicode="$" horiz-adv-x="1136" d="M117 283l151 94q41 -110 113.5 -172t196.5 -62q112 0 178.5 54t66.5 159q0 36 -7.5 65t-26 52.5t-35.5 39.5t-52 34t-58 28t-70.5 29.5t-73.5 30.5q-174 75 -249 168.5t-75 234.5q0 160 91.5 258t258.5 113v168h131v-168q266 -25 347 -266l-162 -90q-29 75 -72.5 118.5 t-85.5 56.5t-96 13q-112 0 -167.5 -53t-55.5 -141q0 -33 9 -62t21 -50t37.5 -42.5t42.5 -34t54 -30t54.5 -24.5t59.5 -24q136 -55 180 -80q149 -82 184 -220q13 -49 13 -107q0 -167 -99 -271.5t-264 -126.5v-168h-131v164q-161 10 -266.5 95t-142.5 217z" />
<glyph unicode="%" horiz-adv-x="1484" d="M84 96l1196 1364l121 -96l-1196 -1364zM84 1155q0 134 77 216.5t210 82.5q134 0 211 -82.5t77 -216.5t-77 -216.5t-211 -82.5q-133 0 -210 82.5t-77 216.5zM231 1155q0 -73 37.5 -115.5t102.5 -42.5q66 0 103.5 42t37.5 116t-37.5 117t-103.5 43q-64 0 -102 -43t-38 -117 zM825 299q0 134 77.5 216.5t211.5 82.5q133 0 210 -82.5t77 -216.5t-77 -216.5t-210 -82.5q-134 0 -211.5 82.5t-77.5 216.5zM975 299q0 -74 36.5 -116t102.5 -42q65 0 103 42.5t38 115.5t-38 116.5t-103 43.5t-102 -43t-37 -117z" />
<glyph unicode="&#x26;" horiz-adv-x="1310" d="M55 362q0 73 21 134.5t62 111t88.5 88t113.5 78.5q-121 187 -121 356q0 170 101 265.5t266 95.5q161 0 268 -87.5t107 -238.5q0 -63 -22 -122t-54.5 -103.5t-81 -87.5t-90.5 -72t-95 -59q95 -116 300 -332q25 30 54 69t44.5 61.5t50 74t41.5 61.5l141 -98 q-136 -210 -207 -297l254 -260h-266l-123 125q-187 -162 -407 -162q-122 0 -221.5 44.5t-161.5 136.5t-62 218zM260 362q0 -95 64.5 -155t179.5 -60q142 0 278 107q-204 210 -333 369q-98 -61 -143.5 -123t-45.5 -138zM403 1137q0 -116 113 -281q260 137 260 289 q0 73 -54 120.5t-138 47.5q-77 0 -129 -44t-52 -132z" />
<glyph unicode="'" horiz-adv-x="479" d="M158 870v613h164v-613h-164z" />
<glyph unicode="(" horiz-adv-x="657" d="M143 492q0 287 65.5 549.5t190.5 445.5h185q-116 -208 -176 -467t-60 -531q0 -273 60 -527.5t176 -453.5h-185q-126 180 -191 439.5t-65 544.5z" />
<glyph unicode=")" horiz-adv-x="657" d="M70 -492q116 208 175.5 466.5t59.5 531.5t-59.5 528t-175.5 453h184q126 -180 191 -439t65 -544q0 -287 -65.5 -550t-190.5 -446h-184z" />
<glyph unicode="*" horiz-adv-x="886" d="M86 1110l41 133l256 -92l-12 270h141l-8 -270l254 92l43 -133l-260 -72l168 -213l-115 -84l-150 228l-151 -228l-115 82l168 215z" />
<glyph unicode="+" horiz-adv-x="1216" d="M86 430v184h430v430h184v-430h430v-184h-430v-430h-184v430h-430z" />
<glyph unicode="," horiz-adv-x="546" d="M141 131q0 66 35.5 100.5t102.5 34.5t97 -44.5t30 -135.5q0 -130 -64 -227.5t-160 -149.5l-41 62q119 85 154 229q-78 0 -116 32t-38 99z" />
<glyph unicode="-" horiz-adv-x="802" d="M94 457v184h615v-184h-615z" />
<glyph unicode="." horiz-adv-x="548" d="M141 113q0 63 35 98t98 35t98.5 -35t35.5 -98t-35.5 -98t-98.5 -35t-98 35t-35 98z" />
<glyph unicode="/" horiz-adv-x="665" d="M-31 0l574 1454h153l-573 -1454h-154z" />
<glyph unicode="0" d="M96 692q0 354 119 537.5t352 183.5t352 -183.5t119 -537.5t-119 -537.5t-352 -183.5t-352 183.5t-119 537.5zM303 692q0 -276 66 -407t198 -131t198 131t66 407t-66 407.5t-198 131.5t-198 -131.5t-66 -407.5z" />
<glyph unicode="1" d="M184 1096q97 35 189.5 112.5t144.5 175.5h176v-1204h262v-180h-720v180h262v920q-37 -57 -107.5 -107.5t-140.5 -74.5z" />
<glyph unicode="2" d="M84 0v137q101 112 215 232.5t178 187t129 140t96.5 120t51.5 97t20 100.5q0 101 -64.5 159t-177.5 58q-90 0 -157.5 -43t-134.5 -152l-150 107q151 270 457 270q201 0 317.5 -106t116.5 -285q0 -74 -24 -145t-60 -129t-98.5 -130.5t-119.5 -129.5t-144 -146t-152 -162 h629v-180h-928z" />
<glyph unicode="3" d="M45 256l158 117q51 -111 126 -165t181 -54q119 0 184.5 60t65.5 169t-70.5 172t-224.5 63h-94v183h65q135 0 211 59.5t76 165.5q0 92 -60.5 148.5t-164.5 56.5q-84 0 -150 -42t-125 -132l-137 127q64 110 169.5 169.5t244.5 59.5q196 0 312 -107t116 -270 q0 -99 -51 -179.5t-152 -123.5q113 -41 178.5 -133t65.5 -225q0 -184 -122 -294t-335 -110q-328 0 -467 285z" />
<glyph unicode="4" d="M45 324v194l592 866h221v-884h152v-176h-152v-324h-194v324h-619zM238 500h426v641z" />
<glyph unicode="5" d="M66 195l145 129q68 -86 140 -128t163 -42q125 0 195.5 72.5t70.5 199.5q0 133 -69.5 201.5t-204.5 68.5q-137 0 -225 -82l-168 21l163 749h660v-180h-514l-86 -373q88 46 199 46q212 0 333 -119t121 -330q0 -208 -127.5 -332.5t-347.5 -124.5q-278 0 -448 224z" />
<glyph unicode="6" d="M98 434q0 62 7.5 120.5t26 117.5t36.5 107.5t54 111t61 105t75 112.5t80.5 110.5t90.5 120.5q23 30 34 45h232q-299 -375 -398 -548q77 51 189 51q204 0 324 -123.5t120 -319.5q0 -211 -131.5 -340t-337.5 -129q-211 0 -337 123.5t-126 335.5zM295 438q0 -135 69 -207.5 t195 -72.5t194 72.5t68 207.5q0 129 -68 199t-194 70t-195 -70t-69 -199z" />
<glyph unicode="7" d="M104 1182v202h928v-159l-528 -1225h-230l527 1182h-697z" />
<glyph unicode="8" d="M100 383q0 114 52 200t147 138q-82 46 -126 123t-44 178q0 171 120 281t320 110q198 0 318.5 -110t120.5 -281q0 -101 -44 -178t-126 -123q95 -52 146.5 -138t51.5 -200q0 -183 -126.5 -297.5t-340.5 -114.5q-215 0 -342 114.5t-127 297.5zM307 389q0 -104 72.5 -169.5 t189.5 -65.5q114 0 187 65.5t73 169.5q0 106 -73 173t-187 67q-117 0 -189.5 -67t-72.5 -173zM336 1014q0 -97 65 -158t168 -61q100 0 166 61.5t66 157.5t-65.5 156.5t-166.5 60.5q-103 0 -168 -60t-65 -157z" />
<glyph unicode="9" d="M86 944q0 210 131.5 337.5t343.5 127.5q207 0 332 -124.5t125 -344.5q0 -90 -22.5 -185t-58 -178.5t-90 -179.5t-106.5 -175.5t-120 -179.5q-19 -28 -29 -42h-230q212 299 353 547q-71 -49 -191 -49q-200 0 -319 124t-119 322zM295 948q0 -131 67.5 -200.5t194.5 -69.5 t195.5 69.5t68.5 200.5q0 132 -69 205.5t-195 73.5t-194 -73t-68 -206z" />
<glyph unicode=":" horiz-adv-x="548" d="M145 113q0 63 35.5 98t98.5 35t98 -35t35 -98t-35 -98t-98 -35t-98.5 35t-35.5 98zM145 889q0 63 35.5 98t98.5 35t98 -35t35 -98t-35 -98t-98 -35t-98.5 35t-35.5 98z" />
<glyph unicode=";" horiz-adv-x="548" d="M145 131q0 66 35.5 100.5t102.5 34.5t97 -44.5t30 -135.5q0 -130 -64 -227.5t-160 -149.5l-41 62q119 85 154 229q-78 0 -116 32t-38 99zM145 889q0 63 35.5 98t98.5 35t98 -35t35 -98t-35 -98t-98 -35t-98.5 35t-35.5 98z" />
<glyph unicode="&#x3c;" horiz-adv-x="1216" d="M164 410v163l1044 379v-204l-790 -256l790 -256v-205z" />
<glyph unicode="=" horiz-adv-x="1216" d="M86 205v184h1044v-184h-1044zM86 655v185h1044v-185h-1044z" />
<glyph unicode="&#x3e;" horiz-adv-x="1216" d="M86 31v205l791 256l-791 256v204l1044 -379v-163z" />
<glyph unicode="?" horiz-adv-x="1046" d="M37 1239q147 244 444 244q202 0 316 -104t114 -292q0 -64 -15 -119.5t-33.5 -91.5t-55 -75t-58.5 -57.5t-65 -51.5q-40 -31 -59 -47t-45 -44t-37 -57.5t-11 -64.5v-45h-184v51q0 54 14 98.5t45.5 83.5t54.5 61t70 60t70 60t55 61.5t46 84t14 98.5q-5 102 -70 159.5 t-180 57.5q-90 0 -158.5 -43t-136.5 -152zM311 113q0 63 35 98t98 35t98.5 -35t35.5 -98t-35.5 -98t-98.5 -35t-98 35t-35 98z" />
<glyph unicode="@" horiz-adv-x="1708" d="M76 569q0 75 12.5 152.5t41 160.5t71.5 158t108.5 142.5t146.5 116.5t191 77.5t238 28.5q220 0 387.5 -75.5t263.5 -225.5t96 -356q0 -56 -7.5 -118t-23.5 -134t-46 -135.5t-70.5 -116.5t-102 -84t-135.5 -31q-85 0 -145 43t-70 141q-102 -82 -252 -82q-89 0 -158 29 t-111 79.5t-63.5 115t-21.5 139.5q0 64 14.5 127t49 125t84 108.5t126.5 75.5t170 29q172 0 244 -94l10 59h148l-101 -588q-18 -95 -1.5 -137.5t75.5 -42.5q67 0 118 49t79 125t41.5 154.5t13.5 152.5q0 255 -159 400t-439 145q-151 0 -271.5 -45t-196 -116t-126 -165.5 t-70.5 -188t-20 -189.5q0 -125 36.5 -228t109 -181.5t189.5 -122.5t269 -44q119 0 266 39l29 -119q-168 -45 -309 -45q-159 0 -292 45.5t-230.5 131.5t-152 218t-54.5 297zM588 596q0 -99 55.5 -160t149.5 -61q64 0 128 28t109 74l51 316q-25 55 -81 87.5t-134 32.5 q-61 0 -110.5 -21.5t-80 -55.5t-51 -77.5t-28.5 -84t-8 -78.5z" />
<glyph unicode="A" horiz-adv-x="1419" d="M20 0l574 1454h225l574 -1454h-226l-153 416h-625l-158 -416h-211zM459 600h485l-239 649z" />
<glyph unicode="B" horiz-adv-x="1282" d="M152 0v1454h561q113 0 198.5 -29.5t135.5 -82t74 -116.5t24 -139q0 -205 -166 -325q207 -97 207 -352q0 -181 -116.5 -295.5t-317.5 -114.5h-600zM354 184h363q132 0 199 64t67 176q0 227 -270 227h-359v-467zM354 825h342q121 0 183.5 60.5t62.5 169.5q0 215 -260 215 h-328v-445z" />
<glyph unicode="C" horiz-adv-x="1458" d="M100 727q0 370 185 567t503 197q178 0 317 -65t245 -212l-146 -124q-168 217 -420 217q-220 0 -349.5 -152t-129.5 -428q0 -274 127.5 -427t347.5 -153q148 0 250 69.5t189 209.5l157 -104q-195 -359 -592 -359q-314 0 -499 198t-185 566z" />
<glyph unicode="D" horiz-adv-x="1456" d="M162 0v1454h504q153 0 280.5 -46.5t220.5 -136t145 -228.5t52 -316t-52 -316t-145 -228.5t-220 -136t-279 -46.5h-506zM367 184h319q98 0 183.5 36t150.5 103t102 171t37 233t-37 233t-102 171t-150.5 103t-183.5 36h-319v-1086z" />
<glyph unicode="E" horiz-adv-x="1226" d="M152 0v1454h999v-184h-795v-424h678v-184h-678v-478h795v-184h-999z" />
<glyph unicode="F" horiz-adv-x="1142" d="M162 0v1454h944v-184h-739v-424h637v-184h-637v-662h-205z" />
<glyph unicode="G" horiz-adv-x="1517" d="M100 727q0 184 52 328.5t146 237.5t222 141.5t281 48.5q199 0 351.5 -80.5t242.5 -237.5l-158 -125q-153 258 -436 258q-226 0 -361 -149t-135 -422q0 -270 135 -420.5t361 -150.5q178 0 286 98.5t134 290.5h-453v184h668v-16q0 -166 -34.5 -296t-93 -212.5t-141 -136 t-172.5 -75.5t-194 -22q-154 0 -282 48.5t-221.5 142t-145.5 238t-52 327.5z" />
<glyph unicode="H" horiz-adv-x="1462" d="M152 0v1454h204v-608h750v608h205v-1454h-205v662h-750v-662h-204z" />
<glyph unicode="I" horiz-adv-x="526" d="M162 0v1454h205v-1454h-205z" />
<glyph unicode="J" horiz-adv-x="894" d="M10 119l115 135q107 -107 219 -107q100 0 147.5 63t47.5 210v1034h204v-1032q0 -228 -107.5 -343.5t-287.5 -115.5q-194 0 -338 156z" />
<glyph unicode="K" horiz-adv-x="1290" d="M152 0v1454h204v-668l650 668h266l-631 -639l643 -815h-266l-518 670l-144 -144v-526h-204z" />
<glyph unicode="L" horiz-adv-x="1130" d="M152 0v1454h204v-1270h750v-184h-954z" />
<glyph unicode="M" horiz-adv-x="1757" d="M156 0l41 1454h213l469 -1165l469 1165h213l41 -1454h-205l-27 1057l-397 -996h-189l-397 996l-27 -1057h-204z" />
<glyph unicode="N" horiz-adv-x="1474" d="M152 0v1454h247l715 -1163h4v1163h205v-1454h-248l-715 1163h-4v-1163h-204z" />
<glyph unicode="O" horiz-adv-x="1597" d="M100 727q0 185 52 331.5t145.5 240.5t221 143t280.5 49t280.5 -49t220.5 -143t145 -240.5t52 -331.5t-52 -331.5t-145 -240.5t-220.5 -143t-280.5 -49t-280.5 49t-221 143t-145.5 240.5t-52 331.5zM305 727q0 -273 135 -426.5t359 -153.5t358.5 153t134.5 427t-134.5 427 t-358.5 153t-359 -153.5t-135 -426.5z" />
<glyph unicode="P" horiz-adv-x="1232" d="M162 0v1454h540q124 0 217.5 -35.5t149 -99t82.5 -144.5t27 -178q0 -103 -29.5 -188.5t-87 -150t-149.5 -100.5t-210 -36h-335v-522h-205zM367 707h319q144 0 215.5 75.5t71.5 216.5q0 129 -68 200t-223 71h-315v-563z" />
<glyph unicode="Q" horiz-adv-x="1548" d="M76 727q0 185 52 331.5t145 240.5t220.5 143t280.5 49t280.5 -49t221 -143t145.5 -240.5t52 -331.5q0 -247 -89.5 -419t-250.5 -261l167 -276h-235l-127 209q-87 -17 -164 -17q-153 0 -280.5 49t-220.5 143t-145 240.5t-52 331.5zM281 727q0 -274 134.5 -427t358.5 -153 t359 153.5t135 426.5t-135 426.5t-359 153.5t-358.5 -153t-134.5 -427z" />
<glyph unicode="R" horiz-adv-x="1296" d="M152 0v1454h559q124 0 217 -33t148.5 -91.5t82.5 -132t27 -161.5q0 -148 -75.5 -259t-221.5 -152l319 -625h-237l-293 600h-322v-600h-204zM356 784h338q144 0 216.5 67.5t72.5 186.5q0 232 -291 232h-336v-486z" />
<glyph unicode="S" horiz-adv-x="1234" d="M47 274l158 101q47 -68 95 -114t127 -80t175 -34q141 0 230.5 65t89.5 181q0 29 -5.5 53.5t-19.5 44.5t-28 35.5t-40 29.5t-46.5 23.5t-57.5 21t-61.5 18.5t-70 19.5t-73.5 20.5q-50 14 -86.5 26t-81.5 32t-77 41.5t-64.5 53t-52.5 68t-32.5 86.5t-12.5 109 q0 196 129 306t358 110q321 0 494 -217l-154 -125q-73 81 -152.5 119.5t-185.5 38.5q-140 0 -215.5 -60t-75.5 -157q0 -33 10.5 -61.5t25 -49t43 -39t52 -30.5t65 -25t68.5 -20t76 -19q65 -16 98.5 -25t92 -29.5t91.5 -39.5t75 -52t64 -71t38 -92t16 -119 q0 -214 -145 -334.5t-379 -120.5q-107 0 -199 26t-159.5 71t-115.5 98t-81 116z" />
<glyph unicode="T" horiz-adv-x="1253" d="M27 1270v184h1200v-184h-498v-1270h-205v1270h-497z" />
<glyph unicode="U" horiz-adv-x="1454" d="M152 518v936h204v-936q0 -177 101 -274t270 -97t270 97t101 274v936h205v-936q0 -176 -75.5 -303t-204 -189.5t-296.5 -62.5q-125 0 -230 36.5t-182 105.5t-120 175t-43 238z" />
<glyph unicode="V" horiz-adv-x="1325" d="M27 1454h219l418 -1231l417 1231h219l-520 -1454h-233z" />
<glyph unicode="W" horiz-adv-x="1781" d="M39 1454h213l266 -1157l270 1096h209l271 -1096l266 1157h213l-365 -1454h-223l-266 1118l-266 -1118h-224z" />
<glyph unicode="X" horiz-adv-x="1335" d="M25 0l512 743l-480 711h240l373 -549l379 549h221l-479 -696l512 -758h-244l-402 596l-409 -596h-223z" />
<glyph unicode="Y" horiz-adv-x="1253" d="M0 1454h240l393 -668l401 668h219l-524 -860v-594h-205v592z" />
<glyph unicode="Z" horiz-adv-x="1245" d="M51 0v184l889 1086h-819v184h1044v-184l-886 -1086h911v-184h-1139z" />
<glyph unicode="[" horiz-adv-x="624" d="M133 -492v2018h430v-164h-256v-1690h256v-164h-430z" />
<glyph unicode="\" horiz-adv-x="665" d="M-35 1454h154l573 -1454h-153z" />
<glyph unicode="]" horiz-adv-x="624" d="M57 -328h256v1690h-256v164h430v-2018h-430v164z" />
<glyph unicode="^" horiz-adv-x="1220" d="M147 678l390 706h147l389 -706h-188l-275 514l-274 -514h-189z" />
<glyph unicode="_" horiz-adv-x="1032" d="M4 -133h1024v-154h-1024v154z" />
<glyph unicode="`" horiz-adv-x="530" d="M41 1526h276l164 -314h-170z" />
<glyph unicode="a" horiz-adv-x="1171" d="M76 496q0 232 133 376t354 144q187 0 285 -115v92h184v-993h-184v90q-98 -115 -285 -115q-221 0 -354 144.5t-133 376.5zM270 496q0 -161 82.5 -253.5t227.5 -92.5q87 0 156 39.5t112 107.5v397q-42 69 -111.5 108.5t-156.5 39.5q-145 0 -227.5 -92.5t-82.5 -253.5z" />
<glyph unicode="b" horiz-adv-x="1175" d="M139 0v1495h185v-594q98 115 284 115q221 0 354.5 -144t133.5 -376t-133.5 -376.5t-354.5 -144.5q-186 0 -284 115v-90h-185zM324 297q43 -68 112 -107.5t156 -39.5q145 0 227 92.5t82 253.5t-82 253.5t-227 92.5q-87 0 -156.5 -39.5t-111.5 -108.5v-397z" />
<glyph unicode="c" horiz-adv-x="1071" d="M80 496q0 234 136 377t374 143q278 0 414 -217l-138 -117q-64 87 -126.5 123.5t-147.5 36.5q-152 0 -235 -92t-83 -254q0 -160 81.5 -253t222.5 -93q183 0 294 165l144 -90q-61 -117 -173.5 -183.5t-267.5 -66.5q-229 0 -362 143.5t-133 377.5z" />
<glyph unicode="d" horiz-adv-x="1175" d="M80 496q0 232 133 376t354 144q187 0 285 -115v594h184v-1495h-184v90q-98 -115 -285 -115q-221 0 -354 144.5t-133 376.5zM274 496q0 -161 82.5 -253.5t227.5 -92.5q87 0 156 39.5t112 107.5v397q-42 69 -111.5 108.5t-156.5 39.5q-145 0 -227.5 -92.5t-82.5 -253.5z " />
<glyph unicode="e" horiz-adv-x="1105" d="M76 498q0 232 128.5 375t350.5 143q221 0 345 -141t124 -369q0 -42 -2 -62h-760q15 -143 101.5 -223t220.5 -80q178 0 284 144l144 -90q-137 -220 -430 -220q-239 0 -372.5 142.5t-133.5 380.5zM270 606h557q-21 115 -91.5 179.5t-182.5 64.5q-117 0 -188.5 -67 t-94.5 -177z" />
<glyph unicode="f" horiz-adv-x="643" d="M57 819v174h95v211q0 77 26 137.5t69 97t95 55.5t109 19q120 0 208 -79l-81 -140q-61 52 -119 52q-51 0 -87 -33t-36 -94v-226h258v-174h-258v-819h-184v819h-95z" />
<glyph unicode="g" horiz-adv-x="1175" d="M80 496q0 232 133 376t354 144q187 0 285 -115v92h184v-975q0 -270 -134.5 -405t-362.5 -135q-247 0 -422 172l108 133q137 -137 310 -137q166 0 241.5 89.5t75.5 280.5v74q-98 -115 -285 -115q-221 0 -354 144.5t-133 376.5zM274 496q0 -161 82.5 -253.5t227.5 -92.5 q87 0 156 39.5t112 107.5v397q-42 69 -111.5 108.5t-156.5 39.5q-145 0 -227.5 -92.5t-82.5 -253.5z" />
<glyph unicode="h" horiz-adv-x="1177" d="M139 0v1495h185v-612q117 133 305 133q210 0 319 -120.5t109 -352.5v-543h-185v553q0 137 -71.5 213t-200.5 76q-90 0 -163.5 -52t-112.5 -139v-651h-185z" />
<glyph unicode="i" horiz-adv-x="462" d="M111 1364q0 61 33 91t87 30q53 0 87 -30t34 -91q0 -62 -33.5 -91.5t-87.5 -29.5q-55 0 -87.5 29t-32.5 92zM139 0v993h185v-993h-185z" />
<glyph unicode="j" horiz-adv-x="462" d="M-137 -455l63 152q53 -33 109 -33q46 0 75 29t29 92v1208h185v-1192q0 -85 -23.5 -147.5t-65 -97t-89.5 -50.5t-105 -16q-100 0 -178 55zM111 1364q0 61 33 91t87 30q53 0 87 -30t34 -91q0 -62 -33.5 -91.5t-87.5 -29.5q-55 0 -87.5 29t-32.5 92z" />
<glyph unicode="k" horiz-adv-x="1071" d="M139 0v1495h185v-844l428 342h282l-487 -379l510 -614h-240l-409 508l-84 -66v-442h-185z" />
<glyph unicode="l" horiz-adv-x="462" d="M139 0v1495h185v-1495h-185z" />
<glyph unicode="m" horiz-adv-x="1775" d="M139 0v993h185v-104q110 127 278 127q226 0 322 -162q56 76 144 119t192 43q192 0 293.5 -116.5t101.5 -336.5v-563h-185v532q0 148 -60.5 229t-172.5 81q-78 0 -144.5 -45t-111.5 -123q8 -47 8 -111v-563h-184v532q0 149 -62 229.5t-176 80.5q-81 0 -145 -46t-98 -118 v-678h-185z" />
<glyph unicode="n" horiz-adv-x="1177" d="M139 0v993h185v-110q117 133 305 133q210 0 319 -120.5t109 -352.5v-543h-185v532q0 161 -69.5 235.5t-202.5 74.5q-90 0 -163.5 -52t-112.5 -139v-651h-185z" />
<glyph unicode="o" horiz-adv-x="1150" d="M76 496q0 234 133 377t366 143t366.5 -143t133.5 -377t-133.5 -377.5t-366.5 -143.5t-366 143.5t-133 377.5zM270 496q0 -160 82 -253t223 -93q140 0 223 93.5t83 252.5t-83 252.5t-223 93.5q-141 0 -223 -93t-82 -253z" />
<glyph unicode="p" horiz-adv-x="1175" d="M139 -492v1485h185v-92q98 115 284 115q221 0 354.5 -144t133.5 -376t-133.5 -376.5t-354.5 -144.5q-186 0 -284 115v-582h-185zM324 297q43 -68 112 -107.5t156 -39.5q145 0 227 92.5t82 253.5t-82 253.5t-227 92.5q-87 0 -156.5 -39.5t-111.5 -108.5v-397z" />
<glyph unicode="q" horiz-adv-x="1175" d="M80 496q0 232 133 376t354 144q187 0 285 -115v92h184v-1485h-184v582q-98 -115 -285 -115q-221 0 -354 144.5t-133 376.5zM274 496q0 -161 82.5 -253.5t227.5 -92.5q87 0 156 39.5t112 107.5v397q-42 69 -111.5 108.5t-156.5 39.5q-145 0 -227.5 -92.5t-82.5 -253.5z " />
<glyph unicode="r" horiz-adv-x="821" d="M139 0v993h185v-143q107 166 286 166q107 0 217 -66l-88 -164q-79 43 -159 43q-176 0 -256 -204v-625h-185z" />
<glyph unicode="s" horiz-adv-x="929" d="M49 168l127 123q65 -78 132 -114t157 -36q190 0 190 138q0 25 -6.5 44.5t-22 33t-31 23t-43.5 17.5t-49.5 13t-59 12.5t-62.5 13.5q-45 11 -81.5 24.5t-77 37t-67.5 52.5t-45 73t-18 98q0 136 101.5 215.5t271.5 79.5q228 0 366 -148l-110 -133q-53 54 -113 84.5 t-151 30.5q-183 0 -183 -121q0 -27 11.5 -47.5t25.5 -32.5t47.5 -23.5t56 -17t72.5 -16.5q47 -10 76.5 -17t71 -20t67 -27t55 -36.5t45.5 -49.5t27 -64.5t11 -82.5q0 -152 -107 -236t-276 -84q-249 0 -408 193z" />
<glyph unicode="t" horiz-adv-x="679" d="M31 819v174h114v271h185v-271h266v-174h-266v-534q0 -135 108 -135q67 0 135 49l80 -138q-94 -79 -227 -79q-130 0 -205.5 77t-75.5 211v549h-114z" />
<glyph unicode="u" horiz-adv-x="1157" d="M121 451v542h184v-532q0 -161 66.5 -235t193.5 -74q87 0 159.5 49t109.5 133v659h184v-993h-184v102q-115 -125 -297 -125q-204 0 -310 121t-106 353z" />
<glyph unicode="v" horiz-adv-x="1060" d="M16 993h220l303 -805l295 805h210l-401 -993h-215z" />
<glyph unicode="w" horiz-adv-x="1638" d="M35 993h205l252 -823l233 823h225l240 -817l223 817h191l-310 -993h-217l-241 791l-236 -791h-217z" />
<glyph unicode="x" horiz-adv-x="1116" d="M27 0l409 514l-403 479h233l281 -354l268 354h221l-381 -471l437 -522h-234l-311 395l-299 -395h-221z" />
<glyph unicode="y" horiz-adv-x="1077" d="M23 993h210l316 -776l299 776h205l-613 -1485h-202l217 482z" />
<glyph unicode="z" horiz-adv-x="1024" d="M53 0v154l625 665h-584v174h838v-139l-639 -680h668v-174h-908z" />
<glyph unicode="{" horiz-adv-x="698" d="M14 481v144q23 0 54 10t63 29t54 54t22 77v450q0 130 68 205.5t176 75.5h186v-164h-133q-60 0 -91.5 -37.5t-31.5 -105.5v-449q0 -58 -18 -101.5t-46.5 -66t-53.5 -33.5t-48 -14v-4q166 -20 166 -227v-508q0 -144 123 -144h133v-164h-186q-106 0 -175 76.5t-69 204.5v506 q0 38 -15 70t-37 53t-49 35.5t-50.5 21t-41.5 6.5z" />
<glyph unicode="|" horiz-adv-x="550" d="M209 -102v1618h133v-1618h-133z" />
<glyph unicode="}" horiz-adv-x="677" d="M37 -328h133q123 0 123 144v508q0 207 166 227v4q-23 3 -48 14t-53.5 33.5t-46.5 66t-18 101.5v449q0 68 -31.5 105.5t-91.5 37.5h-133v164h186q108 0 176 -75.5t68 -205.5v-450q0 -56 38 -97t79.5 -57t74.5 -16v-144q-23 0 -53.5 -11t-62.5 -31.5t-54 -58.5t-22 -85 v-506q0 -128 -69 -204.5t-175 -76.5h-186v164z" />
<glyph unicode="~" horiz-adv-x="1216" d="M78 373q5 66 28 126.5t62.5 109.5t101.5 78.5t138 29.5q58 0 120 -25.5t105.5 -56.5t95.5 -56.5t94 -25.5q128 0 148 160h168q-5 -66 -28 -126.5t-62.5 -109.5t-101.5 -78.5t-138 -29.5q-58 0 -120 25.5t-105.5 56t-96 56t-94.5 25.5q-128 0 -147 -159h-168z" />
<glyph unicode="&#xa1;" horiz-adv-x="645" d="M193 889q0 63 35 98t98 35t98 -35t35 -98t-35 -98t-98 -35t-98 35t-35 98zM223 -432q0 96 0.5 176.5t2 155.5t2.5 123t4.5 114.5t4 92t6 93.5t6 81t7.5 92t8 92h123q1 -13 8 -92t7.5 -92t6 -81t6 -93.5t4 -92t4.5 -114.5t2.5 -123t2 -155.5t0.5 -176.5h-205z" />
<glyph unicode="&#xa2;" d="M109 727q0 205 102.5 339t286.5 157v231h131v-229q208 -21 321 -195l-137 -96q-46 61 -89 91.5t-95 37.5v-670q109 24 190 133l144 -69q-47 -93 -132.5 -153t-201.5 -73v-231h-131v231q-183 22 -286 156t-103 340zM289 727q0 -133 55.5 -221t153.5 -111v662 q-100 -25 -154.5 -111.5t-54.5 -218.5z" />
<glyph unicode="&#xa3;" horiz-adv-x="1132" d="M76 82q62 111 104.5 237t42.5 218q0 45 -6 86h-141v163h98q-43 135 -43 279q0 179 108 279t293 100q315 0 420 -295l-157 -96q-23 67 -51.5 112t-61 67t-62.5 30t-67 8q-95 0 -158 -49t-69 -152q0 -41 5.5 -82.5t10.5 -63t19 -72t18 -65.5h358v-163h-331q2 -25 2 -80 q0 -151 -52 -287q237 -115 353 -115q62 0 101 29.5t97 103.5l150 -94q-18 -29 -38.5 -55.5t-53.5 -56.5t-70 -51t-87.5 -35.5t-105.5 -14.5q-45 0 -89 7.5t-97.5 28t-75.5 29.5t-85.5 41t-65.5 33q-10 -20 -31 -57t-27 -49z" />
<glyph unicode="&#xa5;" d="M53 1384h219l291 -741l299 741h219l-331 -741h204v-123h-295v-143h295v-123h-295v-254h-204v254h-285v123h285v143h-285v123h205z" />
<glyph unicode="&#xa6;" horiz-adv-x="550" d="M209 -102v620h133v-620h-133zM209 895v621h133v-621h-133z" />
<glyph unicode="&#xa7;" horiz-adv-x="1103" d="M86 -57l129 84q60 -87 137.5 -138t192.5 -51q116 0 190 53.5t74 149.5q0 27 -7.5 49.5t-17 39t-32 31.5t-38 24.5t-50.5 21t-54.5 17t-65 18t-67.5 18.5q-60 18 -100 32.5t-89.5 43t-78.5 62t-49.5 86.5t-20.5 120q0 98 44 171.5t122 117.5q-125 86 -125 254 q0 162 107 253t297 91q264 0 407 -180l-127 -103q-61 67 -126 99t-152 32q-116 0 -179 -50t-63 -130q0 -38 16.5 -68t39 -49t65.5 -36t74.5 -26t87.5 -22q156 -40 220 -72q153 -77 169 -240q2 -20 2 -42q0 -193 -178 -278q137 -87 137 -265q0 -177 -119.5 -276.5 t-312.5 -99.5q-171 0 -285 73t-174 185zM303 616q0 -32 9.5 -57.5t32 -45t44 -33t60 -26.5t64.5 -20t73 -18l84 -23q82 18 131 67.5t49 123.5q0 27 -7.5 49.5t-17 39t-32 31.5t-38 24.5t-50.5 21t-54.5 17t-65 18t-67.5 18.5l-67 22q-72 -23 -110 -78.5t-38 -130.5z" />
<glyph unicode="&#xa8;" horiz-adv-x="692" d="M41 1364q0 61 33.5 91t87.5 30q53 0 87 -30t34 -91q0 -62 -33.5 -91.5t-87.5 -29.5q-55 0 -88 29t-33 92zM401 1364q0 61 33.5 91t87.5 30q53 0 87 -30t34 -91q0 -62 -33.5 -91.5t-87.5 -29.5q-55 0 -88 29t-33 92z" />
<glyph unicode="&#xa9;" horiz-adv-x="1564" d="M63 727q0 178 53.5 322.5t149 241t227.5 148.5t289 52t289 -52t227.5 -148.5t149 -241t53.5 -322.5t-53.5 -322.5t-149 -241t-227.5 -148.5t-289 -52t-289 52t-227.5 148.5t-149 241t-53.5 322.5zM166 727q0 -310 168 -485.5t448 -175.5t448.5 175.5t168.5 485.5 t-168.5 486t-448.5 176t-448 -176t-168 -486zM313 729q0 259 129 393.5t353 134.5q239 0 372 -184l-98 -84q-113 146 -278 146q-157 0 -248.5 -105.5t-91.5 -302.5t89.5 -302.5t247.5 -105.5q98 0 165.5 46.5t125.5 140.5l105 -70q-130 -239 -398 -239q-217 0 -345 136 t-128 396z" />
<glyph unicode="&#xaa;" horiz-adv-x="870" d="M57 1022q0 164 92.5 265.5t245.5 101.5q124 0 195 -80v63h182v-696h-182v61q-71 -80 -195 -80q-153 0 -245.5 100.5t-92.5 264.5zM246 1022q0 -97 49 -154t133 -57q105 0 158 88v246q-51 88 -158 88q-85 0 -133.5 -56.5t-48.5 -154.5z" />
<glyph unicode="&#xab;" horiz-adv-x="1032" d="M111 475v164l409 338v-205l-297 -215l297 -215v-205zM520 475v164l410 338v-205l-297 -215l297 -215v-205z" />
<glyph unicode="&#xac;" horiz-adv-x="1216" d="M86 573v185h1044v-553h-184v368h-860z" />
<glyph unicode="&#xad;" horiz-adv-x="802" d="M94 457v184h615v-184h-615z" />
<glyph unicode="&#xae;" horiz-adv-x="1568" d="M66 727q0 178 53.5 322.5t149 241t227 148.5t288.5 52t289 -52t227.5 -148.5t149 -241t53.5 -322.5t-53.5 -322.5t-149 -241t-227.5 -148.5t-289 -52t-288.5 52t-227 148.5t-149 241t-53.5 322.5zM168 727q0 -310 168 -485.5t448 -175.5t448.5 175.5t168.5 485.5 t-168.5 486t-448.5 176t-448 -176t-168 -486zM463 260v969h373q161 0 239 -78t78 -201q0 -98 -51 -172t-148 -102l213 -416h-157l-197 399h-213v-399h-137zM600 782h225q96 0 144.5 45.5t48.5 124.5q0 154 -195 154h-223v-324z" />
<glyph unicode="&#xaf;" horiz-adv-x="704" d="M45 1311v143h614v-143h-614z" />
<glyph unicode="&#xb0;" horiz-adv-x="729" d="M45 1214q0 141 86 226.5t236 85.5q147 0 232 -85.5t85 -226.5q0 -140 -85 -224.5t-232 -84.5q-150 0 -236 84.5t-86 224.5zM197 1214q0 -79 44 -122t126 -43q78 0 125 43.5t47 121.5q0 81 -47 126.5t-125 45.5q-82 0 -126 -45t-44 -127z" />
<glyph unicode="&#xb1;" horiz-adv-x="1216" d="M86 0v184h1044v-184h-1044zM86 584v184h430v276h184v-276h430v-184h-430v-277h-184v277h-430z" />
<glyph unicode="&#xb2;" horiz-adv-x="751" d="M63 1376q102 148 297 148q134 0 211.5 -69t77.5 -185q0 -39 -12.5 -77.5t-28.5 -67.5t-51 -70.5t-59.5 -67t-75.5 -76t-80 -80.5h326v-155h-588v123q63 68 136 143t108.5 111t70 77t46.5 70t12 60q0 49 -28.5 76.5t-78.5 27.5q-99 0 -176 -92z" />
<glyph unicode="&#xb3;" horiz-adv-x="761" d="M37 844l139 100q31 -67 69 -96t99 -29q52 0 80.5 26.5t28.5 74.5q0 50 -31.5 76t-106.5 26h-79v156h63q64 0 97.5 26t33.5 74q0 39 -24.5 62.5t-69.5 23.5q-46 0 -82 -23t-74 -77l-121 108q37 70 111 111t168 41q132 0 210.5 -69t78.5 -173q0 -49 -26.5 -93.5 t-78.5 -74.5q127 -60 127 -199q0 -116 -82.5 -186t-222.5 -70q-117 0 -194.5 53t-112.5 132z" />
<glyph unicode="&#xb4;" horiz-adv-x="530" d="M45 1212l164 314h276l-270 -314h-170z" />
<glyph unicode="&#xb5;" horiz-adv-x="1175" d="M139 -492v1485h185v-532q0 -161 66.5 -235t193.5 -74q87 0 159 49t109 133v659h184v-993h-184v102q-115 -125 -297 -125q-142 0 -231 74v-543h-185z" />
<glyph unicode="&#xb6;" horiz-adv-x="1249" d="M55 1090q0 88 23 152.5t62 105t99 64.5t125.5 33t149.5 9h588v-164h-121v-1501h-174v1501h-178v-1501h-174v948h-29q-176 0 -273.5 90.5t-97.5 262.5z" />
<glyph unicode="&#xb7;" horiz-adv-x="548" d="M145 713q0 63 35.5 98t98.5 35t98 -35t35 -98t-35 -98t-98 -35t-98.5 35t-35.5 98z" />
<glyph unicode="&#xb8;" horiz-adv-x="550" d="M45 -416l39 109q75 -35 158 -35q100 0 100 61q0 37 -67 58.5t-150 21.5l72 201h139l-70 -121q51 0 88 -5.5t74.5 -20.5t57.5 -47.5t20 -81.5q0 -96 -73.5 -143.5t-180.5 -47.5q-128 0 -207 51z" />
<glyph unicode="&#xb9;" horiz-adv-x="790" d="M115 1327q62 26 114 73t80 107h178v-676h162v-155h-506v155h162v445q-50 -65 -133 -98z" />
<glyph unicode="&#xba;" horiz-adv-x="835" d="M49 1022q0 166 97.5 266.5t271.5 100.5t271 -100.5t97 -266.5t-97 -265.5t-271 -99.5t-271.5 99.5t-97.5 265.5zM238 1022q0 -97 48.5 -154t131.5 -57q82 0 131 57t49 154q0 98 -49 154.5t-131 56.5q-83 0 -131.5 -56.5t-48.5 -154.5z" />
<glyph unicode="&#xbb;" horiz-adv-x="1032" d="M98 137v205l297 215l-297 215v205l410 -338v-164zM508 137v205l297 215l-297 215v205l410 -338v-164z" />
<glyph unicode="&#xbc;" horiz-adv-x="1824" d="M115 1204q62 26 114 73t80 107h178v-675h162v-156h-506v156h162v444q-50 -65 -133 -98zM385 -82l963 1536h122l-962 -1536h-123zM1098 162v135l354 534h188v-532h97v-137h-97v-162h-188v162h-354zM1253 299h199v299z" />
<glyph unicode="&#xbd;" horiz-adv-x="1816" d="M115 1204q62 26 114 73t80 107h178v-675h162v-156h-506v156h162v444q-50 -65 -133 -98zM385 -82l963 1536h122l-962 -1536h-123zM1124 700q102 148 297 148q134 0 211.5 -69t77.5 -185q0 -39 -12.5 -77t-28.5 -67.5t-50.5 -70.5t-60 -66.5l-76 -76t-79.5 -80.5h326v-156 h-588v123q62 68 135.5 143t108.5 111t69.5 77t46.5 70t12 60q0 49 -28 76.5t-78 27.5q-99 0 -176 -92z" />
<glyph unicode="&#xbe;" horiz-adv-x="1796" d="M37 721l139 100q31 -67 69 -96t99 -29q52 0 80.5 26.5t28.5 74.5q0 50 -31.5 76t-106.5 26h-79v156h63q64 0 97.5 26t33.5 74q0 39 -24.5 62.5t-69.5 23.5q-46 0 -82 -23t-74 -77l-121 108q37 70 111 111t168 41q132 0 210.5 -69t78.5 -173q0 -49 -26.5 -93.5 t-78.5 -74.5q127 -60 127 -198q0 -116 -82.5 -186t-222.5 -70q-117 0 -195 52.5t-112 131.5zM356 -82l963 1536h123l-963 -1536h-123zM1069 162v135l354 534h189v-532h96v-137h-96v-162h-189v162h-354zM1225 299h198v299z" />
<glyph unicode="&#xbf;" horiz-adv-x="1046" d="M131 -86q0 64 15 119.5t33.5 91.5t55 75t58.5 57.5t65 51.5q40 31 59 47t45 44t37 57.5t11 64.5v45h184v-51q0 -54 -14 -98.5t-45.5 -83.5t-54.5 -61t-70 -60t-70 -60t-54.5 -61t-45.5 -83.5t-14 -98.5q5 -102 69.5 -159.5t179.5 -57.5q90 0 158.5 42.5t136.5 151.5 l136 -125q-146 -243 -445 -243q-202 0 -316 103.5t-114 291.5zM465 889q0 63 35 98t98 35t98 -35t35 -98t-35 -98t-98 -35t-98 35t-35 98z" />
<glyph unicode="&#xc0;" horiz-adv-x="1419" d="M20 0l574 1454h225l574 -1454h-226l-153 416h-625l-158 -416h-211zM408 1894h297l163 -313h-190zM459 600h485l-239 649z" />
<glyph unicode="&#xc1;" horiz-adv-x="1419" d="M20 0l574 1454h225l574 -1454h-226l-153 416h-625l-158 -416h-211zM459 600h485l-239 649zM551 1581l164 313h297l-271 -313h-190z" />
<glyph unicode="&#xc2;" horiz-adv-x="1419" d="M20 0l574 1454h225l574 -1454h-226l-153 416h-625l-158 -416h-211zM315 1602l240 292h309l242 -292h-232l-165 182l-164 -182h-230zM459 600h485l-239 649z" />
<glyph unicode="&#xc3;" horiz-adv-x="1419" d="M20 0l574 1454h225l574 -1454h-226l-153 416h-625l-158 -416h-211zM328 1651q15 120 64 174.5t140 54.5q58 0 154 -29q14 -4 50 -16t50.5 -16t35.5 -8.5t36 -4.5q65 0 78 88h156q-10 -120 -65 -179.5t-148 -59.5q-68 0 -187 39q-12 4 -39.5 13t-40 13t-30 7.5t-29.5 3.5 q-57 0 -68 -80h-157zM459 600h485l-239 649z" />
<glyph unicode="&#xc4;" horiz-adv-x="1419" d="M20 0l574 1454h225l574 -1454h-226l-153 416h-625l-158 -416h-211zM410 1712q0 61 33 91t87 30q53 0 87 -30t34 -91q0 -62 -33.5 -91.5t-87.5 -29.5q-55 0 -87.5 29t-32.5 92zM459 600h485l-239 649zM770 1712q0 61 33.5 91t87.5 30q53 0 87 -30t34 -91 q0 -62 -33.5 -91.5t-87.5 -29.5q-55 0 -88 29t-33 92z" />
<glyph unicode="&#xc5;" horiz-adv-x="1419" d="M20 0l574 1454h225l574 -1454h-226l-153 416h-625l-158 -416h-211zM459 600h485l-239 649zM489 1761q0 98 59.5 156.5t162.5 58.5q102 0 160.5 -58.5t58.5 -156.5q0 -96 -58.5 -154.5t-160.5 -58.5q-103 0 -162.5 58.5t-59.5 154.5zM594 1761q0 -55 30.5 -84.5 t86.5 -29.5q55 0 86.5 29.5t31.5 84.5q0 56 -31.5 87.5t-86.5 31.5q-56 0 -86.5 -31t-30.5 -88z" />
<glyph unicode="&#xc6;" horiz-adv-x="1980" d="M-57 0l794 1454h1168v-184h-795v-424h678v-184h-678v-478h795v-184h-1000v416h-516l-215 -416h-231zM483 600h422v670h-78z" />
<glyph unicode="&#xc7;" horiz-adv-x="1458" d="M100 727q0 370 185 567t503 197q178 0 317 -65t245 -212l-146 -124q-168 217 -420 217q-220 0 -349.5 -152t-129.5 -428q0 -274 127.5 -427t347.5 -153q148 0 250 69.5t189 209.5l157 -104q-195 -359 -592 -359h-4l-49 -84q51 0 88 -5.5t74.5 -20.5t57.5 -47.5t20 -81.5 q0 -96 -73.5 -143.5t-180.5 -47.5q-128 0 -207 51l39 109q75 -35 158 -35q100 0 100 61q0 37 -67 58.5t-150 21.5l61 174q-256 39 -403.5 233.5t-147.5 520.5z" />
<glyph unicode="&#xc8;" horiz-adv-x="1226" d="M152 0v1454h999v-184h-795v-424h678v-184h-678v-478h795v-184h-999zM305 1894h297l164 -313h-191z" />
<glyph unicode="&#xc9;" horiz-adv-x="1226" d="M152 0v1454h999v-184h-795v-424h678v-184h-678v-478h795v-184h-999zM449 1581l163 313h297l-270 -313h-190z" />
<glyph unicode="&#xca;" horiz-adv-x="1226" d="M152 0v1454h999v-184h-795v-424h678v-184h-678v-478h795v-184h-999zM213 1602l240 292h309l242 -292h-232l-166 182l-164 -182h-229z" />
<glyph unicode="&#xcb;" horiz-adv-x="1226" d="M152 0v1454h999v-184h-795v-424h678v-184h-678v-478h795v-184h-999zM307 1712q0 61 33.5 91t87.5 30q53 0 87 -30t34 -91q0 -62 -33.5 -91.5t-87.5 -29.5q-55 0 -88 29t-33 92zM668 1712q0 61 33 91t87 30q53 0 87 -30t34 -91q0 -62 -33.5 -91.5t-87.5 -29.5 q-55 0 -87.5 29t-32.5 92z" />
<glyph unicode="&#xcc;" horiz-adv-x="526" d="M-39 1894h297l164 -313h-191zM162 0v1454h205v-1454h-205z" />
<glyph unicode="&#xcd;" horiz-adv-x="526" d="M104 1581l164 313h297l-270 -313h-191zM162 0v1454h205v-1454h-205z" />
<glyph unicode="&#xce;" horiz-adv-x="526" d="M-131 1602l240 292h309l241 -292h-231l-166 182l-164 -182h-229zM162 0v1454h205v-1454h-205z" />
<glyph unicode="&#xcf;" horiz-adv-x="526" d="M-37 1712q0 61 33.5 91t87.5 30q53 0 87 -30t34 -91q0 -62 -33.5 -91.5t-87.5 -29.5q-55 0 -88 29t-33 92zM162 0v1454h205v-1454h-205zM324 1712q0 61 33 91t87 30q53 0 87 -30t34 -91q0 -62 -33.5 -91.5t-87.5 -29.5q-55 0 -87.5 29t-32.5 92z" />
<glyph unicode="&#xd0;" horiz-adv-x="1456" d="M53 662v184h105v608h504q153 0 280.5 -46.5t220.5 -136t145 -228.5t52 -316t-52 -316t-145 -228.5t-220 -136t-279 -46.5h-506v662h-105zM362 184h320q98 0 183.5 36t150.5 103t102 171t37 233t-37 233t-102 171t-150.5 103t-183.5 36h-320v-424h369v-184h-369v-478z" />
<glyph unicode="&#xd1;" horiz-adv-x="1474" d="M152 0v1454h247l715 -1163h4v1163h205v-1454h-248l-715 1163h-4v-1163h-204zM354 1651q15 119 64.5 174t140.5 55q58 0 154 -29q14 -4 50 -16t50.5 -16t35.5 -8.5t36 -4.5q65 0 78 88h155q-10 -120 -65 -179.5t-148 -59.5q-67 0 -186 39q-12 4 -39.5 13t-40 13t-30 7.5 t-29.5 3.5q-57 0 -68 -80h-158z" />
<glyph unicode="&#xd2;" horiz-adv-x="1597" d="M100 727q0 185 52 331.5t145.5 240.5t221 143t280.5 49t280.5 -49t220.5 -143t145 -240.5t52 -331.5t-52 -331.5t-145 -240.5t-220.5 -143t-280.5 -49t-280.5 49t-221 143t-145.5 240.5t-52 331.5zM305 727q0 -273 135 -426.5t359 -153.5t358.5 153t134.5 427t-134.5 427 t-358.5 153t-359 -153.5t-135 -426.5zM496 1894h297l163 -313h-190z" />
<glyph unicode="&#xd3;" horiz-adv-x="1597" d="M100 727q0 185 52 331.5t145.5 240.5t221 143t280.5 49t280.5 -49t220.5 -143t145 -240.5t52 -331.5t-52 -331.5t-145 -240.5t-220.5 -143t-280.5 -49t-280.5 49t-221 143t-145.5 240.5t-52 331.5zM305 727q0 -273 135 -426.5t359 -153.5t358.5 153t134.5 427t-134.5 427 t-358.5 153t-359 -153.5t-135 -426.5zM639 1581l164 313h297l-271 -313h-190z" />
<glyph unicode="&#xd4;" horiz-adv-x="1597" d="M100 727q0 185 52 331.5t145.5 240.5t221 143t280.5 49t280.5 -49t220.5 -143t145 -240.5t52 -331.5t-52 -331.5t-145 -240.5t-220.5 -143t-280.5 -49t-280.5 49t-221 143t-145.5 240.5t-52 331.5zM305 727q0 -273 135 -426.5t359 -153.5t358.5 153t134.5 427t-134.5 427 t-358.5 153t-359 -153.5t-135 -426.5zM403 1602l240 292h309l242 -292h-231l-166 182l-164 -182h-230z" />
<glyph unicode="&#xd5;" horiz-adv-x="1597" d="M100 727q0 185 52 331.5t145.5 240.5t221 143t280.5 49t280.5 -49t220.5 -143t145 -240.5t52 -331.5t-52 -331.5t-145 -240.5t-220.5 -143t-280.5 -49t-280.5 49t-221 143t-145.5 240.5t-52 331.5zM305 727q0 -273 135 -426.5t359 -153.5t358.5 153t134.5 427t-134.5 427 t-358.5 153t-359 -153.5t-135 -426.5zM416 1651q15 119 64.5 174t140.5 55q57 0 153 -29q14 -4 50 -16t50.5 -16t35.5 -8.5t36 -4.5q65 0 78 88h156q-10 -120 -65 -179.5t-148 -59.5q-68 0 -187 39q-12 4 -39.5 13t-40 13t-30 7.5t-29.5 3.5q-57 0 -68 -80h-157z" />
<glyph unicode="&#xd6;" horiz-adv-x="1597" d="M100 727q0 185 52 331.5t145.5 240.5t221 143t280.5 49t280.5 -49t220.5 -143t145 -240.5t52 -331.5t-52 -331.5t-145 -240.5t-220.5 -143t-280.5 -49t-280.5 49t-221 143t-145.5 240.5t-52 331.5zM305 727q0 -273 135 -426.5t359 -153.5t358.5 153t134.5 427t-134.5 427 t-358.5 153t-359 -153.5t-135 -426.5zM498 1712q0 61 33 91t87 30q53 0 87 -30t34 -91q0 -62 -33.5 -91.5t-87.5 -29.5q-55 0 -87.5 29t-32.5 92zM858 1712q0 61 33.5 91t87.5 30q53 0 87 -30t34 -91q0 -62 -33.5 -91.5t-87.5 -29.5q-55 0 -88 29t-33 92z" />
<glyph unicode="&#xd7;" horiz-adv-x="1216" d="M86 119l403 403l-403 404l119 118l403 -403l404 403l118 -118l-403 -404l403 -403l-118 -119l-404 403l-403 -403z" />
<glyph unicode="&#xd8;" horiz-adv-x="1548" d="M96 727q0 185 52 331.5t145.5 240.5t221 143t280.5 49q216 0 374 -94l82 110l99 -73l-82 -109q225 -206 225 -598q0 -185 -52 -331.5t-145 -240.5t-220.5 -143t-280.5 -49q-261 0 -439 135l-112 -151l-99 73l123 164q-172 200 -172 543zM301 727q0 -226 94 -371l658 883 q-112 68 -258 68q-224 0 -359 -153.5t-135 -426.5zM477 260q128 -113 318 -113q224 0 358.5 153t134.5 427q0 280 -141 434z" />
<glyph unicode="&#xd9;" horiz-adv-x="1454" d="M152 518v936h204v-936q0 -177 101 -274t270 -97t270 97t101 274v936h205v-936q0 -176 -75.5 -303t-204 -189.5t-296.5 -62.5q-125 0 -230 36.5t-182 105.5t-120 175t-43 238zM424 1894h297l164 -313h-191z" />
<glyph unicode="&#xda;" horiz-adv-x="1454" d="M152 518v936h204v-936q0 -177 101 -274t270 -97t270 97t101 274v936h205v-936q0 -176 -75.5 -303t-204 -189.5t-296.5 -62.5q-125 0 -230 36.5t-182 105.5t-120 175t-43 238zM567 1581l164 313h297l-270 -313h-191z" />
<glyph unicode="&#xdb;" horiz-adv-x="1454" d="M152 518v936h204v-936q0 -177 101 -274t270 -97t270 97t101 274v936h205v-936q0 -176 -75.5 -303t-204 -189.5t-296.5 -62.5q-125 0 -230 36.5t-182 105.5t-120 175t-43 238zM332 1602l239 292h310l241 -292h-231l-166 182l-164 -182h-229z" />
<glyph unicode="&#xdc;" horiz-adv-x="1454" d="M152 518v936h204v-936q0 -177 101 -274t270 -97t270 97t101 274v936h205v-936q0 -176 -75.5 -303t-204 -189.5t-296.5 -62.5q-125 0 -230 36.5t-182 105.5t-120 175t-43 238zM426 1712q0 61 33.5 91t87.5 30q53 0 87 -30t34 -91q0 -62 -33.5 -91.5t-87.5 -29.5 q-55 0 -88 29t-33 92zM786 1712q0 61 33.5 91t87.5 30q53 0 87 -30t34 -91q0 -62 -33.5 -91.5t-87.5 -29.5q-55 0 -88 29t-33 92z" />
<glyph unicode="&#xdd;" horiz-adv-x="1253" d="M0 1454h240l393 -668l401 668h219l-524 -860v-594h-205v592zM467 1673l164 314h276l-270 -314h-170z" />
<glyph unicode="&#xde;" horiz-adv-x="1232" d="M162 0v1454h205v-233h335q124 0 217.5 -35.5t149 -99t82.5 -144.5t27 -178q0 -103 -29.5 -188.5t-87 -150t-149.5 -100.5t-210 -36h-335v-289h-205zM367 473h319q144 0 215.5 76t71.5 217q0 129 -68 199.5t-223 70.5h-315v-563z" />
<glyph unicode="&#xdf;" horiz-adv-x="1216" d="M139 0v1016q0 233 115.5 371.5t325.5 138.5q188 0 303.5 -105.5t115.5 -277.5q0 -94 -49.5 -176.5t-136.5 -137.5q157 -44 240.5 -149t83.5 -250q0 -206 -132 -330.5t-329 -124.5q-171 0 -266 62l88 158q63 -48 178 -48q117 0 191.5 75.5t74.5 207.5q0 138 -101 212 t-315 83v158q122 5 200.5 78t78.5 182q0 99 -60 155t-165 56q-125 0 -190.5 -85t-65.5 -253v-1016h-185z" />
<glyph unicode="&#xe0;" horiz-adv-x="1171" d="M76 496q0 232 133 376t354 144q187 0 285 -115v92h184v-993h-184v90q-98 -115 -285 -115q-221 0 -354 144.5t-133 376.5zM270 496q0 -161 82.5 -253.5t227.5 -92.5q87 0 156 39.5t112 107.5v397q-42 69 -111.5 108.5t-156.5 39.5q-145 0 -227.5 -92.5t-82.5 -253.5z M297 1526h276l164 -314h-170z" />
<glyph unicode="&#xe1;" horiz-adv-x="1171" d="M76 496q0 232 133 376t354 144q187 0 285 -115v92h184v-993h-184v90q-98 -115 -285 -115q-221 0 -354 144.5t-133 376.5zM270 496q0 -161 82.5 -253.5t227.5 -92.5q87 0 156 39.5t112 107.5v397q-42 69 -111.5 108.5t-156.5 39.5q-145 0 -227.5 -92.5t-82.5 -253.5z M424 1212l164 314h276l-270 -314h-170z" />
<glyph unicode="&#xe2;" horiz-adv-x="1171" d="M76 496q0 232 133 376t354 144q187 0 285 -115v92h184v-993h-184v90q-98 -115 -285 -115q-221 0 -354 144.5t-133 376.5zM209 1233l240 293h268l241 -293h-210l-166 182l-164 -182h-209zM270 496q0 -161 82.5 -253.5t227.5 -92.5q87 0 156 39.5t112 107.5v397 q-42 69 -111.5 108.5t-156.5 39.5q-145 0 -227.5 -92.5t-82.5 -253.5z" />
<glyph unicode="&#xe3;" horiz-adv-x="1171" d="M76 496q0 232 133 376t354 144q187 0 285 -115v92h184v-993h-184v90q-98 -115 -285 -115q-221 0 -354 144.5t-133 376.5zM201 1241q15 119 64.5 174t140.5 55q60 0 153 -28q14 -4 50 -16t50.5 -16t35.5 -8.5t36 -4.5q65 0 78 88h156q-10 -121 -65 -180.5t-148 -59.5 q-68 0 -187 39q-12 4 -39.5 13t-40 13t-30 7.5t-29.5 3.5q-57 0 -68 -80h-157zM270 496q0 -161 82.5 -253.5t227.5 -92.5q87 0 156 39.5t112 107.5v397q-42 69 -111.5 108.5t-156.5 39.5q-145 0 -227.5 -92.5t-82.5 -253.5z" />
<glyph unicode="&#xe4;" horiz-adv-x="1171" d="M76 496q0 232 133 376t354 144q187 0 285 -115v92h184v-993h-184v90q-98 -115 -285 -115q-221 0 -354 144.5t-133 376.5zM270 496q0 -161 82.5 -253.5t227.5 -92.5q87 0 156 39.5t112 107.5v397q-42 69 -111.5 108.5t-156.5 39.5q-145 0 -227.5 -92.5t-82.5 -253.5z M283 1364q0 61 33 91t87 30q53 0 87 -30t34 -91q0 -62 -33.5 -91.5t-87.5 -29.5q-55 0 -87.5 29t-32.5 92zM643 1364q0 61 33.5 91t87.5 30q53 0 87 -30t34 -91q0 -62 -33.5 -91.5t-87.5 -29.5q-55 0 -88 29t-33 92z" />
<glyph unicode="&#xe5;" horiz-adv-x="1171" d="M76 496q0 232 133 376t354 144q187 0 285 -115v92h184v-993h-184v90q-98 -115 -285 -115q-221 0 -354 144.5t-133 376.5zM270 496q0 -161 82.5 -253.5t227.5 -92.5q87 0 156 39.5t112 107.5v397q-42 69 -111.5 108.5t-156.5 39.5q-145 0 -227.5 -92.5t-82.5 -253.5z M362 1311q0 98 59.5 156.5t162.5 58.5q102 0 160.5 -58.5t58.5 -156.5q0 -96 -58.5 -154.5t-160.5 -58.5q-103 0 -162.5 58.5t-59.5 154.5zM467 1311q0 -55 30.5 -85t86.5 -30q55 0 86.5 30t31.5 85q0 56 -31.5 87.5t-86.5 31.5q-56 0 -86.5 -31t-30.5 -88z" />
<glyph unicode="&#xe6;" horiz-adv-x="1873" d="M80 496q0 231 133 375.5t348 144.5q188 0 291 -129v106h176v-106q113 129 307 129q209 0 333 -142t124 -368q0 -42 -2 -62h-760q15 -143 101.5 -223t220.5 -80q178 0 284 144l144 -90q-63 -104 -173.5 -162t-248.5 -58q-210 0 -330 136v-111h-176v111 q-102 -136 -291 -136q-215 0 -348 145t-133 376zM274 496q0 -160 82.5 -253t223.5 -93q180 0 272 147v397q-90 148 -272 148q-141 0 -223.5 -93t-82.5 -253zM1038 606h557q-21 115 -91.5 179.5t-182.5 64.5q-117 0 -188.5 -67t-94.5 -177z" />
<glyph unicode="&#xe7;" horiz-adv-x="1071" d="M80 496q0 234 136 377t374 143q278 0 414 -217l-138 -117q-64 87 -126.5 123.5t-147.5 36.5q-152 0 -235 -92t-83 -254q0 -160 81.5 -253t222.5 -93q183 0 294 165l144 -90q-61 -115 -171.5 -182t-262.5 -68l-56 -96q51 0 88 -5.5t74.5 -20.5t57.5 -47.5t20 -81.5 q0 -96 -73.5 -143.5t-180.5 -47.5q-128 0 -207 51l39 109q75 -35 158 -35q100 0 100 61q0 37 -67 58.5t-150 21.5l68 189q-176 36 -274.5 172t-98.5 336z" />
<glyph unicode="&#xe8;" horiz-adv-x="1105" d="M76 498q0 232 128.5 375t350.5 143q221 0 345 -141t124 -369q0 -42 -2 -62h-760q15 -143 101.5 -223t220.5 -80q178 0 284 144l144 -90q-137 -220 -430 -220q-239 0 -372.5 142.5t-133.5 380.5zM264 1526h277l164 -314h-170zM270 606h557q-21 115 -91.5 179.5 t-182.5 64.5q-117 0 -188.5 -67t-94.5 -177z" />
<glyph unicode="&#xe9;" horiz-adv-x="1105" d="M76 498q0 232 128.5 375t350.5 143q221 0 345 -141t124 -369q0 -42 -2 -62h-760q15 -143 101.5 -223t220.5 -80q178 0 284 144l144 -90q-137 -220 -430 -220q-239 0 -372.5 142.5t-133.5 380.5zM270 606h557q-21 115 -91.5 179.5t-182.5 64.5q-117 0 -188.5 -67 t-94.5 -177zM391 1212l164 314h276l-270 -314h-170z" />
<glyph unicode="&#xea;" horiz-adv-x="1105" d="M76 498q0 232 128.5 375t350.5 143q221 0 345 -141t124 -369q0 -42 -2 -62h-760q15 -143 101.5 -223t220.5 -80q178 0 284 144l144 -90q-137 -220 -430 -220q-239 0 -372.5 142.5t-133.5 380.5zM176 1233l240 293h268l242 -293h-211l-166 182l-164 -182h-209zM270 606 h557q-21 115 -91.5 179.5t-182.5 64.5q-117 0 -188.5 -67t-94.5 -177z" />
<glyph unicode="&#xeb;" horiz-adv-x="1105" d="M76 498q0 232 128.5 375t350.5 143q221 0 345 -141t124 -369q0 -42 -2 -62h-760q15 -143 101.5 -223t220.5 -80q178 0 284 144l144 -90q-137 -220 -430 -220q-239 0 -372.5 142.5t-133.5 380.5zM250 1364q0 61 33.5 91t87.5 30q53 0 87 -30t34 -91q0 -62 -33.5 -91.5 t-87.5 -29.5q-55 0 -88 29t-33 92zM270 606h557q-21 115 -91.5 179.5t-182.5 64.5q-117 0 -188.5 -67t-94.5 -177zM610 1364q0 61 33.5 91t87.5 30q53 0 87 -30t34 -91q0 -62 -33.5 -91.5t-87.5 -29.5q-55 0 -88 29t-33 92z" />
<glyph unicode="&#xec;" horiz-adv-x="462" d="M-55 1526h276l164 -314h-170zM139 0v993h185v-993h-185z" />
<glyph unicode="&#xed;" horiz-adv-x="462" d="M72 1212l164 314h276l-270 -314h-170zM139 0v993h185v-993h-185z" />
<glyph unicode="&#xee;" horiz-adv-x="462" d="M-143 1233l239 293h269l241 -293h-211l-166 182l-163 -182h-209zM139 0v993h185v-993h-185z" />
<glyph unicode="&#xef;" horiz-adv-x="462" d="M-70 1364q0 61 33.5 91t87.5 30q53 0 87 -30t34 -91q0 -62 -33.5 -91.5t-87.5 -29.5q-55 0 -88 29t-33 92zM139 0v993h185v-993h-185zM291 1364q0 61 33.5 91t87.5 30q53 0 86.5 -30t33.5 -91q0 -62 -33 -91.5t-87 -29.5q-55 0 -88 29t-33 92z" />
<glyph unicode="&#xf0;" horiz-adv-x="1138" d="M80 494q0 231 132.5 376.5t338.5 145.5q164 0 262 -105l4 4q-79 154 -258 283l-330 -145l-71 145l233 102q-39 21 -139 70l78 146q147 -59 262 -125l237 104l72 -145l-153 -68q311 -261 311 -711q0 -276 -128 -436t-358 -160q-226 0 -359.5 143.5t-133.5 375.5zM274 496 q0 -158 80 -252t221 -94q137 0 217 110t80 322q0 40 -4 94q-46 77 -120 121.5t-170 44.5q-140 0 -222 -93t-82 -253z" />
<glyph unicode="&#xf1;" horiz-adv-x="1177" d="M139 0v993h185v-110q117 133 305 133q210 0 319 -120.5t109 -352.5v-543h-185v532q0 161 -69.5 235.5t-202.5 74.5q-90 0 -163.5 -52t-112.5 -139v-651h-185zM207 1241q15 119 64.5 174t140.5 55q60 0 153 -28q14 -4 50 -16t50.5 -16t35.5 -8.5t36 -4.5q65 0 78 88h156 q-10 -121 -65 -180.5t-148 -59.5q-68 0 -187 39q-12 4 -39.5 13t-40 13t-30 7.5t-29.5 3.5q-29 0 -45 -18.5t-22 -61.5h-158z" />
<glyph unicode="&#xf2;" horiz-adv-x="1150" d="M76 496q0 234 133 377t366 143t366.5 -143t133.5 -377t-133.5 -377.5t-366.5 -143.5t-366 143.5t-133 377.5zM270 496q0 -160 82 -253t223 -93q140 0 223 93.5t83 252.5t-83 252.5t-223 93.5q-141 0 -223 -93t-82 -253zM289 1526h276l164 -314h-170z" />
<glyph unicode="&#xf3;" horiz-adv-x="1150" d="M76 496q0 234 133 377t366 143t366.5 -143t133.5 -377t-133.5 -377.5t-366.5 -143.5t-366 143.5t-133 377.5zM270 496q0 -160 82 -253t223 -93q140 0 223 93.5t83 252.5t-83 252.5t-223 93.5q-141 0 -223 -93t-82 -253zM416 1212l164 314h276l-270 -314h-170z" />
<glyph unicode="&#xf4;" horiz-adv-x="1150" d="M76 496q0 234 133 377t366 143t366.5 -143t133.5 -377t-133.5 -377.5t-366.5 -143.5t-366 143.5t-133 377.5zM201 1233l239 293h269l241 -293h-211l-166 182l-163 -182h-209zM270 496q0 -160 82 -253t223 -93q140 0 223 93.5t83 252.5t-83 252.5t-223 93.5 q-141 0 -223 -93t-82 -253z" />
<glyph unicode="&#xf5;" horiz-adv-x="1150" d="M76 496q0 234 133 377t366 143t366.5 -143t133.5 -377t-133.5 -377.5t-366.5 -143.5t-366 143.5t-133 377.5zM193 1241q15 120 64 174.5t140 54.5q61 0 154 -28q14 -4 50 -16t50.5 -16t35.5 -8.5t36 -4.5q65 0 78 88h155q-10 -121 -65 -180.5t-148 -59.5q-67 0 -186 39 q-12 4 -39.5 13t-40 13t-30 7.5t-29.5 3.5q-57 0 -68 -80h-157zM270 496q0 -160 82 -253t223 -93q140 0 223 93.5t83 252.5t-83 252.5t-223 93.5q-141 0 -223 -93t-82 -253z" />
<glyph unicode="&#xf6;" horiz-adv-x="1150" d="M76 496q0 234 133 377t366 143t366.5 -143t133.5 -377t-133.5 -377.5t-366.5 -143.5t-366 143.5t-133 377.5zM270 496q0 -160 82 -253t223 -93q140 0 223 93.5t83 252.5t-83 252.5t-223 93.5q-141 0 -223 -93t-82 -253zM274 1364q0 61 33.5 91t87.5 30q53 0 87 -30 t34 -91q0 -62 -33.5 -91.5t-87.5 -29.5q-55 0 -88 29t-33 92zM635 1364q0 61 33.5 91t87.5 30q53 0 87 -30t34 -91q0 -62 -33.5 -91.5t-87.5 -29.5q-55 0 -88 29t-33 92z" />
<glyph unicode="&#xf7;" horiz-adv-x="1216" d="M86 430v184h1044v-184h-1044zM449 127q0 75 42 117.5t117 42.5t117.5 -42.5t42.5 -117.5t-42.5 -117.5t-117.5 -42.5t-117 42.5t-42 117.5zM449 918q0 75 42 117t117 42t117.5 -42t42.5 -117t-42.5 -117.5t-117.5 -42.5t-117 42.5t-42 117.5z" />
<glyph unicode="&#xf8;" horiz-adv-x="1161" d="M82 496q0 234 133.5 377t366.5 143q152 0 264 -64l69 92l99 -73l-70 -94q137 -143 137 -381q0 -234 -133 -377.5t-366 -143.5q-149 0 -263 62l-67 -90l-98 73l67 93q-139 142 -139 383zM276 496q0 -137 62 -228l399 535q-65 39 -155 39q-141 0 -223.5 -93t-82.5 -253z M430 186q62 -36 152 -36q140 0 222.5 93.5t82.5 252.5q0 135 -60 223z" />
<glyph unicode="&#xf9;" horiz-adv-x="1157" d="M121 451v542h184v-532q0 -161 66.5 -235t193.5 -74q87 0 159.5 49t109.5 133v659h184v-993h-184v102q-115 -125 -297 -125q-204 0 -310 121t-106 353zM293 1526h276l164 -314h-170z" />
<glyph unicode="&#xfa;" horiz-adv-x="1157" d="M121 451v542h184v-532q0 -161 66.5 -235t193.5 -74q87 0 159.5 49t109.5 133v659h184v-993h-184v102q-115 -125 -297 -125q-204 0 -310 121t-106 353zM420 1212l164 314h276l-270 -314h-170z" />
<glyph unicode="&#xfb;" horiz-adv-x="1157" d="M121 451v542h184v-532q0 -161 66.5 -235t193.5 -74q87 0 159.5 49t109.5 133v659h184v-993h-184v102q-115 -125 -297 -125q-204 0 -310 121t-106 353zM205 1233l239 293h269l241 -293h-211l-165 182l-164 -182h-209z" />
<glyph unicode="&#xfc;" horiz-adv-x="1157" d="M121 451v542h184v-532q0 -161 66.5 -235t193.5 -74q87 0 159.5 49t109.5 133v659h184v-993h-184v102q-115 -125 -297 -125q-204 0 -310 121t-106 353zM279 1364q0 61 33 91t87 30q53 0 87 -30t34 -91q0 -62 -33.5 -91.5t-87.5 -29.5q-55 0 -87.5 29t-32.5 92zM639 1364 q0 61 33.5 91t87.5 30q53 0 87 -30t34 -91q0 -62 -33.5 -91.5t-87.5 -29.5q-55 0 -88 29t-33 92z" />
<glyph unicode="&#xfd;" horiz-adv-x="1077" d="M23 993h210l316 -776l299 776h205l-613 -1485h-202l217 482zM379 1212l164 314h276l-270 -314h-170z" />
<glyph unicode="&#xfe;" horiz-adv-x="1175" d="M139 -492v1987h185v-594q98 115 284 115q221 0 354.5 -144t133.5 -376t-133.5 -376.5t-354.5 -144.5q-186 0 -284 115v-582h-185zM324 297q43 -68 112 -107.5t156 -39.5q145 0 227 92.5t82 253.5t-82 253.5t-227 92.5q-87 0 -156.5 -39.5t-111.5 -108.5v-397z" />
<glyph unicode="&#xff;" horiz-adv-x="1077" d="M23 993h210l316 -776l299 776h205l-613 -1485h-202l217 482zM238 1364q0 61 33 91t87 30q53 0 87 -30t34 -91q0 -62 -33.5 -91.5t-87.5 -29.5q-55 0 -87.5 29t-32.5 92zM598 1364q0 61 33.5 91t87.5 30q53 0 87 -30t34 -91q0 -62 -33.5 -91.5t-87.5 -29.5q-55 0 -88 29 t-33 92z" />
<glyph unicode="&#x152;" horiz-adv-x="2220" d="M76 727q0 148 34 272.5t95.5 214.5t148 153t192 93.5t226.5 30.5q278 0 434 -164v127h938v-184h-753v-424h657v-184h-657v-478h753v-184h-938v127q-156 -164 -434 -164q-121 0 -226.5 30.5t-192 93.5t-148 153t-95.5 214.5t-34 272.5zM281 727q0 -274 134.5 -427 t362.5 -153q145 0 255 63.5t173 184.5v664q-63 121 -173 184.5t-255 63.5q-228 0 -362.5 -153t-134.5 -427z" />
<glyph unicode="&#x153;" horiz-adv-x="1904" d="M80 496q0 234 133.5 377t366.5 143q132 0 233 -52.5t162 -148.5q60 96 156.5 148.5t222.5 52.5q221 0 345 -141t124 -369q0 -42 -2 -62h-760q15 -143 101 -223t220 -80q179 0 285 144l143 -90q-137 -220 -430 -220q-137 0 -239.5 53t-163.5 150q-61 -97 -162 -150 t-235 -53q-233 0 -366.5 143.5t-133.5 377.5zM274 496q0 -160 82.5 -253t223.5 -93q140 0 222.5 93.5t82.5 252.5t-82.5 252.5t-222.5 93.5q-141 0 -223.5 -93t-82.5 -253zM1069 606h557q-21 115 -91.5 179.5t-182.5 64.5q-117 0 -188.5 -67t-94.5 -177z" />
<glyph unicode="&#x2c6;" horiz-adv-x="839" d="M45 1233l240 293h268l242 -293h-211l-166 182l-164 -182h-209z" />
<glyph unicode="&#x2dc;" horiz-adv-x="854" d="M45 1241q15 119 64.5 174t140.5 55q60 0 153 -28q14 -4 50 -16t50.5 -16t35.5 -8.5t36 -4.5q65 0 78 88h156q-10 -121 -65 -180.5t-148 -59.5q-67 0 -186 39q-11 4 -39.5 13t-40.5 12.5t-30 7.5t-30 4q-29 0 -45 -18.5t-22 -61.5h-158z" />
<glyph unicode="&#x2000;" horiz-adv-x="993" />
<glyph unicode="&#x2001;" horiz-adv-x="1987" />
<glyph unicode="&#x2002;" horiz-adv-x="993" />
<glyph unicode="&#x2003;" horiz-adv-x="1987" />
<glyph unicode="&#x2004;" horiz-adv-x="662" />
<glyph unicode="&#x2005;" horiz-adv-x="496" />
<glyph unicode="&#x2006;" horiz-adv-x="331" />
<glyph unicode="&#x2007;" horiz-adv-x="331" />
<glyph unicode="&#x2008;" horiz-adv-x="248" />
<glyph unicode="&#x2009;" horiz-adv-x="397" />
<glyph unicode="&#x200a;" horiz-adv-x="110" />
<glyph unicode="&#x2010;" horiz-adv-x="802" d="M94 457v184h615v-184h-615z" />
<glyph unicode="&#x2011;" horiz-adv-x="802" d="M94 457v184h615v-184h-615z" />
<glyph unicode="&#x2012;" horiz-adv-x="802" d="M94 457v184h615v-184h-615z" />
<glyph unicode="&#x2013;" horiz-adv-x="1032" d="M4 457v184h1024v-184h-1024z" />
<glyph unicode="&#x2014;" horiz-adv-x="2056" d="M4 457v184h2048v-184h-2048z" />
<glyph unicode="&#x2018;" horiz-adv-x="546" d="M137 1106q0 130 63.5 227.5t159.5 149.5l41 -62q-117 -84 -153 -229q78 0 115.5 -32t37.5 -99q0 -135 -137 -135q-67 0 -97 44.5t-30 135.5z" />
<glyph unicode="&#x2019;" horiz-adv-x="546" d="M145 987q118 84 154 230q-78 0 -116 32t-38 99q0 66 35.5 100.5t102.5 34.5t97 -44.5t30 -135.5q0 -130 -64 -227.5t-160 -149.5z" />
<glyph unicode="&#x201a;" horiz-adv-x="546" d="M145 131q0 66 35.5 100.5t102.5 34.5t97 -44.5t30 -135.5q0 -130 -64 -227.5t-160 -149.5l-41 62q119 85 154 229q-78 0 -116 32t-38 99z" />
<glyph unicode="&#x201c;" horiz-adv-x="931" d="M133 1106q0 130 63.5 227.5t159.5 149.5l41 -62q-117 -84 -153 -229q78 0 115.5 -32t37.5 -99q0 -135 -137 -135q-67 0 -97 44.5t-30 135.5zM518 1106q0 130 63.5 227.5t159.5 149.5l41 -62q-117 -84 -153 -229q78 0 115.5 -32t37.5 -99q0 -135 -137 -135q-67 0 -97 44.5 t-30 135.5z" />
<glyph unicode="&#x201d;" horiz-adv-x="931" d="M150 987q117 83 153 230q-78 0 -115.5 32t-37.5 99q0 135 137 135q67 0 97 -44.5t30 -135.5q0 -130 -64 -227.5t-160 -149.5zM535 987q117 83 153 230q-78 0 -115.5 32t-37.5 99q0 135 137 135q67 0 97 -44.5t30 -135.5q0 -130 -64 -227.5t-160 -149.5z" />
<glyph unicode="&#x201e;" horiz-adv-x="931" d="M145 131q0 66 35.5 100.5t102.5 34.5t97 -44.5t30 -135.5q0 -130 -64 -227.5t-160 -149.5l-41 62q119 85 154 229q-78 0 -116 32t-38 99zM530 131q0 66 35.5 100.5t102.5 34.5t97 -44.5t30 -135.5q0 -130 -64 -227.5t-160 -149.5l-41 62q119 85 154 229q-78 0 -116 32 t-38 99z" />
<glyph unicode="&#x2022;" horiz-adv-x="684" d="M86 735q0 123 67 190.5t187 67.5q123 0 190.5 -67.5t67.5 -190.5q0 -121 -67.5 -187.5t-190.5 -66.5q-122 0 -188 66.5t-66 187.5z" />
<glyph unicode="&#x2026;" horiz-adv-x="1859" d="M145 113q0 63 35.5 98t98.5 35t98 -35t35 -98t-35 -98t-98 -35t-98.5 35t-35.5 98zM801 113q0 63 35 98t98 35t98 -35t35 -98t-35 -98t-98 -35t-98 35t-35 98zM1456 113q0 63 35 98t98 35t98 -35t35 -98t-35 -98t-98 -35t-98 35t-35 98z" />
<glyph unicode="&#x202f;" horiz-adv-x="397" />
<glyph unicode="&#x2039;" horiz-adv-x="622" d="M106 475v164l410 338v-205l-297 -215l297 -215v-205z" />
<glyph unicode="&#x203a;" horiz-adv-x="622" d="M102 137v205l297 215l-297 215v205l410 -338v-164z" />
<glyph unicode="&#x205f;" horiz-adv-x="496" />
<glyph unicode="&#x20ac;" d="M55 469v123h103q-2 35 -2 110v54h-101v123h107q8 98 27.5 176.5t55 147t87 114t127.5 71t172 25.5q152 0 261 -63.5t155 -190.5l-154 -100q-81 180 -256 180q-139 0 -202.5 -93t-78.5 -267h484v-123h-490v-74q0 -61 2 -90h488v-123h-482q9 -78 28 -135t54 -101.5 t91.5 -67t134.5 -22.5q67 0 119.5 19.5t83 44.5t77.5 74l133 -111q-78 -103 -174.5 -152t-240.5 -49q-232 0 -349 125.5t-147 374.5h-113z" />
<glyph unicode="&#x2122;" horiz-adv-x="1685" d="M61 1319v135h668v-135h-256v-672h-156v672h-256zM780 647l23 807h178l221 -569l219 569h181l22 -807h-135l-14 567l-222 -534h-104l-221 524l-15 -557h-133z" />
<glyph unicode="&#x25fc;" horiz-adv-x="993" d="M0 0v993h993v-993h-993z" />
</font>
</defs>
</svg>
