<?xml version="1.0" standalone="no"?>
<!DOCTYPE svg PUBLIC "-//W3C//DTD SVG 1.1//EN" "http://www.w3.org/Graphics/SVG/1.1/DTD/svg11.dtd" >
<svg xmlns="http://www.w3.org/2000/svg" xmlns:xlink="http://www.w3.org/1999/xlink" version="1.1">
<metadata>
Created by FontForge 20200427 at Wed Oct 16 17:42:53 2019
 By www
Copyright 2014 - 2017 Adobe Systems Incorporated (http://www.adobe.com/), with Reserved Font Name 'Source'. Copyright 2019 Google LLC.
</metadata>
<defs>
<font id="DMSerifDisplay-Regular" horiz-adv-x="0" >
  <font-face 
    font-family="DM Serif Display"
    font-weight="400"
    font-stretch="normal"
    units-per-em="1000"
    panose-1="0 0 0 0 0 0 0 0 0 0"
    ascent="800"
    descent="-200"
    x-height="481"
    cap-height="660"
    bbox="-192 -265 1168 916"
    underline-thickness="50"
    underline-position="-100"
    unicode-range="U+000D-2265"
  />
<missing-glyph horiz-adv-x="640" 
d="M80 0v660h480v-660h-480zM199 599l121 -201l121 201h-242zM151 542v-424l128 212zM361 330l128 -212v424zM199 61h242l-121 201z" />
    <glyph glyph-name="f_f" unicode="ff" horiz-adv-x="687" 
d="M22 0v10l13 3q19 6 30 18t11 32q0 37 0.5 73.5t0.5 73.5v251h-56v11l22 4q21 3 29 14.5t13 32.5q10 39 29.5 68.5t44.5 54.5q38 36 80.5 50.5t83.5 14.5q26 0 50.5 -7.5t40 -23t15.5 -40.5q0 -27 -15.5 -42.5t-45.5 -15.5q-24 0 -44 13t-39 46l-14 17q-11 15 -22.5 14
t-15.5 -17q-7 -36 -10.5 -82.5t-3.5 -91.5h167q21 0 29 11.5t13 30.5q10 39 29.5 68.5t44.5 54.5q38 36 80.5 50.5t83.5 14.5q27 0 51 -7.5t40 -23t16 -40.5q0 -27 -16 -42.5t-46 -15.5q-24 0 -44 13t-39 46l-14 17q-11 15 -22 14t-16 -17q-7 -36 -10.5 -82.5t-3.5 -91.5
h112v-20h-112v-251v-72.5v-72.5q1 -38 41 -49l25 -6v-10h-263v10l13 3q19 6 30 18t12 32v73.5v73.5v251h-201v-251v-72.5v-72.5q1 -38 40 -49l25 -6v-10h-262z" />
    <glyph glyph-name="f_i" unicode="fi" horiz-adv-x="582" 
d="M21 0v10l15 3q40 11 40 52q1 36 1 75.5v69.5v251h-56v11l16 3q40 7 50 49q26 95 98 141t175 46q62 0 101.5 -26.5t39.5 -66.5q0 -27 -16.5 -42.5t-44.5 -15.5q-30 0 -48 17.5t-31 42.5l-23 44q-7 13 -17 18t-22 -2q-77 -39 -80 -199h213q30 0 60 10l15 5l13 -11l-3 -139
v-141q0 -28 -0.5 -66t0.5 -74q0 -40 38 -52l7 -2v-11h-235v10l10 4q39 12 39 52q1 37 0.5 78t-0.5 66v67q0 30 -0.5 64.5t-0.5 66.5t-1 53h-155v-251q0 -29 -0.5 -68.5t0.5 -75.5q0 -41 40 -51l19 -5v-10h-257z" />
    <glyph glyph-name="f_l" unicode="fl" horiz-adv-x="620" 
d="M22 0v10l13 3q19 5 30 17.5t11 32.5q0 37 0.5 73.5t0.5 73.5v251h-56v11l22 4q20 2 29 14t13 33q10 39 29.5 68.5t44.5 54.5q38 36 80.5 50.5t83.5 14.5q29 0 56 -9t40 -29l120 28l11 -9l-4 -140v-342q0 -37 0.5 -73.5t0.5 -72.5q0 -41 35 -51l14 -3v-10h-240v10l13 4
q35 13 35 50q0 36 0.5 72.5t0.5 73.5v381q-15 -9 -37 -9q-24 0 -44 13t-39 46l-14 17q-11 14 -22 13.5t-16 -16.5q-7 -35 -10.5 -82t-3.5 -92h112v-20h-112v-396q0 -38 40 -49l25 -6v-10h-262z" />
    <glyph glyph-name=".notdef" horiz-adv-x="640" 
d="M80 0v660h480v-660h-480zM199 599l121 -201l121 201h-242zM151 542v-424l128 212zM361 330l128 -212v424zM199 61h242l-121 201z" />
    <glyph glyph-name=".null" 
 />
    <glyph glyph-name="nonmarkingreturn" horiz-adv-x="333" 
 />
    <glyph glyph-name="CR" unicode="&#xd;" horiz-adv-x="600" 
 />
    <glyph glyph-name="space" unicode=" " horiz-adv-x="218" 
 />
    <glyph glyph-name="exclam" unicode="!" horiz-adv-x="333" 
d="M167 672q37 0 58 -23.5t21 -61.5q0 -31 -16 -96.5t-33 -144.5l-21 -105h-19l-21 105q-16 77 -32 142.5t-16 98.5q0 38 21 61.5t58 23.5zM167 -15q-37 0 -62 25t-25 61q0 35 25 60.5t62 25.5q36 0 61 -25.5t25 -60.5q0 -36 -25 -61t-61 -25z" />
    <glyph glyph-name="quotedbl" unicode="&#x22;" horiz-adv-x="425" 
d="M102 403l-20 67q-8 34 -18 71.5t-17 68.5t-7 46q0 35 20.5 55t50.5 20t51 -20t21 -55q0 -15 -7 -46t-17 -68.5t-18 -71.5l-20 -67h-19zM304 403l-20 67q-8 34 -18 71.5t-17 68.5t-7 46q0 35 20.5 55t50.5 20t51 -20t21 -55q0 -15 -7 -46t-17 -68.5t-18 -71.5l-20 -67h-19
z" />
    <glyph glyph-name="numbersign" unicode="#" horiz-adv-x="557" 
d="M110 0l27 175h-117v37h122l34 220h-123v37h128l27 175h33l-27 -175h178l27 175h33l-27 -175h113v-37h-118l-34 -220h119v-37h-124l-27 -175h-33l27 175h-178l-27 -175h-33zM175 212h178l34 220h-178z" />
    <glyph glyph-name="dollar" unicode="$" horiz-adv-x="532" 
d="M261 -15q-96 0 -153.5 33.5t-57.5 93.5q0 29 17.5 46.5t42.5 17.5t43 -15t23 -54l3 -16q7 -46 27.5 -66t55.5 -20v247l-30 11q-85 29 -131.5 76.5t-46.5 119.5q0 80 55.5 133t153.5 57v90h24v-90q88 -2 137.5 -39.5t49.5 -88.5q0 -30 -15.5 -46t-42.5 -16q-23 0 -41.5 16
t-26.5 60l-4 23q-6 31 -18 46.5t-39 18.5v-235l18 -6q105 -34 147.5 -85t42.5 -119q0 -53 -25.5 -94.5t-72.5 -67.5t-111 -30v-101h-24v100h-1zM160 519q0 -46 25.5 -76t77.5 -48v229q-24 -2 -48 -14t-39.5 -34.5t-15.5 -56.5zM385 127q0 45 -22 70t-77 47v-238
q46 7 72.5 39t26.5 82z" />
    <glyph glyph-name="percent" unicode="%" horiz-adv-x="871" 
d="M226 -21l-20 14l451 661l21 -14zM207 649q39 0 73.5 -21.5t55.5 -67t21 -117.5q0 -70 -21 -115.5t-55.5 -67t-73.5 -21.5t-73.5 21.5t-55.5 67t-21 115.5q0 72 21 117.5t55.5 67t73.5 21.5zM151 443q0 -76 7.5 -116t20.5 -55t28 -15q16 0 28.5 15t20 55.5t7.5 115.5
q0 76 -7.5 116t-20 55.5t-28.5 15.5q-15 0 -28 -15t-20.5 -55.5t-7.5 -116.5zM664 401q39 0 73.5 -21.5t55.5 -67t21 -117.5q0 -70 -21 -115.5t-55.5 -67t-73.5 -21.5t-73.5 21.5t-55.5 67t-21 115.5q0 72 21 117.5t55.5 67t73.5 21.5zM608 195q0 -76 7.5 -116t20.5 -55
t28 -15q16 0 28.5 15t20 55.5t7.5 115.5q0 76 -7.5 116t-20 55.5t-28.5 15.5q-15 0 -28 -15t-20.5 -55.5t-7.5 -116.5z" />
    <glyph glyph-name="ampersand" unicode="&#x26;" horiz-adv-x="721" 
d="M231 -15q-66 0 -112.5 24.5t-70.5 64.5t-24 89q0 121 156 186q-28 38 -49.5 77t-21.5 91q0 71 50.5 113.5t132.5 42.5q80 0 124 -35.5t44 -93.5q0 -49 -40 -86t-114 -68q19 -21 39.5 -44.5t42.5 -46.5q27 -30 52.5 -57t51.5 -56q24 33 45 80t33 99q8 38 -29 49l-7 3v10
h113v-10l-9 -3q-33 -11 -43 -46q-15 -56 -37 -106t-51 -91l107 -113q13 -14 26 -23t29 -18l14 -7v-10h-202l-67 72q-19 -21 -43 -41t-58 -33t-82 -13zM294 403q39 35 56.5 70.5t17.5 78.5q0 39 -20 63.5t-55 24.5q-33 0 -55 -24t-22 -61q0 -23 8.5 -48t30.5 -57q6 -8 16 -19
t23 -28zM289 52q35 0 63 10.5t48 26.5q-24 27 -50 56.5t-49 56.5q-28 33 -54.5 66t-52.5 64q-26 -24 -38 -56t-12 -67q0 -68 40.5 -112.5t104.5 -44.5z" />
    <glyph glyph-name="quotesingle" unicode="'" horiz-adv-x="223" 
d="M102 403l-20 67q-8 34 -18 71.5t-17 68.5t-7 46q0 35 20.5 55t50.5 20t51 -20t21 -55q0 -15 -7 -46t-17 -68.5t-18 -71.5l-20 -67h-19z" />
    <glyph glyph-name="parenleft" unicode="(" horiz-adv-x="368" 
d="M310 -174q-111 86 -173.5 201t-62.5 251t62.5 251t173.5 201l12 -11q-53 -72 -83 -141t-42.5 -142t-12.5 -158t12.5 -158.5t42.5 -142.5t83 -142z" />
    <glyph glyph-name="parenright" unicode=")" horiz-adv-x="368" 
d="M58 730q111 -86 173.5 -201t62.5 -251t-62.5 -251t-173.5 -201l-12 11q53 72 83 141t42.5 142t12.5 158t-12.5 158.5t-42.5 142.5t-83 142z" />
    <glyph glyph-name="asterisk" unicode="*" horiz-adv-x="433" 
d="M216 738q23 0 35 -14t12 -36q0 -16 -5.5 -40.5t-15.5 -55.5l-14 -48l39 29q38 29 64 40.5t42 11.5q17 0 31 -12.5t14 -35.5q0 -31 -34.5 -40.5t-99.5 -12.5l-49 -2l39 -27q47 -31 66 -55t19 -47q0 -16 -13 -30t-32 -14q-29 0 -46 30t-36 83l-16 45l-17 -45
q-19 -59 -37.5 -85.5t-44.5 -26.5q-19 0 -32 14t-13 30q0 24 22 48.5t64 52.5l38 27l-48 2q-69 3 -101.5 13t-32.5 41q0 23 14.5 35t30.5 12q39 0 106 -52l39 -29l-14 48q-10 32 -15 57.5t-5 38.5q0 22 12 36t34 14z" />
    <glyph glyph-name="plus" unicode="+" horiz-adv-x="541" 
d="M259 73v241h-229v20h229v237h24v-237h229v-20h-229v-241h-24z" />
    <glyph glyph-name="comma" unicode="," horiz-adv-x="300" 
d="M87 -159l-6 14q34 21 51.5 50.5t24.5 73.5l-33 14q-29 14 -44.5 36.5t-15.5 45.5q0 35 23 58.5t60 23.5q38 0 61.5 -26.5t23.5 -76.5q0 -55 -22.5 -98.5t-55.5 -73t-67 -41.5z" />
    <glyph glyph-name="hyphen" unicode="-" horiz-adv-x="332" 
d="M40 240v27h252v-27h-252z" />
    <glyph glyph-name="period" unicode="." horiz-adv-x="300" 
d="M150 -15q-36 0 -61 25t-25 60t25 61t61 26t61 -26t25 -61t-25 -60t-61 -25z" />
    <glyph glyph-name="slash" unicode="/" horiz-adv-x="342" 
d="M26 -160l267 870h24l-267 -870h-24z" />
    <glyph glyph-name="zero" unicode="0" horiz-adv-x="502" 
d="M251 -15q-60 0 -112.5 34t-84.5 107t-32 190q0 118 32 191.5t84.5 107.5t112.5 34t112.5 -34t85 -107.5t32.5 -191.5q0 -117 -32.5 -190t-85 -107t-112.5 -34zM251 5q25 0 42.5 13t28.5 47t16 94.5t5 156.5t-5 157.5t-16 95.5t-28.5 47t-42.5 13t-42.5 -13t-28.5 -46.5
t-16 -95t-5 -158.5q0 -96 5 -157t16 -94.5t28.5 -46.5t42.5 -13z" />
    <glyph glyph-name="one" unicode="1" horiz-adv-x="350" 
d="M28 0v10l39 12q38 13 38 51v484l-81 -11v13q59 12 113.5 34t102.5 51l13 -9l-4 -143v-419q0 -39 38 -50l41 -13v-10h-300z" />
    <glyph glyph-name="two" unicode="2" horiz-adv-x="532" 
d="M69 466l7 142q30 17 74.5 29t100.5 12q80 0 129 -22.5t72 -61.5t23 -88q0 -69 -67 -134.5t-183 -144.5q-22 -16 -52 -39t-56 -45h375v-114h-440v84q36 35 70.5 69.5l65.5 65.5q72 74 107.5 131.5t35.5 123.5q0 69 -25 111.5t-75 42.5q-31 0 -57.5 -15.5t-46.5 -53.5
l-48 -93h-10z" />
    <glyph glyph-name="three" unicode="3" horiz-adv-x="532" 
d="M254 -15q-67 0 -109.5 15t-83.5 35l11 130h10l44 -81q44 -79 122 -79q46 0 74.5 38.5t28.5 129.5q0 79 -24 113.5t-82 34.5h-60v20h53q53 0 76.5 32t23.5 111q0 77 -23 109.5t-61 32.5t-63.5 -22t-41.5 -52l-45 -84l-10 1l10 147q32 14 71.5 23.5t88.5 9.5
q105 0 159.5 -45.5t54.5 -113.5q0 -49 -42 -93.5t-132 -61.5q102 -9 148 -55t46 -111q0 -52 -29.5 -94t-84 -66t-130.5 -24z" />
    <glyph glyph-name="four" unicode="4" horiz-adv-x="538" 
d="M287 0v162h-263v57l293 423h98v-406h95v-74h-95v-162h-128zM68 236h219v315z" />
    <glyph glyph-name="five" unicode="5" horiz-adv-x="532" 
d="M244 -15q-58 0 -103.5 10.5t-80.5 34.5l7 126h10l46 -82q20 -36 49 -52.5t64 -16.5q115 0 115 175q0 79 -30.5 120t-90.5 41q-28 0 -55.5 -7.5t-50.5 -19.5l-18 11l22 309h350v-114h-330l-14 -173q23 17 62 32t82 15q65 0 115.5 -23t79 -67.5t28.5 -109.5
q0 -67 -33.5 -114t-91.5 -71t-132 -24z" />
    <glyph glyph-name="six" unicode="6" horiz-adv-x="530" 
d="M270 -15q-107 0 -172.5 71t-65.5 200q0 77 30 144t85.5 120t133 86.5t172.5 42.5l3 -15q-122 -25 -185.5 -92t-83.5 -182q58 34 130 34q61 0 101 -25t60.5 -67.5t20.5 -95.5q0 -71 -33.5 -120.5t-86 -75t-109.5 -25.5zM178 235q0 -124 21.5 -177t67.5 -53t67.5 43.5
t21.5 145.5q0 94 -22 131t-72 37q-42 0 -78 -21q-6 -48 -6 -106z" />
    <glyph glyph-name="seven" unicode="7" horiz-adv-x="489" 
d="M99 0l-10 10l346 520h-408v104h440v-65l-236 -569h-132z" />
    <glyph glyph-name="eight" unicode="8" horiz-adv-x="502" 
d="M28 139q0 51 41 90t101 63q-127 66 -127 180q0 55 28 94.5t76.5 61t108.5 21.5q61 0 102 -19.5t61.5 -52t20.5 -71.5q0 -30 -16 -58t-42.5 -51t-57.5 -38q75 -37 112.5 -83.5t37.5 -111.5q0 -81 -62 -130t-166 -49q-106 0 -162 41.5t-56 112.5zM160 529q0 -30 11 -55.5
t42.5 -51t91.5 -54.5q30 35 38 67t8 62q0 71 -27 101.5t-71 30.5q-39 0 -66 -26.5t-27 -73.5zM133 149q0 -64 32 -104t86 -40q50 0 76 32.5t26 84.5q0 32 -14 57.5t-48.5 49.5t-95.5 51q-5 2 -10 5q-22 -21 -33 -39.5t-15 -41t-4 -55.5z" />
    <glyph glyph-name="nine" unicode="9" horiz-adv-x="532" 
d="M500 381q0 -101 -47 -183.5t-137.5 -138.5t-221.5 -79l-4 18q89 19 143 55t81.5 91t35.5 132q-21 -14 -52 -22.5t-70 -8.5q-56 0 -100.5 22.5t-70.5 65.5t-26 104q0 65 32 112.5t84.5 73.5t115.5 26q114 0 175.5 -71.5t61.5 -196.5zM172 450q0 -91 25 -131.5t82 -40.5
q42 0 73 18q2 22 3 44.5t1 47.5q0 92 -9 144.5t-29 74.5t-54 22q-46 0 -69 -42t-23 -137z" />
    <glyph glyph-name="colon" unicode=":" horiz-adv-x="300" 
d="M150 330q-36 0 -61 25t-25 60t25 61t61 26t61 -26t25 -61t-25 -60t-61 -25zM150 -15q-36 0 -61 25t-25 60t25 61t61 26t61 -26t25 -61t-25 -60t-61 -25z" />
    <glyph glyph-name="semicolon" unicode=";" horiz-adv-x="300" 
d="M150 330q-36 0 -61 25t-25 60t25 61t61 26t61 -26t25 -61t-25 -60t-61 -25zM87 -159l-6 14q34 21 51.5 50.5t24.5 73.5l-33 14q-29 14 -44.5 36.5t-15.5 45.5q0 35 23 58.5t60 23.5q38 0 61.5 -26.5t23.5 -76.5q0 -55 -22.5 -98.5t-55.5 -73t-67 -41.5z" />
    <glyph glyph-name="less" unicode="&#x3c;" horiz-adv-x="541" 
d="M42 312v26l417 228l12 -23l-397 -218l397 -218l-12 -23z" />
    <glyph glyph-name="equal" unicode="=" horiz-adv-x="541" 
d="M30 210v20h482v-20h-482zM30 418v20h482v-20h-482z" />
    <glyph glyph-name="greater" unicode="&#x3e;" horiz-adv-x="541" 
d="M499 338v-26l-417 -228l-12 23l397 218l-397 218l12 23z" />
    <glyph glyph-name="question" unicode="?" horiz-adv-x="506" 
d="M253 225l-9 170q47 17 76 53t29 87q0 60 -22 94.5t-55 34.5q-29 0 -44.5 -20t-24.5 -54l-13 -48q-9 -34 -30.5 -48.5t-45 -11.5t-40.5 21.5t-17 50.5q0 40 29.5 69t75.5 45t96 16q101 0 158.5 -43t57.5 -129q0 -59 -29 -100t-74.5 -66.5t-94.5 -39.5l-5 -81h-18zM254 -15
q-36 0 -61.5 25t-25.5 61q0 35 25.5 60.5t61.5 25.5q37 0 61.5 -25.5t24.5 -60.5q0 -36 -24.5 -61t-61.5 -25z" />
    <glyph glyph-name="at" unicode="@" horiz-adv-x="877" 
d="M398 -153q-107 0 -186.5 44t-123 122.5t-43.5 183.5q0 90 31.5 172.5t91 147t143 102t186.5 37.5q109 0 184 -43t114 -116t39 -164q0 -66 -20 -119.5t-53 -92t-74 -59.5t-83 -21q-53 0 -81 29t-33 67q-30 -49 -66.5 -72.5t-74.5 -23.5q-46 0 -80.5 35t-34.5 107
q0 53 21.5 105.5t56.5 96t77.5 70t84.5 26.5q46 0 80 -28l64 22l25 -17l-60 -333q-5 -29 5.5 -45.5t29.5 -16.5q35 0 69 34.5t57 96t23 142.5q0 141 -73.5 219.5t-199.5 78.5q-86 0 -155 -35t-118.5 -95t-75.5 -136t-26 -158q0 -109 40 -183t110.5 -112.5t160.5 -38.5
q41 0 80 8t76 24l6 -18q-43 -20 -92.5 -31.5t-101.5 -11.5zM406 112q17 0 35 8.5t38 30.5l50 275q-10 13 -24 18t-28 5q-28 0 -58.5 -31t-52 -84t-21.5 -119q0 -52 18 -77.5t43 -25.5z" />
    <glyph glyph-name="A" unicode="A" horiz-adv-x="650" 
d="M8 0v10l25 9q20 8 31 19.5t18 32.5l206 591h85l203 -595q8 -22 18 -33.5t31 -19.5l12 -4v-10h-254v10l15 5q21 8 25.5 22.5t-1.5 34.5l-47 144h-222l-48 -141q-7 -22 -4.5 -35t23.5 -21l22 -9v-10h-138zM160 236h209l-101 311z" />
    <glyph glyph-name="B" unicode="B" horiz-adv-x="598" 
d="M22 0v10l18 7q20 8 27.5 20t7.5 32v522q0 21 -7.5 33t-27.5 19l-18 7v10h287q122 0 176 -44.5t54 -112.5q0 -51 -39.5 -92.5t-135.5 -58.5q110 -12 161 -57.5t51 -110.5q0 -32 -14 -64.5t-47.5 -59.5t-91.5 -43.5t-147 -16.5h-254zM223 353h43q67 0 96.5 31t29.5 108
q0 80 -27 114t-88 34h-54v-287zM223 20h50q75 0 111.5 40t36.5 125q0 80 -35 114t-115 34h-48v-313z" />
    <glyph glyph-name="C" unicode="C" horiz-adv-x="603" 
d="M366 -18q-97 0 -175.5 39.5t-124.5 117.5t-46 191q0 86 28 151t76.5 109t112 66t134.5 22q57 0 105 -13t90 -36l4 -123h-10l-50 80q-10 19 -22 34.5t-30 23.5q-15 7 -29.5 10.5t-36.5 3.5q-58 0 -105.5 -31t-76 -102.5t-28.5 -195.5q0 -123 27 -194.5t73.5 -102
t104.5 -30.5q32 0 51 4.5t38 13.5q19 8 29 23.5t18 33.5l44 98h10l-3 -143q-42 -22 -94 -36t-114 -14z" />
    <glyph glyph-name="D" unicode="D" horiz-adv-x="648" 
d="M22 0v10l21 8q32 13 32 51v522q0 40 -32 51l-21 8v10h264q106 0 182.5 -39.5t118 -113t41.5 -176.5q0 -105 -45 -179t-125.5 -113t-189.5 -39h-246zM225 20h43q72 0 116 28.5t64.5 96t20.5 185.5t-20.5 185.5t-63.5 96t-113 28.5h-47v-620z" />
    <glyph glyph-name="E" unicode="E" horiz-adv-x="555" 
d="M22 0v10l23 9q17 7 23.5 18.5t6.5 31.5v522q0 20 -5.5 31.5t-24.5 18.5l-23 9v10h479l6 -154h-10l-43 94q-9 18 -19 29t-30 11h-180v-289h107q20 0 30.5 10.5t18.5 28.5l20 40h10v-180h-10l-20 42q-9 18 -19 28.5t-30 10.5h-107v-311h202q20 0 31 10.5t18 29.5l41 94h10
l-6 -154h-499z" />
    <glyph glyph-name="F" unicode="F" horiz-adv-x="538" 
d="M22 0v10l18 6q20 7 27 19t7 32q1 60 1 121v122v40v120.5t-1 120.5q0 20 -5.5 32t-24.5 19l-22 8v10h484l7 -166h-10l-57 105q-10 19 -23 30t-36 11h-161q-1 -71 -1 -145v-147h104q23 0 34 10t21 29l21 38h10v-175h-10l-22 38q-10 18 -20.5 29t-33.5 11h-104v-133.5
t1 -124.5q0 -39 38 -51l30 -9v-10h-272z" />
    <glyph glyph-name="G" unicode="G" horiz-adv-x="656" 
d="M364 -18q-102 0 -179.5 42.5t-121 121t-43.5 185.5q0 104 43 182t124.5 121.5t197.5 43.5q53 0 98.5 -12t86.5 -35l4 -140h-10l-56 104q-13 25 -24 36t-28 17q-16 5 -29.5 7.5t-35.5 2.5q-62 0 -109.5 -33t-73.5 -105t-26 -189q0 -116 24.5 -189t69.5 -106.5t104 -33.5
q9 0 17.5 1.5t16.5 3.5q19 3 25 16t6 31v198q0 39 -40 48l-46 12v10h282v-10l-14 -4q-38 -12 -38 -50v-217q-52 -29 -105.5 -44t-119.5 -15z" />
    <glyph glyph-name="H" unicode="H" horiz-adv-x="691" 
d="M22 0v10l20 8q20 7 26.5 19t6.5 31v523q0 20 -6.5 32t-26.5 19l-20 8v10h254v-10l-17 -7q-19 -7 -26 -18.5t-7 -31.5v-243h239v243q0 20 -6.5 31.5t-26.5 18.5l-18 7v10h255v-10l-20 -8q-19 -7 -26 -19t-7 -32v-523q0 -19 7 -31t26 -19l20 -8v-10h-255v10l18 6
q20 8 26.5 19.5t6.5 31.5v263h-239v-263q0 -37 33 -51l17 -6v-10h-254z" />
    <glyph glyph-name="I" unicode="I" horiz-adv-x="301" 
d="M22 0v10l20 8q20 7 26.5 19t6.5 32v522q0 20 -6 32t-27 19l-20 8v10h257v-10l-20 -8q-20 -7 -26.5 -19t-6.5 -32v-522q0 -20 6.5 -31.5t26.5 -19.5l20 -8v-10h-257z" />
    <glyph glyph-name="J" unicode="J" horiz-adv-x="427" 
d="M109 -18q-49 0 -75.5 19t-26.5 51q0 28 19.5 43t45.5 15t46 -11.5t37 -39.5l18 -31q5 -7 12.5 -7t10.5 9q6 20 8.5 58.5t2.5 93.5q0 63 -3 162t-6 244q0 43 -32 54l-23 8v10h262v-10l-22 -8q-18 -7 -24.5 -18.5t-6.5 -32.5v-198q0 -98 -9 -162t-29 -111
q-25 -67 -81.5 -102.5t-123.5 -35.5z" />
    <glyph glyph-name="K" unicode="K" horiz-adv-x="654" 
d="M22 0v10l21 8q20 7 26 19t6 31v523q0 20 -6 32t-26 19l-21 8v10h249v-10l-22 -9q-17 -6 -23 -18t-6 -33v-523q0 -20 6.5 -31t25.5 -18l19 -8v-10h-249zM391 0v10l13 4q20 6 21 20t-12 32l-192 273l253 258q14 14 15.5 27t-19.5 20l-17 6v10h146v-10l-26 -8
q-22 -7 -35 -17t-30 -27l-179 -183l235 -343q15 -22 28.5 -36t38.5 -22l14 -4v-10h-254z" />
    <glyph glyph-name="L" unicode="L" horiz-adv-x="540" 
d="M22 0v10l21 8q21 8 26.5 19.5t5.5 31.5v522q0 20 -6 32t-26 19l-21 8v10h255v-10l-18 -8q-19 -7 -26 -19.5t-7 -32.5v-570h154q37 0 54.5 18t33.5 52l39 84h10l-9 -174h-486z" />
    <glyph glyph-name="M" unicode="M" horiz-adv-x="791" 
d="M20 0v10l20 7q34 11 34 57v512q0 20 -4.5 32t-23.5 20l-26 12v10h193l185 -484l174 484h197v-10l-16 -6q-19 -7 -26 -19.5t-7 -32.5v-523q0 -20 5 -31t24 -19l20 -9v-10h-249v10l21 9q19 8 24 19t5 31v225l2 286l-209 -580h-50l-218 573l3 -249v-252q0 -22 6.5 -35.5
t25.5 -19.5l22 -7v-10h-132z" />
    <glyph glyph-name="N" unicode="N" horiz-adv-x="653" 
d="M35 0v10l33 10q18 5 26 19.5t8 34.5v481q-11 24 -17.5 36t-14.5 20.5t-22 21.5l-17 17v10h177l332 -453v377q0 20 -6.5 36t-26.5 21l-33 9v10h143v-10l-27 -9q-18 -6 -22 -21t-4 -35v-588h-56l-382 525v-448q0 -20 6 -34t25 -20l30 -10v-10h-152z" />
    <glyph glyph-name="O" unicode="O" horiz-adv-x="670" 
d="M335 -18q-61 0 -117.5 22t-101 65.5t-70.5 108.5t-26 152q0 86 26 151t71 108.5t101.5 66t116.5 22.5q61 0 117.5 -21.5t101 -65t70.5 -109t26 -152.5q0 -85 -26 -150.5t-70.5 -109t-101 -66t-117.5 -22.5zM335 3q55 0 89 29.5t49.5 101t15.5 196.5q0 126 -15.5 197.5
t-49.5 101t-89 29.5q-54 0 -88 -29.5t-49.5 -101t-15.5 -197.5q0 -125 15.5 -196.5t49.5 -101t88 -29.5z" />
    <glyph glyph-name="P" unicode="P" horiz-adv-x="565" 
d="M22 0v10l20 7q20 6 26.5 18t6.5 32v524q0 20 -7 32t-27 19l-19 8v10h243q149 0 215.5 -54.5t66.5 -143.5q0 -57 -27.5 -104.5t-90.5 -75.5t-170 -28h-34v-184q0 -39 39 -51l30 -9v-10h-272zM225 274h38q49 0 80 16t46 56t15 111q0 72 -16.5 112t-48.5 55.5t-80 15.5h-34
v-366z" />
    <glyph glyph-name="Q" unicode="Q" horiz-adv-x="670" 
d="M335 -18q-64 0 -121 23l-44 -62q65 -16 148.5 -34.5t164.5 -35.5q39 -8 58.5 -7.5t35.5 10.5l27 17l8 -11l-51 -55q-22 -23 -43 -37.5t-47 -14.5q-21 0 -60 6.5t-87 16t-96 20t-87 18.5q-16 4 -29 1.5t-25 -15.5l-12 -12l-12 9l126 198q-73 37 -121 115.5t-48 197.5
q0 86 26 151t71 108.5t101.5 66t116.5 22.5q61 0 117.5 -21.5t101 -65t70.5 -109t26 -152.5q0 -85 -26 -150.5t-70.5 -109t-101 -66t-117.5 -22.5zM335 3q55 0 89 29.5t49.5 101t15.5 196.5q0 126 -15.5 197.5t-49.5 101t-89 29.5q-54 0 -88 -29.5t-49.5 -101t-15.5 -197.5
q0 -125 15.5 -196.5t49.5 -101t88 -29.5z" />
    <glyph glyph-name="R" unicode="R" horiz-adv-x="628" 
d="M22 0v10l21 7q20 7 26 18.5t6 32.5v523q0 20 -5.5 31.5t-24.5 18.5l-23 9v10h286q118 0 181 -44.5t63 -123.5q0 -44 -33 -88t-104 -68l139 -276q9 -17 20.5 -27.5t30.5 -18.5l13 -5v-9h-179l-148 315h-68v-247q0 -19 6 -31t25 -18l24 -9v-10h-256zM223 335h48
q72 0 104 38.5t32 114.5q0 77 -30 114.5t-101 37.5h-53v-305z" />
    <glyph glyph-name="S" unicode="S" horiz-adv-x="521" 
d="M237 -18q-55 0 -112 13.5t-95 35.5l5 136h10l31 -65q14 -28 30 -49.5t44 -33.5q20 -10 38.5 -13.5t41.5 -3.5q61 0 96.5 33t35.5 85q0 49 -24 76.5t-77 53.5l-41 18q-86 38 -134.5 87.5t-48.5 131.5q0 59 30.5 102t85 66t127.5 23q53 0 100.5 -14t82.5 -38l-6 -120h-10
l-41 75q-17 35 -34 49.5t-39 20.5q-13 4 -24 5.5t-28 1.5q-51 0 -86 -29.5t-35 -79.5q0 -51 27 -81.5t79 -54.5l46 -20q96 -42 138 -89.5t42 -122.5q0 -88 -66.5 -143.5t-188.5 -55.5z" />
    <glyph glyph-name="T" unicode="T" horiz-adv-x="627" 
d="M156 0v10l41 10q41 9 41 50v570h-85q-37 0 -53 -19.5t-34 -53.5l-36 -70h-10l5 163h577l4 -163h-10l-36 70q-17 34 -33 53.5t-53 19.5h-85v-570q0 -41 41 -50l41 -10v-10h-315z" />
    <glyph glyph-name="U" unicode="U" horiz-adv-x="649" 
d="M339 -18q-76 0 -134.5 27t-91 85.5t-32.5 154.5v345q0 38 -39 50l-22 6v10h277v-10l-29 -8q-37 -9 -37 -50v-369q0 -93 39 -137.5t112 -44.5q76 0 120.5 47t44.5 133v367q0 20 -6.5 35.5t-26.5 20.5l-25 6v10h140v-10l-27 -7q-19 -4 -25 -19t-6 -35v-366
q0 -73 -29 -127.5t-81 -84t-122 -29.5z" />
    <glyph glyph-name="V" unicode="V" horiz-adv-x="632" 
d="M284 -3l-214 596q-7 20 -18.5 31.5t-31.5 17.5l-24 8v10h288v-10l-31 -9q-23 -6 -25.5 -21t4.5 -37l148 -439l149 440q8 23 7.5 38t-23.5 21l-26 7v10h140v-10l-27 -8q-19 -5 -27 -17.5t-15 -32.5l-200 -595h-74z" />
    <glyph glyph-name="W" unicode="W" horiz-adv-x="921" 
d="M236 -3l-177 595q-7 23 -15 33.5t-28 19.5l-12 5v10h265v-10l-21 -8q-23 -9 -31 -22t-1 -36l109 -416l118 349l-23 71q-7 21 -13 32t-20 18l-22 12v10h251v-10l-31 -12q-20 -7 -22.5 -20.5t4.5 -34.5l127 -425l120 417q7 24 5 42t-25 26l-21 7v10h139v-10l-26 -10
q-20 -7 -28 -22t-14 -37l-166 -584h-69l-150 470l-154 -470h-69z" />
    <glyph glyph-name="X" unicode="X" horiz-adv-x="614" 
d="M10 0v10l17 5q21 7 33 18.5t24 29.5l154 238l-175 298q-10 17 -17 26.5t-26 17.5l-16 7v10h268v-10l-23 -7q-21 -7 -23 -22t10 -36l103 -175l110 174q13 21 15.5 38t-20.5 23l-20 5v10h139v-10l-26 -8q-19 -5 -29.5 -16.5t-21.5 -28.5l-134 -209l190 -325
q11 -18 21 -27.5t28 -17.5l19 -8v-10h-280v10l23 6q24 6 27 22t-10 37l-119 203l-131 -207q-13 -20 -10.5 -36t21.5 -21l14 -4v-10h-135z" />
    <glyph glyph-name="Y" unicode="Y" horiz-adv-x="590" 
d="M165 0v10l30 8q35 10 35 50v190l-165 336q-9 20 -16.5 30t-22.5 17l-18 9v10h268v-10l-18 -7q-22 -9 -24 -24.5t8 -38.5l118 -262l132 272q8 16 6.5 33t-21.5 22l-14 5v10h120v-10l-19 -7q-19 -7 -28 -19.5t-18 -31.5l-137 -288v-236q0 -20 7.5 -32.5t26.5 -17.5l31 -8
v-10h-281z" />
    <glyph glyph-name="Z" unicode="Z" horiz-adv-x="560" 
d="M20 0v12l347 628h-190q-33 0 -53.5 -15t-36.5 -44l-46 -81h-10l7 160h489v-12l-347 -628h218q33 0 52.5 15.5t35.5 44.5l43 80h10l-7 -160h-512z" />
    <glyph glyph-name="bracketleft" unicode="[" horiz-adv-x="342" 
d="M100 -159q2 77 2.5 157t0.5 160v240q0 79 -0.5 158.5t-2.5 158.5h223v-25l-109 -11q-1 -64 -1.5 -140t-0.5 -141v-240q0 -63 0.5 -139.5t1.5 -141.5l109 -11v-25h-223z" />
    <glyph glyph-name="backslash" unicode="\" horiz-adv-x="336" 
d="M290 -160l-267 870h24l267 -870h-24z" />
    <glyph glyph-name="bracketright" unicode="]" horiz-adv-x="342" 
d="M242 715q-2 -77 -2.5 -157t-0.5 -160v-240q0 -79 0.5 -158.5t2.5 -158.5h-223v25l109 11q1 64 1.5 140t0.5 141v240q0 63 -0.5 139.5t-1.5 141.5l-109 11v25h223z" />
    <glyph glyph-name="asciicircum" unicode="^" horiz-adv-x="541" 
d="M94 213l-24 16l182 270h38l182 -270l-25 -16l-176 188z" />
    <glyph glyph-name="underscore" unicode="_" horiz-adv-x="532" 
d="M40 -55v27h452v-27h-452z" />
    <glyph glyph-name="grave" unicode="`" horiz-adv-x="400" 
d="M258 563q-22 17 -51.5 39.5t-71.5 52.5q-31 22 -44.5 38.5t-13.5 35.5q0 18 14.5 30.5t33.5 12.5q20 0 36.5 -14.5t32.5 -46.5q25 -47 43 -79.5t33 -58.5z" />
    <glyph glyph-name="a" unicode="a" horiz-adv-x="518" 
d="M166 -15q-58 0 -97.5 33t-39.5 95q0 47 48 86.5t151 59.5q16 3 36 6.5t42 7.5v79q0 68 -16.5 95.5t-51.5 27.5q-24 0 -38 -15.5t-18 -53.5l-2 -11q-2 -43 -21 -63t-47 -20q-26 0 -43 16t-17 43q0 41 28.5 69t75.5 42t102 14q89 0 137.5 -43.5t48.5 -141.5v-221
q0 -45 42 -45h22l9 -8q-19 -24 -41.5 -37t-63.5 -13q-44 0 -69.5 20.5t-33.5 54.5q-30 -32 -61.5 -54.5t-81.5 -22.5zM227 46q20 0 37.5 9.5t41.5 29.5v168l-20 -4t-23 -4q-46 -12 -73.5 -40.5t-27.5 -76.5q0 -41 19 -61.5t46 -20.5z" />
    <glyph glyph-name="b" unicode="b" horiz-adv-x="581" 
d="M191 -13l-169 13v10l10 2q39 9 39 50v535q0 21 -6.5 32t-26.5 15l-14 4v10l178 43l12 -9l-4 -141v-101q33 23 72 34.5t79 11.5q57 0 101 -26.5t69.5 -82t25.5 -142.5t-28.5 -144.5t-76 -86.5t-104.5 -29q-37 0 -74.5 10t-66.5 28zM298 19q32 0 56 20t38 68.5t14 133.5
t-13 131t-36.5 64t-56.5 18q-47 0 -87 -26v-384q19 -12 39 -18.5t46 -6.5z" />
    <glyph glyph-name="c" unicode="c" horiz-adv-x="494" 
d="M268 -15q-68 0 -123.5 29.5t-88 86t-32.5 138.5q0 81 35.5 138.5t95 88t130.5 30.5q58 0 98 -19t61 -49.5t21 -63.5q0 -28 -17 -43.5t-44 -15.5q-29 0 -47 21t-21 55q-1 22 1 37.5t0 31.5q-4 17 -12.5 22.5t-23.5 5.5q-61 0 -94.5 -53t-33.5 -169q0 -101 37.5 -154.5
t115.5 -53.5q47 0 76 17t56 51l10 -8q-25 -59 -77 -91t-123 -32z" />
    <glyph glyph-name="d" unicode="d" horiz-adv-x="574" 
d="M232 -15q-59 0 -106 26.5t-74.5 82t-27.5 142.5q0 88 31 145.5t82 86t111 28.5q35 0 67 -7t57 -21v130q0 21 -6.5 31t-27.5 14l-19 4v10l182 44l11 -9l-4 -140v-489q0 -20 7 -32.5t26 -17.5l9 -3v-10l-171 -11l-9 36q-27 -18 -61.5 -29t-76.5 -11zM290 22q42 0 77 25v397
q-37 24 -76 24q-48 0 -82 -55.5t-34 -174.5t32 -167.5t83 -48.5z" />
    <glyph glyph-name="e" unicode="e" horiz-adv-x="507" 
d="M271 496q65 0 111 -26.5t70.5 -72t24.5 -103.5q0 -11 -1 -22.5t-4 -20.5h-298q1 -108 38.5 -155.5t111.5 -47.5q50 0 81 16t58 47l10 -9q-31 -55 -82.5 -86t-123.5 -31q-71 0 -126 30.5t-86 87.5t-31 136q0 82 36 139.5t92.5 87.5t118.5 30zM268 476q-29 0 -49.5 -17.5
t-32 -62t-12.5 -125.5h171q10 109 -8 157t-69 48z" />
    <glyph glyph-name="f" unicode="f" horiz-adv-x="343" 
d="M22 0v10l13 3q19 5 30 17.5t11 32.5q0 37 0.5 73.5t0.5 73.5v251h-56v11l22 4q20 2 29 14t13 33q10 39 29.5 68.5t44.5 54.5q38 36 80.5 50.5t83.5 14.5q40 0 73 -16.5t33 -54.5q0 -27 -16 -42.5t-45 -15.5q-24 0 -44 13t-39 46l-14 17q-11 14 -22 13.5t-16 -16.5
q-7 -35 -10.5 -82t-3.5 -92h112v-20h-112v-396q0 -38 40 -49l25 -6v-10h-262z" />
    <glyph glyph-name="g" unicode="g" horiz-adv-x="531" 
d="M238 173q-69 0 -117 23v-34q0 -31 31 -37l188 -35q47 -9 85 -23.5t61 -41t23 -72.5q0 -49 -32 -90.5t-94.5 -67t-155.5 -25.5q-80 0 -127 16.5t-66.5 42.5t-19.5 55q0 36 24.5 72.5t60.5 58.5q-31 12 -45 31t-14 41q0 20 10.5 37.5t25.5 35.5l33 42q-73 42 -73 132
q0 72 51.5 117t151.5 45q51 0 89.5 -12t63.5 -34q32 5 60.5 16.5t51.5 31.5l14 -10v-51h-113q36 -40 36 -103q0 -70 -51.5 -115.5t-151.5 -45.5zM237 193q40 0 58.5 33t18.5 110t-18.5 108.5t-56.5 31.5q-37 0 -56 -32.5t-19 -109.5t17.5 -109t55.5 -32zM88 -84
q0 -59 36.5 -89t115.5 -30q83 0 125 27t42 76q0 28 -20.5 45t-69.5 26l-181 34l-16 4q-14 -20 -23 -45.5t-9 -47.5z" />
    <glyph glyph-name="h" unicode="h" horiz-adv-x="580" 
d="M23 0v10l12 4q36 12 36 50v534q0 21 -7 31t-27 15l-15 4v10l176 43l16 -9l-4 -141v-125q35 29 75.5 49.5t89.5 20.5q65 0 103.5 -37t38.5 -114v-282q0 -20 8 -32t28 -18l8 -3v-10h-234v10l12 3q36 12 36 51v314q0 40 -13.5 55t-47.5 15q-22 0 -48 -8.5t-53 -29.5v-348
q0 -39 36 -50l8 -2v-10h-234z" />
    <glyph glyph-name="i" unicode="i" horiz-adv-x="280" 
d="M140 548q-34 0 -57.5 21.5t-23.5 54.5q0 34 23.5 55t57.5 21t57 -21t23 -55q0 -33 -23 -54.5t-57 -21.5zM22 0v10l14 4q20 6 27.5 18t7.5 32v313q0 21 -7.5 31.5t-27.5 14.5l-14 3v10l183 59l10 -10l-3 -142v-280q0 -20 7.5 -32t26.5 -18l10 -3v-10h-234z" />
    <glyph glyph-name="j" unicode="j" horiz-adv-x="281" 
d="M148 548q-34 0 -57 21.5t-23 54.5q0 34 23 55t57 21t57.5 -21t23.5 -55q0 -33 -23.5 -54.5t-57.5 -21.5zM0 -240q-57 0 -82 19.5t-25 50.5q0 28 20 45t47 17t49 -13.5t34 -42.5l10 -22q7 -11 16.5 -7.5t9.5 31.5v538q0 23 -10.5 33.5t-30.5 14.5l-15 2v10l187 59l12 -10
l-3 -142v-278q0 -65 -5.5 -109t-19 -74.5t-38.5 -56.5q-35 -35 -76 -50t-80 -15z" />
    <glyph glyph-name="k" unicode="k" horiz-adv-x="582" 
d="M22 0v10l15 5q34 11 34 49v535q0 20 -8 30t-28 16l-13 3v10l183 43l12 -9l-3 -140v-488q0 -40 33 -50l14 -4v-10h-239zM393 0l-178 250l185 171q13 12 15.5 25.5t-17.5 19.5l-17 5v10h149v-10l-30 -8q-22 -7 -35.5 -16.5t-32.5 -26.5l-112 -105l179 -249q16 -22 30 -34
t36 -20l4 -2v-10h-176z" />
    <glyph glyph-name="l" unicode="l" horiz-adv-x="286" 
d="M23 0v10l12 4q36 12 36 50v535q0 20 -8 30.5t-28 15.5l-13 3v10l183 43l12 -9l-4 -140v-342q0 -37 0.5 -73.5t0.5 -72.5q0 -20 8 -32.5t27 -18.5l13 -3v-10h-239z" />
    <glyph glyph-name="m" unicode="m" horiz-adv-x="871" 
d="M20 0v10l14 4q19 5 26.5 17t8.5 32v313q0 22 -7 32.5t-27 14.5l-15 4v10l171 58l10 -10l8 -68q33 33 75.5 56t88.5 23q48 0 77 -19.5t44 -60.5q39 37 84.5 58.5t88.5 21.5q71 0 104.5 -34t33.5 -107v-293q0 -39 36 -49l11 -3v-10h-231v10l10 3q19 6 26.5 18t7.5 32v306
q0 42 -15 57.5t-48 15.5q-26 0 -50.5 -11.5t-51.5 -34.5q5 -16 6.5 -35t1.5 -40v-259q1 -39 36 -49l9 -3v-10h-232v10l14 4q19 6 26.5 17.5t7.5 31.5v305q0 40 -14.5 57t-49.5 17q-23 0 -46 -11.5t-48 -33.5v-335q0 -39 35 -49l9 -3v-10h-235z" />
    <glyph glyph-name="n" unicode="n" horiz-adv-x="578" 
d="M20 0v10l14 4q35 10 35 49v313q0 22 -7 32.5t-27 14.5l-15 4v10l171 58l10 -10l8 -60q35 31 79 51t87 20q66 0 101.5 -36t35.5 -110v-288q0 -39 38 -49l9 -3v-10h-236v10l13 4q35 11 35 49v319q0 64 -64 64q-44 0 -96 -44v-340q0 -39 35 -49l9 -3v-10h-235z" />
    <glyph glyph-name="o" unicode="o" horiz-adv-x="545" 
d="M273 -15q-76 0 -132 31.5t-86.5 89.5t-30.5 136t32.5 135t89 88t127.5 31t127 -30.5t88.5 -87.5t32.5 -136t-30.5 -136.5t-86 -89t-131.5 -31.5zM273 5q35 0 56 20t30.5 71t9.5 144q0 94 -9.5 145t-30.5 71t-56 20t-56.5 -20t-31 -71t-9.5 -145q0 -93 9.5 -144t31 -71
t56.5 -20z" />
    <glyph glyph-name="p" unicode="p" horiz-adv-x="578" 
d="M20 -230v10l12 4q37 10 37 48v544q0 22 -7.5 33t-27.5 15l-14 3v10l170 58l10 -10l9 -31q33 20 73.5 31t83.5 11q86 0 136.5 -65.5t50.5 -187.5q0 -120 -55.5 -189t-156.5 -69q-79 0 -133 23v-173q0 -40 36 -50l19 -5v-10h-243zM293 14q50 0 79.5 52t29.5 173t-28 169.5
t-81 48.5q-37 0 -82 -24v-403q38 -16 82 -16z" />
    <glyph glyph-name="q" unicode="q" horiz-adv-x="565" 
d="M312 -230v10l21 5q38 11 38 50v199q-29 -22 -66.5 -35.5t-83.5 -13.5q-85 0 -141 64t-56 186q0 84 28 142t77.5 88.5t114.5 30.5q44 0 80.5 -13t64.5 -33l114 46l10 -10l-3 -135v-519q0 -41 36 -49l9 -3v-10h-243zM287 25q42 0 81 32v380q-17 11 -35 16t-43 5
q-53 0 -84 -51.5t-31 -169.5q0 -115 30 -163.5t82 -48.5z" />
    <glyph glyph-name="r" unicode="r" horiz-adv-x="441" 
d="M20 0v10l15 4q20 6 27.5 18t7.5 31v313q0 22 -7.5 32.5t-27.5 14.5l-15 4v10l172 58l10 -10l9 -86v-8q14 28 36.5 51.5t50 38.5t54.5 15q38 0 58 -21t20 -53q0 -34 -19.5 -52.5t-46.5 -18.5q-42 0 -74 42l-2 2q-10 14 -23 15.5t-24 -12.5q-10 -9 -16.5 -21.5t-12.5 -28.5
v-279q0 -40 35 -50l32 -9v-10h-259z" />
    <glyph glyph-name="s" unicode="s" horiz-adv-x="436" 
d="M193 -15q-49 0 -88 11.5t-72 28.5l1 119h10l34 -60q22 -40 48.5 -59.5t67.5 -19.5q48 0 77.5 21.5t29.5 57.5q0 33 -21 54t-78 38l-42 13q-61 18 -96 56t-35 93q0 66 52 112t149 46q39 0 73.5 -8.5t66.5 -25.5l-6 -108h-10l-35 62q-19 33 -37.5 46.5t-55.5 13.5
q-34 0 -64 -19t-30 -54q0 -34 25.5 -54t75.5 -37l45 -13q72 -22 103 -60.5t31 -92.5q0 -73 -57.5 -117t-161.5 -44z" />
    <glyph glyph-name="t" unicode="t" horiz-adv-x="361" 
d="M210 -15q-64 0 -99.5 32t-35.5 102v342h-69v10l24 4q31 7 53.5 20t44.5 35l82 91h10l-3 -140h112v-20h-113v-360q0 -35 15.5 -53t39.5 -18q21 0 37 10.5t32 28.5l10 -10q-20 -34 -55 -54t-85 -20z" />
    <glyph glyph-name="u" unicode="u" horiz-adv-x="567" 
d="M201 -15q-39 0 -71.5 15t-51 48.5t-17.5 88.5l3 257q0 23 -8 33t-25 14l-12 4v10l179 35l10 -10l-5 -142v-241q0 -32 18.5 -47t46.5 -15t50 8t44 24l4 326q0 23 -7 32.5t-26 13.5l-10 3v10l175 38l10 -10l-3 -142v-271q0 -22 6 -34t26 -20l10 -3v-10l-175 -10l-9 59
q-33 -27 -71.5 -45.5t-90.5 -18.5z" />
    <glyph glyph-name="v" unicode="v" horiz-adv-x="530" 
d="M244 -3l-177 425q-14 34 -48 45l-14 4v10h259v-10l-18 -4q-39 -10 -24 -52l105 -279l98 277q8 20 4 33t-24 19l-25 6v10h145v-10l-29 -7q-19 -5 -29.5 -15t-17.5 -30l-147 -422h-58z" />
    <glyph glyph-name="w" unicode="w" horiz-adv-x="781" 
d="M225 -3l-154 423q-11 32 -44 45l-17 6v10h245v-10l-15 -4q-39 -12 -26 -48l93 -283l83 220l-19 57q-7 22 -14.5 33.5t-19.5 16.5l-17 8v10h207v-10l-14 -6q-15 -6 -18 -16t4 -30l92 -278l95 276q14 38 -15 48l-22 6v10h120v-10l-24 -7q-17 -5 -24.5 -15.5t-13.5 -28.5
l-144 -423h-51l-111 327l-118 -327h-58z" />
    <glyph glyph-name="x" unicode="x" horiz-adv-x="568" 
d="M13 0v10l26 6q23 5 37.5 15.5t27.5 29.5l108 155l-136 216q-10 15 -18 23t-25 12l-14 4v10h254v-10l-17 -4q-35 -11 -14 -44l82 -127l89 123q11 17 10.5 28.5t-19.5 16.5l-25 7v10h146v-10l-24 -6q-22 -6 -34 -15.5t-26 -29.5l-105 -142l137 -213q25 -39 67 -50l16 -5
v-10h-276v10l17 4q17 4 21.5 16.5t-5.5 28.5l-88 137l-95 -138q-12 -16 -7.5 -27.5t20.5 -15.5l20 -5v-10h-150z" />
    <glyph glyph-name="y" unicode="y" horiz-adv-x="536" 
d="M112 -240q-40 0 -63.5 20t-23.5 51q0 28 20 45t45 17t42 -10.5t30 -30.5l7 -8q22 -30 44 1q9 15 20.5 39.5t26.5 65.5l-194 464q-7 19 -15 30.5t-26 19.5l-18 7v10h249v-9l-20 -8q-22 -7 -22.5 -22.5t7.5 -38.5l104 -270l99 273q8 23 6 38.5t-25 21.5l-21 5v10h139v-10
l-22 -7q-23 -7 -32 -20t-17 -36l-161 -439q-39 -105 -78 -157t-101 -52z" />
    <glyph glyph-name="z" unicode="z" horiz-adv-x="465" 
d="M23 0v16l273 445h-151q-26 0 -41 -14t-28 -37l-36 -67h-10l7 138h400v-14l-267 -447h157q32 0 47 15t28 41l35 74h10l-9 -150h-415z" />
    <glyph glyph-name="braceleft" unicode="{" horiz-adv-x="338" 
d="M272 -159q-78 0 -126.5 31.5t-48.5 95.5q0 40 13.5 73.5t27 64.5t13.5 62q0 41 -24.5 64t-86.5 33v26q62 10 86.5 33.5t24.5 63.5q0 32 -13.5 62.5t-27 64.5t-13.5 73q0 65 48.5 96t126.5 31h36v-20l-20 -2q-42 -5 -62 -27.5t-20 -58.5t6.5 -68.5t13 -64t6.5 -65.5
q0 -58 -31.5 -89t-104.5 -42q73 -11 104.5 -41.5t31.5 -89.5q0 -34 -6.5 -65.5t-13 -63.5t-6.5 -69q0 -36 20 -58.5t62 -27.5l20 -2v-20h-36z" />
    <glyph glyph-name="bar" unicode="|" horiz-adv-x="267" 
d="M121 -250v1000h24v-1000h-24z" />
    <glyph glyph-name="braceright" unicode="}" horiz-adv-x="338" 
d="M66 715q78 0 126.5 -31.5t48.5 -95.5q0 -40 -13.5 -73.5t-27 -64.5t-13.5 -62q0 -41 24.5 -64t86.5 -33v-26q-62 -10 -86.5 -33.5t-24.5 -63.5q0 -32 13.5 -62.5t27 -64.5t13.5 -73q0 -65 -48.5 -96t-126.5 -31h-36v20l20 2q42 5 62 27.5t20 58.5t-6.5 68.5t-13 64
t-6.5 65.5q0 58 31.5 89t104.5 42q-73 11 -104.5 41.5t-31.5 89.5q0 34 6.5 65.5t13 63.5t6.5 69q0 36 -20 58.5t-62 27.5l-20 2v20h36z" />
    <glyph glyph-name="asciitilde" unicode="~" horiz-adv-x="541" 
d="M364 253q-30 0 -58.5 12.5t-57.5 43.5q-31 35 -49.5 48.5t-41.5 13.5q-25 0 -47 -22t-30 -75l-16 2q2 81 32 121t79 40q34 0 60.5 -13t56.5 -45q32 -34 51 -47.5t40 -13.5q26 0 48.5 21t29.5 75l16 -2q-1 -71 -30 -115t-83 -44z" />
    <glyph glyph-name="uni00A0" unicode="&#xa0;" horiz-adv-x="218" 
 />
    <glyph glyph-name="exclamdown" unicode="&#xa1;" horiz-adv-x="333" 
d="M166 318q-36 0 -61 25.5t-25 60.5q0 36 25 61t61 25q37 0 62 -25t25 -61q0 -35 -25 -60.5t-62 -25.5zM166 -197q-37 0 -58 24t-21 61q0 32 16 97t33 144l21 105h19l21 -105q16 -77 32 -142.5t16 -98.5q0 -37 -20.5 -61t-58.5 -24z" />
    <glyph glyph-name="cent" unicode="&#xa2;" horiz-adv-x="532" 
d="M290 -45v98q-75 1 -132.5 33t-89.5 89t-32 134q0 116 68.5 185t185.5 73v87h25v-87q60 -2 101 -22t62.5 -49.5t21.5 -60.5q0 -28 -16.5 -42t-39.5 -14q-30 0 -47.5 22t-23.5 55l-6 33q-4 20 -16 36t-36 19v-432q62 1 99.5 21t67.5 55l16 -12q-24 -54 -70.5 -86
t-112.5 -36v-99h-25zM174 321q0 -90 28.5 -144.5t87.5 -62.5v430q-53 -7 -84.5 -64t-31.5 -159z" />
    <glyph glyph-name="sterling" unicode="&#xa3;" horiz-adv-x="532" 
d="M43 0v81q55 36 79.5 77t24.5 87q0 15 -2 27.5t-5 23.5h-85v22h77q-9 22 -20.5 43.5t-19.5 47.5t-8 61q0 57 29.5 97t78 61t106.5 21q86 0 136.5 -35.5t50.5 -92.5q0 -31 -17 -48t-43 -17q-27 0 -45 18t-26 61l-3 20q-6 39 -20 56.5t-39 17.5q-40 0 -62.5 -39.5
t-22.5 -112.5q0 -46 11 -83.5t17 -75.5h173v-22h-170q1 -21 -1 -41q-2 -32 -21 -61.5t-47 -54.5t-58 -43h378v-96h-446z" />
    <glyph glyph-name="currency" unicode="&#xa4;" horiz-adv-x="534" 
d="M92 325q0 32 9.5 59.5t26.5 49.5l-33 18q-31 17 -50 33.5t-19 38.5q0 17 12.5 29.5t29.5 12.5q22 0 38.5 -19t33.5 -50l18 -34q47 36 109 36t108 -36l19 34q17 31 33.5 50t37.5 19q17 0 30 -12.5t13 -29.5q0 -22 -19 -38.5t-50 -33.5l-34 -18q17 -21 26.5 -49t9.5 -60
t-9.5 -59.5t-26.5 -48.5l34 -19q31 -16 50 -33t19 -38q0 -17 -12.5 -30t-30.5 -13q-21 0 -37.5 19t-33.5 50l-18 34q-47 -36 -109 -36q-61 0 -108 36l-19 -34q-17 -31 -33.5 -50t-38.5 -19q-16 0 -29 12.5t-13 30.5q0 21 19 37.5t50 33.5l34 18q-17 22 -27 49.5t-10 59.5z
M165 325q0 -48 30.5 -77.5t71.5 -29.5t71 29.5t30 77.5q0 47 -30 77t-71 30t-71.5 -30t-30.5 -77z" />
    <glyph glyph-name="yen" unicode="&#xa5;" horiz-adv-x="532" 
d="M142 0v10l18 6q37 12 38 50v97h-132v22h132v97l-3 7h-129v23h117l-132 267q-12 26 -41 41l-8 4v10h227v-10l-7 -3q-36 -14 -21 -48l113 -255l121 262q14 29 -16 40l-8 4v10h104v-10l-9 -4q-33 -13 -48 -45l-120 -263h127v-23h-130v-99v-5h130v-22h-130q0 -22 -0.5 -47
t0.5 -50q1 -38 38 -50l18 -6v-10h-249z" />
    <glyph glyph-name="brokenbar" unicode="&#xa6;" horiz-adv-x="267" 
d="M145 320h-24v430h24v-430zM121 -250v450h24v-450h-24z" />
    <glyph glyph-name="section" unicode="&#xa7;" horiz-adv-x="522" 
d="M244 -107q-85 0 -135 29.5t-50 79.5q0 27 18 44.5t43 17.5q27 0 43.5 -15.5t26.5 -47.5l11 -32q8 -22 25.5 -39t48.5 -17q34 0 55 22t21 58q0 32 -15 52.5t-45.5 38t-79.5 38.5q-82 34 -125 72t-43 105q0 36 21.5 67.5t58.5 52.5q-42 43 -42 104q0 40 22 75t66 57t109 22
q84 0 133 -33t49 -83q0 -25 -15.5 -40t-39.5 -15q-23 0 -42.5 15t-33.5 58l-10 28q-7 21 -20 36t-41 15q-35 0 -57.5 -22t-22.5 -57q0 -47 32 -75.5t89 -51.5q98 -36 139.5 -74.5t41.5 -95.5q0 -45 -22 -76t-58 -52q21 -20 31.5 -45.5t10.5 -57.5q0 -41 -23 -77.5t-67 -58.5
t-108 -22zM261 231q39 -14 70 -29.5t54 -33.5q20 26 20 63q0 32 -36 57.5t-111 53.5q-79 29 -120 63q-18 -26 -18 -58q0 -46 36.5 -69t104.5 -47z" />
    <glyph glyph-name="dieresis" unicode="&#xa8;" horiz-adv-x="400" 
d="M316 580q-28 0 -50.5 18.5t-22.5 50.5t22.5 50.5t50.5 18.5q30 0 51.5 -18.5t21.5 -50.5t-21.5 -50.5t-51.5 -18.5zM84 580q-29 0 -51 18.5t-22 50.5t22 50.5t51 18.5t51 -18.5t22 -50.5t-22 -50.5t-51 -18.5z" />
    <glyph glyph-name="copyright" unicode="&#xa9;" horiz-adv-x="747" 
d="M374 -18q-70 0 -132 24.5t-109.5 70t-75 110t-27.5 144.5t27.5 144t75 109.5t109.5 69.5t132 24t132 -24t109.5 -69.5t75 -109.5t27.5 -144t-27.5 -144.5t-75 -110t-109.5 -70t-132 -24.5zM374 6q86 0 157 40t113.5 113t42.5 172t-42.5 171.5t-113.5 112t-157 39.5
t-157 -39.5t-113.5 -111.5t-42.5 -172q0 -99 42.5 -172t113.5 -113t157 -40zM392 127q-57 0 -103 23.5t-73 69.5t-27 111q0 66 28.5 112.5t75.5 70.5t102 24q35 0 62 -7t53 -22l2 -95h-10l-22 46q-13 28 -33 43t-41 15q-46 0 -80 -47t-34 -139t34 -138.5t80 -46.5
q28 0 46 14t33 45l22 45h10l-3 -95q-24 -13 -54.5 -21t-67.5 -8z" />
    <glyph glyph-name="ordfeminine" unicode="&#xaa;" horiz-adv-x="354" 
d="M297 474q0 -24 17 -24q5 0 10.5 3t12.5 11l16 -12q-12 -25 -29 -35t-43 -10q-58 0 -71 50q-25 -24 -45 -38t-53 -14q-38 0 -63 22t-25 62q0 32 24.5 57.5t99.5 47.5q24 7 59 16v21q0 44 -12 60t-45 16q-12 0 -23 -2l-6 -34q-2 -27 -15.5 -39.5t-30.5 -12.5q-35 0 -41 32
q5 39 43 63.5t105 24.5q61 0 88 -27.5t27 -92.5v-145zM111 503q0 -25 13.5 -36.5t30.5 -11.5q12 0 22.5 6t29.5 19v103l-22.5 -7.5t-18.5 -6.5q-55 -22 -55 -66z" />
    <glyph glyph-name="guillemotleft" unicode="&#xab;" horiz-adv-x="536" 
d="M258 36l-231 203v23l231 203l10 -9l-132 -206l132 -205zM472 36l-231 203v23l231 203l10 -9l-132 -206l132 -205z" />
    <glyph glyph-name="logicalnot" unicode="&#xac;" horiz-adv-x="541" 
d="M27 357v20h450v-229h-20v209h-430z" />
    <glyph glyph-name="uni00AD" unicode="&#xad;" horiz-adv-x="332" 
d="M40 240v27h252v-27h-252z" />
    <glyph glyph-name="registered" unicode="&#xae;" horiz-adv-x="467" 
d="M233 311q-55 0 -101 24.5t-74 70t-28 107.5q0 63 28 108t74.5 69t100.5 24q55 0 101.5 -24t74.5 -69t28 -108q0 -62 -28 -107.5t-74 -70t-102 -24.5zM233 328q51 0 92.5 22.5t66 64t24.5 98.5q0 58 -24.5 99t-66 63t-92.5 22q-50 0 -91.5 -22t-66.5 -63t-25 -99
q0 -57 25 -98.5t66.5 -64t91.5 -22.5zM144 418v10l7 3q13 6 13 20v134q0 14 -12 20l-8 3v9h96q37 0 56.5 -13.5t19.5 -36.5q0 -36 -33 -49l32 -70q4 -11 17 -18l6 -3v-9h-68l-35 89h-18v-56q0 -14 13 -19l7 -4v-10h-93zM217 518h9q22 0 30 13.5t8 30.5q0 43 -38 43h-9v-87z
" />
    <glyph glyph-name="macron" unicode="&#xaf;" horiz-adv-x="400" 
d="M47 617v22h306v-22h-306z" />
    <glyph glyph-name="degree" unicode="&#xb0;" horiz-adv-x="328" 
d="M164 412q-35 0 -65 16t-48 45.5t-18 70.5t18 71t48 46.5t65 16.5t65 -16.5t48 -46.5t18 -71t-18 -70.5t-48 -45.5t-65 -16zM164 436q43 0 72 29.5t29 78.5q0 50 -29 80t-72 30t-72 -30t-29 -80q0 -49 29 -78.5t72 -29.5z" />
    <glyph glyph-name="plusminus" unicode="&#xb1;" horiz-adv-x="541" 
d="M259 116v215h-229v20h229v211h24v-211h229v-20h-229v-215h-24zM30 0v20h482v-20h-482z" />
    <glyph glyph-name="uni00B2" unicode="&#xb2;" horiz-adv-x="345" 
d="M48 700l5 95q20 11 47.5 17.5t64.5 6.5q79 0 113.5 -31.5t34.5 -77.5t-46 -86.5t-126 -86.5q-10 -7 -29.5 -19t-30.5 -21h238v-82h-285v59q24 23 42 41l39 39q46 47 67.5 80t21.5 76q0 41 -13 67.5t-49 26.5q-13 0 -25.5 -5.5l-12.5 -5.5l-50 -93h-6z" />
    <glyph glyph-name="uni00B3" unicode="&#xb3;" horiz-adv-x="344" 
d="M166 405q-49 0 -74.5 9.5t-52.5 19.5l7 89h6l55 -94l13 -5.5t32 -5.5q32 0 46 23.5t14 81.5q0 53 -13.5 71.5t-43.5 18.5h-34v13h31q28 0 41 16.5t13 71.5q0 50 -12.5 70t-33.5 20q-18 0 -30 -5.5l-12 -5.5l-50 -90h-6l5 98q22 8 46.5 13t57.5 5q71 0 106.5 -29t35.5 -72
q0 -28 -28 -56t-90 -39q68 -4 99 -33.5t31 -71.5q0 -49 -42 -81t-117 -32z" />
    <glyph glyph-name="acute" unicode="&#xb4;" horiz-adv-x="400" 
d="M129 573q14 26 32 58.5t43 79.5q17 32 33 46.5t37 14.5q19 0 33 -12.5t14 -30.5q0 -19 -13 -35.5t-44 -38.5q-43 -30 -72 -52.5t-52 -39.5z" />
    <glyph glyph-name="uni00B5" unicode="&#xb5;" horiz-adv-x="584" 
d="M63 -177l27 285l-22 362l130 26l14 -11q-4 -97 -7.5 -163t-5.5 -114.5t-2 -92.5q17 -15 38.5 -20t44.5 -5q27 0 51 9.5t43 38.5l-10 332l129 26l15 -11q-7 -103 -12 -167.5t-7 -104.5t-2 -71q1 -48 11.5 -63t35.5 -15q20 0 36 10l7 -15q-16 -33 -42 -53.5t-63 -20.5
q-46 0 -69.5 33.5t-26.5 88.5q-37 -122 -113 -122q-24 0 -46.5 21t-37.5 65l27 -236l-126 -28z" />
    <glyph glyph-name="paragraph" unicode="&#xb6;" horiz-adv-x="611" 
d="M386 -119q2 76 2.5 153.5t0.5 156.5v449h-75v-516q-82 1 -148 32t-104.5 90.5t-38.5 147.5q0 68 24.5 118t66.5 83t95 49t110 16h251v-10l-22 -7q-37 -12 -38 -50q-1 -58 -1 -123.5v-119.5v-158q0 -78 0.5 -156t2.5 -155h-126z" />
    <glyph glyph-name="periodcentered" unicode="&#xb7;" horiz-adv-x="300" 
d="M150 249q-36 0 -61 25t-25 60t25 61t61 26t61 -26t25 -61t-25 -60t-61 -25z" />
    <glyph glyph-name="cedilla" unicode="&#xb8;" horiz-adv-x="400" 
d="M146 -88l13 87h21l-6 -49q59 -7 88 -30t29 -57q0 -37 -32 -62t-97 -25q-24 0 -41.5 3.5t-33.5 8.5l4 17q29 -9 53 -9q28 0 43.5 16.5t15.5 45.5q0 24 -15.5 37t-41.5 17z" />
    <glyph glyph-name="uni00B9" unicode="&#xb9;" horiz-adv-x="242" 
d="M14 415v6l46 16v318l-45 -5v8q26 10 47 18.5t45 18t58 22.5l9 -6l-3 -90v-284l49 -16v-6h-206z" />
    <glyph glyph-name="ordmasculine" unicode="&#xba;" horiz-adv-x="379" 
d="M190 739q45 0 83 -20t61 -57t23 -89q0 -78 -47.5 -123t-119.5 -45q-73 0 -120.5 45.5t-47.5 122.5q0 52 23 89t61.5 57t83.5 20zM190 705q-36 0 -54 -32.5t-18 -100.5q0 -69 18 -101t54 -32q35 0 53 32t18 101q0 68 -18 100.5t-53 32.5z" />
    <glyph glyph-name="guillemotright" unicode="&#xbb;" horiz-adv-x="536" 
d="M64 469l231 -203v-23l-231 -203l-10 9l132 206l-132 205zM278 469l231 -203v-23l-231 -203l-10 9l132 206l-132 205z" />
    <glyph glyph-name="onequarter" unicode="&#xbc;" horiz-adv-x="698" 
d="M147 -21l-20 14l451 661l21 -14zM14 248v6l46 16v318l-45 -5v8q26 10 47 18.5t45 18t58 22.5l9 -6l-3 -90v-284l49 -16v-6h-206zM529 0v88h-161v44l181 267h75v-254h56v-57h-56v-88h-95zM399 145h130v189z" />
    <glyph glyph-name="onehalf" unicode="&#xbd;" horiz-adv-x="789" 
d="M147 -21l-20 14l451 661l21 -14zM14 252v6l46 16v318l-45 -5v8q26 10 47 18.5t45 18t58 22.5l9 -6l-3 -90v-284l49 -16v-6h-206zM492 285l5 95q20 11 47.5 17.5t64.5 6.5q79 0 113.5 -31.5t34.5 -77.5t-46 -86.5t-126 -86.5q-10 -7 -29.5 -19t-30.5 -21h238v-82h-285v59
q24 23 42 41l39 39q46 47 67.5 80t21.5 76q0 41 -13 67.5t-49 26.5q-13 0 -25.5 -5.5l-12.5 -5.5l-50 -93h-6z" />
    <glyph glyph-name="threequarters" unicode="&#xbe;" horiz-adv-x="776" 
d="M166 240q-49 0 -74.5 9.5t-52.5 19.5l7 89h6l55 -94l13 -5.5t32 -5.5q32 0 46 23.5t14 81.5q0 53 -13.5 71.5t-43.5 18.5h-34v13h31q28 0 41 16.5t13 71.5q0 50 -12.5 70t-33.5 20q-18 0 -30 -5.5l-12 -5.5l-50 -90h-6l5 98q22 8 46.5 13t57.5 5q71 0 106.5 -29t35.5 -72
q0 -28 -28 -56t-90 -39q68 -4 99 -33.5t31 -71.5q0 -49 -42 -81t-117 -32zM224 -21l-20 14l451 661l21 -14zM606 0v88h-161v44l181 267h75v-254h56v-57h-56v-88h-95zM476 145h130v189z" />
    <glyph glyph-name="questiondown" unicode="&#xbf;" horiz-adv-x="506" 
d="M252 336q-37 0 -61.5 25.5t-24.5 60.5q0 36 24.5 61t61.5 25q36 0 61.5 -25t25.5 -61q0 -35 -25.5 -60.5t-61.5 -25.5zM248 -191q-101 0 -158.5 43.5t-57.5 128.5q0 59 29 100t74.5 67t94.5 39l5 81h18l9 -170q-47 -16 -76 -52.5t-29 -87.5q0 -60 22 -94.5t55 -34.5
q29 0 44.5 20t24.5 54l13 48q9 34 30.5 48.5t45 11.5t40.5 -21.5t17 -50.5q0 -39 -29.5 -68.5t-75.5 -45.5t-96 -16z" />
    <glyph glyph-name="Agrave" unicode="&#xc0;" horiz-adv-x="650" 
d="M8 0v10l25 9q20 8 31 19.5t18 32.5l206 591h85l203 -595q8 -22 18 -33.5t31 -19.5l12 -4v-10h-254v10l15 5q21 8 25.5 22.5t-1.5 34.5l-47 144h-222l-48 -141q-7 -22 -4.5 -35t23.5 -21l22 -9v-10h-138zM160 236h209l-101 311zM382 713q-37 17 -71 32t-72 31
q-62 28 -62 60q0 17 11.5 28.5t30.5 11.5q15 0 30.5 -9t40.5 -36q24 -25 50 -52.5t52 -53.5z" />
    <glyph glyph-name="Aacute" unicode="&#xc1;" horiz-adv-x="650" 
d="M8 0v10l25 9q20 8 31 19.5t18 32.5l206 591h85l203 -595q8 -22 18 -33.5t31 -19.5l12 -4v-10h-254v10l15 5q21 8 25.5 22.5t-1.5 34.5l-47 144h-222l-48 -141q-7 -22 -4.5 -35t23.5 -21l22 -9v-10h-138zM160 236h209l-101 311zM239 725q26 26 52 53.5t50 52.5
q25 27 40.5 36t30.5 9q19 0 30.5 -11.5t11.5 -28.5q0 -32 -62 -60q-37 -16 -71.5 -31t-71.5 -32z" />
    <glyph glyph-name="Acircumflex" unicode="&#xc2;" horiz-adv-x="650" 
d="M8 0v10l25 9q20 8 31 19.5t18 32.5l206 591h85l203 -595q8 -22 18 -33.5t31 -19.5l12 -4v-10h-254v10l15 5q21 8 25.5 22.5t-1.5 34.5l-47 144h-222l-48 -141q-7 -22 -4.5 -35t23.5 -21l22 -9v-10h-138zM160 236h209l-101 311zM167 694l-10 12l151 164h14l151 -164
l-10 -12l-148 82z" />
    <glyph glyph-name="Atilde" unicode="&#xc3;" horiz-adv-x="650" 
d="M8 0v10l25 9q20 8 31 19.5t18 32.5l206 591h85l203 -595q8 -22 18 -33.5t31 -19.5l12 -4v-10h-254v10l15 5q21 8 25.5 22.5t-1.5 34.5l-47 144h-222l-48 -141q-7 -22 -4.5 -35t23.5 -21l22 -9v-10h-138zM160 236h209l-101 311zM145 719q8 62 33 101.5t68 39.5q25 0 44 -9
t35 -22q17 -13 34 -28.5t39 -15.5q28 0 45.5 19.5t28.5 49.5l15 -5q-9 -61 -33.5 -101t-67.5 -40q-23 0 -42.5 9t-35.5 21q-16 15 -34.5 30t-39.5 15q-28 0 -46.5 -20t-29.5 -50z" />
    <glyph glyph-name="Adieresis" unicode="&#xc4;" horiz-adv-x="650" 
d="M8 0v10l25 9q20 8 31 19.5t18 32.5l206 591h85l203 -595q8 -22 18 -33.5t31 -19.5l12 -4v-10h-254v10l15 5q21 8 25.5 22.5t-1.5 34.5l-47 144h-222l-48 -141q-7 -22 -4.5 -35t23.5 -21l22 -9v-10h-138zM160 236h209l-101 311zM193 720q-27 0 -48.5 17.5t-21.5 48.5
t21.5 48.5t48.5 17.5q29 0 49.5 -17.5t20.5 -48.5t-20.5 -48.5t-49.5 -17.5zM436 720q-27 0 -48 17.5t-21 48.5t21 48.5t48 17.5q29 0 49.5 -17.5t20.5 -48.5t-20.5 -48.5t-49.5 -17.5z" />
    <glyph glyph-name="Aring" unicode="&#xc5;" horiz-adv-x="650" 
d="M8 0v10l25 9q20 8 31 19.5t18 32.5l206 591h85l203 -595q8 -22 18 -33.5t31 -19.5l12 -4v-10h-254v10l15 5q21 8 25.5 22.5t-1.5 34.5l-47 144h-222l-48 -141q-7 -22 -4.5 -35t23.5 -21l22 -9v-10h-138zM160 236h209l-101 311zM315 706q-41 0 -71.5 26t-30.5 71
t30.5 71.5t71.5 26.5t71.5 -25.5t30.5 -72.5q0 -46 -30.5 -71.5t-71.5 -25.5zM315 732q32 0 50 20.5t18 50.5t-18 51t-50 21q-31 0 -49.5 -21t-18.5 -51t18.5 -50.5t49.5 -20.5z" />
    <glyph glyph-name="AE" unicode="&#xc6;" horiz-adv-x="898" 
d="M17 0v10l27 9q26 9 42 23.5t28 37.5l252 509q9 18 3 32t-26 20l-30 9v10h531l6 -154h-10l-46 101q-14 33 -51 33h-174q-1 -64 -1.5 -132t-0.5 -157h105q31 0 44 27l28 52h10v-180h-10l-28 54q-14 27 -44 27h-105v-138.5t0.5 -95.5t1.5 -77h196q38 0 53 35l42 99h10
l-6 -154h-497v10l15 6q35 13 36 52q1 53 1 100.5v95.5h-189l-91 -187q-21 -41 23 -57l30 -10v-10h-175zM240 285h179v351h-7z" />
    <glyph glyph-name="Ccedilla" unicode="&#xc7;" horiz-adv-x="603" 
d="M366 -18q-97 0 -175.5 39.5t-124.5 117.5t-46 191q0 86 28 151t76.5 109t112 66t134.5 22q57 0 105 -13t90 -36l4 -123h-10l-50 80q-10 19 -22 34.5t-30 23.5q-15 7 -29.5 10.5t-36.5 3.5q-58 0 -105.5 -31t-76 -102.5t-28.5 -195.5q0 -123 27 -194.5t73.5 -102
t104.5 -30.5q32 0 51 4.5t38 13.5q19 8 29 23.5t18 33.5l44 98h10l-3 -143q-42 -22 -94 -36t-114 -14zM345 -85l13 87h21l-6 -49q59 -7 88 -30t29 -57q0 -37 -32 -62t-97 -25q-24 0 -41.5 3.5t-33.5 8.5l4 17q29 -9 53 -9q28 0 43.5 16.5t15.5 45.5q0 24 -15.5 37t-41.5 17z
" />
    <glyph glyph-name="Egrave" unicode="&#xc8;" horiz-adv-x="555" 
d="M22 0v10l23 9q17 7 23.5 18.5t6.5 31.5v522q0 20 -5.5 31.5t-24.5 18.5l-23 9v10h479l6 -154h-10l-43 94q-9 18 -19 29t-30 11h-180v-289h107q20 0 30.5 10.5t18.5 28.5l20 40h10v-180h-10l-20 42q-9 18 -19 28.5t-30 10.5h-107v-311h202q20 0 31 10.5t18 29.5l41 94h10
l-6 -154h-499zM343 713q-37 17 -71 32t-72 31q-62 28 -62 60q0 17 11.5 28.5t30.5 11.5q15 0 30.5 -9t40.5 -36q24 -25 50 -52.5t52 -53.5z" />
    <glyph glyph-name="Eacute" unicode="&#xc9;" horiz-adv-x="555" 
d="M22 0v10l23 9q17 7 23.5 18.5t6.5 31.5v522q0 20 -5.5 31.5t-24.5 18.5l-23 9v10h479l6 -154h-10l-43 94q-9 18 -19 29t-30 11h-180v-289h107q20 0 30.5 10.5t18.5 28.5l20 40h10v-180h-10l-20 42q-9 18 -19 28.5t-30 10.5h-107v-311h202q20 0 31 10.5t18 29.5l41 94h10
l-6 -154h-499zM200 725q26 26 52 53.5t50 52.5q25 27 40.5 36t30.5 9q19 0 30.5 -11.5t11.5 -28.5q0 -32 -62 -60q-37 -16 -71.5 -31t-71.5 -32z" />
    <glyph glyph-name="Ecircumflex" unicode="&#xca;" horiz-adv-x="555" 
d="M22 0v10l23 9q17 7 23.5 18.5t6.5 31.5v522q0 20 -5.5 31.5t-24.5 18.5l-23 9v10h479l6 -154h-10l-43 94q-9 18 -19 29t-30 11h-180v-289h107q20 0 30.5 10.5t18.5 28.5l20 40h10v-180h-10l-20 42q-9 18 -19 28.5t-30 10.5h-107v-311h202q20 0 31 10.5t18 29.5l41 94h10
l-6 -154h-499zM128 694l-10 12l151 164h14l151 -164l-10 -12l-148 82z" />
    <glyph glyph-name="Edieresis" unicode="&#xcb;" horiz-adv-x="555" 
d="M22 0v10l23 9q17 7 23.5 18.5t6.5 31.5v522q0 20 -5.5 31.5t-24.5 18.5l-23 9v10h479l6 -154h-10l-43 94q-9 18 -19 29t-30 11h-180v-289h107q20 0 30.5 10.5t18.5 28.5l20 40h10v-180h-10l-20 42q-9 18 -19 28.5t-30 10.5h-107v-311h202q20 0 31 10.5t18 29.5l41 94h10
l-6 -154h-499zM154 720q-27 0 -48.5 17.5t-21.5 48.5t21.5 48.5t48.5 17.5q29 0 49.5 -17.5t20.5 -48.5t-20.5 -48.5t-49.5 -17.5zM397 720q-27 0 -48 17.5t-21 48.5t21 48.5t48 17.5q29 0 49.5 -17.5t20.5 -48.5t-20.5 -48.5t-49.5 -17.5z" />
    <glyph glyph-name="Igrave" unicode="&#xcc;" horiz-adv-x="301" 
d="M22 0v10l20 8q20 7 26.5 19t6.5 32v522q0 20 -6 32t-27 19l-20 8v10h257v-10l-20 -8q-20 -7 -26.5 -19t-6.5 -32v-522q0 -20 6.5 -31.5t26.5 -19.5l20 -8v-10h-257zM218 713q-37 17 -71 32t-72 31q-62 28 -62 60q0 17 11.5 28.5t30.5 11.5q15 0 30.5 -9t40.5 -36
q24 -25 50 -52.5t52 -53.5z" />
    <glyph glyph-name="Iacute" unicode="&#xcd;" horiz-adv-x="301" 
d="M22 0v10l20 8q20 7 26.5 19t6.5 32v522q0 20 -6 32t-27 19l-20 8v10h257v-10l-20 -8q-20 -7 -26.5 -19t-6.5 -32v-522q0 -20 6.5 -31.5t26.5 -19.5l20 -8v-10h-257zM75 725q26 26 52 53.5t50 52.5q25 27 40.5 36t30.5 9q19 0 30.5 -11.5t11.5 -28.5q0 -32 -62 -60
q-37 -16 -71.5 -31t-71.5 -32z" />
    <glyph glyph-name="Icircumflex" unicode="&#xce;" horiz-adv-x="301" 
d="M22 0v10l20 8q20 7 26.5 19t6.5 32v522q0 20 -6 32t-27 19l-20 8v10h257v-10l-20 -8q-20 -7 -26.5 -19t-6.5 -32v-522q0 -20 6.5 -31.5t26.5 -19.5l20 -8v-10h-257zM3 694l-10 12l151 164h14l151 -164l-10 -12l-148 82z" />
    <glyph glyph-name="Idieresis" unicode="&#xcf;" horiz-adv-x="301" 
d="M22 0v10l20 8q20 7 26.5 19t6.5 32v522q0 20 -6 32t-27 19l-20 8v10h257v-10l-20 -8q-20 -7 -26.5 -19t-6.5 -32v-522q0 -20 6.5 -31.5t26.5 -19.5l20 -8v-10h-257zM29 720q-27 0 -48.5 17.5t-21.5 48.5t21.5 48.5t48.5 17.5q29 0 49.5 -17.5t20.5 -48.5t-20.5 -48.5
t-49.5 -17.5zM272 720q-27 0 -48 17.5t-21 48.5t21 48.5t48 17.5q29 0 49.5 -17.5t20.5 -48.5t-20.5 -48.5t-49.5 -17.5z" />
    <glyph glyph-name="Eth" unicode="&#xd0;" horiz-adv-x="648" 
d="M22 0v10l21 8q32 13 32 51v256h-40v27h40v239q0 40 -32 51l-21 8v10h264q106 0 182.5 -39.5t118 -113t41.5 -176.5q0 -105 -45 -179t-125.5 -113t-189.5 -39h-246zM225 20h43q72 0 116 28.5t64.5 96t20.5 185.5t-20.5 185.5t-63.5 96t-113 28.5h-47v-288h167v-27h-167
v-305z" />
    <glyph glyph-name="Ntilde" unicode="&#xd1;" horiz-adv-x="653" 
d="M35 0v10l33 10q18 5 26 19.5t8 34.5v481q-11 24 -17.5 36t-14.5 20.5t-22 21.5l-17 17v10h177l332 -453v377q0 20 -6.5 36t-26.5 21l-33 9v10h143v-10l-27 -9q-18 -6 -22 -21t-4 -35v-588h-56l-382 525v-448q0 -20 6 -34t25 -20l30 -10v-10h-152zM156 719q8 62 33 101.5
t68 39.5q25 0 44 -9t35 -22q17 -13 34 -28.5t39 -15.5q28 0 45.5 19.5t28.5 49.5l15 -5q-9 -61 -33.5 -101t-67.5 -40q-23 0 -42.5 9t-35.5 21q-16 15 -34.5 30t-39.5 15q-28 0 -46.5 -20t-29.5 -50z" />
    <glyph glyph-name="Ograve" unicode="&#xd2;" horiz-adv-x="670" 
d="M335 -18q-61 0 -117.5 22t-101 65.5t-70.5 108.5t-26 152q0 86 26 151t71 108.5t101.5 66t116.5 22.5q61 0 117.5 -21.5t101 -65t70.5 -109t26 -152.5q0 -85 -26 -150.5t-70.5 -109t-101 -66t-117.5 -22.5zM335 3q55 0 89 29.5t49.5 101t15.5 196.5q0 126 -15.5 197.5
t-49.5 101t-89 29.5q-54 0 -88 -29.5t-49.5 -101t-15.5 -197.5q0 -125 15.5 -196.5t49.5 -101t88 -29.5zM402 713q-37 17 -71 32t-72 31q-62 28 -62 60q0 17 11.5 28.5t30.5 11.5q15 0 30.5 -9t40.5 -36q24 -25 50 -52.5t52 -53.5z" />
    <glyph glyph-name="Oacute" unicode="&#xd3;" horiz-adv-x="670" 
d="M335 -18q-61 0 -117.5 22t-101 65.5t-70.5 108.5t-26 152q0 86 26 151t71 108.5t101.5 66t116.5 22.5q61 0 117.5 -21.5t101 -65t70.5 -109t26 -152.5q0 -85 -26 -150.5t-70.5 -109t-101 -66t-117.5 -22.5zM335 3q55 0 89 29.5t49.5 101t15.5 196.5q0 126 -15.5 197.5
t-49.5 101t-89 29.5q-54 0 -88 -29.5t-49.5 -101t-15.5 -197.5q0 -125 15.5 -196.5t49.5 -101t88 -29.5zM259 725q26 26 52 53.5t50 52.5q25 27 40.5 36t30.5 9q19 0 30.5 -11.5t11.5 -28.5q0 -32 -62 -60q-37 -16 -71.5 -31t-71.5 -32z" />
    <glyph glyph-name="Ocircumflex" unicode="&#xd4;" horiz-adv-x="670" 
d="M335 -18q-61 0 -117.5 22t-101 65.5t-70.5 108.5t-26 152q0 86 26 151t71 108.5t101.5 66t116.5 22.5q61 0 117.5 -21.5t101 -65t70.5 -109t26 -152.5q0 -85 -26 -150.5t-70.5 -109t-101 -66t-117.5 -22.5zM335 3q55 0 89 29.5t49.5 101t15.5 196.5q0 126 -15.5 197.5
t-49.5 101t-89 29.5q-54 0 -88 -29.5t-49.5 -101t-15.5 -197.5q0 -125 15.5 -196.5t49.5 -101t88 -29.5zM187 694l-10 12l151 164h14l151 -164l-10 -12l-148 82z" />
    <glyph glyph-name="Otilde" unicode="&#xd5;" horiz-adv-x="670" 
d="M335 -18q-61 0 -117.5 22t-101 65.5t-70.5 108.5t-26 152q0 86 26 151t71 108.5t101.5 66t116.5 22.5q61 0 117.5 -21.5t101 -65t70.5 -109t26 -152.5q0 -85 -26 -150.5t-70.5 -109t-101 -66t-117.5 -22.5zM335 3q55 0 89 29.5t49.5 101t15.5 196.5q0 126 -15.5 197.5
t-49.5 101t-89 29.5q-54 0 -88 -29.5t-49.5 -101t-15.5 -197.5q0 -125 15.5 -196.5t49.5 -101t88 -29.5zM165 719q8 62 33 101.5t68 39.5q25 0 44 -9t35 -22q17 -13 34 -28.5t39 -15.5q28 0 45.5 19.5t28.5 49.5l15 -5q-9 -61 -33.5 -101t-67.5 -40q-23 0 -42.5 9t-35.5 21
q-16 15 -34.5 30t-39.5 15q-28 0 -46.5 -20t-29.5 -50z" />
    <glyph glyph-name="Odieresis" unicode="&#xd6;" horiz-adv-x="670" 
d="M335 -18q-61 0 -117.5 22t-101 65.5t-70.5 108.5t-26 152q0 86 26 151t71 108.5t101.5 66t116.5 22.5q61 0 117.5 -21.5t101 -65t70.5 -109t26 -152.5q0 -85 -26 -150.5t-70.5 -109t-101 -66t-117.5 -22.5zM335 3q55 0 89 29.5t49.5 101t15.5 196.5q0 126 -15.5 197.5
t-49.5 101t-89 29.5q-54 0 -88 -29.5t-49.5 -101t-15.5 -197.5q0 -125 15.5 -196.5t49.5 -101t88 -29.5zM213 720q-27 0 -48.5 17.5t-21.5 48.5t21.5 48.5t48.5 17.5q29 0 49.5 -17.5t20.5 -48.5t-20.5 -48.5t-49.5 -17.5zM456 720q-27 0 -48 17.5t-21 48.5t21 48.5t48 17.5
q29 0 49.5 -17.5t20.5 -48.5t-20.5 -48.5t-49.5 -17.5z" />
    <glyph glyph-name="multiply" unicode="&#xd7;" horiz-adv-x="541" 
d="M77 115l-15 15l194 194l-194 194l15 15l194 -194l194 194l15 -15l-194 -194l194 -194l-15 -15l-194 194z" />
    <glyph glyph-name="Oslash" unicode="&#xd8;" horiz-adv-x="670" 
d="M71 -13l-23 19l59 73q-40 43 -63.5 106t-23.5 145q0 86 26 151t71 108.5t101.5 66t116.5 22.5q55 0 107.5 -18t94.5 -54l63 77l23 -19l-64 -79q41 -43 66 -107t25 -148q0 -85 -26 -150.5t-70.5 -109t-101 -66t-117.5 -22.5q-57 0 -110 19t-96 57zM182 330q0 -88 9 -149
l281 345q-17 69 -50 100.5t-87 31.5q-82 0 -117.5 -77t-35.5 -251zM335 3q83 0 118.5 76.5t35.5 250.5q0 94 -10 158l-282 -346q16 -73 50 -106t88 -33z" />
    <glyph glyph-name="Ugrave" unicode="&#xd9;" horiz-adv-x="649" 
d="M339 -18q-76 0 -134.5 27t-91 85.5t-32.5 154.5v345q0 38 -39 50l-22 6v10h277v-10l-29 -8q-37 -9 -37 -50v-369q0 -93 39 -137.5t112 -44.5q76 0 120.5 47t44.5 133v367q0 20 -6.5 35.5t-26.5 20.5l-25 6v10h140v-10l-27 -7q-19 -4 -25 -19t-6 -35v-366
q0 -73 -29 -127.5t-81 -84t-122 -29.5zM467 713q-37 17 -71 32t-72 31q-62 28 -62 60q0 17 11.5 28.5t30.5 11.5q15 0 30.5 -9t40.5 -36q24 -25 50 -52.5t52 -53.5z" />
    <glyph glyph-name="Uacute" unicode="&#xda;" horiz-adv-x="649" 
d="M339 -18q-76 0 -134.5 27t-91 85.5t-32.5 154.5v345q0 38 -39 50l-22 6v10h277v-10l-29 -8q-37 -9 -37 -50v-369q0 -93 39 -137.5t112 -44.5q76 0 120.5 47t44.5 133v367q0 20 -6.5 35.5t-26.5 20.5l-25 6v10h140v-10l-27 -7q-19 -4 -25 -19t-6 -35v-366
q0 -73 -29 -127.5t-81 -84t-122 -29.5zM324 725q26 26 52 53.5t50 52.5q25 27 40.5 36t30.5 9q19 0 30.5 -11.5t11.5 -28.5q0 -32 -62 -60q-37 -16 -71.5 -31t-71.5 -32z" />
    <glyph glyph-name="Ucircumflex" unicode="&#xdb;" horiz-adv-x="649" 
d="M339 -18q-76 0 -134.5 27t-91 85.5t-32.5 154.5v345q0 38 -39 50l-22 6v10h277v-10l-29 -8q-37 -9 -37 -50v-369q0 -93 39 -137.5t112 -44.5q76 0 120.5 47t44.5 133v367q0 20 -6.5 35.5t-26.5 20.5l-25 6v10h140v-10l-27 -7q-19 -4 -25 -19t-6 -35v-366
q0 -73 -29 -127.5t-81 -84t-122 -29.5zM252 694l-10 12l151 164h14l151 -164l-10 -12l-148 82z" />
    <glyph glyph-name="Udieresis" unicode="&#xdc;" horiz-adv-x="649" 
d="M339 -18q-76 0 -134.5 27t-91 85.5t-32.5 154.5v345q0 38 -39 50l-22 6v10h277v-10l-29 -8q-37 -9 -37 -50v-369q0 -93 39 -137.5t112 -44.5q76 0 120.5 47t44.5 133v367q0 20 -6.5 35.5t-26.5 20.5l-25 6v10h140v-10l-27 -7q-19 -4 -25 -19t-6 -35v-366
q0 -73 -29 -127.5t-81 -84t-122 -29.5zM278 720q-27 0 -48.5 17.5t-21.5 48.5t21.5 48.5t48.5 17.5q29 0 49.5 -17.5t20.5 -48.5t-20.5 -48.5t-49.5 -17.5zM521 720q-27 0 -48 17.5t-21 48.5t21 48.5t48 17.5q29 0 49.5 -17.5t20.5 -48.5t-20.5 -48.5t-49.5 -17.5z" />
    <glyph glyph-name="Yacute" unicode="&#xdd;" horiz-adv-x="590" 
d="M165 0v10l30 8q35 10 35 50v190l-165 336q-9 20 -16.5 30t-22.5 17l-18 9v10h268v-10l-18 -7q-22 -9 -24 -24.5t8 -38.5l118 -262l132 272q8 16 6.5 33t-21.5 22l-14 5v10h120v-10l-19 -7q-19 -7 -28 -19.5t-18 -31.5l-137 -288v-236q0 -20 7.5 -32.5t26.5 -17.5l31 -8
v-10h-281zM261 725q26 26 52 53.5t50 52.5q25 27 40.5 36t30.5 9q19 0 30.5 -11.5t11.5 -28.5q0 -32 -62 -60q-37 -16 -71.5 -31t-71.5 -32z" />
    <glyph glyph-name="Thorn" unicode="&#xde;" horiz-adv-x="577" 
d="M22 0v10l16 6q36 12 36 51q1 57 1 123v120v40v119t-1 124q0 39 -36 51l-16 6v10h254v-10l-15 -6q-36 -13 -36 -51q0 -14 -0.5 -29t-0.5 -29h59q147 0 211.5 -51t64.5 -140q0 -56 -25.5 -101.5t-88.5 -72.5t-177 -27h-44q0 -19 0.5 -37.5t0.5 -38.5q0 -39 36 -51l15 -6
v-10h-254zM223 163h53q66 0 102.5 40.5t36.5 137.5q0 98 -34 136t-106 38h-51q-1 -41 -1 -82.5v-82.5v-187z" />
    <glyph glyph-name="germandbls" unicode="&#xdf;" horiz-adv-x="644" 
d="M410 -15q-38 0 -71.5 7.5t-68.5 23.5l1 124h11l23 -59q9 -24 20.5 -41t33.5 -26q11 -4 23.5 -6.5t25.5 -2.5q38 0 65.5 24t27.5 66q0 36 -22.5 57t-73.5 43q-54 22 -85 52.5t-31 76.5q0 28 13 47t34.5 36t46.5 38q67 60 67 132q0 53 -28 83.5t-81 30.5q-40 0 -68 -21.5
t-42 -68.5q-10 -31 -14 -76.5t-4 -120.5v-198q0 -102 3 -206h-190v10l5 2q38 12 39 50q1 20 1 46.5v52.5v45v221q0 71 20 116.5t47 74.5q37 43 92 68t119 25q98 0 152 -38.5t54 -91.5q0 -40 -27 -69.5t-76 -57.5q-45 -22 -64.5 -38t-19.5 -33q0 -20 29 -35t93 -41
q65 -29 93 -67.5t28 -94.5q0 -47 -26.5 -83t-72 -56.5t-102.5 -20.5z" />
    <glyph glyph-name="agrave" unicode="&#xe0;" horiz-adv-x="518" 
d="M166 -15q-58 0 -97.5 33t-39.5 95q0 47 48 86.5t151 59.5q16 3 36 6.5t42 7.5v79q0 68 -16.5 95.5t-51.5 27.5q-24 0 -38 -15.5t-18 -53.5l-2 -11q-2 -43 -21 -63t-47 -20q-26 0 -43 16t-17 43q0 41 28.5 69t75.5 42t102 14q89 0 137.5 -43.5t48.5 -141.5v-221
q0 -45 42 -45h22l9 -8q-19 -24 -41.5 -37t-63.5 -13q-44 0 -69.5 20.5t-33.5 54.5q-30 -32 -61.5 -54.5t-81.5 -22.5zM227 46q20 0 37.5 9.5t41.5 29.5v168l-20 -4t-23 -4q-46 -12 -73.5 -40.5t-27.5 -76.5q0 -41 19 -61.5t46 -20.5zM294 563q-22 17 -51.5 39.5t-71.5 52.5
q-31 22 -44.5 38.5t-13.5 35.5q0 18 14.5 30.5t33.5 12.5q20 0 36.5 -14.5t32.5 -46.5q25 -47 43 -79.5t33 -58.5z" />
    <glyph glyph-name="aacute" unicode="&#xe1;" horiz-adv-x="518" 
d="M166 -15q-58 0 -97.5 33t-39.5 95q0 47 48 86.5t151 59.5q16 3 36 6.5t42 7.5v79q0 68 -16.5 95.5t-51.5 27.5q-24 0 -38 -15.5t-18 -53.5l-2 -11q-2 -43 -21 -63t-47 -20q-26 0 -43 16t-17 43q0 41 28.5 69t75.5 42t102 14q89 0 137.5 -43.5t48.5 -141.5v-221
q0 -45 42 -45h22l9 -8q-19 -24 -41.5 -37t-63.5 -13q-44 0 -69.5 20.5t-33.5 54.5q-30 -32 -61.5 -54.5t-81.5 -22.5zM227 46q20 0 37.5 9.5t41.5 29.5v168l-20 -4t-23 -4q-46 -12 -73.5 -40.5t-27.5 -76.5q0 -41 19 -61.5t46 -20.5zM197 573q14 26 32 58.5t43 79.5
q17 32 33 46.5t37 14.5q19 0 33 -12.5t14 -30.5q0 -19 -13 -35.5t-44 -38.5q-43 -30 -72 -52.5t-52 -39.5z" />
    <glyph glyph-name="acircumflex" unicode="&#xe2;" horiz-adv-x="518" 
d="M166 -15q-58 0 -97.5 33t-39.5 95q0 47 48 86.5t151 59.5q16 3 36 6.5t42 7.5v79q0 68 -16.5 95.5t-51.5 27.5q-24 0 -38 -15.5t-18 -53.5l-2 -11q-2 -43 -21 -63t-47 -20q-26 0 -43 16t-17 43q0 41 28.5 69t75.5 42t102 14q89 0 137.5 -43.5t48.5 -141.5v-221
q0 -45 42 -45h22l9 -8q-19 -24 -41.5 -37t-63.5 -13q-44 0 -69.5 20.5t-33.5 54.5q-30 -32 -61.5 -54.5t-81.5 -22.5zM227 46q20 0 37.5 9.5t41.5 29.5v168l-20 -4t-23 -4q-46 -12 -73.5 -40.5t-27.5 -76.5q0 -41 19 -61.5t46 -20.5zM119 545l-13 12l142 194h14l142 -194
l-13 -12l-136 106z" />
    <glyph glyph-name="atilde" unicode="&#xe3;" horiz-adv-x="518" 
d="M166 -15q-58 0 -97.5 33t-39.5 95q0 47 48 86.5t151 59.5q16 3 36 6.5t42 7.5v79q0 68 -16.5 95.5t-51.5 27.5q-24 0 -38 -15.5t-18 -53.5l-2 -11q-2 -43 -21 -63t-47 -20q-26 0 -43 16t-17 43q0 41 28.5 69t75.5 42t102 14q89 0 137.5 -43.5t48.5 -141.5v-221
q0 -45 42 -45h22l9 -8q-19 -24 -41.5 -37t-63.5 -13q-44 0 -69.5 20.5t-33.5 54.5q-30 -32 -61.5 -54.5t-81.5 -22.5zM227 46q20 0 37.5 9.5t41.5 29.5v168l-20 -4t-23 -4q-46 -12 -73.5 -40.5t-27.5 -76.5q0 -41 19 -61.5t46 -20.5zM88 585q8 65 34.5 101t66.5 36
q26 0 42.5 -8.5t31.5 -21.5q16 -15 31.5 -28.5t34.5 -13.5q27 0 46.5 18t31.5 49l15 -5q-8 -64 -34 -101t-66 -37q-25 0 -43 8.5t-32 21.5q-15 14 -31 27.5t-36 13.5q-27 0 -46 -17.5t-31 -47.5z" />
    <glyph glyph-name="adieresis" unicode="&#xe4;" horiz-adv-x="518" 
d="M166 -15q-58 0 -97.5 33t-39.5 95q0 47 48 86.5t151 59.5q16 3 36 6.5t42 7.5v79q0 68 -16.5 95.5t-51.5 27.5q-24 0 -38 -15.5t-18 -53.5l-2 -11q-2 -43 -21 -63t-47 -20q-26 0 -43 16t-17 43q0 41 28.5 69t75.5 42t102 14q89 0 137.5 -43.5t48.5 -141.5v-221
q0 -45 42 -45h22l9 -8q-19 -24 -41.5 -37t-63.5 -13q-44 0 -69.5 20.5t-33.5 54.5q-30 -32 -61.5 -54.5t-81.5 -22.5zM227 46q20 0 37.5 9.5t41.5 29.5v168l-20 -4t-23 -4q-46 -12 -73.5 -40.5t-27.5 -76.5q0 -41 19 -61.5t46 -20.5zM371 580q-28 0 -50.5 18.5t-22.5 50.5
t22.5 50.5t50.5 18.5q30 0 51.5 -18.5t21.5 -50.5t-21.5 -50.5t-51.5 -18.5zM139 580q-29 0 -51 18.5t-22 50.5t22 50.5t51 18.5t51 -18.5t22 -50.5t-22 -50.5t-51 -18.5z" />
    <glyph glyph-name="aring" unicode="&#xe5;" horiz-adv-x="518" 
d="M166 -15q-58 0 -97.5 33t-39.5 95q0 47 48 86.5t151 59.5q16 3 36 6.5t42 7.5v79q0 68 -16.5 95.5t-51.5 27.5q-24 0 -38 -15.5t-18 -53.5l-2 -11q-2 -43 -21 -63t-47 -20q-26 0 -43 16t-17 43q0 41 28.5 69t75.5 42t102 14q89 0 137.5 -43.5t48.5 -141.5v-221
q0 -45 42 -45h22l9 -8q-19 -24 -41.5 -37t-63.5 -13q-44 0 -69.5 20.5t-33.5 54.5q-30 -32 -61.5 -54.5t-81.5 -22.5zM227 46q20 0 37.5 9.5t41.5 29.5v168l-20 -4t-23 -4q-46 -12 -73.5 -40.5t-27.5 -76.5q0 -41 19 -61.5t46 -20.5zM255 552q-48 0 -82.5 30t-34.5 82
q0 51 34.5 81t82.5 30t82.5 -29t34.5 -82q0 -52 -34.5 -82t-82.5 -30zM255 576q29 0 44 20.5t15 67.5t-15 67.5t-44 20.5q-28 0 -43.5 -20.5t-15.5 -67.5t15.5 -67.5t43.5 -20.5z" />
    <glyph glyph-name="ae" unicode="&#xe6;" horiz-adv-x="785" 
d="M166 -15q-58 0 -97.5 33t-39.5 95q0 47 48 86.5t151 59.5q16 3 36 6.5t42 7.5v77q0 71 -17.5 98t-49.5 27q-28 -1 -40.5 -14.5t-14.5 -40.5l-4 -25q-2 -43 -21 -63t-47 -20q-26 0 -43 16t-17 43q0 41 28.5 69t75.5 42t102 14q47 0 83 -13.5t57 -45.5q33 30 72 44.5
t80 14.5q65 0 110.5 -26.5t70 -72t24.5 -103.5q0 -11 -1 -22.5t-4 -20.5h-298q2 -105 42 -154t113 -49q47 0 77.5 16t56.5 47l10 -9q-31 -55 -82.5 -86t-123.5 -31q-67 0 -119 27t-83 78q-49 -51 -88.5 -78t-88.5 -27zM453 271h170q9 92 -8.5 148.5t-68.5 56.5
q-24 0 -45 -17.5t-33.5 -62t-14.5 -125.5zM227 46q20 0 46 12t61 50q-14 27 -21 60.5t-7 70.5v14q-17 -4 -43 -8q-46 -12 -73.5 -40.5t-27.5 -76.5q0 -41 19 -61.5t46 -20.5z" />
    <glyph glyph-name="ccedilla" unicode="&#xe7;" horiz-adv-x="494" 
d="M268 -15q-68 0 -123.5 29.5t-88 86t-32.5 138.5q0 81 35.5 138.5t95 88t130.5 30.5q58 0 98 -19t61 -49.5t21 -63.5q0 -28 -17 -43.5t-44 -15.5q-29 0 -47 21t-21 55q-1 22 1 37.5t0 31.5q-4 17 -12.5 22.5t-23.5 5.5q-61 0 -94.5 -53t-33.5 -169q0 -101 37.5 -154.5
t115.5 -53.5q47 0 76 17t56 51l10 -8q-25 -59 -77 -91t-123 -32zM248 -85l13 87h21l-6 -49q59 -7 88 -30t29 -57q0 -37 -32 -62t-97 -25q-24 0 -41.5 3.5t-33.5 8.5l4 17q29 -9 53 -9q28 0 43.5 16.5t15.5 45.5q0 24 -15.5 37t-41.5 17z" />
    <glyph glyph-name="egrave" unicode="&#xe8;" horiz-adv-x="507" 
d="M271 496q65 0 111 -26.5t70.5 -72t24.5 -103.5q0 -11 -1 -22.5t-4 -20.5h-298q1 -108 38.5 -155.5t111.5 -47.5q50 0 81 16t58 47l10 -9q-31 -55 -82.5 -86t-123.5 -31q-71 0 -126 30.5t-86 87.5t-31 136q0 82 36 139.5t92.5 87.5t118.5 30zM268 476q-29 0 -49.5 -17.5
t-32 -62t-12.5 -125.5h171q10 109 -8 157t-69 48zM312 563q-22 17 -51.5 39.5t-71.5 52.5q-31 22 -44.5 38.5t-13.5 35.5q0 18 14.5 30.5t33.5 12.5q20 0 36.5 -14.5t32.5 -46.5q25 -47 43 -79.5t33 -58.5z" />
    <glyph glyph-name="eacute" unicode="&#xe9;" horiz-adv-x="507" 
d="M271 496q65 0 111 -26.5t70.5 -72t24.5 -103.5q0 -11 -1 -22.5t-4 -20.5h-298q1 -108 38.5 -155.5t111.5 -47.5q50 0 81 16t58 47l10 -9q-31 -55 -82.5 -86t-123.5 -31q-71 0 -126 30.5t-86 87.5t-31 136q0 82 36 139.5t92.5 87.5t118.5 30zM268 476q-29 0 -49.5 -17.5
t-32 -62t-12.5 -125.5h171q10 109 -8 157t-69 48zM215 573q14 26 32 58.5t43 79.5q17 32 33 46.5t37 14.5q19 0 33 -12.5t14 -30.5q0 -19 -13 -35.5t-44 -38.5q-43 -30 -72 -52.5t-52 -39.5z" />
    <glyph glyph-name="ecircumflex" unicode="&#xea;" horiz-adv-x="507" 
d="M271 496q65 0 111 -26.5t70.5 -72t24.5 -103.5q0 -11 -1 -22.5t-4 -20.5h-298q1 -108 38.5 -155.5t111.5 -47.5q50 0 81 16t58 47l10 -9q-31 -55 -82.5 -86t-123.5 -31q-71 0 -126 30.5t-86 87.5t-31 136q0 82 36 139.5t92.5 87.5t118.5 30zM268 476q-29 0 -49.5 -17.5
t-32 -62t-12.5 -125.5h171q10 109 -8 157t-69 48zM137 545l-13 12l142 194h14l142 -194l-13 -12l-136 106z" />
    <glyph glyph-name="edieresis" unicode="&#xeb;" horiz-adv-x="507" 
d="M271 496q65 0 111 -26.5t70.5 -72t24.5 -103.5q0 -11 -1 -22.5t-4 -20.5h-298q1 -108 38.5 -155.5t111.5 -47.5q50 0 81 16t58 47l10 -9q-31 -55 -82.5 -86t-123.5 -31q-71 0 -126 30.5t-86 87.5t-31 136q0 82 36 139.5t92.5 87.5t118.5 30zM268 476q-29 0 -49.5 -17.5
t-32 -62t-12.5 -125.5h171q10 109 -8 157t-69 48zM389 580q-28 0 -50.5 18.5t-22.5 50.5t22.5 50.5t50.5 18.5q30 0 51.5 -18.5t21.5 -50.5t-21.5 -50.5t-51.5 -18.5zM157 580q-29 0 -51 18.5t-22 50.5t22 50.5t51 18.5t51 -18.5t22 -50.5t-22 -50.5t-51 -18.5z" />
    <glyph glyph-name="igrave" unicode="&#xec;" horiz-adv-x="280" 
d="M22 0v10l14 4q20 6 27 18t7 32q0 35 0.5 75.5t0.5 70.5v48q0 31 -0.5 58.5t-0.5 60.5q-1 21 -7.5 31.5t-26.5 14.5l-14 3v10l183 59l10 -10l-3 -142v-280q1 -20 8 -32t26 -18l10 -3v-10h-234zM176 563q-22 17 -51.5 39.5t-71.5 52.5q-31 22 -44.5 38.5t-13.5 35.5
q0 18 14.5 30.5t33.5 12.5q20 0 36.5 -14.5t32.5 -46.5q25 -47 43 -79.5t33 -58.5z" />
    <glyph glyph-name="iacute" unicode="&#xed;" horiz-adv-x="280" 
d="M22 0v10l14 4q20 6 27 18t7 32q0 35 0.5 75.5t0.5 70.5v48q0 31 -0.5 58.5t-0.5 60.5q-1 21 -7.5 31.5t-26.5 14.5l-14 3v10l183 59l10 -10l-3 -142v-280q1 -20 8 -32t26 -18l10 -3v-10h-234zM79 573q14 26 32 58.5t43 79.5q17 32 33 46.5t37 14.5q19 0 33 -12.5
t14 -30.5q0 -19 -13 -35.5t-44 -38.5q-43 -30 -72 -52.5t-52 -39.5z" />
    <glyph glyph-name="icircumflex" unicode="&#xee;" horiz-adv-x="280" 
d="M22 0v10l14 4q20 6 27 18t7 32q0 35 0.5 75.5t0.5 70.5v48q0 31 -0.5 58.5t-0.5 60.5q-1 21 -7.5 31.5t-26.5 14.5l-14 3v10l183 59l10 -10l-3 -142v-280q1 -20 8 -32t26 -18l10 -3v-10h-234zM1 545l-13 12l142 194h14l142 -194l-13 -12l-136 106z" />
    <glyph glyph-name="idieresis" unicode="&#xef;" horiz-adv-x="280" 
d="M22 0v10l14 4q20 6 27 18t7 32q0 35 0.5 75.5t0.5 70.5v48q0 31 -0.5 58.5t-0.5 60.5q-1 21 -7.5 31.5t-26.5 14.5l-14 3v10l183 59l10 -10l-3 -142v-280q1 -20 8 -32t26 -18l10 -3v-10h-234zM253 580q-28 0 -50.5 18.5t-22.5 50.5t22.5 50.5t50.5 18.5q30 0 51.5 -18.5
t21.5 -50.5t-21.5 -50.5t-51.5 -18.5zM21 580q-29 0 -51 18.5t-22 50.5t22 50.5t51 18.5t51 -18.5t22 -50.5t-22 -50.5t-51 -18.5z" />
    <glyph glyph-name="eth" unicode="&#xf0;" horiz-adv-x="552" 
d="M267 -15q-58 0 -111.5 28t-88 84.5t-34.5 140.5q0 78 34 132t88 82.5t115 28.5q49 0 86 -27q-22 89 -66 147l-160 -77l-12 21l156 75q-25 29 -58 53.5t-75 48.5l8 17q101 -33 180 -93l145 70l12 -21l-136 -65q77 -65 122 -154t45 -197q0 -99 -33.5 -164t-90.5 -97.5
t-126 -32.5zM277 5q50 0 73 60t23 176q0 108 -25 164t-71 56q-93 0 -93 -229q0 -111 23.5 -169t69.5 -58z" />
    <glyph glyph-name="ntilde" unicode="&#xf1;" horiz-adv-x="578" 
d="M20 0v10l14 4q35 10 35 49v313q0 22 -7 32.5t-27 14.5l-15 4v10l171 58l10 -10l8 -60q35 31 79 51t87 20q66 0 101.5 -36t35.5 -110v-288q0 -39 38 -49l9 -3v-10h-236v10l13 4q35 11 35 49v319q0 64 -64 64q-44 0 -96 -44v-340q0 -39 35 -49l9 -3v-10h-235zM130 585
q8 65 34.5 101t66.5 36q26 0 42.5 -8.5t31.5 -21.5q16 -15 31.5 -28.5t34.5 -13.5q27 0 46.5 18t31.5 49l15 -5q-8 -64 -34 -101t-66 -37q-25 0 -43 8.5t-32 21.5q-15 14 -31 27.5t-36 13.5q-27 0 -46 -17.5t-31 -47.5z" />
    <glyph glyph-name="ograve" unicode="&#xf2;" horiz-adv-x="545" 
d="M273 -15q-76 0 -132 31.5t-86.5 89.5t-30.5 136t32.5 135t89 88t127.5 31t127 -30.5t88.5 -87.5t32.5 -136t-30.5 -136.5t-86 -89t-131.5 -31.5zM273 5q35 0 56 20t30.5 71t9.5 144q0 94 -9.5 145t-30.5 71t-56 20t-56.5 -20t-31 -71t-9.5 -145q0 -93 9.5 -144t31 -71
t56.5 -20zM312 563q-22 17 -51.5 39.5t-71.5 52.5q-31 22 -44.5 38.5t-13.5 35.5q0 18 14.5 30.5t33.5 12.5q20 0 36.5 -14.5t32.5 -46.5q25 -47 43 -79.5t33 -58.5z" />
    <glyph glyph-name="oacute" unicode="&#xf3;" horiz-adv-x="545" 
d="M273 -15q-76 0 -132 31.5t-86.5 89.5t-30.5 136t32.5 135t89 88t127.5 31t127 -30.5t88.5 -87.5t32.5 -136t-30.5 -136.5t-86 -89t-131.5 -31.5zM273 5q35 0 56 20t30.5 71t9.5 144q0 94 -9.5 145t-30.5 71t-56 20t-56.5 -20t-31 -71t-9.5 -145q0 -93 9.5 -144t31 -71
t56.5 -20zM215 573q14 26 32 58.5t43 79.5q17 32 33 46.5t37 14.5q19 0 33 -12.5t14 -30.5q0 -19 -13 -35.5t-44 -38.5q-43 -30 -72 -52.5t-52 -39.5z" />
    <glyph glyph-name="ocircumflex" unicode="&#xf4;" horiz-adv-x="545" 
d="M273 -15q-76 0 -132 31.5t-86.5 89.5t-30.5 136t32.5 135t89 88t127.5 31t127 -30.5t88.5 -87.5t32.5 -136t-30.5 -136.5t-86 -89t-131.5 -31.5zM273 5q35 0 56 20t30.5 71t9.5 144q0 94 -9.5 145t-30.5 71t-56 20t-56.5 -20t-31 -71t-9.5 -145q0 -93 9.5 -144t31 -71
t56.5 -20zM137 545l-13 12l142 194h14l142 -194l-13 -12l-136 106z" />
    <glyph glyph-name="otilde" unicode="&#xf5;" horiz-adv-x="545" 
d="M273 -15q-76 0 -132 31.5t-86.5 89.5t-30.5 136t32.5 135t89 88t127.5 31t127 -30.5t88.5 -87.5t32.5 -136t-30.5 -136.5t-86 -89t-131.5 -31.5zM273 5q35 0 56 20t30.5 71t9.5 144q0 94 -9.5 145t-30.5 71t-56 20t-56.5 -20t-31 -71t-9.5 -145q0 -93 9.5 -144t31 -71
t56.5 -20zM106 585q8 65 34.5 101t66.5 36q26 0 42.5 -8.5t31.5 -21.5q16 -15 31.5 -28.5t34.5 -13.5q27 0 46.5 18t31.5 49l15 -5q-8 -64 -34 -101t-66 -37q-25 0 -43 8.5t-32 21.5q-15 14 -31 27.5t-36 13.5q-27 0 -46 -17.5t-31 -47.5z" />
    <glyph glyph-name="odieresis" unicode="&#xf6;" horiz-adv-x="545" 
d="M273 -15q-76 0 -132 31.5t-86.5 89.5t-30.5 136t32.5 135t89 88t127.5 31t127 -30.5t88.5 -87.5t32.5 -136t-30.5 -136.5t-86 -89t-131.5 -31.5zM273 5q35 0 56 20t30.5 71t9.5 144q0 94 -9.5 145t-30.5 71t-56 20t-56.5 -20t-31 -71t-9.5 -145q0 -93 9.5 -144t31 -71
t56.5 -20zM389 580q-28 0 -50.5 18.5t-22.5 50.5t22.5 50.5t50.5 18.5q30 0 51.5 -18.5t21.5 -50.5t-21.5 -50.5t-51.5 -18.5zM157 580q-29 0 -51 18.5t-22 50.5t22 50.5t51 18.5t51 -18.5t22 -50.5t-22 -50.5t-51 -18.5z" />
    <glyph glyph-name="divide" unicode="&#xf7;" horiz-adv-x="541" 
d="M271 443q-31 0 -52 20t-21 50t21 49.5t52 19.5q30 0 51 -19.5t21 -49.5t-21 -50t-51 -20zM30 314v20h482v-20h-482zM271 66q-31 0 -52 20t-21 50t21 50t52 20q30 0 51 -20t21 -50t-21 -50t-51 -20z" />
    <glyph glyph-name="oslash" unicode="&#xf8;" horiz-adv-x="561" 
d="M87 -23l-21 16l43 53q-37 34 -56.5 83.5t-19.5 112.5q0 78 32.5 135t88.5 88t127 31q88 0 151 -46l43 54l20 -16l-43 -54q36 -33 56.5 -81.5t20.5 -110.5q0 -79 -30.5 -136.5t-86 -89t-131.5 -31.5q-90 0 -152 45zM179 240q0 -59 5 -100l189 237q-10 54 -33 76.5
t-59 22.5t-58.5 -21.5t-33 -73t-10.5 -141.5zM281 5q36 0 58.5 21.5t33 73t10.5 140.5q0 60 -5 102l-189 -238q10 -54 33 -76.5t59 -22.5z" />
    <glyph glyph-name="ugrave" unicode="&#xf9;" horiz-adv-x="567" 
d="M201 -15q-39 0 -71.5 15t-51 48.5t-17.5 88.5l3 257q0 23 -8 33t-25 14l-12 4v10l179 35l10 -10l-5 -142v-241q0 -32 18.5 -47t46.5 -15t50 8t44 24l4 326q0 23 -7 32.5t-26 13.5l-10 3v10l175 38l10 -10l-3 -142v-271q0 -22 6 -34t26 -20l10 -3v-10l-175 -10l-9 59
q-33 -27 -71.5 -45.5t-90.5 -18.5zM321 563q-22 17 -51.5 39.5t-71.5 52.5q-31 22 -44.5 38.5t-13.5 35.5q0 18 14.5 30.5t33.5 12.5q20 0 36.5 -14.5t32.5 -46.5q25 -47 43 -79.5t33 -58.5z" />
    <glyph glyph-name="uacute" unicode="&#xfa;" horiz-adv-x="567" 
d="M201 -15q-39 0 -71.5 15t-51 48.5t-17.5 88.5l3 257q0 23 -8 33t-25 14l-12 4v10l179 35l10 -10l-5 -142v-241q0 -32 18.5 -47t46.5 -15t50 8t44 24l4 326q0 23 -7 32.5t-26 13.5l-10 3v10l175 38l10 -10l-3 -142v-271q0 -22 6 -34t26 -20l10 -3v-10l-175 -10l-9 59
q-33 -27 -71.5 -45.5t-90.5 -18.5zM224 573q14 26 32 58.5t43 79.5q17 32 33 46.5t37 14.5q19 0 33 -12.5t14 -30.5q0 -19 -13 -35.5t-44 -38.5q-43 -30 -72 -52.5t-52 -39.5z" />
    <glyph glyph-name="ucircumflex" unicode="&#xfb;" horiz-adv-x="567" 
d="M201 -15q-39 0 -71.5 15t-51 48.5t-17.5 88.5l3 257q0 23 -8 33t-25 14l-12 4v10l179 35l10 -10l-5 -142v-241q0 -32 18.5 -47t46.5 -15t50 8t44 24l4 326q0 23 -7 32.5t-26 13.5l-10 3v10l175 38l10 -10l-3 -142v-271q0 -22 6 -34t26 -20l10 -3v-10l-175 -10l-9 59
q-33 -27 -71.5 -45.5t-90.5 -18.5zM146 545l-13 12l142 194h14l142 -194l-13 -12l-136 106z" />
    <glyph glyph-name="udieresis" unicode="&#xfc;" horiz-adv-x="567" 
d="M201 -15q-39 0 -71.5 15t-51 48.5t-17.5 88.5l3 257q0 23 -8 33t-25 14l-12 4v10l179 35l10 -10l-5 -142v-241q0 -32 18.5 -47t46.5 -15t50 8t44 24l4 326q0 23 -7 32.5t-26 13.5l-10 3v10l175 38l10 -10l-3 -142v-271q0 -22 6 -34t26 -20l10 -3v-10l-175 -10l-9 59
q-33 -27 -71.5 -45.5t-90.5 -18.5zM398 580q-28 0 -50.5 18.5t-22.5 50.5t22.5 50.5t50.5 18.5q30 0 51.5 -18.5t21.5 -50.5t-21.5 -50.5t-51.5 -18.5zM166 580q-29 0 -51 18.5t-22 50.5t22 50.5t51 18.5t51 -18.5t22 -50.5t-22 -50.5t-51 -18.5z" />
    <glyph glyph-name="yacute" unicode="&#xfd;" horiz-adv-x="536" 
d="M112 -240q-40 0 -63.5 20t-23.5 51q0 28 20 45t45 17t42 -10.5t30 -30.5l7 -8q22 -30 44 1q9 15 20.5 39.5t26.5 65.5l-194 464q-7 19 -15 30.5t-26 19.5l-18 7v10h249v-9l-20 -8q-22 -7 -22.5 -22.5t7.5 -38.5l104 -270l99 273q8 23 6 38.5t-25 21.5l-21 5v10h139v-10
l-22 -7q-23 -7 -32 -20t-17 -36l-161 -439q-39 -105 -78 -157t-101 -52zM240 573q14 26 32 58.5t43 79.5q17 32 33 46.5t37 14.5q19 0 33 -12.5t14 -30.5q0 -19 -13 -35.5t-44 -38.5q-43 -30 -72 -52.5t-52 -39.5z" />
    <glyph glyph-name="thorn" unicode="&#xfe;" horiz-adv-x="580" 
d="M22 -230v10l8 2q39 10 40 49q1 45 1.5 84.5t0.5 75.5v622q0 40 -38 51l-11 3v10l183 43l12 -9l-4 -140v-114q33 18 73.5 28.5t80.5 10.5q86 0 137 -65.5t51 -187.5q0 -120 -56 -189t-157 -69q-80 0 -132 23v-24q0 -31 0.5 -68.5t0.5 -81.5q2 -40 39 -50l14 -4v-10h-243z
M295 14q51 0 80.5 52t29.5 173t-28 169.5t-81 48.5q-38 0 -82 -24v-403q38 -16 81 -16z" />
    <glyph glyph-name="ydieresis" unicode="&#xff;" horiz-adv-x="536" 
d="M112 -240q-40 0 -63.5 20t-23.5 51q0 28 20 45t45 17t42 -10.5t30 -30.5l7 -8q22 -30 44 1q9 15 20.5 39.5t26.5 65.5l-194 464q-7 19 -15 30.5t-26 19.5l-18 7v10h249v-9l-20 -8q-22 -7 -22.5 -22.5t7.5 -38.5l104 -270l99 273q8 23 6 38.5t-25 21.5l-21 5v10h139v-10
l-22 -7q-23 -7 -32 -20t-17 -36l-161 -439q-39 -105 -78 -157t-101 -52zM414 580q-28 0 -50.5 18.5t-22.5 50.5t22.5 50.5t50.5 18.5q30 0 51.5 -18.5t21.5 -50.5t-21.5 -50.5t-51.5 -18.5zM182 580q-29 0 -51 18.5t-22 50.5t22 50.5t51 18.5t51 -18.5t22 -50.5t-22 -50.5
t-51 -18.5z" />
    <glyph glyph-name="Amacron" unicode="&#x100;" horiz-adv-x="650" 
d="M8 0v10l25 9q20 8 31 19.5t18 32.5l206 591h85l203 -595q8 -22 18 -33.5t31 -19.5l12 -4v-10h-254v10l15 5q21 8 25.5 22.5t-1.5 34.5l-47 144h-222l-48 -141q-7 -22 -4.5 -35t23.5 -21l22 -9v-10h-138zM160 236h209l-101 311zM157 768v25h316v-25h-316z" />
    <glyph glyph-name="amacron" unicode="&#x101;" horiz-adv-x="518" 
d="M166 -15q-58 0 -97.5 33t-39.5 95q0 47 48 86.5t151 59.5q16 3 36 6.5t42 7.5v79q0 68 -16.5 95.5t-51.5 27.5q-24 0 -38 -15.5t-18 -53.5l-2 -11q-2 -43 -21 -63t-47 -20q-26 0 -43 16t-17 43q0 41 28.5 69t75.5 42t102 14q89 0 137.5 -43.5t48.5 -141.5v-221
q0 -45 42 -45h22l9 -8q-19 -24 -41.5 -37t-63.5 -13q-44 0 -69.5 20.5t-33.5 54.5q-30 -32 -61.5 -54.5t-81.5 -22.5zM227 46q20 0 37.5 9.5t41.5 29.5v168l-20 -4t-23 -4q-46 -12 -73.5 -40.5t-27.5 -76.5q0 -41 19 -61.5t46 -20.5zM102 617v22h306v-22h-306z" />
    <glyph glyph-name="Abreve" unicode="&#x102;" horiz-adv-x="650" 
d="M8 0v10l25 9q20 8 31 19.5t18 32.5l206 591h85l203 -595q8 -22 18 -33.5t31 -19.5l12 -4v-10h-254v10l15 5q21 8 25.5 22.5t-1.5 34.5l-47 144h-222l-48 -141q-7 -22 -4.5 -35t23.5 -21l22 -9v-10h-138zM160 236h209l-101 311zM315 713q-41 0 -72.5 19.5t-50 51
t-22.5 68.5l12 5q17 -31 52 -49.5t81 -18.5t81.5 18.5t51.5 49.5l12 -5q-4 -37 -22.5 -68.5t-49.5 -51t-73 -19.5z" />
    <glyph glyph-name="abreve" unicode="&#x103;" horiz-adv-x="518" 
d="M166 -15q-58 0 -97.5 33t-39.5 95q0 47 48 86.5t151 59.5q16 3 36 6.5t42 7.5v79q0 68 -16.5 95.5t-51.5 27.5q-24 0 -38 -15.5t-18 -53.5l-2 -11q-2 -43 -21 -63t-47 -20q-26 0 -43 16t-17 43q0 41 28.5 69t75.5 42t102 14q89 0 137.5 -43.5t48.5 -141.5v-221
q0 -45 42 -45h22l9 -8q-19 -24 -41.5 -37t-63.5 -13q-44 0 -69.5 20.5t-33.5 54.5q-30 -32 -61.5 -54.5t-81.5 -22.5zM227 46q20 0 37.5 9.5t41.5 29.5v168l-20 -4t-23 -4q-46 -12 -73.5 -40.5t-27.5 -76.5q0 -41 19 -61.5t46 -20.5zM255 568q-51 0 -83 24t-48 60.5
t-19 71.5l19 7q17 -35 48.5 -59.5t82.5 -24.5t82.5 24.5t48.5 59.5l19 -7q-3 -35 -19 -71.5t-47.5 -60.5t-83.5 -24z" />
    <glyph glyph-name="Aogonek" unicode="&#x104;" horiz-adv-x="650" 
d="M8 0v10l25 9q20 8 31 19.5t18 32.5l206 591h85l203 -595q8 -22 18 -33.5t31 -19.5l12 -4v-10h-254v10l15 5q21 8 25.5 22.5t-1.5 34.5l-47 144h-222l-48 -141q-7 -22 -4.5 -35t23.5 -21l22 -9v-10h-138zM160 236h209l-101 311zM529 -224q-46 0 -74.5 24t-28.5 65
q0 32 20.5 61t52 51t62.5 33h17q-31 -19 -49.5 -47.5t-18.5 -60.5t21 -52t54 -20q19 0 35 6.5t28 13.5l7 -11q-22 -25 -54.5 -44t-71.5 -19z" />
    <glyph glyph-name="aogonek" unicode="&#x105;" horiz-adv-x="518" 
d="M166 -15q-58 0 -97.5 33t-39.5 95q0 47 48 86.5t151 59.5q16 3 36 6.5t42 7.5v79q0 68 -16.5 95.5t-51.5 27.5q-24 0 -38 -15.5t-18 -53.5l-2 -11q-2 -43 -21 -63t-47 -20q-26 0 -43 16t-17 43q0 41 28.5 69t75.5 42t102 14q89 0 137.5 -43.5t48.5 -141.5v-221
q0 -45 42 -45h22l9 -8q-19 -24 -41.5 -37t-63.5 -13q-44 0 -69.5 20.5t-33.5 54.5q-30 -32 -61.5 -54.5t-81.5 -22.5zM227 46q20 0 37.5 9.5t41.5 29.5v168l-20 -4t-23 -4q-46 -12 -73.5 -40.5t-27.5 -76.5q0 -41 19 -61.5t46 -20.5zM449 -218q-46 0 -74.5 24t-28.5 65
q0 32 20.5 61t52 51t62.5 33h17q-31 -19 -49.5 -47.5t-18.5 -60.5t21 -52t54 -20q19 0 35 6.5t28 13.5l7 -11q-22 -25 -54.5 -44t-71.5 -19z" />
    <glyph glyph-name="Cacute" unicode="&#x106;" horiz-adv-x="603" 
d="M366 -18q-97 0 -175.5 39.5t-124.5 117.5t-46 191q0 86 28 151t76.5 109t112 66t134.5 22q57 0 105 -13t90 -36l4 -123h-10l-50 80q-10 19 -22 34.5t-30 23.5q-15 7 -29.5 10.5t-36.5 3.5q-58 0 -105.5 -31t-76 -102.5t-28.5 -195.5q0 -123 27 -194.5t73.5 -102
t104.5 -30.5q32 0 51 4.5t38 13.5q19 8 29 23.5t18 33.5l44 98h10l-3 -143q-42 -22 -94 -36t-114 -14zM274 725q26 26 52 53.5t50 52.5q25 27 40.5 36t30.5 9q19 0 30.5 -11.5t11.5 -28.5q0 -32 -62 -60q-37 -16 -71.5 -31t-71.5 -32z" />
    <glyph glyph-name="cacute" unicode="&#x107;" horiz-adv-x="494" 
d="M268 -15q-68 0 -123.5 29.5t-88 86t-32.5 138.5q0 81 35.5 138.5t95 88t130.5 30.5q58 0 98 -19t61 -49.5t21 -63.5q0 -28 -17 -43.5t-44 -15.5q-29 0 -47 21t-21 55q-1 22 1 37.5t0 31.5q-4 17 -12.5 22.5t-23.5 5.5q-61 0 -94.5 -53t-33.5 -169q0 -101 37.5 -154.5
t115.5 -53.5q47 0 76 17t56 51l10 -8q-25 -59 -77 -91t-123 -32zM219 573q14 26 32 58.5t43 79.5q17 32 33 46.5t37 14.5q19 0 33 -12.5t14 -30.5q0 -19 -13 -35.5t-44 -38.5q-43 -30 -72 -52.5t-52 -39.5z" />
    <glyph glyph-name="Ccaron" unicode="&#x10c;" horiz-adv-x="603" 
d="M366 -18q-97 0 -175.5 39.5t-124.5 117.5t-46 191q0 86 28 151t76.5 109t112 66t134.5 22q57 0 105 -13t90 -36l4 -123h-10l-50 80q-10 19 -22 34.5t-30 23.5q-15 7 -29.5 10.5t-36.5 3.5q-58 0 -105.5 -31t-76 -102.5t-28.5 -195.5q0 -123 27 -194.5t73.5 -102
t104.5 -30.5q32 0 51 4.5t38 13.5q19 8 29 23.5t18 33.5l44 98h10l-3 -143q-42 -22 -94 -36t-114 -14zM343 717l-151 154l10 12l148 -82l148 82l10 -12l-151 -154h-14z" />
    <glyph glyph-name="ccaron" unicode="&#x10d;" horiz-adv-x="494" 
d="M268 -15q-68 0 -123.5 29.5t-88 86t-32.5 138.5q0 81 35.5 138.5t95 88t130.5 30.5q58 0 98 -19t61 -49.5t21 -63.5q0 -28 -17 -43.5t-44 -15.5q-29 0 -47 21t-21 55q-1 22 1 37.5t0 31.5q-4 17 -12.5 22.5t-23.5 5.5q-61 0 -94.5 -53t-33.5 -169q0 -101 37.5 -154.5
t115.5 -53.5q47 0 76 17t56 51l10 -8q-25 -59 -77 -91t-123 -32zM265 567l-135 178l13 11l134 -100l134 100l13 -11l-135 -178h-24z" />
    <glyph glyph-name="Dcaron" unicode="&#x10e;" horiz-adv-x="648" 
d="M22 0v10l21 8q32 13 32 51v522q0 40 -32 51l-21 8v10h264q106 0 182.5 -39.5t118 -113t41.5 -176.5q0 -105 -45 -179t-125.5 -113t-189.5 -39h-246zM225 20h43q72 0 116 28.5t64.5 96t20.5 185.5t-20.5 185.5t-63.5 96t-113 28.5h-47v-620zM275 717l-151 154l10 12
l148 -82l148 82l10 -12l-151 -154h-14z" />
    <glyph glyph-name="dcaron" unicode="&#x10f;" horiz-adv-x="608" 
d="M575 510l-6 10q27 24 43 49t24 59l-15 2q-25 5 -39.5 20.5t-14.5 37.5q0 25 16 41t41 16q28 0 44 -18.5t15 -51.5q-1 -55 -29.5 -95t-78.5 -70zM232 -15q-59 0 -106 26.5t-74.5 82t-27.5 142.5q0 88 31 145.5t82 86t111 28.5q35 0 67 -7t57 -21v130q0 21 -6.5 31
t-27.5 14l-19 4v10l182 44l11 -9l-4 -140v-489q0 -20 7 -32.5t26 -17.5l9 -3v-10l-171 -11l-9 36q-27 -18 -61.5 -29t-76.5 -11zM290 22q42 0 77 25v397q-37 24 -76 24q-48 0 -82 -55.5t-34 -174.5t32 -167.5t83 -48.5z" />
    <glyph glyph-name="Dcroat" unicode="&#x110;" horiz-adv-x="648" 
d="M22 0v10l21 8q32 13 32 51v256h-40v27h40v239q0 40 -32 51l-21 8v10h264q106 0 182.5 -39.5t118 -113t41.5 -176.5q0 -105 -45 -179t-125.5 -113t-189.5 -39h-246zM225 20h43q72 0 116 28.5t64.5 96t20.5 185.5t-20.5 185.5t-63.5 96t-113 28.5h-47v-288h167v-27h-167
v-305z" />
    <glyph glyph-name="dcroat" unicode="&#x111;" horiz-adv-x="574" 
d="M232 -15q-59 0 -106 26.5t-74.5 82t-27.5 142.5q0 88 31 145.5t82 86t111 28.5q35 0 67 -7t57 -21v88h-167v20h167v22q0 21 -6.5 31t-27.5 14l-19 4v10l182 44l11 -9l-3 -116h64v-20h-65v-4v-489q0 -20 7 -32.5t26 -17.5l9 -3v-10l-171 -11l-9 36q-27 -18 -61.5 -29
t-76.5 -11zM290 22q42 0 77 25v397q-37 24 -76 24q-48 0 -82 -55.5t-34 -174.5t32 -167.5t83 -48.5z" />
    <glyph glyph-name="Emacron" unicode="&#x112;" horiz-adv-x="555" 
d="M22 0v10l23 9q17 7 23.5 18.5t6.5 31.5v522q0 20 -5.5 31.5t-24.5 18.5l-23 9v10h479l6 -154h-10l-43 94q-9 18 -19 29t-30 11h-180v-289h107q20 0 30.5 10.5t18.5 28.5l20 40h10v-180h-10l-20 42q-9 18 -19 28.5t-30 10.5h-107v-311h202q20 0 31 10.5t18 29.5l41 94h10
l-6 -154h-499zM118 768v25h316v-25h-316z" />
    <glyph glyph-name="emacron" unicode="&#x113;" horiz-adv-x="507" 
d="M271 496q65 0 111 -26.5t70.5 -72t24.5 -103.5q0 -11 -1 -22.5t-4 -20.5h-298q1 -108 38.5 -155.5t111.5 -47.5q50 0 81 16t58 47l10 -9q-31 -55 -82.5 -86t-123.5 -31q-71 0 -126 30.5t-86 87.5t-31 136q0 82 36 139.5t92.5 87.5t118.5 30zM268 476q-29 0 -49.5 -17.5
t-32 -62t-12.5 -125.5h171q10 109 -8 157t-69 48zM120 617v22h306v-22h-306z" />
    <glyph glyph-name="Edotaccent" unicode="&#x116;" horiz-adv-x="555" 
d="M22 0v10l23 9q17 7 23.5 18.5t6.5 31.5v522q0 20 -5.5 31.5t-24.5 18.5l-23 9v10h479l6 -154h-10l-43 94q-9 18 -19 29t-30 11h-180v-289h107q20 0 30.5 10.5t18.5 28.5l20 40h10v-180h-10l-20 42q-9 18 -19 28.5t-30 10.5h-107v-311h202q20 0 31 10.5t18 29.5l41 94h10
l-6 -154h-499zM276 716q-34 0 -57.5 21t-23.5 54q0 34 23.5 55t57.5 21t57.5 -21t23.5 -55q0 -33 -23.5 -54t-57.5 -21z" />
    <glyph glyph-name="edotaccent" unicode="&#x117;" horiz-adv-x="507" 
d="M271 496q65 0 111 -26.5t70.5 -72t24.5 -103.5q0 -11 -1 -22.5t-4 -20.5h-298q1 -108 38.5 -155.5t111.5 -47.5q50 0 81 16t58 47l10 -9q-31 -55 -82.5 -86t-123.5 -31q-71 0 -126 30.5t-86 87.5t-31 136q0 82 36 139.5t92.5 87.5t118.5 30zM268 476q-29 0 -49.5 -17.5
t-32 -62t-12.5 -125.5h171q10 109 -8 157t-69 48zM273 574q-34 0 -57.5 21.5t-23.5 54.5t23.5 54.5t57.5 21.5t57.5 -21.5t23.5 -54.5t-23.5 -54.5t-57.5 -21.5z" />
    <glyph glyph-name="Eogonek" unicode="&#x118;" horiz-adv-x="597" 
d="M22 0v10l23 9q17 7 23.5 18.5t6.5 31.5v522q0 20 -5.5 31.5t-24.5 18.5l-23 9v10h479l6 -154h-10l-43 94q-9 18 -19 29t-30 11h-180v-289h107q20 0 30.5 10.5t18.5 28.5l20 40h10v-180h-10l-20 42q-9 18 -19 28.5t-30 10.5h-107v-311h202q20 0 31 10.5t18 29.5l41 94h10
l-6 -154h-499zM457 -224q-46 0 -74.5 24t-28.5 65q0 32 20.5 61t52 51t62.5 33h17q-31 -19 -49.5 -47.5t-18.5 -60.5t21 -52t54 -20q19 0 35 6.5t28 13.5l7 -11q-22 -25 -54.5 -44t-71.5 -19z" />
    <glyph glyph-name="eogonek" unicode="&#x119;" horiz-adv-x="507" 
d="M271 496q65 0 111 -26.5t70.5 -72t24.5 -103.5q0 -11 -1 -22.5t-4 -20.5h-298q1 -108 38.5 -155.5t111.5 -47.5q50 0 81 16t58 47l10 -9q-31 -55 -82.5 -86t-123.5 -31q-71 0 -126 30.5t-86 87.5t-31 136q0 82 36 139.5t92.5 87.5t118.5 30zM268 476q-29 0 -49.5 -17.5
t-32 -62t-12.5 -125.5h171q10 109 -8 157t-69 48zM330 -224q-46 0 -74.5 24t-28.5 65q0 32 20.5 61t52 51t62.5 33h17q-31 -19 -49.5 -47.5t-18.5 -60.5t21 -52t54 -20q19 0 35 6.5t28 13.5l7 -11q-22 -25 -54.5 -44t-71.5 -19z" />
    <glyph glyph-name="Ecaron" unicode="&#x11a;" horiz-adv-x="555" 
d="M22 0v10l23 9q17 7 23.5 18.5t6.5 31.5v522q0 20 -5.5 31.5t-24.5 18.5l-23 9v10h479l6 -154h-10l-43 94q-9 18 -19 29t-30 11h-180v-289h107q20 0 30.5 10.5t18.5 28.5l20 40h10v-180h-10l-20 42q-9 18 -19 28.5t-30 10.5h-107v-311h202q20 0 31 10.5t18 29.5l41 94h10
l-6 -154h-499zM269 717l-151 154l10 12l148 -82l148 82l10 -12l-151 -154h-14z" />
    <glyph glyph-name="ecaron" unicode="&#x11b;" horiz-adv-x="507" 
d="M271 496q65 0 111 -26.5t70.5 -72t24.5 -103.5q0 -11 -1 -22.5t-4 -20.5h-298q1 -108 38.5 -155.5t111.5 -47.5q50 0 81 16t58 47l10 -9q-31 -55 -82.5 -86t-123.5 -31q-71 0 -126 30.5t-86 87.5t-31 136q0 82 36 139.5t92.5 87.5t118.5 30zM268 476q-29 0 -49.5 -17.5
t-32 -62t-12.5 -125.5h171q10 109 -8 157t-69 48zM261 567l-135 178l13 11l134 -100l134 100l13 -11l-135 -178h-24z" />
    <glyph glyph-name="Gbreve" unicode="&#x11e;" horiz-adv-x="656" 
d="M364 -18q-102 0 -179.5 42.5t-121 121t-43.5 185.5q0 104 43 182t124.5 121.5t197.5 43.5q53 0 98.5 -12t86.5 -35l4 -140h-10l-56 104q-13 25 -24 36t-28 17q-16 5 -29.5 7.5t-35.5 2.5q-62 0 -109.5 -33t-73.5 -105t-26 -189q0 -116 24.5 -189t69.5 -106.5t104 -33.5
q9 0 17.5 1.5t16.5 3.5q19 3 25 16t6 31v198q0 39 -40 48l-46 12v10h282v-10l-14 -4q-38 -12 -38 -50v-217q-52 -29 -105.5 -44t-119.5 -15zM359 713q-41 0 -72.5 19.5t-50 51t-22.5 68.5l12 5q17 -31 52 -49.5t81 -18.5t81.5 18.5t51.5 49.5l12 -5q-4 -37 -22.5 -68.5
t-49.5 -51t-73 -19.5z" />
    <glyph glyph-name="gbreve" unicode="&#x11f;" horiz-adv-x="531" 
d="M238 173q-69 0 -117 23v-34q0 -31 31 -37l188 -35q47 -9 85 -23.5t61 -41t23 -72.5q0 -49 -32 -90.5t-94.5 -67t-155.5 -25.5q-80 0 -127 16.5t-66.5 42.5t-19.5 55q0 36 24.5 72.5t60.5 58.5q-31 12 -45 31t-14 41q0 20 10.5 37.5t25.5 35.5l33 42q-73 42 -73 132
q0 72 51.5 117t151.5 45q51 0 89.5 -12t63.5 -34q32 5 60.5 16.5t51.5 31.5l14 -10v-51h-113q36 -40 36 -103q0 -70 -51.5 -115.5t-151.5 -45.5zM237 193q40 0 58.5 33t18.5 110t-18.5 108.5t-56.5 31.5q-37 0 -56 -32.5t-19 -109.5t17.5 -109t55.5 -32zM88 -84
q0 -59 36.5 -89t115.5 -30q83 0 125 27t42 76q0 28 -20.5 45t-69.5 26l-181 34l-16 4q-14 -20 -23 -45.5t-9 -47.5zM255 568q-51 0 -83 24t-48 60.5t-19 71.5l19 7q17 -35 48.5 -59.5t82.5 -24.5t82.5 24.5t48.5 59.5l19 -7q-3 -35 -19 -71.5t-47.5 -60.5t-83.5 -24z" />
    <glyph glyph-name="uni0122" unicode="&#x122;" horiz-adv-x="656" 
d="M364 -18q-102 0 -179.5 42.5t-121 121t-43.5 185.5q0 104 43 182t124.5 121.5t197.5 43.5q53 0 98.5 -12t86.5 -35l4 -140h-10l-56 104q-13 25 -24 36t-28 17q-16 5 -29.5 7.5t-35.5 2.5q-62 0 -109.5 -33t-73.5 -105t-26 -189q0 -116 24.5 -189t69.5 -106.5t104 -33.5
q9 0 17.5 1.5t16.5 3.5q19 3 25 16t6 31v198q0 39 -40 48l-46 12v10h282v-10l-14 -4q-38 -12 -38 -50v-217q-52 -29 -105.5 -44t-119.5 -15zM305 -265l-3 11q35 14 55.5 29.5t30.5 40.5q-35 2 -55 20.5t-20 46.5t20 46t48 18q34 0 52 -19t18 -52q0 -34 -20 -61.5t-53 -47.5
t-73 -32z" />
    <glyph glyph-name="uni0123" unicode="&#x123;" horiz-adv-x="531" 
d="M252 568q-32 0 -51 19.5t-19 50.5q0 35 20.5 62.5t53.5 48t72 32.5l6 -16q-29 -13 -48 -26.5t-33 -37.5q31 -6 49 -26.5t18 -45.5t-19.5 -43t-48.5 -18zM238 173q-69 0 -117 23v-34q0 -31 31 -37l188 -35q47 -9 85 -23.5t61 -41t23 -72.5q0 -49 -32 -90.5t-94.5 -67
t-155.5 -25.5q-80 0 -127 16.5t-66.5 42.5t-19.5 55q0 36 24.5 72.5t60.5 58.5q-31 12 -45 31t-14 41q0 20 10.5 37.5t25.5 35.5l33 42q-73 42 -73 132q0 72 51.5 117t151.5 45q51 0 89.5 -12t63.5 -34q32 5 60.5 16.5t51.5 31.5l14 -10v-51h-113q36 -40 36 -103
q0 -70 -51.5 -115.5t-151.5 -45.5zM237 193q40 0 58.5 33t18.5 110t-18.5 108.5t-56.5 31.5q-37 0 -56 -32.5t-19 -109.5t17.5 -109t55.5 -32zM88 -84q0 -59 36.5 -89t115.5 -30q83 0 125 27t42 76q0 28 -20.5 45t-69.5 26l-181 34l-16 4q-14 -20 -23 -45.5t-9 -47.5z" />
    <glyph glyph-name="Imacron" unicode="&#x12a;" horiz-adv-x="301" 
d="M22 0v10l20 8q20 7 26.5 19t6.5 32v522q0 20 -6 32t-27 19l-20 8v10h257v-10l-20 -8q-20 -7 -26.5 -19t-6.5 -32v-522q0 -20 6.5 -31.5t26.5 -19.5l20 -8v-10h-257zM-7 768v25h316v-25h-316z" />
    <glyph glyph-name="imacron" unicode="&#x12b;" horiz-adv-x="280" 
d="M22 0v10l14 4q20 6 27 18t7 32q0 35 0.5 75.5t0.5 70.5v48q0 31 -0.5 58.5t-0.5 60.5q-1 21 -7.5 31.5t-26.5 14.5l-14 3v10l183 59l10 -10l-3 -142v-280q1 -20 8 -32t26 -18l10 -3v-10h-234zM-16 617v22h306v-22h-306z" />
    <glyph glyph-name="Iogonek" unicode="&#x12e;" horiz-adv-x="301" 
d="M22 0v10l20 8q20 7 26.5 19t6.5 32v522q0 20 -6 32t-27 19l-20 8v10h257v-10l-20 -8q-20 -7 -26.5 -19t-6.5 -32v-522q0 -20 6.5 -31.5t26.5 -19.5l20 -8v-10h-257zM180 -224q-46 0 -74.5 24t-28.5 65q0 32 20.5 61t52 51t62.5 33h17q-31 -19 -49.5 -47.5t-18.5 -60.5
t21 -52t54 -20q19 0 35 6.5t28 13.5l7 -11q-22 -25 -54.5 -44t-71.5 -19z" />
    <glyph glyph-name="iogonek" unicode="&#x12f;" horiz-adv-x="280" 
d="M140 548q-34 0 -57.5 21.5t-23.5 54.5q0 34 23.5 55t57.5 21t57 -21t23 -55q0 -33 -23 -54.5t-57 -21.5zM22 0v10l14 4q20 6 27.5 18t7.5 32v313q0 21 -7.5 31.5t-27.5 14.5l-14 3v10l183 59l10 -10l-3 -142v-280q0 -20 7.5 -32t26.5 -18l10 -3v-10h-234zM158 -224
q-46 0 -74.5 24t-28.5 65q0 32 20.5 61t52 51t62.5 33h17q-31 -19 -49.5 -47.5t-18.5 -60.5t21 -52t54 -20q19 0 35 6.5t28 13.5l7 -11q-22 -25 -54.5 -44t-71.5 -19z" />
    <glyph glyph-name="Idotaccent" unicode="&#x130;" horiz-adv-x="301" 
d="M22 0v10l20 8q20 7 26.5 19t6.5 32v522q0 20 -6 32t-27 19l-20 8v10h257v-10l-20 -8q-20 -7 -26.5 -19t-6.5 -32v-522q0 -20 6.5 -31.5t26.5 -19.5l20 -8v-10h-257zM151 716q-34 0 -57.5 21t-23.5 54q0 34 23.5 55t57.5 21t57.5 -21t23.5 -55q0 -33 -23.5 -54t-57.5 -21z
" />
    <glyph glyph-name="dotlessi" unicode="&#x131;" horiz-adv-x="280" 
d="M22 0v10l14 4q20 6 27 18t7 32q0 35 0.5 75.5t0.5 70.5v48q0 31 -0.5 58.5t-0.5 60.5q-1 21 -7.5 31.5t-26.5 14.5l-14 3v10l183 59l10 -10l-3 -142v-280q1 -20 8 -32t26 -18l10 -3v-10h-234z" />
    <glyph glyph-name="uni0136" unicode="&#x136;" horiz-adv-x="654" 
d="M22 0v10l21 8q20 7 26 19t6 31v523q0 20 -6 32t-26 19l-21 8v10h249v-10l-22 -9q-17 -6 -23 -18t-6 -33v-523q0 -20 6.5 -31t25.5 -18l19 -8v-10h-249zM391 0v10l13 4q20 6 21 20t-12 32l-192 273l253 258q14 14 15.5 27t-19.5 20l-17 6v10h146v-10l-26 -8
q-22 -7 -35 -17t-30 -27l-179 -183l235 -343q15 -22 28.5 -36t38.5 -22l14 -4v-10h-254zM254 -265l-3 11q35 14 55.5 29.5t30.5 40.5q-35 2 -55 20.5t-20 46.5t20 46t48 18q34 0 52 -19t18 -52q0 -34 -20 -61.5t-53 -47.5t-73 -32z" />
    <glyph glyph-name="uni0137" unicode="&#x137;" horiz-adv-x="582" 
d="M22 0v10l15 5q34 11 34 49v535q0 20 -8 30t-28 16l-13 3v10l183 43l12 -9l-3 -140v-488q0 -40 33 -50l14 -4v-10h-239zM393 0l-178 250l185 171q13 12 15.5 25.5t-17.5 19.5l-17 5v10h149v-10l-30 -8q-22 -7 -35.5 -16.5t-32.5 -26.5l-112 -105l179 -249q16 -22 30 -34
t36 -20l4 -2v-10h-176zM232 -265l-3 11q35 14 55.5 29.5t30.5 40.5q-35 2 -55 20.5t-20 46.5t20 46t48 18q34 0 52 -19t18 -52q0 -34 -20 -61.5t-53 -47.5t-73 -32z" />
    <glyph glyph-name="Lacute" unicode="&#x139;" horiz-adv-x="540" 
d="M22 0v10l21 8q21 8 26.5 19.5t5.5 31.5v522q0 20 -6 32t-26 19l-21 8v10h255v-10l-18 -8q-19 -7 -26 -19.5t-7 -32.5v-570h154q37 0 54.5 18t33.5 52l39 84h10l-9 -174h-486zM81 725q26 26 52 53.5t50 52.5q25 27 40.5 36t30.5 9q19 0 30.5 -11.5t11.5 -28.5
q0 -32 -62 -60q-37 -16 -71.5 -31t-71.5 -32z" />
    <glyph glyph-name="lacute" unicode="&#x13a;" horiz-adv-x="286" 
d="M23 0v10l12 4q36 12 36 50v535q0 20 -8 30.5t-28 15.5l-13 3v10l183 43l12 -9l-4 -140v-342q0 -37 0.5 -73.5t0.5 -72.5q0 -20 8 -32.5t27 -18.5l13 -3v-10h-239zM39 765q26 26 52 53.5t50 52.5q25 27 40.5 36t30.5 9q19 0 30.5 -11.5t11.5 -28.5q0 -32 -62 -60
q-37 -16 -71.5 -31t-71.5 -32z" />
    <glyph glyph-name="uni013B" unicode="&#x13b;" horiz-adv-x="540" 
d="M22 0v10l21 8q21 8 26.5 19.5t5.5 31.5v522q0 20 -6 32t-26 19l-21 8v10h255v-10l-18 -8q-19 -7 -26 -19.5t-7 -32.5v-570h154q37 0 54.5 18t33.5 52l39 84h10l-9 -174h-486zM198 -265l-3 11q35 14 55.5 29.5t30.5 40.5q-35 2 -55 20.5t-20 46.5t20 46t48 18q34 0 52 -19
t18 -52q0 -34 -20 -61.5t-53 -47.5t-73 -32z" />
    <glyph glyph-name="uni013C" unicode="&#x13c;" horiz-adv-x="286" 
d="M23 0v10l12 4q36 12 36 50v535q0 20 -8 30.5t-28 15.5l-13 3v10l183 43l12 -9l-4 -140v-342q0 -37 0.5 -73.5t0.5 -72.5q0 -20 8 -32.5t27 -18.5l13 -3v-10h-239zM72 -265l-3 11q35 14 55.5 29.5t30.5 40.5q-35 2 -55 20.5t-20 46.5t20 46t48 18q34 0 52 -19t18 -52
q0 -34 -20 -61.5t-53 -47.5t-73 -32z" />
    <glyph glyph-name="Lcaron" unicode="&#x13d;" horiz-adv-x="584" 
d="M429 444l-8 14q31 19 53 46.5t32 70.5l-17 4q-28 8 -45.5 26t-17.5 42q0 26 17 45t45 19q32 0 52 -22.5t20 -60.5q0 -37 -17.5 -73t-47 -65t-66.5 -46zM22 0v10l21 8q21 8 26.5 19.5t5.5 31.5v522q0 20 -6 32t-26 19l-21 8v10h255v-10l-18 -8q-19 -7 -26 -19.5t-7 -32.5
v-570h154q37 0 54.5 18t33.5 52l39 84h10l-9 -174h-486z" />
    <glyph glyph-name="lcaron" unicode="&#x13e;" horiz-adv-x="328" 
d="M276 510l-13 19q25 19 44 43t29 56l-14 2q-25 5 -39.5 20.5t-14.5 37.5q0 25 16 41t41 16q29 0 45 -18.5t15 -51.5q-1 -55 -30 -95t-79 -70zM23 0v10l12 4q36 12 36 50v535q0 20 -8 30.5t-28 15.5l-13 3v10l183 43l12 -9l-4 -140v-342q0 -37 0.5 -73.5t0.5 -72.5
q0 -20 8 -32.5t27 -18.5l13 -3v-10h-239z" />
    <glyph glyph-name="Ldot" unicode="&#x13f;" horiz-adv-x="584" 
d="M22 0v10l21 8q21 8 26.5 19.5t5.5 31.5v522q0 20 -6 32t-26 19l-21 8v10h255v-10l-18 -8q-19 -7 -26 -19.5t-7 -32.5v-570h154q37 0 54.5 18t33.5 52l39 84h10l-9 -174h-486zM477 301q-36 0 -61 25t-25 60t25 61t61 26t61 -26t25 -61t-25 -60t-61 -25z" />
    <glyph glyph-name="ldot" unicode="&#x140;" horiz-adv-x="378" 
d="M23 0v10l12 4q36 12 36 50v535q0 20 -8 30.5t-28 15.5l-13 3v10l183 43l12 -9l-4 -140v-342q0 -37 0.5 -73.5t0.5 -72.5q0 -20 8 -32.5t27 -18.5l13 -3v-10h-239zM349 276q-36 0 -61 25t-25 60t25 61t61 26t61 -26t25 -61t-25 -60t-61 -25z" />
    <glyph glyph-name="Lslash" unicode="&#x141;" horiz-adv-x="584" 
d="M22 0v10l21 8q21 8 26.5 19.5t5.5 31.5v181l-41 -22v25l41 22v316q0 20 -6 32t-26 19l-21 8v10h255v-10l-18 -8q-19 -7 -26 -19.5t-7 -32.5v-238l174 95v-26l-174 -94v-307h154q37 0 54.5 18t33.5 52l39 84h10l-9 -174h-486z" />
    <glyph glyph-name="lslash" unicode="&#x142;" horiz-adv-x="286" 
d="M23 0v10l12 4q36 12 36 50v241l-68 -36v33l68 38v259q0 20 -8 30.5t-28 15.5l-13 3v10l183 43l12 -9l-4 -140v-143l71 39v-33l-71 -39v-166q0 -37 0.5 -73.5t0.5 -72.5q0 -20 8 -32.5t27 -18.5l13 -3v-10h-239z" />
    <glyph glyph-name="Nacute" unicode="&#x143;" horiz-adv-x="653" 
d="M35 0v10l33 10q18 5 26 19.5t8 34.5v481q-11 24 -17.5 36t-14.5 20.5t-22 21.5l-17 17v10h177l332 -453v377q0 20 -6.5 36t-26.5 21l-33 9v10h143v-10l-27 -9q-18 -6 -22 -21t-4 -35v-588h-56l-382 525v-448q0 -20 6 -34t25 -20l30 -10v-10h-152zM250 725q26 26 52 53.5
t50 52.5q25 27 40.5 36t30.5 9q19 0 30.5 -11.5t11.5 -28.5q0 -32 -62 -60q-37 -16 -71.5 -31t-71.5 -32z" />
    <glyph glyph-name="nacute" unicode="&#x144;" horiz-adv-x="578" 
d="M20 0v10l14 4q35 10 35 49v313q0 22 -7 32.5t-27 14.5l-15 4v10l171 58l10 -10l8 -60q35 31 79 51t87 20q66 0 101.5 -36t35.5 -110v-288q0 -39 38 -49l9 -3v-10h-236v10l13 4q35 11 35 49v319q0 64 -64 64q-44 0 -96 -44v-340q0 -39 35 -49l9 -3v-10h-235zM239 573
q14 26 32 58.5t43 79.5q17 32 33 46.5t37 14.5q19 0 33 -12.5t14 -30.5q0 -19 -13 -35.5t-44 -38.5q-43 -30 -72 -52.5t-52 -39.5z" />
    <glyph glyph-name="uni0145" unicode="&#x145;" horiz-adv-x="653" 
d="M35 0v10l33 10q18 5 26 19.5t8 34.5v481q-11 24 -17.5 36t-14.5 20.5t-22 21.5l-17 17v10h177l332 -453v377q0 20 -6.5 36t-26.5 21l-33 9v10h143v-10l-27 -9q-18 -6 -22 -21t-4 -35v-588h-56l-382 525v-448q0 -20 6 -34t25 -20l30 -10v-10h-152zM270 -265l-3 11
q35 14 55.5 29.5t30.5 40.5q-35 2 -55 20.5t-20 46.5t20 46t48 18q34 0 52 -19t18 -52q0 -34 -20 -61.5t-53 -47.5t-73 -32z" />
    <glyph glyph-name="uni0146" unicode="&#x146;" horiz-adv-x="578" 
d="M20 0v10l14 4q35 10 35 49v313q0 22 -7 32.5t-27 14.5l-15 4v10l171 58l10 -10l8 -60q35 31 79 51t87 20q66 0 101.5 -36t35.5 -110v-288q0 -39 38 -49l9 -3v-10h-236v10l13 4q35 11 35 49v319q0 64 -64 64q-44 0 -96 -44v-340q0 -39 35 -49l9 -3v-10h-235zM220 -265
l-3 11q35 14 55.5 29.5t30.5 40.5q-35 2 -55 20.5t-20 46.5t20 46t48 18q34 0 52 -19t18 -52q0 -34 -20 -61.5t-53 -47.5t-73 -32z" />
    <glyph glyph-name="Ncaron" unicode="&#x147;" horiz-adv-x="653" 
d="M35 0v10l33 10q18 5 26 19.5t8 34.5v481q-11 24 -17.5 36t-14.5 20.5t-22 21.5l-17 17v10h177l332 -453v377q0 20 -6.5 36t-26.5 21l-33 9v10h143v-10l-27 -9q-18 -6 -22 -21t-4 -35v-588h-56l-382 525v-448q0 -20 6 -34t25 -20l30 -10v-10h-152zM319 717l-151 154l10 12
l148 -82l148 82l10 -12l-151 -154h-14z" />
    <glyph glyph-name="ncaron" unicode="&#x148;" horiz-adv-x="578" 
d="M20 0v10l14 4q35 10 35 49v313q0 22 -7 32.5t-27 14.5l-15 4v10l171 58l10 -10l8 -60q35 31 79 51t87 20q66 0 101.5 -36t35.5 -110v-288q0 -39 38 -49l9 -3v-10h-236v10l13 4q35 11 35 49v319q0 64 -64 64q-44 0 -96 -44v-340q0 -39 35 -49l9 -3v-10h-235zM285 567
l-135 178l13 11l134 -100l134 100l13 -11l-135 -178h-24z" />
    <glyph glyph-name="Omacron" unicode="&#x14c;" horiz-adv-x="670" 
d="M335 -18q-61 0 -117.5 22t-101 65.5t-70.5 108.5t-26 152q0 86 26 151t71 108.5t101.5 66t116.5 22.5q61 0 117.5 -21.5t101 -65t70.5 -109t26 -152.5q0 -85 -26 -150.5t-70.5 -109t-101 -66t-117.5 -22.5zM335 3q55 0 89 29.5t49.5 101t15.5 196.5q0 126 -15.5 197.5
t-49.5 101t-89 29.5q-54 0 -88 -29.5t-49.5 -101t-15.5 -197.5q0 -125 15.5 -196.5t49.5 -101t88 -29.5zM177 768v25h316v-25h-316z" />
    <glyph glyph-name="omacron" unicode="&#x14d;" horiz-adv-x="545" 
d="M273 -15q-76 0 -132 31.5t-86.5 89.5t-30.5 136t32.5 135t89 88t127.5 31t127 -30.5t88.5 -87.5t32.5 -136t-30.5 -136.5t-86 -89t-131.5 -31.5zM273 5q35 0 56 20t30.5 71t9.5 144q0 94 -9.5 145t-30.5 71t-56 20t-56.5 -20t-31 -71t-9.5 -145q0 -93 9.5 -144t31 -71
t56.5 -20zM120 617v22h306v-22h-306z" />
    <glyph glyph-name="Ohungarumlaut" unicode="&#x150;" horiz-adv-x="670" 
d="M335 -18q-61 0 -117.5 22t-101 65.5t-70.5 108.5t-26 152q0 86 26 151t71 108.5t101.5 66t116.5 22.5q61 0 117.5 -21.5t101 -65t70.5 -109t26 -152.5q0 -85 -26 -150.5t-70.5 -109t-101 -66t-117.5 -22.5zM335 3q55 0 89 29.5t49.5 101t15.5 196.5q0 126 -15.5 197.5
t-49.5 101t-89 29.5q-54 0 -88 -29.5t-49.5 -101t-15.5 -197.5q0 -125 15.5 -196.5t49.5 -101t88 -29.5zM387 707l-8 6l47 135q17 46 49 46q20 0 30.5 -11t10.5 -29q0 -21 -23 -44zM230 707l-9 6l48 135q17 46 49 46q20 0 30.5 -11t10.5 -29q0 -21 -23 -44z" />
    <glyph glyph-name="ohungarumlaut" unicode="&#x151;" horiz-adv-x="545" 
d="M273 -15q-76 0 -132 31.5t-86.5 89.5t-30.5 136t32.5 135t89 88t127.5 31t127 -30.5t88.5 -87.5t32.5 -136t-30.5 -136.5t-86 -89t-131.5 -31.5zM273 5q35 0 56 20t30.5 71t9.5 144q0 94 -9.5 145t-30.5 71t-56 20t-56.5 -20t-31 -71t-9.5 -145q0 -93 9.5 -144t31 -71
t56.5 -20zM333 558l-15 9l49 154q11 35 25.5 47t30.5 12q17 0 29.5 -11t12.5 -30q0 -12 -8 -26.5t-22 -31.5zM187 558l-15 9l48 154q11 35 25.5 47t30.5 12q17 0 30 -11t13 -30q0 -12 -8.5 -26.5t-22.5 -31.5z" />
    <glyph glyph-name="OE" unicode="&#x152;" horiz-adv-x="915" 
d="M372 -18q-72 0 -135.5 21.5t-112.5 65t-76.5 109t-27.5 152.5t27.5 152.5t76.5 109t112.5 65t135.5 21.5q69 0 136 -18h354l6 -154h-10l-47 102q-14 32 -50 32h-173q-1 -64 -1.5 -132t-0.5 -157h104q30 0 43 27l28 52h10v-180h-10l-28 54q-13 27 -43 27h-104v-138.5
t0.5 -95.5t1.5 -77h196q37 0 50 33l44 101h10l-6 -154h-374q-31 -8 -66 -13t-70 -5zM384 2q5 0 10 0.5t9 1.5q14 1 21.5 10.5t7.5 24.5q3 158 3 271v40v118.5t-2 142.5q-2 42 -30 45q-4 1 -9 1.5t-10 0.5q-68 0 -113 -43t-67 -117t-22 -168t22 -168t67 -117t113 -43z" />
    <glyph glyph-name="oe" unicode="&#x153;" horiz-adv-x="853" 
d="M273 -15q-76 0 -132 31.5t-86.5 89.5t-30.5 136t32.5 135t89 88t127.5 31q107 0 176 -66q34 32 78.5 49t90.5 17q65 0 111 -26.5t70.5 -72t24.5 -103.5q0 -11 -1 -22.5t-4 -20.5h-298q1 -107 42.5 -155t112.5 -48q46 0 76.5 16t57.5 47l10 -9q-31 -55 -82.5 -86
t-123.5 -31q-103 0 -169 61q-65 -61 -172 -61zM273 5q34 0 55 21.5t31 73t10 140.5q0 90 -10 141.5t-31 73t-55 21.5t-55.5 -21.5t-31.5 -73t-10 -141.5q0 -89 10 -140.5t31.5 -73t55.5 -21.5zM615 476q-25 0 -46 -17.5t-34 -62t-14 -125.5h170q10 92 -8 148.5t-68 56.5z
" />
    <glyph glyph-name="Racute" unicode="&#x154;" horiz-adv-x="628" 
d="M22 0v10l21 7q20 7 26 18.5t6 32.5v523q0 20 -5.5 31.5t-24.5 18.5l-23 9v10h286q118 0 181 -44.5t63 -123.5q0 -44 -33 -88t-104 -68l139 -276q9 -17 20.5 -27.5t30.5 -18.5l13 -5v-9h-179l-148 315h-68v-247q0 -19 6 -31t25 -18l24 -9v-10h-256zM223 335h48
q72 0 104 38.5t32 114.5q0 77 -30 114.5t-101 37.5h-53v-305zM196 725q26 26 52 53.5t50 52.5q25 27 40.5 36t30.5 9q19 0 30.5 -11.5t11.5 -28.5q0 -32 -62 -60q-37 -16 -71.5 -31t-71.5 -32z" />
    <glyph glyph-name="racute" unicode="&#x155;" horiz-adv-x="441" 
d="M20 0v10l15 4q20 6 27.5 18t7.5 31v313q0 22 -7.5 32.5t-27.5 14.5l-15 4v10l172 58l10 -10l9 -86v-8q14 28 36.5 51.5t50 38.5t54.5 15q38 0 58 -21t20 -53q0 -34 -19.5 -52.5t-46.5 -18.5q-42 0 -74 42l-2 2q-10 14 -23 15.5t-24 -12.5q-10 -9 -16.5 -21.5t-12.5 -28.5
v-279q0 -40 35 -50l32 -9v-10h-259zM182 573q14 26 32 58.5t43 79.5q17 32 33 46.5t37 14.5q19 0 33 -12.5t14 -30.5q0 -19 -13 -35.5t-44 -38.5q-43 -30 -72 -52.5t-52 -39.5z" />
    <glyph glyph-name="uni0156" unicode="&#x156;" horiz-adv-x="628" 
d="M22 0v10l21 7q20 7 26 18.5t6 32.5v523q0 20 -5.5 31.5t-24.5 18.5l-23 9v10h286q118 0 181 -44.5t63 -123.5q0 -44 -33 -88t-104 -68l139 -276q9 -17 20.5 -27.5t30.5 -18.5l13 -5v-9h-179l-148 315h-68v-247q0 -19 6 -31t25 -18l24 -9v-10h-256zM223 335h48
q72 0 104 38.5t32 114.5q0 77 -30 114.5t-101 37.5h-53v-305zM256 -265l-3 11q35 14 55.5 29.5t30.5 40.5q-35 2 -55 20.5t-20 46.5t20 46t48 18q34 0 52 -19t18 -52q0 -34 -20 -61.5t-53 -47.5t-73 -32z" />
    <glyph glyph-name="uni0157" unicode="&#x157;" horiz-adv-x="441" 
d="M20 0v10l15 4q20 6 27.5 18t7.5 31v313q0 22 -7.5 32.5t-27.5 14.5l-15 4v10l172 58l10 -10l9 -86v-8q14 28 36.5 51.5t50 38.5t54.5 15q38 0 58 -21t20 -53q0 -34 -19.5 -52.5t-46.5 -18.5q-42 0 -74 42l-2 2q-10 14 -23 15.5t-24 -12.5q-10 -9 -16.5 -21.5t-12.5 -28.5
v-279q0 -40 35 -50l32 -9v-10h-259zM74 -265l-3 11q35 14 55.5 29.5t30.5 40.5q-35 2 -55 20.5t-20 46.5t20 46t48 18q34 0 52 -19t18 -52q0 -34 -20 -61.5t-53 -47.5t-73 -32z" />
    <glyph glyph-name="Rcaron" unicode="&#x158;" horiz-adv-x="628" 
d="M22 0v10l21 7q20 7 26 18.5t6 32.5v523q0 20 -5.5 31.5t-24.5 18.5l-23 9v10h286q118 0 181 -44.5t63 -123.5q0 -44 -33 -88t-104 -68l139 -276q9 -17 20.5 -27.5t30.5 -18.5l13 -5v-9h-179l-148 315h-68v-247q0 -19 6 -31t25 -18l24 -9v-10h-256zM223 335h48
q72 0 104 38.5t32 114.5q0 77 -30 114.5t-101 37.5h-53v-305zM265 717l-151 154l10 12l148 -82l148 82l10 -12l-151 -154h-14z" />
    <glyph glyph-name="rcaron" unicode="&#x159;" horiz-adv-x="441" 
d="M20 0v10l15 4q20 6 27.5 18t7.5 31v313q0 22 -7.5 32.5t-27.5 14.5l-15 4v10l172 58l10 -10l9 -86v-8q14 28 36.5 51.5t50 38.5t54.5 15q38 0 58 -21t20 -53q0 -34 -19.5 -52.5t-46.5 -18.5q-42 0 -74 42l-2 2q-10 14 -23 15.5t-24 -12.5q-10 -9 -16.5 -21.5t-12.5 -28.5
v-279q0 -40 35 -50l32 -9v-10h-259zM228 567l-135 178l13 11l134 -100l134 100l13 -11l-135 -178h-24z" />
    <glyph glyph-name="Sacute" unicode="&#x15a;" horiz-adv-x="521" 
d="M237 -18q-55 0 -112 13.5t-95 35.5l5 136h10l31 -65q14 -28 30 -49.5t44 -33.5q20 -10 38.5 -13.5t41.5 -3.5q61 0 96.5 33t35.5 85q0 49 -24 76.5t-77 53.5l-41 18q-86 38 -134.5 87.5t-48.5 131.5q0 59 30.5 102t85 66t127.5 23q53 0 100.5 -14t82.5 -38l-6 -120h-10
l-41 75q-17 35 -34 49.5t-39 20.5q-13 4 -24 5.5t-28 1.5q-51 0 -86 -29.5t-35 -79.5q0 -51 27 -81.5t79 -54.5l46 -20q96 -42 138 -89.5t42 -122.5q0 -88 -66.5 -143.5t-188.5 -55.5zM186 725q26 26 52 53.5t50 52.5q25 27 40.5 36t30.5 9q19 0 30.5 -11.5t11.5 -28.5
q0 -32 -62 -60q-37 -16 -71.5 -31t-71.5 -32z" />
    <glyph glyph-name="sacute" unicode="&#x15b;" horiz-adv-x="436" 
d="M193 -15q-49 0 -88 11.5t-72 28.5l1 119h10l34 -60q22 -40 48.5 -59.5t67.5 -19.5q48 0 77.5 21.5t29.5 57.5q0 33 -21 54t-78 38l-42 13q-61 18 -96 56t-35 93q0 66 52 112t149 46q39 0 73.5 -8.5t66.5 -25.5l-6 -108h-10l-35 62q-19 33 -37.5 46.5t-55.5 13.5
q-34 0 -64 -19t-30 -54q0 -34 25.5 -54t75.5 -37l45 -13q72 -22 103 -60.5t31 -92.5q0 -73 -57.5 -117t-161.5 -44zM168 573q14 26 32 58.5t43 79.5q17 32 33 46.5t37 14.5q19 0 33 -12.5t14 -30.5q0 -19 -13 -35.5t-44 -38.5q-43 -30 -72 -52.5t-52 -39.5z" />
    <glyph glyph-name="Scedilla" unicode="&#x15e;" horiz-adv-x="521" 
d="M237 -18q-55 0 -112 13.5t-95 35.5l5 136h10l31 -65q14 -28 30 -49.5t44 -33.5q20 -10 38.5 -13.5t41.5 -3.5q61 0 96.5 33t35.5 85q0 49 -24 76.5t-77 53.5l-41 18q-86 38 -134.5 87.5t-48.5 131.5q0 59 30.5 102t85 66t127.5 23q53 0 100.5 -14t82.5 -38l-6 -120h-10
l-41 75q-17 35 -34 49.5t-39 20.5q-13 4 -24 5.5t-28 1.5q-51 0 -86 -29.5t-35 -79.5q0 -51 27 -81.5t79 -54.5l46 -20q96 -42 138 -89.5t42 -122.5q0 -88 -66.5 -143.5t-188.5 -55.5zM218 -85l13 87h21l-6 -49q59 -7 88 -30t29 -57q0 -37 -32 -62t-97 -25q-24 0 -41.5 3.5
t-33.5 8.5l4 17q29 -9 53 -9q28 0 43.5 16.5t15.5 45.5q0 24 -15.5 37t-41.5 17z" />
    <glyph glyph-name="scedilla" unicode="&#x15f;" horiz-adv-x="436" 
d="M193 -15q-49 0 -88 11.5t-72 28.5l1 119h10l34 -60q22 -40 48.5 -59.5t67.5 -19.5q48 0 77.5 21.5t29.5 57.5q0 33 -21 54t-78 38l-42 13q-61 18 -96 56t-35 93q0 66 52 112t149 46q39 0 73.5 -8.5t66.5 -25.5l-6 -108h-10l-35 62q-19 33 -37.5 46.5t-55.5 13.5
q-34 0 -64 -19t-30 -54q0 -34 25.5 -54t75.5 -37l45 -13q72 -22 103 -60.5t31 -92.5q0 -73 -57.5 -117t-161.5 -44zM186 -85l13 87h21l-6 -49q59 -7 88 -30t29 -57q0 -37 -32 -62t-97 -25q-24 0 -41.5 3.5t-33.5 8.5l4 17q29 -9 53 -9q28 0 43.5 16.5t15.5 45.5
q0 24 -15.5 37t-41.5 17z" />
    <glyph glyph-name="Scaron" unicode="&#x160;" horiz-adv-x="521" 
d="M237 -18q-55 0 -112 13.5t-95 35.5l5 136h10l31 -65q14 -28 30 -49.5t44 -33.5q20 -10 38.5 -13.5t41.5 -3.5q61 0 96.5 33t35.5 85q0 49 -24 76.5t-77 53.5l-41 18q-86 38 -134.5 87.5t-48.5 131.5q0 59 30.5 102t85 66t127.5 23q53 0 100.5 -14t82.5 -38l-6 -120h-10
l-41 75q-17 35 -34 49.5t-39 20.5q-13 4 -24 5.5t-28 1.5q-51 0 -86 -29.5t-35 -79.5q0 -51 27 -81.5t79 -54.5l46 -20q96 -42 138 -89.5t42 -122.5q0 -88 -66.5 -143.5t-188.5 -55.5zM255 717l-151 154l10 12l148 -82l148 82l10 -12l-151 -154h-14z" />
    <glyph glyph-name="scaron" unicode="&#x161;" horiz-adv-x="436" 
d="M193 -15q-49 0 -88 11.5t-72 28.5l1 119h10l34 -60q22 -40 48.5 -59.5t67.5 -19.5q48 0 77.5 21.5t29.5 57.5q0 33 -21 54t-78 38l-42 13q-61 18 -96 56t-35 93q0 66 52 112t149 46q39 0 73.5 -8.5t66.5 -25.5l-6 -108h-10l-35 62q-19 33 -37.5 46.5t-55.5 13.5
q-34 0 -64 -19t-30 -54q0 -34 25.5 -54t75.5 -37l45 -13q72 -22 103 -60.5t31 -92.5q0 -73 -57.5 -117t-161.5 -44zM214 567l-135 178l13 11l134 -100l134 100l13 -11l-135 -178h-24z" />
    <glyph glyph-name="uni0162" unicode="&#x162;" horiz-adv-x="627" 
d="M156 0v10l41 10q41 9 41 50v570h-85q-37 0 -53 -19.5t-34 -53.5l-36 -70h-10l5 163h577l4 -163h-10l-36 70q-17 34 -33 53.5t-53 19.5h-85v-570q0 -41 41 -50l41 -10v-10h-315zM287 -85l13 87h21l-6 -49q59 -7 88 -30t29 -57q0 -37 -32 -62t-97 -25q-24 0 -41.5 3.5
t-33.5 8.5l4 17q29 -9 53 -9q28 0 43.5 16.5t15.5 45.5q0 24 -15.5 37t-41.5 17z" />
    <glyph glyph-name="uni0163" unicode="&#x163;" horiz-adv-x="356" 
d="M210 -15q-64 0 -99.5 32t-35.5 102v342h-69v10l24 4q31 7 53.5 20t44.5 35l82 91h10l-3 -140h112v-20h-113v-360q0 -35 15.5 -53t39.5 -18q21 0 37 10.5t32 28.5l10 -10q-20 -34 -55 -54t-85 -20zM174 -88l13 87h21l-6 -49q59 -7 88 -30t29 -57q0 -37 -32 -62t-97 -25
q-24 0 -41.5 3.5t-33.5 8.5l4 17q29 -9 53 -9q28 0 43.5 16.5t15.5 45.5q0 24 -15.5 37t-41.5 17z" />
    <glyph glyph-name="Tcaron" unicode="&#x164;" horiz-adv-x="627" 
d="M156 0v10l41 10q41 9 41 50v570h-85q-37 0 -53 -19.5t-34 -53.5l-36 -70h-10l5 163h577l4 -163h-10l-36 70q-17 34 -33 53.5t-53 19.5h-85v-570q0 -41 41 -50l41 -10v-10h-315zM306 717l-151 154l10 12l148 -82l148 82l10 -12l-151 -154h-14z" />
    <glyph glyph-name="tcaron" unicode="&#x165;" horiz-adv-x="351" 
d="M284 526l-4 10q27 18 44 39t24 53l-14 2q-25 5 -39.5 20.5t-14.5 37.5q0 25 16 41t41 16q28 0 44 -18.5t15 -51.5q-1 -49 -30 -88t-82 -61zM210 -15q-64 0 -99.5 32t-35.5 102v342h-69v10l24 4q31 7 53.5 20t44.5 35l82 91h10l-3 -140h112v-20h-113v-360q0 -35 15.5 -53
t39.5 -18q21 0 37 10.5t32 28.5l10 -10q-20 -34 -55 -54t-85 -20z" />
    <glyph glyph-name="Umacron" unicode="&#x16a;" horiz-adv-x="649" 
d="M339 -18q-76 0 -134.5 27t-91 85.5t-32.5 154.5v345q0 38 -39 50l-22 6v10h277v-10l-29 -8q-37 -9 -37 -50v-369q0 -93 39 -137.5t112 -44.5q76 0 120.5 47t44.5 133v367q0 20 -6.5 35.5t-26.5 20.5l-25 6v10h140v-10l-27 -7q-19 -4 -25 -19t-6 -35v-366
q0 -73 -29 -127.5t-81 -84t-122 -29.5zM242 768v25h316v-25h-316z" />
    <glyph glyph-name="umacron" unicode="&#x16b;" horiz-adv-x="567" 
d="M201 -15q-39 0 -71.5 15t-51 48.5t-17.5 88.5l3 257q0 23 -8 33t-25 14l-12 4v10l179 35l10 -10l-5 -142v-241q0 -32 18.5 -47t46.5 -15t50 8t44 24l4 326q0 23 -7 32.5t-26 13.5l-10 3v10l175 38l10 -10l-3 -142v-271q0 -22 6 -34t26 -20l10 -3v-10l-175 -10l-9 59
q-33 -27 -71.5 -45.5t-90.5 -18.5zM129 617v22h306v-22h-306z" />
    <glyph glyph-name="Uring" unicode="&#x16e;" horiz-adv-x="649" 
d="M339 -18q-76 0 -134.5 27t-91 85.5t-32.5 154.5v345q0 38 -39 50l-22 6v10h277v-10l-29 -8q-37 -9 -37 -50v-369q0 -93 39 -137.5t112 -44.5q76 0 120.5 47t44.5 133v367q0 20 -6.5 35.5t-26.5 20.5l-25 6v10h140v-10l-27 -7q-19 -4 -25 -19t-6 -35v-366
q0 -73 -29 -127.5t-81 -84t-122 -29.5zM400 706q-41 0 -71.5 26t-30.5 71t30.5 71.5t71.5 26.5t71.5 -25.5t30.5 -72.5q0 -46 -30.5 -71.5t-71.5 -25.5zM400 732q32 0 50 20.5t18 50.5t-18 51t-50 21q-31 0 -49.5 -21t-18.5 -51t18.5 -50.5t49.5 -20.5z" />
    <glyph glyph-name="uring" unicode="&#x16f;" horiz-adv-x="567" 
d="M201 -15q-39 0 -71.5 15t-51 48.5t-17.5 88.5l3 257q0 23 -8 33t-25 14l-12 4v10l179 35l10 -10l-5 -142v-241q0 -32 18.5 -47t46.5 -15t50 8t44 24l4 326q0 23 -7 32.5t-26 13.5l-10 3v10l175 38l10 -10l-3 -142v-271q0 -22 6 -34t26 -20l10 -3v-10l-175 -10l-9 59
q-33 -27 -71.5 -45.5t-90.5 -18.5zM282 552q-48 0 -82.5 30t-34.5 82q0 51 34.5 81t82.5 30t82.5 -29t34.5 -82q0 -52 -34.5 -82t-82.5 -30zM282 576q29 0 44 20.5t15 67.5t-15 67.5t-44 20.5q-28 0 -43.5 -20.5t-15.5 -67.5t15.5 -67.5t43.5 -20.5z" />
    <glyph glyph-name="Uhungarumlaut" unicode="&#x170;" horiz-adv-x="649" 
d="M339 -18q-76 0 -134.5 27t-91 85.5t-32.5 154.5v345q0 38 -39 50l-22 6v10h277v-10l-29 -8q-37 -9 -37 -50v-369q0 -93 39 -137.5t112 -44.5q76 0 120.5 47t44.5 133v367q0 20 -6.5 35.5t-26.5 20.5l-25 6v10h140v-10l-27 -7q-19 -4 -25 -19t-6 -35v-366
q0 -73 -29 -127.5t-81 -84t-122 -29.5zM452 707l-8 6l47 135q17 46 49 46q20 0 30.5 -11t10.5 -29q0 -21 -23 -44zM295 707l-9 6l48 135q17 46 49 46q20 0 30.5 -11t10.5 -29q0 -21 -23 -44z" />
    <glyph glyph-name="uhungarumlaut" unicode="&#x171;" horiz-adv-x="567" 
d="M201 -15q-39 0 -71.5 15t-51 48.5t-17.5 88.5l3 257q0 23 -8 33t-25 14l-12 4v10l179 35l10 -10l-5 -142v-241q0 -32 18.5 -47t46.5 -15t50 8t44 24l4 326q0 23 -7 32.5t-26 13.5l-10 3v10l175 38l10 -10l-3 -142v-271q0 -22 6 -34t26 -20l10 -3v-10l-175 -10l-9 59
q-33 -27 -71.5 -45.5t-90.5 -18.5zM342 558l-15 9l49 154q11 35 25.5 47t30.5 12q17 0 29.5 -11t12.5 -30q0 -12 -8 -26.5t-22 -31.5zM196 558l-15 9l48 154q11 35 25.5 47t30.5 12q17 0 30 -11t13 -30q0 -12 -8.5 -26.5t-22.5 -31.5z" />
    <glyph glyph-name="Uogonek" unicode="&#x172;" horiz-adv-x="649" 
d="M339 -18q-76 0 -134.5 27t-91 85.5t-32.5 154.5v345q0 38 -39 50l-22 6v10h277v-10l-29 -8q-37 -9 -37 -50v-369q0 -93 39 -137.5t112 -44.5q76 0 120.5 47t44.5 133v367q0 20 -6.5 35.5t-26.5 20.5l-25 6v10h140v-10l-27 -7q-19 -4 -25 -19t-6 -35v-366
q0 -73 -29 -127.5t-81 -84t-122 -29.5zM408 -224q-46 0 -74.5 24t-28.5 65q0 32 20.5 61t52 51t62.5 33h17q-31 -19 -49.5 -47.5t-18.5 -60.5t21 -52t54 -20q19 0 35 6.5t28 13.5l7 -11q-22 -25 -54.5 -44t-71.5 -19z" />
    <glyph glyph-name="uogonek" unicode="&#x173;" horiz-adv-x="567" 
d="M201 -15q-39 0 -71.5 15t-51 48.5t-17.5 88.5l3 257q0 23 -8 33t-25 14l-12 4v10l179 35l10 -10l-5 -142v-241q0 -32 18.5 -47t46.5 -15t50 8t44 24l4 326q0 23 -7 32.5t-26 13.5l-10 3v10l175 38l10 -10l-3 -142v-271q0 -22 6 -34t26 -20l10 -3v-10l-175 -10l-9 59
q-33 -27 -71.5 -45.5t-90.5 -18.5zM467 -224q-46 0 -74.5 24t-28.5 65q0 32 20.5 61t52 51t62.5 33h17q-31 -19 -49.5 -47.5t-18.5 -60.5t21 -52t54 -20q19 0 35 6.5t28 13.5l7 -11q-22 -25 -54.5 -44t-71.5 -19z" />
    <glyph glyph-name="Ydieresis" unicode="&#x178;" horiz-adv-x="590" 
d="M165 0v10l30 8q35 10 35 50v190l-165 336q-9 20 -16.5 30t-22.5 17l-18 9v10h268v-10l-18 -7q-22 -9 -24 -24.5t8 -38.5l118 -262l132 272q8 16 6.5 33t-21.5 22l-14 5v10h120v-10l-19 -7q-19 -7 -28 -19.5t-18 -31.5l-137 -288v-236q0 -20 7.5 -32.5t26.5 -17.5l31 -8
v-10h-281zM215 720q-27 0 -48.5 17.5t-21.5 48.5t21.5 48.5t48.5 17.5q29 0 49.5 -17.5t20.5 -48.5t-20.5 -48.5t-49.5 -17.5zM458 720q-27 0 -48 17.5t-21 48.5t21 48.5t48 17.5q29 0 49.5 -17.5t20.5 -48.5t-20.5 -48.5t-49.5 -17.5z" />
    <glyph glyph-name="Zacute" unicode="&#x179;" horiz-adv-x="560" 
d="M20 0v12l347 628h-190q-33 0 -53.5 -15t-36.5 -44l-46 -81h-10l7 160h489v-12l-347 -628h218q33 0 52.5 15.5t35.5 44.5l43 80h10l-7 -160h-512zM216 725q26 26 52 53.5t50 52.5q25 27 40.5 36t30.5 9q19 0 30.5 -11.5t11.5 -28.5q0 -32 -62 -60q-37 -16 -71.5 -31
t-71.5 -32z" />
    <glyph glyph-name="zacute" unicode="&#x17a;" horiz-adv-x="465" 
d="M23 0v16l273 445h-151q-26 0 -41 -14t-28 -37l-36 -67h-10l7 138h400v-14l-267 -447h157q32 0 47 15t28 41l35 74h10l-9 -150h-415zM189 573q14 26 32 58.5t43 79.5q17 32 33 46.5t37 14.5q19 0 33 -12.5t14 -30.5q0 -19 -13 -35.5t-44 -38.5q-43 -30 -72 -52.5
t-52 -39.5z" />
    <glyph glyph-name="Zdotaccent" unicode="&#x17b;" horiz-adv-x="560" 
d="M20 0v12l347 628h-190q-33 0 -53.5 -15t-36.5 -44l-46 -81h-10l7 160h489v-12l-347 -628h218q33 0 52.5 15.5t35.5 44.5l43 80h10l-7 -160h-512zM292 716q-34 0 -57.5 21t-23.5 54q0 34 23.5 55t57.5 21t57.5 -21t23.5 -55q0 -33 -23.5 -54t-57.5 -21z" />
    <glyph glyph-name="zdotaccent" unicode="&#x17c;" horiz-adv-x="465" 
d="M23 0v16l273 445h-151q-26 0 -41 -14t-28 -37l-36 -67h-10l7 138h400v-14l-267 -447h157q32 0 47 15t28 41l35 74h10l-9 -150h-415zM247 574q-34 0 -57.5 21.5t-23.5 54.5t23.5 54.5t57.5 21.5t57.5 -21.5t23.5 -54.5t-23.5 -54.5t-57.5 -21.5z" />
    <glyph glyph-name="Zcaron" unicode="&#x17d;" horiz-adv-x="560" 
d="M20 0v12l347 628h-190q-33 0 -53.5 -15t-36.5 -44l-46 -81h-10l7 160h489v-12l-347 -628h218q33 0 52.5 15.5t35.5 44.5l43 80h10l-7 -160h-512zM285 717l-151 154l10 12l148 -82l148 82l10 -12l-151 -154h-14z" />
    <glyph glyph-name="zcaron" unicode="&#x17e;" horiz-adv-x="465" 
d="M23 0v16l273 445h-151q-26 0 -41 -14t-28 -37l-36 -67h-10l7 138h400v-14l-267 -447h157q32 0 47 15t28 41l35 74h10l-9 -150h-415zM235 567l-135 178l13 11l134 -100l134 100l13 -11l-135 -178h-24z" />
    <glyph glyph-name="uni0218" unicode="&#x218;" horiz-adv-x="521" 
d="M237 -18q-55 0 -112 13.5t-95 35.5l5 136h10l31 -65q14 -28 30 -49.5t44 -33.5q20 -10 38.5 -13.5t41.5 -3.5q61 0 96.5 33t35.5 85q0 49 -24 76.5t-77 53.5l-41 18q-86 38 -134.5 87.5t-48.5 131.5q0 59 30.5 102t85 66t127.5 23q53 0 100.5 -14t82.5 -38l-6 -120h-10
l-41 75q-17 35 -34 49.5t-39 20.5q-13 4 -24 5.5t-28 1.5q-51 0 -86 -29.5t-35 -79.5q0 -51 27 -81.5t79 -54.5l46 -20q96 -42 138 -89.5t42 -122.5q0 -88 -66.5 -143.5t-188.5 -55.5zM171 -265l-3 11q35 14 55.5 29.5t30.5 40.5q-35 2 -55 20.5t-20 46.5t20 46t48 18
q34 0 52 -19t18 -52q0 -34 -20 -61.5t-53 -47.5t-73 -32z" />
    <glyph glyph-name="uni0219" unicode="&#x219;" horiz-adv-x="439" 
d="M193 -15q-49 0 -88 11.5t-72 28.5l1 119h10l34 -60q22 -40 48.5 -59.5t67.5 -19.5q48 0 77.5 21.5t29.5 57.5q0 33 -21 54t-78 38l-42 13q-61 18 -96 56t-35 93q0 66 52 112t149 46q39 0 73.5 -8.5t66.5 -25.5l-6 -108h-10l-35 62q-19 33 -37.5 46.5t-55.5 13.5
q-34 0 -64 -19t-30 -54q0 -34 25.5 -54t75.5 -37l45 -13q72 -22 103 -60.5t31 -92.5q0 -73 -57.5 -117t-161.5 -44zM148 -265l-3 11q35 14 55.5 29.5t30.5 40.5q-35 2 -55 20.5t-20 46.5t20 46t48 18q34 0 52 -19t18 -52q0 -34 -20 -61.5t-53 -47.5t-73 -32z" />
    <glyph glyph-name="uni021A" unicode="&#x21a;" horiz-adv-x="627" 
d="M156 0v10l41 10q41 9 41 50v570h-85q-37 0 -53 -19.5t-34 -53.5l-36 -70h-10l5 163h577l4 -163h-10l-36 70q-17 34 -33 53.5t-53 19.5h-85v-570q0 -41 41 -50l41 -10v-10h-315zM238 -265l-3 11q35 14 55.5 29.5t30.5 40.5q-35 2 -55 20.5t-20 46.5t20 46t48 18
q34 0 52 -19t18 -52q0 -34 -20 -61.5t-53 -47.5t-73 -32z" />
    <glyph glyph-name="uni021B" unicode="&#x21b;" horiz-adv-x="361" 
d="M210 -15q-64 0 -99.5 32t-35.5 102v342h-69v10l24 4q31 7 53.5 20t44.5 35l82 91h10l-3 -140h112v-20h-113v-360q0 -35 15.5 -53t39.5 -18q21 0 37 10.5t32 28.5l10 -10q-20 -34 -55 -54t-85 -20zM129 -265l-3 11q35 14 55.5 29.5t30.5 40.5q-35 2 -55 20.5t-20 46.5
t20 46t48 18q34 0 52 -19t18 -52q0 -34 -20 -61.5t-53 -47.5t-73 -32z" />
    <glyph glyph-name="circumflex" unicode="&#x2c6;" horiz-adv-x="400" 
d="M64 545l-13 12l142 194h14l142 -194l-13 -12l-136 106z" />
    <glyph glyph-name="caron" unicode="&#x2c7;" horiz-adv-x="400" 
d="M188 567l-135 178l13 11l134 -100l134 100l13 -11l-135 -178h-24z" />
    <glyph glyph-name="breve" unicode="&#x2d8;" horiz-adv-x="400" 
d="M200 568q-51 0 -83 24t-48 60.5t-19 71.5l19 7q17 -35 48.5 -59.5t82.5 -24.5t82.5 24.5t48.5 59.5l19 -7q-3 -35 -19 -71.5t-47.5 -60.5t-83.5 -24z" />
    <glyph glyph-name="dotaccent" unicode="&#x2d9;" horiz-adv-x="400" 
d="M200 574q-34 0 -57.5 21.5t-23.5 54.5t23.5 54.5t57.5 21.5t57.5 -21.5t23.5 -54.5t-23.5 -54.5t-57.5 -21.5z" />
    <glyph glyph-name="ring" unicode="&#x2da;" horiz-adv-x="400" 
d="M200 552q-48 0 -82.5 30t-34.5 82q0 51 34.5 81t82.5 30t82.5 -29t34.5 -82q0 -52 -34.5 -82t-82.5 -30zM200 576q29 0 44 20.5t15 67.5t-15 67.5t-44 20.5q-28 0 -43.5 -20.5t-15.5 -67.5t15.5 -67.5t43.5 -20.5z" />
    <glyph glyph-name="ogonek" unicode="&#x2db;" horiz-adv-x="400" 
d="M185 -224q-46 0 -74.5 24t-28.5 65q0 32 20.5 61t52 51t62.5 33h17q-31 -19 -49.5 -47.5t-18.5 -60.5t21 -52t54 -20q19 0 35 6.5t28 13.5l7 -11q-22 -25 -54.5 -44t-71.5 -19z" />
    <glyph glyph-name="tilde" unicode="&#x2dc;" horiz-adv-x="400" 
d="M35 585q8 65 34.5 101t66.5 36q26 0 42.5 -8.5t31.5 -21.5q16 -15 31.5 -28.5t34.5 -13.5q27 0 46.5 18t31.5 49l15 -5q-8 -64 -34 -101t-66 -37q-25 0 -43 8.5t-32 21.5q-15 14 -31 27.5t-36 13.5q-27 0 -46 -17.5t-31 -47.5z" />
    <glyph glyph-name="hungarumlaut" unicode="&#x2dd;" horiz-adv-x="400" 
d="M240 558l-15 9l49 154q11 35 25.5 47t30.5 12q17 0 29.5 -11t12.5 -30q0 -12 -8 -26.5t-22 -31.5zM94 558l-15 9l48 154q11 35 25.5 47t30.5 12q17 0 30 -11t13 -30q0 -12 -8.5 -26.5t-22.5 -31.5z" />
    <glyph glyph-name="gravecomb" unicode="&#x300;" 
d="M39 563q-22 17 -51.5 39.5t-71.5 52.5q-31 22 -44.5 38.5t-13.5 35.5q0 18 14.5 30.5t33.5 12.5q20 0 36.5 -14.5t32.5 -46.5q25 -47 43 -79.5t33 -58.5z" />
    <glyph glyph-name="acutecomb" unicode="&#x301;" 
d="M-58 573q14 26 32 58.5t43 79.5q17 32 33 46.5t37 14.5q19 0 33 -12.5t14 -30.5q0 -19 -13 -35.5t-44 -38.5q-43 -30 -72 -52.5t-52 -39.5z" />
    <glyph glyph-name="uni0302" unicode="&#x302;" 
d="M-136 545l-13 12l142 194h14l142 -194l-13 -12l-136 106z" />
    <glyph glyph-name="tildecomb" unicode="&#x303;" 
d="M-167 585q8 65 34.5 101t66.5 36q26 0 42.5 -8.5t31.5 -21.5q16 -15 31.5 -28.5t34.5 -13.5q27 0 46.5 18t31.5 49l15 -5q-8 -64 -34 -101t-66 -37q-25 0 -43 8.5t-32 21.5q-15 14 -31 27.5t-36 13.5q-27 0 -46 -17.5t-31 -47.5z" />
    <glyph glyph-name="uni0304" unicode="&#x304;" 
d="M-153 617v22h306v-22h-306z" />
    <glyph glyph-name="uni0306" unicode="&#x306;" 
d="M0 568q-51 0 -83 24t-48 60.5t-19 71.5l19 7q17 -35 48.5 -59.5t82.5 -24.5t82.5 24.5t48.5 59.5l19 -7q-3 -35 -19 -71.5t-47.5 -60.5t-83.5 -24z" />
    <glyph glyph-name="uni0307" unicode="&#x307;" 
d="M0 574q-34 0 -57.5 21.5t-23.5 54.5t23.5 54.5t57.5 21.5t57.5 -21.5t23.5 -54.5t-23.5 -54.5t-57.5 -21.5z" />
    <glyph glyph-name="uni0308" unicode="&#x308;" 
d="M116 580q-28 0 -50.5 18.5t-22.5 50.5t22.5 50.5t50.5 18.5q30 0 51.5 -18.5t21.5 -50.5t-21.5 -50.5t-51.5 -18.5zM-116 580q-29 0 -51 18.5t-22 50.5t22 50.5t51 18.5t51 -18.5t22 -50.5t-22 -50.5t-51 -18.5z" />
    <glyph glyph-name="uni030A" unicode="&#x30a;" 
d="M0 552q-48 0 -82.5 30t-34.5 82q0 51 34.5 81t82.5 30t82.5 -29t34.5 -82q0 -52 -34.5 -82t-82.5 -30zM0 576q29 0 44 20.5t15 67.5t-15 67.5t-44 20.5q-28 0 -43.5 -20.5t-15.5 -67.5t15.5 -67.5t43.5 -20.5z" />
    <glyph glyph-name="uni030B" unicode="&#x30b;" 
d="M60 558l-15 9l49 154q11 35 25.5 47t30.5 12q17 0 29.5 -11t12.5 -30q0 -12 -8 -26.5t-22 -31.5zM-86 558l-15 9l48 154q11 35 25.5 47t30.5 12q17 0 30 -11t13 -30q0 -12 -8.5 -26.5t-22.5 -31.5z" />
    <glyph glyph-name="uni030C" unicode="&#x30c;" 
d="M-12 567l-135 178l13 11l134 -100l134 100l13 -11l-135 -178h-24z" />
    <glyph glyph-name="uni0326" unicode="&#x326;" 
d="M-75 -265l-3 11q35 14 55.5 29.5t30.5 40.5q-35 2 -55 20.5t-20 46.5t20 46t48 18q34 0 52 -19t18 -52q0 -34 -20 -61.5t-53 -47.5t-73 -32z" />
    <glyph glyph-name="uni0327" unicode="&#x327;" 
d="M-26 -88l13 87h21l-6 -49q59 -7 88 -30t29 -57q0 -37 -32 -62t-97 -25q-24 0 -41.5 3.5t-33.5 8.5l4 17q29 -9 53 -9q28 0 43.5 16.5t15.5 45.5q0 24 -15.5 37t-41.5 17z" />
    <glyph glyph-name="uni0328" unicode="&#x328;" 
d="M-17 -224q-46 0 -74.5 24t-28.5 65q0 32 20.5 61t52 51t62.5 33h17q-31 -19 -49.5 -47.5t-18.5 -60.5t21 -52t54 -20q19 0 35 6.5t28 13.5l7 -11q-22 -25 -54.5 -44t-71.5 -19z" />
    <glyph glyph-name="endash" unicode="&#x2013;" horiz-adv-x="532" 
d="M40 240v27h452v-27h-452z" />
    <glyph glyph-name="emdash" unicode="&#x2014;" horiz-adv-x="832" 
d="M40 240v27h752v-27h-752z" />
    <glyph glyph-name="quoteleft" unicode="&#x2018;" horiz-adv-x="215" 
d="M109 458q-37 0 -59.5 26.5t-22.5 69.5q0 56 33 104.5t82 72.5l6 -12q-21 -16 -37 -41t-23 -62l21 -5q35 -8 54.5 -29.5t19.5 -51.5q0 -32 -21.5 -52t-52.5 -20z" />
    <glyph glyph-name="quoteright" unicode="&#x2019;" horiz-adv-x="215" 
d="M106 731q37 0 59.5 -26.5t22.5 -69.5q0 -56 -33 -104.5t-82 -72.5l-6 12q21 16 37 41t23 62l-21 5q-35 8 -54.5 29.5t-19.5 51.5q0 32 21.5 52t52.5 20z" />
    <glyph glyph-name="quotesinglbase" unicode="&#x201a;" horiz-adv-x="215" 
d="M106 148q37 0 59.5 -26.5t22.5 -69.5q0 -56 -33 -104.5t-82 -72.5l-6 12q21 16 37 41t23 62l-21 5q-35 8 -54.5 29.5t-19.5 51.5q0 32 21.5 52t52.5 20z" />
    <glyph glyph-name="quotedblleft" unicode="&#x201c;" horiz-adv-x="426" 
d="M109 458q-37 0 -59.5 26.5t-22.5 69.5q0 56 33 104.5t82 72.5l6 -12q-21 -16 -37 -41t-23 -62l21 -5q35 -8 54.5 -29.5t19.5 -51.5q0 -32 -21.5 -52t-52.5 -20zM320 458q-37 0 -59.5 26.5t-22.5 69.5q0 56 33 104.5t82 72.5l6 -12q-21 -16 -37 -41t-23 -62l21 -5
q35 -8 54.5 -29.5t19.5 -51.5q0 -32 -21.5 -52t-52.5 -20z" />
    <glyph glyph-name="quotedblright" unicode="&#x201d;" horiz-adv-x="426" 
d="M106 731q37 0 59.5 -26.5t22.5 -69.5q0 -56 -33 -104.5t-82 -72.5l-6 12q21 16 37 41t23 62l-21 5q-35 8 -54.5 29.5t-19.5 51.5q0 32 21.5 52t52.5 20zM317 731q37 0 59.5 -26.5t22.5 -69.5q0 -56 -33 -104.5t-82 -72.5l-6 12q21 16 37 41t23 62l-21 5q-35 8 -54.5 29.5
t-19.5 51.5q0 32 21.5 52t52.5 20z" />
    <glyph glyph-name="quotedblbase" unicode="&#x201e;" horiz-adv-x="426" 
d="M106 148q37 0 59.5 -26.5t22.5 -69.5q0 -56 -33 -104.5t-82 -72.5l-6 12q21 16 37 41t23 62l-21 5q-35 8 -54.5 29.5t-19.5 51.5q0 32 21.5 52t52.5 20zM317 148q37 0 59.5 -26.5t22.5 -69.5q0 -56 -33 -104.5t-82 -72.5l-6 12q21 16 37 41t23 62l-21 5q-35 8 -54.5 29.5
t-19.5 51.5q0 32 21.5 52t52.5 20z" />
    <glyph glyph-name="dagger" unicode="&#x2020;" horiz-adv-x="527" 
d="M253 -97q-14 105 -26.5 176.5t-20 119t-7.5 80.5q0 42 13.5 86.5t42.5 110.5l-67 -31q-22 -10 -42 -17.5t-42 -7.5q-34 0 -51 18t-17 47t17 47t51 18q22 0 42 -7t42 -18l66 -30l-29 70q-10 21 -18.5 43t-8.5 45q0 33 18.5 49t46.5 16q29 0 47.5 -16t18.5 -49
q0 -23 -8 -45t-18 -43l-30 -70l66 29q22 11 42 18.5t42 7.5q35 0 51.5 -18t16.5 -47t-16.5 -47.5t-51.5 -18.5q-22 0 -41.5 8t-42.5 18l-67 31q28 -65 41.5 -109.5t13.5 -87.5q0 -33 -7 -80.5t-19.5 -119t-27.5 -176.5h-20z" />
    <glyph glyph-name="daggerdbl" unicode="&#x2021;" horiz-adv-x="527" 
d="M263 -101q-28 0 -46.5 16t-18.5 49q0 24 9 52.5t19 49.5l25 53l-54 -25q-22 -10 -46.5 -18.5t-46.5 -8.5q-34 0 -51 18.5t-17 47.5t17 47t51 18q22 0 46.5 -8.5t46.5 -19.5l54 -26q-26 59 -39 95t-13 70q0 35 13 70.5t39 93.5l-54 -27q-22 -10 -46.5 -18t-46.5 -8
q-34 0 -51 18t-17 47t17 47t51 18q22 0 46.5 -7.5t46.5 -18.5l54 -27l-25 55q-9 21 -18.5 49.5t-9.5 51.5q0 33 18.5 49t46.5 16q29 0 47.5 -16t18.5 -49q0 -23 -9 -51.5t-19 -49.5l-25 -55l54 26q22 11 46.5 19t46.5 8q35 0 51.5 -18t16.5 -47t-16.5 -47.5t-51.5 -18.5
q-22 0 -46 8.5t-47 18.5l-54 27q25 -58 38 -93.5t13 -70.5q0 -34 -13 -70t-38 -95l54 27q22 11 46.5 19t46.5 8q35 0 51.5 -18t16.5 -47t-16.5 -47t-51.5 -18q-22 0 -46.5 8.5t-46.5 18.5l-53 24l24 -53q11 -21 19.5 -49.5t8.5 -52.5q0 -33 -18.5 -49t-47.5 -16z" />
    <glyph glyph-name="bullet" unicode="&#x2022;" horiz-adv-x="324" 
d="M162 196q-52 0 -89.5 35t-37.5 93q0 59 37.5 94t89.5 35t89.5 -35t37.5 -94q0 -58 -37.5 -93t-89.5 -35z" />
    <glyph glyph-name="ellipsis" unicode="&#x2026;" horiz-adv-x="900" 
d="M150 -15q-36 0 -61 25t-25 60t25 61t61 26t61 -26t25 -61t-25 -60t-61 -25zM450 -15q-36 0 -61 25t-25 60t25 61t61 26t61 -26t25 -61t-25 -60t-61 -25zM750 -15q-36 0 -61 25t-25 60t25 61t61 26t61 -26t25 -61t-25 -60t-61 -25z" />
    <glyph glyph-name="perthousand" unicode="&#x2030;" horiz-adv-x="1215" 
d="M226 -21l-20 14l451 661l21 -14zM207 649q39 0 73.5 -21.5t55.5 -67t21 -117.5q0 -70 -21 -115.5t-55.5 -67t-73.5 -21.5t-73.5 21.5t-55.5 67t-21 115.5q0 72 21 117.5t55.5 67t73.5 21.5zM151 443q0 -76 7.5 -116t20.5 -55t28 -15q16 0 28.5 15t20 55.5t7.5 115.5
q0 76 -7.5 116t-20 55.5t-28.5 15.5q-15 0 -28 -15t-20.5 -55.5t-7.5 -116.5zM664 401q39 0 73.5 -21.5t55.5 -67t21 -117.5q0 -70 -21 -115.5t-55.5 -67t-73.5 -21.5t-73.5 21.5t-55.5 67t-21 115.5q0 72 21 117.5t55.5 67t73.5 21.5zM608 195q0 -76 7.5 -116t20.5 -55
t28 -15q16 0 28.5 15t20 55.5t7.5 115.5q0 76 -7.5 116t-20 55.5t-28.5 15.5q-15 0 -28 -15t-20.5 -55.5t-7.5 -116.5zM1018 401q39 0 73.5 -21.5t55.5 -67t21 -117.5q0 -70 -21 -115.5t-55.5 -67t-73.5 -21.5t-73.5 21.5t-55.5 67t-21 115.5q0 72 21 117.5t55.5 67
t73.5 21.5zM962 195q0 -76 7.5 -116t20.5 -55t28 -15q16 0 28.5 15t20 55.5t7.5 115.5q0 76 -7.5 116t-20 55.5t-28.5 15.5q-15 0 -28 -15t-20.5 -55.5t-7.5 -116.5z" />
    <glyph glyph-name="guilsinglleft" unicode="&#x2039;" horiz-adv-x="322" 
d="M258 36l-231 203v23l231 203l10 -9l-132 -206l132 -205z" />
    <glyph glyph-name="guilsinglright" unicode="&#x203a;" horiz-adv-x="322" 
d="M64 469l231 -203v-23l-231 -203l-10 9l132 206l-132 205z" />
    <glyph glyph-name="fraction" unicode="&#x2044;" horiz-adv-x="140" 
d="M-145 -21l-20 14l451 661l21 -14z" />
    <glyph glyph-name="uni2074" unicode="&#x2074;" horiz-adv-x="345" 
d="M176 415v88h-161v44l181 267h75v-254h56v-57h-56v-88h-95zM46 560h130v189z" />
    <glyph glyph-name="Euro" unicode="&#x20ac;" horiz-adv-x="532" 
d="M10 231v23h58q-3 31 -3 64q0 35 4 67h-59v23h62q22 121 95 181t173 60q51 0 91.5 -15t64 -42t23.5 -63q0 -28 -16.5 -44t-42.5 -16q-22 0 -41 14.5t-26 57.5l-5 22q-5 26 -18.5 44.5t-38.5 18.5q-47 0 -84.5 -54t-49.5 -164h210v-23h-213q-2 -32 -2 -67q0 -34 2 -64h213
v-23h-211q11 -110 47.5 -166.5t90.5 -56.5q24 0 36 16t17 46l5 21q6 40 24.5 57t45.5 17q24 0 40 -15.5t16 -43.5q0 -53 -50.5 -87t-132.5 -34q-103 0 -173.5 61.5t-90.5 184.5h-61z" />
    <glyph glyph-name="uni20BD" unicode="&#x20bd;" horiz-adv-x="515" 
d="M34 0v10l16 6q37 15 37 51v84h-66v20h66v96h-66v20h66v283q0 38 -38 50l-15 5v10h225q130 0 188.5 -51.5t58.5 -137.5q0 -51 -26 -91.5t-83 -64t-152 -23.5h-16v-96h185v-20h-185v-82q0 -37 38 -51l25 -8v-10h-258zM229 287h13q72 0 104 37t32 126q0 92 -32.5 128.5
t-95.5 36.5h-21v-328z" />
    <glyph glyph-name="trademark" unicode="&#x2122;" horiz-adv-x="766" 
d="M334 364v10l19 8q23 9 23 35l2 191q0 24 -21 36l-10 6v10h108l79 -185l77 185h113v-10l-9 -4q-23 -12 -23 -36v-194q0 -24 21 -36l11 -6v-10h-155v10l12 6q21 12 21 36v175l-91 -227h-18l-98 227l-1 -174q0 -26 23 -35l18 -8v-10h-101zM91 364v10l17 10q19 12 19 37v222
h-21q-24 0 -36 -21l-26 -49h-10v87h278v-87h-10l-26 49q-12 21 -36 21h-22v-222q0 -24 20 -37l16 -10v-10h-163z" />
    <glyph glyph-name="estimated" unicode="&#x212e;" horiz-adv-x="800" 
d="M184 108q41 -46 97.5 -73t120.5 -27q68 0 127 30.5t101 81.5h52q-49 -60 -122.5 -96t-159.5 -36q-73 0 -137.5 26t-113 72t-76 107t-27.5 131t27.5 131t76 107t113 72t137.5 26q74 0 138 -26t112.5 -72t76 -107t27.5 -131v-8h-574q-4 0 -4 -4v-184q0 -6 2.5 -10.5
t5.5 -9.5zM180 334h440q6 0 6 6v184q0 12 -10 22q-42 44 -97 69t-117 25q-64 0 -120 -26.5t-98 -71.5q-3 -4 -5.5 -10t-2.5 -12v-180q0 -6 4 -6z" />
    <glyph glyph-name="minus" unicode="&#x2212;" horiz-adv-x="541" 
d="M30 314v20h482v-20h-482z" />
    <glyph glyph-name="uni2215" unicode="&#x2215;" horiz-adv-x="140" 
d="M-145 -21l-20 14l451 661l21 -14z" />
    <glyph glyph-name="uni2219" unicode="&#x2219;" horiz-adv-x="300" 
d="M150 240q-36 0 -61 25t-25 60t25 61t61 26t61 -26t25 -61t-25 -60t-61 -25z" />
    <glyph glyph-name="approxequal" unicode="&#x2248;" horiz-adv-x="541" 
d="M364 121q-30 0 -58.5 12.5t-57.5 43.5q-31 35 -49.5 48.5t-41.5 13.5q-25 0 -47 -22t-30 -75l-16 2q2 81 32 121t79 40q34 0 60.5 -13t56.5 -45q32 -34 51 -47.5t40 -13.5q26 0 48.5 21t29.5 75l16 -2q-1 -71 -30 -115t-83 -44zM364 361q-30 0 -58.5 12.5t-57.5 43.5
q-31 35 -49.5 48.5t-41.5 13.5q-25 0 -47 -22t-30 -75l-16 2q2 81 32 121t79 40q34 0 60.5 -13t56.5 -45q32 -34 51 -47.5t40 -13.5q26 0 48.5 21t29.5 75l16 -2q-1 -71 -30 -115t-83 -44z" />
    <glyph glyph-name="notequal" unicode="&#x2260;" horiz-adv-x="541" 
d="M126 45l-21 11l87 154h-162v20h173l106 188h-279v20h290l94 166l21 -12l-87 -154h164v-20h-175l-106 -188h281v-20h-293z" />
    <glyph glyph-name="lessequal" unicode="&#x2264;" horiz-adv-x="541" 
d="M467 126l-425 206v19l425 206l10 -22l-402 -193l402 -194zM30 0v20h482v-20h-482z" />
    <glyph glyph-name="greaterequal" unicode="&#x2265;" horiz-adv-x="541" 
d="M74 126l-10 22l403 194l-403 193l10 22l425 -206v-19zM30 0v23h482v-23h-482z" />
    <glyph glyph-name="f_b" horiz-adv-x="914" 
d="M22 0v10l13 3q19 5 30 17.5t11 32.5q0 37 0.5 73.5t0.5 73.5v251h-56v11l22 4q20 2 29 14t13 33q10 39 29.5 68.5t44.5 54.5q38 36 80.5 50.5t83.5 14.5q40 0 73 -16.5t33 -54.5q0 -27 -16 -42.5t-45 -15.5q-24 0 -44 13t-39 46l-14 17q-11 14 -22 13.5t-16 -16.5
q-7 -35 -10.5 -82t-3.5 -92h112v-20h-112v-396q0 -38 40 -49l25 -6v-10h-262zM524 -13l-169 13v10l10 2q39 9 39 50v535q0 21 -6.5 32t-26.5 15l-14 4v10l178 43l12 -9l-4 -141v-101q33 23 72 34.5t79 11.5q57 0 101 -26.5t69.5 -82t25.5 -142.5t-28.5 -144.5t-76 -86.5
t-104.5 -29q-37 0 -74.5 10t-66.5 28zM631 19q32 0 56 20t38 68.5t14 133.5t-13 131t-36.5 64t-56.5 18q-47 0 -87 -26v-384q19 -12 39 -18.5t46 -6.5z" />
    <glyph glyph-name="f_h" horiz-adv-x="913" 
d="M22 0v10l13 3q19 5 30 17.5t11 32.5q0 37 0.5 73.5t0.5 73.5v251h-56v11l22 4q20 2 29 14t13 33q10 39 29.5 68.5t44.5 54.5q38 36 80.5 50.5t83.5 14.5q40 0 73 -16.5t33 -54.5q0 -27 -16 -42.5t-45 -15.5q-24 0 -44 13t-39 46l-14 17q-11 14 -22 13.5t-16 -16.5
q-7 -35 -10.5 -82t-3.5 -92h112v-20h-112v-396q0 -38 40 -49l25 -6v-10h-262zM356 0v10l12 4q36 12 36 50v534q0 21 -7 31t-27 15l-15 4v10l176 43l16 -9l-4 -141v-125q35 29 75.5 49.5t89.5 20.5q65 0 103.5 -37t38.5 -114v-282q0 -20 8 -32t28 -18l8 -3v-10h-234v10l12 3
q36 12 36 51v314q0 40 -13.5 55t-47.5 15q-22 0 -48 -8.5t-53 -29.5v-348q0 -39 36 -50l8 -2v-10h-234z" />
    <glyph glyph-name="f_j" horiz-adv-x="567" 
d="M297 -240q-56 0 -81 19.5t-25 50.5q0 28 20 45t47 17q26 0 48.5 -13.5t34.5 -42.5l10 -22q7 -11 16.5 -7.5t9.5 31.5v73t-0.5 75t-0.5 102v189q0 30 -0.5 64.5t-0.5 66.5t-1 53h-155v-251q0 -34 -0.5 -81.5t0.5 -83.5q0 -20 19 -23l40 -12v-10h-257v10l36 9q19 5 19 24
q1 36 1 84.5v82.5v251h-56v11l39 7q18 3 22 23q20 106 94.5 157.5t183.5 51.5q62 0 101.5 -26.5t39.5 -66.5q0 -27 -16.5 -42.5t-44.5 -15.5q-30 0 -48 17.5t-31 42.5l-27 55q-10 17 -27 11q-41 -18 -63.5 -68t-24.5 -137h230q14 0 26 4l32 11l13 -11l-3 -139v-281
q0 -65 -6 -108.5t-19.5 -74.5t-38.5 -57q-34 -35 -75 -50t-81 -15z" />
    <glyph glyph-name="f_k" horiz-adv-x="915" 
d="M22 0v10l13 3q19 5 30 17.5t11 32.5q0 37 0.5 73.5t0.5 73.5v251h-56v11l22 4q20 2 29 14t13 33q10 39 29.5 68.5t44.5 54.5q38 36 80.5 50.5t83.5 14.5q40 0 73 -16.5t33 -54.5q0 -27 -16 -42.5t-45 -15.5q-24 0 -44 13t-39 46l-14 17q-11 14 -22 13.5t-16 -16.5
q-7 -35 -10.5 -82t-3.5 -92h112v-20h-112v-396q0 -38 40 -49l25 -6v-10h-262zM355 0v10l15 5q34 11 34 49v535q0 20 -8 30t-28 16l-13 3v10l183 43l12 -9l-3 -140v-488q0 -40 33 -50l14 -4v-10h-239zM726 0l-178 250l185 171q13 12 15.5 25.5t-17.5 19.5l-17 5v10h149v-10
l-30 -8q-22 -7 -35.5 -16.5t-32.5 -26.5l-112 -105l179 -249q16 -22 30 -34t36 -20l4 -2v-10h-176z" />
    <glyph glyph-name="a.sups" horiz-adv-x="354" 
d="M297 474q0 -24 17 -24q5 0 10.5 3t12.5 11l16 -12q-12 -25 -29 -35t-43 -10q-58 0 -71 50q-25 -24 -45 -38t-53 -14q-38 0 -63 22t-25 62q0 32 24.5 57.5t99.5 47.5q24 7 59 16v21q0 44 -12 60t-45 16q-12 0 -23 -2l-6 -34q-2 -27 -15.5 -39.5t-30.5 -12.5q-35 0 -41 32
q5 39 43 63.5t105 24.5q61 0 88 -27.5t27 -92.5v-145zM111 503q0 -25 13.5 -36.5t30.5 -11.5q12 0 22.5 6t29.5 19v103l-22.5 -7.5t-18.5 -6.5q-55 -22 -55 -66z" />
    <glyph glyph-name="o.sups" horiz-adv-x="379" 
d="M190 739q45 0 83 -20t61 -57t23 -89q0 -78 -47.5 -123t-119.5 -45q-73 0 -120.5 45.5t-47.5 122.5q0 52 23 89t61.5 57t83.5 20zM190 705q-36 0 -54 -32.5t-18 -100.5q0 -69 18 -101t54 -32q35 0 53 32t18 101q0 68 -18 100.5t-53 32.5z" />
    <glyph glyph-name="zero.sups" horiz-adv-x="372" 
d="M186 816q39 0 73.5 -21.5t55.5 -67t21 -117.5q0 -70 -21 -115.5t-55.5 -67t-73.5 -21.5t-73.5 21.5t-55.5 67t-21 115.5q0 72 21 117.5t55.5 67t73.5 21.5zM130 610q0 -76 7.5 -116t20.5 -55t28 -15q16 0 28.5 15t20 55.5t7.5 115.5q0 76 -7.5 116t-20 55.5t-28.5 15.5
q-15 0 -28 -15t-20.5 -55.5t-7.5 -116.5z" />
    <glyph glyph-name="uni0308.cap" 
d="M-122 720q-27 0 -48.5 17.5t-21.5 48.5t21.5 48.5t48.5 17.5q29 0 49.5 -17.5t20.5 -48.5t-20.5 -48.5t-49.5 -17.5zM121 720q-27 0 -48 17.5t-21 48.5t21 48.5t48 17.5q29 0 49.5 -17.5t20.5 -48.5t-20.5 -48.5t-49.5 -17.5z" />
    <glyph glyph-name="uni0307.cap" 
d="M0 716q-34 0 -57.5 21t-23.5 54q0 34 23.5 55t57.5 21t57.5 -21t23.5 -55q0 -33 -23.5 -54t-57.5 -21z" />
    <glyph glyph-name="gravecomb.cap" 
d="M67 713q-37 17 -71 32t-72 31q-62 28 -62 60q0 17 11.5 28.5t30.5 11.5q15 0 30.5 -9t40.5 -36q24 -25 50 -52.5t52 -53.5z" />
    <glyph glyph-name="acutecomb.cap" 
d="M-76 725q26 26 52 53.5t50 52.5q25 27 40.5 36t30.5 9q19 0 30.5 -11.5t11.5 -28.5q0 -32 -62 -60q-37 -16 -71.5 -31t-71.5 -32z" />
    <glyph glyph-name="uni030B.cap" 
d="M52 707l-8 6l47 135q17 46 49 46q20 0 30.5 -11t10.5 -29q0 -21 -23 -44zM-105 707l-9 6l48 135q17 46 49 46q20 0 30.5 -11t10.5 -29q0 -21 -23 -44z" />
    <glyph glyph-name="uni0302.cap" 
d="M-148 694l-10 12l151 164h14l151 -164l-10 -12l-148 82z" />
    <glyph glyph-name="uni030C.cap" 
d="M-7 711l-151 154l10 12l148 -82l148 82l10 -12l-151 -154h-14z" />
    <glyph glyph-name="uni0306.cap" 
d="M0 713q-41 0 -72.5 19.5t-50 51t-22.5 68.5l12 5q17 -31 52 -49.5t81 -18.5t81.5 18.5t51.5 49.5l12 -5q-4 -37 -22.5 -68.5t-49.5 -51t-73 -19.5z" />
    <glyph glyph-name="uni030A.cap" 
d="M0 706q-41 0 -71.5 26t-30.5 71t30.5 71.5t71.5 26.5t71.5 -25.5t30.5 -72.5q0 -46 -30.5 -71.5t-71.5 -25.5zM0 732q32 0 50 20.5t18 50.5t-18 51t-50 21q-31 0 -49.5 -21t-18.5 -51t18.5 -50.5t49.5 -20.5z" />
    <glyph glyph-name="tildecomb.cap" 
d="M-170 719q8 62 33 101.5t68 39.5q25 0 44 -9t35 -22q17 -13 34 -28.5t39 -15.5q28 0 45.5 19.5t28.5 49.5l15 -5q-9 -61 -33.5 -101t-67.5 -40q-23 0 -42.5 9t-35.5 21q-16 15 -34.5 30t-39.5 15q-28 0 -46.5 -20t-29.5 -50z" />
    <glyph glyph-name="uni0304.cap" 
d="M-158 768v25h316v-25h-316z" />
    </font>
</defs>
</svg>
