<?xml version="1.0" standalone="no"?>
<!DOCTYPE svg PUBLIC "-//W3C//DTD SVG 1.1//EN" "http://www.w3.org/Graphics/SVG/1.1/DTD/svg11.dtd" >
<svg xmlns="http://www.w3.org/2000/svg" xmlns:xlink="http://www.w3.org/1999/xlink" version="1.1">
<metadata>
Created by FontForge 20200427 at Thu Aug 17 17:58:23 2017
 By www
Copyright 2014-2017 Indian Type Foundry (info@indiantypefoundry.com)
</metadata>
<defs>
<font id="Poppins-Medium" horiz-adv-x="301" >
  <font-face 
    font-family="Poppins Medium"
    font-weight="500"
    font-stretch="normal"
    units-per-em="1000"
    panose-1="0 0 6 0 0 0 0 0 0 0"
    ascent="800"
    descent="-200"
    x-height="551"
    cap-height="706"
    bbox="-537 -582 2540 1077"
    underline-thickness="50"
    underline-position="-150"
    unicode-range="U+000D-FB02"
  />
<missing-glyph horiz-adv-x="500" 
d="M500 700v-700h-500v700h500zM80 650l170 -255l170 255h-340zM220 350l-170 255v-510zM450 605l-170 -255l170 -255v510zM250 305l-170 -255h340z" />
    <glyph glyph-name=".notdef" horiz-adv-x="500" 
d="M500 700v-700h-500v700h500zM80 650l170 -255l170 255h-340zM220 350l-170 255v-510zM450 605l-170 -255l170 -255v510zM250 305l-170 -255h340z" />
    <glyph glyph-name=".null" horiz-adv-x="0" 
 />
    <glyph glyph-name="nonmarkingreturn" horiz-adv-x="333" 
 />
    <glyph glyph-name="NULL" horiz-adv-x="0" 
 />
    <glyph glyph-name="NULL" horiz-adv-x="0" 
 />
    <glyph glyph-name="CR" unicode="&#xd;" horiz-adv-x="234" 
 />
    <glyph glyph-name="space" unicode=" " horiz-adv-x="234" 
 />
    <glyph glyph-name="exclam" unicode="!" horiz-adv-x="323" 
d="M229 728l-15 -507h-96l-15 507h126zM232 126v-126h-130v126h130z" />
    <glyph glyph-name="quotedbl" unicode="&#x22;" horiz-adv-x="334" 
d="M141 798l-10 -206h-78l-11 206h99zM292 798l-10 -206h-78l-11 206h99z" />
    <glyph glyph-name="numbersign" unicode="#" horiz-adv-x="832" 
d="M646 444l-32 -150h134v-104h-156l-41 -190h-107l41 190h-199l-41 -190h-107l41 190h-153v104h175l32 150h-149v105h171l41 191h107l-41 -191h199l41 191h107l-41 -191h138v-105h-160zM539 444h-199l-32 -150h199z" />
    <glyph glyph-name="dollar" unicode="$" horiz-adv-x="597" 
d="M333 398q71 -22 114.5 -42t74 -60.5t30.5 -107.5q0 -52 -26.5 -96.5t-79.5 -71.5t-130 -27h-2v-80h-34v82q-99 8 -162 62.5t-70 138.5h122q4 -39 32.5 -71t77.5 -40v227q-82 25 -125 43.5t-76 59.5t-33 110q0 56 29.5 99t82.5 67t122 24v85h34v-86q98 -7 156 -58t67 -129
h-123q-6 36 -31.5 62.5t-68.5 34.5v-220zM197 459.5q29 -25.5 83 -44.5v212q-52 -1 -82 -26.5t-30 -71.5q0 -44 29 -69.5zM399.5 111q30.5 29 30.5 74q0 46 -30 71.5t-86 44.5v-219q55 0 85.5 29z" />
    <glyph glyph-name="percent" unicode="%" horiz-adv-x="701" 
d="M292 674.5q42 -41.5 42 -112.5t-42 -112t-109 -41t-109.5 41t-42.5 112t42.5 112.5t109.5 41.5t109 -41.5zM606 707l-399 -707h-112l400 707h111zM129 501.5q20 -22.5 53 -22.5t53.5 23t20.5 60q0 38 -20.5 61t-53.5 23t-53 -23t-20 -61t20 -60.5zM628.5 257
q42.5 -41 42.5 -112t-42.5 -112.5t-109.5 -41.5q-66 0 -108.5 41.5t-42.5 112.5q0 70 42.5 111.5t108.5 41.5q67 0 109.5 -41zM466 84q20 -23 53 -23t53.5 23t20.5 61q0 37 -20.5 60t-53.5 23t-53 -23t-20 -60q0 -38 20 -61z" />
    <glyph glyph-name="ampersand" unicode="&#x26;" horiz-adv-x="685" 
d="M563 0l-132 149q-1 -10 -10 -35q-14 -54 -60.5 -87.5t-110.5 -33.5q-65 0 -114 27t-76 75t-27 110q0 63 24.5 109t66.5 70t93 24h7l-13 18q-24 30 -37 59.5t-13 66.5q0 42 21.5 79t64 59.5t101.5 22.5q88 0 134.5 -42t58.5 -106q9 -33 7 -71h-108v11q0 15 -1 22
q-1 42 -24.5 66t-64.5 24q-38 0 -59.5 -22t-21.5 -54q0 -27 10.5 -47t32.5 -47l368 -447h-117zM331.5 121q31.5 31 31.5 80q0 34 -17.5 61.5t-46 43t-59.5 15.5q-48 0 -78 -29.5t-30 -83.5q0 -55 34.5 -86.5t84.5 -31.5q49 0 80.5 31z" />
    <glyph glyph-name="quotesingle" unicode="'" horiz-adv-x="188" 
d="M145 798l-12 -206h-78l-13 206h103z" />
    <glyph glyph-name="parenleft" unicode="(" horiz-adv-x="391" 
d="M111.5 746q73.5 151 193.5 244h111v-12q-267 -218 -267 -575t267 -577v-11h-111q-120 94 -193.5 244.5t-73.5 343.5q0 192 73.5 343z" />
    <glyph glyph-name="parenright" unicode=")" horiz-adv-x="392" 
d="M280.5 59.5q-73.5 -151.5 -193.5 -244.5h-111v11q267 219 267 577t-267 575v12h111q120 -92 193.5 -243.5t73.5 -343.5t-73.5 -343.5z" />
    <glyph glyph-name="asterisk" unicode="*" horiz-adv-x="491" 
d="M390 679l45 -80l-137 -51l137 -50l-46 -83l-114 91l22 -146h-93l20 146l-115 -93l-48 85l136 51l-135 50l45 81l117 -90l-21 146h94l-22 -146z" />
    <glyph glyph-name="plus" unicode="+" horiz-adv-x="571" 
d="M541 308h-200v-202h-111v202h-199v105h199v203h111v-203h200v-105z" />
    <glyph glyph-name="comma" unicode="," horiz-adv-x="193" 
d="M157 -17q0 -56 -29 -91.5t-88 -35.5v46q25 0 37 13t12 44v9h-58v110h108q18 -46 18 -95z" />
    <glyph glyph-name="hyphen" unicode="-" horiz-adv-x="506" 
d="M403 410v-96h-412v96h412z" />
    <glyph glyph-name="period" unicode="." horiz-adv-x="190" 
d="M159 126v-126h-129v126h129z" />
    <glyph glyph-name="slash" unicode="/" horiz-adv-x="378" 
d="M382 944l-272 -1120h-111l272 1120h111z" />
    <glyph glyph-name="zero" unicode="0" horiz-adv-x="623" 
d="M112 93.5q60 -95.5 200 -95.5t200 96t60 264q0 167 -60 262.5t-200 95.5t-200 -95t-60 -263q0 -169 60 -264.5zM428 171q-30 -65 -116 -65q-87 0 -117 65t-30 187q0 121 30 185t117 64q86 0 116 -64.5t30 -184.5q0 -122 -30 -187z" />
    <glyph glyph-name="one" unicode="1" horiz-adv-x="307" 
d="M13 599v107h226v-706h-120v599h-106z" />
    <glyph glyph-name="two" unicode="2" horiz-adv-x="567" 
d="M299.5 306.5q97.5 106.5 97.5 197.5q0 54 -26.5 86t-85.5 32q-61 0 -92 -39.5t-35 -112.5h-111q7 121 74.5 185t172.5 64q103 0 161.5 -54.5t58.5 -150.5q0 -77 -47.5 -156t-120.5 -145.5t-151 -114.5h335v-93h-490v84q162 111 259.5 217.5z" />
    <glyph glyph-name="three" unicode="3" horiz-adv-x="594" 
d="M420 703.5q50 -24.5 75.5 -67.5t25.5 -96q0 -67 -37.5 -111.5t-105.5 -53.5v-5q73 -21 114.5 -62.5t41.5 -114.5q0 -89 -59 -144.5t-169 -55.5q-113 0 -182 57.5t-79 170.5h113q6 -60 43 -95.5t100 -35.5q59 0 90.5 31t31.5 80q0 59 -45.5 90t-131.5 31h-27v94h27
q163 -2 163 111q0 49 -30 77t-82 28t-87 -31.5t-42 -91.5h-112q7 104 70 161.5t174 57.5q70 0 120 -24.5z" />
    <glyph glyph-name="four" unicode="4" horiz-adv-x="635" 
d="M35 152v96l351 464h122v-460h99v-100h-99v-152h-115v152h-358zM401 576l-248 -324h248v324z" />
    <glyph glyph-name="five" unicode="5" horiz-adv-x="624" 
d="M541 616h-349v-210q24 31 68 49.5t97 18.5q74 0 123 -31.5t72.5 -83.5t23.5 -115q0 -111 -62 -179.5t-180 -68.5q-111 0 -179 59t-74 157h112q9 -54 44.5 -85t90.5 -31q68 0 102 41t34 109q0 64 -35 100.5t-100 36.5q-46 0 -80.5 -20t-50.5 -53h-111v407h454v-101z" />
    <glyph glyph-name="six" unicode="6" horiz-adv-x="623" 
d="M316 634q-76 0 -114 -60.5t-38 -189.5l1 -34q15 54 65 86t118 32q104 0 163 -62t59 -175q0 -68 -27 -121.5t-81 -85t-133 -31.5q-153 0 -210 95t-57 261q0 190 61 284t200 94q104 0 159.5 -59t64.5 -152h-108q-18 118 -123 118zM213 135.5q38 -43.5 112 -43.5
q63 0 100.5 37t37.5 103q0 71 -38 109t-103 38q-59 0 -103 -35t-44 -100t38 -108.5z" />
    <glyph glyph-name="seven" unicode="7" horiz-adv-x="507" 
d="M481 624l-263 -624h-120l267 611h-350v99h466v-86z" />
    <glyph glyph-name="eight" unicode="8" horiz-adv-x="631" 
d="M98 637q28 43 83.5 69t133.5 26t133.5 -26t84 -69t28.5 -95q0 -58 -30.5 -100t-90.5 -61q67 -21 103 -67.5t36 -113.5q0 -103 -73 -160.5t-191 -57.5t-190.5 57.5t-72.5 160.5q0 67 36 113.5t103 67.5q-60 19 -90.5 61t-30.5 100q0 52 28 95zM218.5 440.5
q35.5 -29.5 96.5 -29.5t97 29.5t36 83.5t-36.5 84t-96.5 30t-96 -30t-36 -84t35.5 -83.5zM204 110.5q41 -34.5 111 -34.5t111 34.5t41 95.5q0 62 -42.5 93.5t-109.5 31.5q-66 0 -109 -32t-43 -93t41 -95.5z" />
    <glyph glyph-name="nine" unicode="9" horiz-adv-x="606" 
d="M216.5 116q31.5 -31 85.5 -31q76 0 113.5 60.5t37.5 190.5l-1 34q-16 -54 -66.5 -86.5t-117.5 -32.5q-104 0 -163 62.5t-59 174.5q0 68 27 122t81 85.5t133 31.5q153 0 210.5 -93.5t57.5 -258.5q0 -187 -58.5 -285t-194.5 -98q-105 0 -164.5 59.5t-68.5 152.5h108
q8 -57 39.5 -88zM403.5 584.5q-37.5 43.5 -112.5 43.5q-62 0 -99.5 -37t-37.5 -104q0 -71 37.5 -109t102.5 -38q38 0 71.5 15.5t54.5 46t21 74.5q0 65 -37.5 108.5z" />
    <glyph glyph-name="colon" unicode=":" horiz-adv-x="216" 
d="M175 550v-126h-129v126h129zM175 126v-126h-129v126h129z" />
    <glyph glyph-name="semicolon" unicode=";" horiz-adv-x="278" 
d="M214 546v-126h-129v126h129zM214 -17q0 -56 -29 -91.5t-88 -35.5v46q25 0 37 13t12 44v9h-58v110h108q18 -46 18 -95z" />
    <glyph glyph-name="less" unicode="&#x3c;" horiz-adv-x="436" 
d="M261 135l-230 226l230 228h144l-231 -228l231 -226h-144z" />
    <glyph glyph-name="equal" unicode="=" horiz-adv-x="593" 
d="M563 526v-104h-532v104h532zM563 301v-104h-532v104h532z" />
    <glyph glyph-name="greater" unicode="&#x3e;" horiz-adv-x="436" 
d="M31 589h143l231 -228l-231 -226h-143l230 226z" />
    <glyph glyph-name="question" unicode="?" horiz-adv-x="508" 
d="M418 686q60 -54 60 -150q0 -104 -64.5 -156.5t-175.5 -54.5v-110h-108v186h48q87 0 137 28.5t50 105.5q0 52 -30 81.5t-81 29.5q-54 0 -87 -31t-33 -81h-109q-1 60 27 106.5t81 73t125 26.5q100 0 160 -54zM250 126v-126h-130v126h130z" />
    <glyph glyph-name="at" unicode="@" horiz-adv-x="1179" 
d="M913 743q112 -55 170.5 -157.5t58.5 -242.5q0 -98 -36.5 -178.5t-98 -127t-131.5 -46.5q-65 0 -102.5 31t-38.5 101q-72 -132 -211 -132q-62 0 -110 30t-75 84.5t-27 125.5q0 94 40 169t110 117.5t156 42.5q73 0 126 -28t81 -78.5t28 -116.5q0 -21 -3 -45l-19 -121
q-2 -18 -2 -25q0 -30 14 -42.5t40 -12.5q37 0 69.5 29t52.5 85.5t20 133.5q0 110 -45 192t-134 127.5t-216 45.5q-148 0 -254.5 -62.5t-161.5 -170t-55 -241.5q0 -192 110 -293.5t317 -102.5l-22 -95q-163 2 -279 59.5t-177 167t-61 264.5q0 165 77 294.5t213.5 201.5
t308.5 72q155 0 267 -55zM651 117q41 26 65.5 76.5t24.5 118.5q0 69 -38 108t-104 39q-49 0 -89 -26t-63.5 -74.5t-23.5 -113.5q0 -71 38.5 -112.5t100.5 -41.5q48 0 89 26z" />
    <glyph glyph-name="A" unicode="A" horiz-adv-x="682" 
d="M490 153h-298l-54 -153h-122l260 695h131l259 -695h-122zM458 241l-117 330l-117 -330h234z" />
    <glyph glyph-name="B" unicode="B" horiz-adv-x="618" 
d="M540.5 303q39.5 -48 39.5 -112q0 -88 -59 -139.5t-171 -51.5h-281v706h276q106 0 162.5 -47.5t56.5 -130.5q0 -67 -35 -108.5t-92 -55.5q64 -13 103.5 -61zM183 402h141q60 0 91.5 28t31.5 78q0 49 -31.5 77t-95.5 28h-137v-211zM427.5 123.5q35.5 29.5 35.5 82.5t-36 83
t-101 30h-143v-225h144q65 0 100.5 29.5z" />
    <glyph glyph-name="C" unicode="C" horiz-adv-x="761" 
d="M600 647q86 -66 116 -179h-121q-25 64 -79.5 101.5t-133.5 37.5q-63 0 -112.5 -31t-78 -88.5t-28.5 -134.5q0 -76 28.5 -133.5t78 -88.5t112.5 -31q79 0 133.5 37.5t79.5 100.5h121q-30 -113 -116 -178.5t-216 -65.5q-100 0 -177 45.5t-119 127t-42 186.5t42 186.5
t119 127.5t177 46q130 0 216 -66z" />
    <glyph glyph-name="D" unicode="D" horiz-adv-x="721" 
d="M631.5 167.5q-43.5 -79.5 -127 -123.5t-199.5 -44h-236v706h236q116 0 199.5 -43.5t127 -122.5t43.5 -186t-43.5 -186.5zM491 169q68 66 68 185t-68 185t-195 66h-113v-502h113q127 0 195 66z" />
    <glyph glyph-name="E" unicode="E" horiz-adv-x="515" 
d="M183 614v-214h260v-88h-260v-219h290v-93h-404v706h404v-92h-290z" />
    <glyph glyph-name="F" unicode="F" horiz-adv-x="519" 
d="M486 706v-92h-303v-219h250v-88h-250v-307h-114v706h417z" />
    <glyph glyph-name="G" unicode="G" horiz-adv-x="773" 
d="M602 650q84 -62 111 -169h-120q-23 57 -75.5 91t-124.5 34q-66 0 -118.5 -31t-82 -88t-29.5 -134q0 -81 30 -139t84.5 -88.5t126.5 -30.5q88 0 151 54.5t76 149.5h-259v84h355v-109q-12 -78 -55.5 -141.5t-115 -101.5t-163.5 -38q-103 0 -182 46t-122 127.5t-43 186.5
t43 186.5t121.5 127t181.5 45.5q126 0 210 -62z" />
    <glyph glyph-name="H" unicode="H" horiz-adv-x="699" 
d="M630 706v-706h-115v317h-332v-317h-114v706h114v-296h332v296h115z" />
    <glyph glyph-name="I" unicode="I" horiz-adv-x="252" 
d="M183 706v-706h-114v706h114z" />
    <glyph glyph-name="J" unicode="J" horiz-adv-x="503" 
d="M439 706v-512q0 -95 -53 -148t-147 -53q-102 0 -160 59t-58 167h113q0 -58 24.5 -90t75.5 -32q47 0 69 27t22 70v512h114z" />
    <glyph glyph-name="K" unicode="K" horiz-adv-x="617" 
d="M290 357l311 -357h-139l-279 327v-327h-114v706h114v-323l280 323h138z" />
    <glyph glyph-name="L" unicode="L" horiz-adv-x="447" 
d="M183 89h244v-89h-358v706h114v-617z" />
    <glyph glyph-name="M" unicode="M" horiz-adv-x="869" 
d="M801 695v-695h-115v521l-201 -521h-100l-202 521v-521h-114v695h138l230 -555l226 555h138z" />
    <glyph glyph-name="N" unicode="N" horiz-adv-x="709" 
d="M640 0h-114l-343 521v-521h-114v705h114l343 -523v523h114v-705z" />
    <glyph glyph-name="O" unicode="O" horiz-adv-x="790" 
d="M573.5 669q79.5 -46 125 -128.5t45.5 -186.5t-45.5 -186.5t-125 -129t-177.5 -46.5q-99 0 -178.5 46.5t-125.5 129t-46 186.5t46 186.5t125.5 128.5t178.5 46q98 0 177.5 -46zM275 578q-53 -31 -82.5 -89t-29.5 -135t29.5 -135t82.5 -89t121 -31q67 0 119.5 31t82 89
t29.5 135t-29.5 135t-82 89t-119.5 31q-68 0 -121 -31z" />
    <glyph glyph-name="P" unicode="P" horiz-adv-x="585" 
d="M183 274v-274h-114v706h240q122 0 183.5 -58t61.5 -159q0 -100 -63 -157.5t-182 -57.5h-126zM438 489q0 60 -33.5 91.5t-107.5 31.5h-114v-245h114q141 0 141 122z" />
    <glyph glyph-name="Q" unicode="Q" horiz-adv-x="790" 
d="M618 -133l-126 137q-46 -12 -96 -12q-99 0 -178.5 46.5t-125.5 129t-46 186.5t46 186.5t125.5 128.5t178.5 46q98 0 177.5 -46t125 -128.5t45.5 -186.5q0 -100 -43 -181t-117 -128l175 -178h-141zM192.5 219q29.5 -58 82.5 -89t121 -31q67 0 119.5 31t82 89t29.5 135
t-29.5 135t-82 89t-119.5 31q-68 0 -121 -31t-82.5 -89t-29.5 -135t29.5 -135z" />
    <glyph glyph-name="R" unicode="R" horiz-adv-x="598" 
d="M440 0l-176 282h-81v-282h-114v706h249q121 0 183.5 -59t62.5 -156q0 -83 -46.5 -136t-134.5 -68l185 -287h-128zM183 363h126q138 0 138 122q0 58 -33.5 90.5t-104.5 32.5h-126v-245z" />
    <glyph glyph-name="S" unicode="S" horiz-adv-x="578" 
d="M508 91.5q-25 -44.5 -76 -71.5t-125 -27q-72 0 -129 25.5t-91 71.5t-39 106h122q5 -46 39.5 -79t92.5 -33q52 0 80.5 28t28.5 72q0 38 -21 62.5t-52 38.5t-85 32q-66 21 -107.5 42t-70.5 61t-29 105q0 57 28 100t80 66.5t120 23.5q108 0 171.5 -52t72.5 -136h-123
q-7 40 -37.5 68.5t-83.5 28.5q-48 0 -77 -24.5t-29 -70.5q0 -36 20 -59.5t50.5 -37t83.5 -31.5q67 -21 109.5 -42.5t72 -62.5t29.5 -108q0 -52 -25 -96.5z" />
    <glyph glyph-name="T" unicode="T" horiz-adv-x="539" 
d="M523 706v-92h-197v-614h-115v614h-196v92h508z" />
    <glyph glyph-name="U" unicode="U" horiz-adv-x="671" 
d="M178 706v-419q0 -94 41.5 -140t116.5 -46q74 0 115.5 46t41.5 140v419h114v-419q0 -145 -75 -219.5t-198 -74.5q-122 0 -196 74.5t-74 219.5v419h114z" />
    <glyph glyph-name="V" unicode="V" horiz-adv-x="687" 
d="M140 706l203 -584l204 584h124l-255 -706h-146l-254 706h124z" />
    <glyph glyph-name="W" unicode="W" horiz-adv-x="996" 
d="M963 706l-176 -706h-140l-149 546l-149 -546h-140l-176 706h125l122 -574l155 574h126l155 -574l122 574h125z" />
    <glyph glyph-name="X" unicode="X" horiz-adv-x="624" 
d="M472 0l-169 261l-151 -261h-131l219 360l-224 346h136l166 -256l150 256h131l-218 -354l227 -352h-136z" />
    <glyph glyph-name="Y" unicode="Y" horiz-adv-x="618" 
d="M602 706l-235 -449v-257h-115v257l-236 449h132l162 -327l162 327h130z" />
    <glyph glyph-name="Z" unicode="Z" horiz-adv-x="554" 
d="M169 93h343v-93h-470v89l336 524h-329v93h458v-89z" />
    <glyph glyph-name="bracketleft" unicode="[" horiz-adv-x="367" 
d="M319 944v-93h-121v-933h121v-94h-229v1120h229z" />
    <glyph glyph-name="backslash" unicode="\" horiz-adv-x="664" 
d="M410 -176l-300 1120h112l299 -1120h-111z" />
    <glyph glyph-name="bracketright" unicode="]" horiz-adv-x="365" 
d="M47 -176v94h121v933h-121v93h229v-1120h-229z" />
    <glyph glyph-name="asciicircum" unicode="^" horiz-adv-x="649" 
d="M147 168h-114l237 528h109l237 -528h-114l-177 394z" />
    <glyph glyph-name="underscore" unicode="_" horiz-adv-x="642" 
d="M602 -36v-111h-558v111h558z" />
    <glyph glyph-name="grave" unicode="`" horiz-adv-x="294" 
d="M247 674v-80l-221 113v89z" />
    <glyph glyph-name="a" unicode="a" horiz-adv-x="675" 
d="M418 521q53 -37 75 -98v128h114v-551h-114v128q-22 -61 -75 -98t-128 -37q-72 0 -128.5 34t-88.5 98t-32 151q0 86 32 150t88.5 98t128.5 34q75 0 128 -37zM203.5 409.5q-45.5 -48.5 -45.5 -133.5t45.5 -133.5t121.5 -48.5q48 0 86 22.5t60 63.5t22 96q0 54 -22 95.5
t-60 64t-86 22.5q-76 0 -121.5 -48.5z" />
    <glyph glyph-name="b" unicode="b" horiz-adv-x="675" 
d="M513.5 524q56.5 -34 88.5 -98t32 -150q0 -87 -32 -151t-88.5 -98t-128.5 -34q-75 0 -128 37t-74 98v-128h-114v740h114v-317q21 61 74 98t128 37q72 0 128.5 -34zM264 435.5q-38 -22.5 -60 -64t-22 -95.5q0 -55 22 -96t60 -63.5t86 -22.5q76 0 122 48.5t46 133.5
q0 84 -46 133t-122 49q-48 0 -86 -22.5z" />
    <glyph glyph-name="c" unicode="c" horiz-adv-x="619" 
d="M491 501.5q70 -56.5 87 -153.5h-121q-10 52 -48.5 81.5t-96.5 29.5q-66 0 -110 -46.5t-44 -136.5t44 -137t110 -47q58 0 96.5 30t48.5 82h121q-17 -97 -87 -154t-177 -57q-80 0 -141.5 34t-96.5 98t-35 151q0 86 35 150t96.5 98t141.5 34q107 0 177 -56.5z" />
    <glyph glyph-name="d" unicode="d" horiz-adv-x="675" 
d="M418 521q53 -37 74 -98v317h115v-740h-115v128q-21 -61 -74 -98t-128 -37q-72 0 -128.5 34t-88.5 98t-32 151q0 86 32 150t88.5 98t128.5 34q75 0 128 -37zM203.5 409.5q-45.5 -48.5 -45.5 -133.5t45.5 -133.5t121.5 -48.5q48 0 86 22.5t60 63.5t22 96q0 54 -22 95.5
t-60 64t-86 22.5q-76 0 -121.5 -48.5z" />
    <glyph glyph-name="e" unicode="e" horiz-adv-x="622" 
d="M577 253h-424q3 -85 47 -126t109 -41q57 0 96.5 29t48.5 77h122q-11 -58 -46 -103t-91 -70.5t-125 -25.5q-80 0 -141.5 34t-96.5 98t-35 151q0 86 35 150t96.5 98t141.5 34q81 0 141.5 -33.5t93 -92t32.5 -130.5q0 -28 -4 -49zM447.5 395.5q-20.5 36.5 -56 54t-77.5 17.5
q-67 0 -112 -41t-49 -121h313q2 54 -18.5 90.5z" />
    <glyph glyph-name="f" unicode="f" horiz-adv-x="349" 
d="M232 643.5q-27 -24.5 -27 -83.5v-9h121v-98h-121v-453h-115v453h-75v98h75v18q0 101 59 151.5t177 44.5v-100q-67 3 -94 -21.5z" />
    <glyph glyph-name="g" unicode="g" horiz-adv-x="675" 
d="M418 521q53 -37 75 -98v128h114v-557q0 -77 -31.5 -136.5t-90.5 -93.5t-140 -34q-116 0 -187.5 55t-89.5 149h113q14 -49 54 -76.5t102 -27.5q68 0 112 42t44 122v134q-22 -61 -75 -98t-128 -37q-72 0 -128.5 34t-88.5 98t-32 151q0 86 32 150t88.5 98t128.5 34
q75 0 128 -37zM203.5 409.5q-45.5 -48.5 -45.5 -133.5t45.5 -133.5t121.5 -48.5q48 0 86 22.5t60 63.5t22 96q0 54 -22 95.5t-60 64t-86 22.5q-76 0 -121.5 -48.5z" />
    <glyph glyph-name="h" unicode="h" horiz-adv-x="653" 
d="M531 498q58 -62 58 -177v-321h-114v309q0 74 -38 114.5t-104 40.5q-68 0 -109 -43.5t-41 -127.5v-293h-114v740h114v-310q22 62 74 96t120 34q96 0 154 -62z" />
    <glyph glyph-name="i" unicode="i" horiz-adv-x="252" 
d="M73 759q20 19 53 19t53.5 -19t20.5 -48t-20.5 -47t-53.5 -18t-53 18t-20 47t20 48zM183 551v-551h-114v551h114z" />
    <glyph glyph-name="j" unicode="j" horiz-adv-x="256" 
d="M77.5 664q-20.5 18 -20.5 47t20.5 48t53.5 19t53 -19t20 -48t-20 -47t-53 -18t-53.5 18zM-29 -162h39q33 0 48.5 14.5t15.5 49.5v649h115v-650q0 -163 -164 -163h-54v100z" />
    <glyph glyph-name="k" unicode="k" horiz-adv-x="527" 
d="M381 0l-198 245v-245h-114v740h114v-424l196 235h137l-240 -274l246 -277h-141z" />
    <glyph glyph-name="l" unicode="l" horiz-adv-x="252" 
d="M183 740v-740h-114v740h114z" />
    <glyph glyph-name="m" unicode="m" horiz-adv-x="1037" 
d="M914.5 498q58.5 -62 58.5 -177v-321h-114v309q0 72 -36 111.5t-99 39.5q-67 0 -106.5 -42.5t-39.5 -124.5v-293h-114v309q0 72 -36 111.5t-99 39.5q-67 0 -106.5 -42.5t-39.5 -124.5v-293h-114v551h114v-115q21 60 70 92t115 32q69 0 119.5 -34t73.5 -98q24 62 77 97
t120 35q98 0 156.5 -62z" />
    <glyph glyph-name="n" unicode="n" horiz-adv-x="653" 
d="M531 498q58 -62 58 -177v-321h-114v309q0 74 -38 114.5t-104 40.5q-68 0 -109 -43.5t-41 -127.5v-293h-114v551h114v-121q22 62 74 96t120 34q96 0 154 -62z" />
    <glyph glyph-name="o" unicode="o" horiz-adv-x="642" 
d="M465 524q64 -34 100 -98t36 -150q0 -87 -36 -151t-100 -98t-144 -34t-143.5 34t-100 98.5t-36.5 150.5t36.5 150t100 98t143.5 34t144 -34zM240 439q-37 -20 -59.5 -61.5t-22.5 -101.5q0 -61 22.5 -102t59.5 -61t81 -20t81 20t59.5 61t22.5 102q0 60 -22.5 101.5
t-59.5 61.5t-81 20t-81 -20z" />
    <glyph glyph-name="p" unicode="p" horiz-adv-x="675" 
d="M513.5 524q56.5 -34 88.5 -98t32 -150q0 -87 -32 -151t-88.5 -98t-128.5 -34q-75 0 -128 37t-74 98v-390h-114v813h114v-128q21 61 74 98t128 37q72 0 128.5 -34zM264 435.5q-38 -22.5 -60 -64t-22 -95.5q0 -55 22 -96t60 -63.5t86 -22.5q76 0 122 48.5t46 133.5
q0 84 -46 133t-122 49q-48 0 -86 -22.5z" />
    <glyph glyph-name="q" unicode="q" horiz-adv-x="675" 
d="M418 525q50 -32 75 -89v115h114v-813h-114v383q-26 -60 -76 -94t-119 -34q-72 0 -131 35t-92.5 98.5t-33.5 147.5t33.5 148t92.5 99.5t131 35.5q70 0 120 -32zM205 408.5q-47 -48.5 -47 -134.5t46.5 -133t120.5 -47q46 0 84 21.5t61 62.5t23 98q0 56 -23 97t-61 62.5
t-84 21.5q-73 0 -120 -48.5z" />
    <glyph glyph-name="r" unicode="r" horiz-adv-x="399" 
d="M263 528.5q52 31.5 120 31.5v-124h-34q-75 0 -120.5 -36.5t-45.5 -120.5v-279h-114v551h114v-108q28 54 80 85.5z" />
    <glyph glyph-name="s" unicode="s" horiz-adv-x="528" 
d="M405.5 508.5q58.5 -49.5 71.5 -132.5h-108q-7 45 -38.5 72.5t-83.5 27.5q-43 0 -66.5 -20.5t-23.5 -55.5q0 -26 17 -42t42.5 -25t72.5 -20q62 -14 100.5 -29t66 -47.5t27.5 -88.5q0 -69 -52.5 -112t-141.5 -43q-103 0 -166.5 48t-76.5 134h111q5 -45 40 -73t92 -28
q41 0 64.5 21.5t23.5 54.5q0 29 -18 46t-45 26.5t-74 19.5q-60 14 -97.5 28t-64 45.5t-26.5 85.5q0 70 52.5 113.5t145.5 43.5q97 0 155.5 -49.5z" />
    <glyph glyph-name="t" unicode="t" horiz-adv-x="384" 
d="M346 99v-99h-70q-88 0 -133.5 42.5t-45.5 141.5v270h-79v97h79v137h115v-137h133v-97h-133v-272q0 -47 17.5 -65t61.5 -18h55z" />
    <glyph glyph-name="u" unicode="u" horiz-adv-x="645" 
d="M577 551v-551h-115v120q-21 -61 -73 -94.5t-121 -33.5q-96 0 -154 62t-58 177v320h114v-308q0 -75 38 -115.5t104 -40.5q68 0 109 44t41 128v292h115z" />
    <glyph glyph-name="v" unicode="v" horiz-adv-x="588" 
d="M295 118l156 433h122l-210 -551h-138l-210 551h122z" />
    <glyph glyph-name="w" unicode="w" horiz-adv-x="850" 
d="M841 551l-153 -551h-126l-136 426l-138 -426h-125l-153 551h115l105 -446l138 446h120l140 -446l105 446h108z" />
    <glyph glyph-name="x" unicode="x" horiz-adv-x="534" 
d="M395 0l-135 195l-118 -195h-127l182 286l-184 265h129l132 -190l117 190h126l-182 -278l189 -273h-129z" />
    <glyph glyph-name="y" unicode="y" horiz-adv-x="585" 
d="M134 551l165 -405l153 405h127l-333 -813h-127l119 275l-232 538h128z" />
    <glyph glyph-name="z" unicode="z" horiz-adv-x="459" 
d="M151 96h283v-96h-409v91l268 364h-261v96h392v-91z" />
    <glyph glyph-name="braceleft" unicode="{" horiz-adv-x="396" 
d="M229.5 320.5q28.5 -38.5 28.5 -96.5q0 -30 -10 -88q-12 -64 -12 -111q0 -87 38 -146.5t91 -85.5v-10h-108q-24 12 -53 41.5t-51.5 81.5t-22.5 124q0 42 12 108q11 55 11 89q0 101 -105 122v46q62 12 83.5 45t21.5 77q0 34 -11 89q-12 66 -12 108q0 72 22.5 124t51.5 81.5
t53 41.5h108v-10q-53 -26 -91 -85.5t-38 -146.5q0 -47 12 -111q10 -58 10 -88q0 -58 -28 -96.5t-86 -50.5v-2q57 -12 85.5 -50.5z" />
    <glyph glyph-name="bar" unicode="|" horiz-adv-x="224" 
d="M169 -113h-115v915h115v-915z" />
    <glyph glyph-name="braceright" unicode="}" horiz-adv-x="390" 
d="M173 421q-28 36 -28 90q0 30 10 88q4 25 7.5 53.5t3.5 57.5q0 58 -18.5 107t-48 83.5t-61.5 50.5v10h108q24 -13 52.5 -42t51 -81.5t22.5 -123.5q0 -42 -12 -108q-10 -60 -10 -89q0 -104 104 -122v-46q-60 -9 -82 -43.5t-22 -78.5q0 -29 10 -89q12 -66 12 -108
q0 -71 -22.5 -123.5t-51 -81.5t-52.5 -42h-108v10q32 16 61.5 50.5t48 83.5t18.5 107q0 29 -3.5 58t-7.5 54q-10 56 -10 87q0 54 28 90t86 48v2q-58 12 -86 48z" />
    <glyph glyph-name="asciitilde" unicode="~" horiz-adv-x="553" 
d="M239 394.5q23 -9.5 56 -28.5q24 -14 41 -21.5t35 -7.5q51 0 62 68h89q-14 -85 -55 -128t-103 -43q-29 0 -52.5 9.5t-53.5 27.5q-24 15 -41.5 22.5t-35.5 7.5q-50 0 -63 -68h-87q14 85 54.5 128t102.5 43q28 0 51 -9.5z" />
    <glyph glyph-name="uni00A0" unicode="&#xa0;" horiz-adv-x="234" 
 />
    <glyph glyph-name="exclamdown" unicode="&#xa1;" horiz-adv-x="336" 
d="M229 -168l-15 507h-96l-15 -507h126zM232 434v126h-130v-126h130z" />
    <glyph glyph-name="cent" unicode="&#xa2;" horiz-adv-x="584" 
d="M390 130.5q38 28.5 47 78.5h106q-10 -87 -70.5 -140.5t-150.5 -59.5v-97h-54v97q-104 9 -165.5 75.5t-61.5 177.5t61.5 177.5t165.5 75.5v92h54v-92q90 -6 150.5 -59.5t70.5 -140.5h-106q-10 51 -47.5 79.5t-89.5 28.5q-65 0 -107 -41.5t-42 -119.5t42 -119t107 -41
q52 0 90 28.5z" />
    <glyph glyph-name="sterling" unicode="&#xa3;" horiz-adv-x="605" 
d="M256.5 168q-18.5 -43 -57.5 -80h357v-91h-468l-14 59q47 45 69.5 89.5t22.5 106.5q0 20 -7 51h-118v78h93q-14 44 -22 79.5t-8 74.5q0 61 27.5 107t77.5 71.5t115 25.5q105 0 165 -59t69 -154h-106q-5 53 -38 86t-86 33q-50 0 -82 -31.5t-32 -90.5q0 -31 8.5 -62
t25.5 -80h181v-78h-159q5 -27 5 -49q0 -43 -18.5 -86z" />
    <glyph glyph-name="currency" unicode="&#xa4;" horiz-adv-x="549" 
d="M426 266l56 -55l-45 -45l-59 59q-46 -26 -103 -26q-60 0 -104 26l-60 -59l-45 45l58 56q-35 46 -35 111q0 66 36 111l-59 58l45 45l62 -62q45 25 102 25q58 0 101 -24l61 61l45 -45l-58 -56q39 -45 39 -113q0 -65 -37 -112zM344 297.5q28 28.5 28 79.5t-28 80t-69 29
q-42 0 -69 -29t-27 -80t27 -79.5t69 -28.5q41 0 69 28.5z" />
    <glyph glyph-name="yen" unicode="&#xa5;" horiz-adv-x="641" 
d="M453 396h127v-77h-168l-32 -62v-8h200v-78h-200v-171h-115v171h-200v78h200v8l-33 62h-167v77h127l-163 310h132l162 -344l162 344h130z" />
    <glyph glyph-name="brokenbar" unicode="&#xa6;" horiz-adv-x="304" 
d="M94 802h115v-388h-115v388zM209 -113h-115v388h115v-388z" />
    <glyph glyph-name="section" unicode="&#xa7;" horiz-adv-x="580" 
d="M480.5 54q27.5 -37 27.5 -84q0 -71 -54.5 -114.5t-151.5 -43.5q-98 0 -157.5 50.5t-69.5 135.5h114q5 -47 33 -75.5t82 -28.5q40 0 64 18t24 53q0 38 -35.5 65t-125.5 60q-91 31 -140 73t-49 111q0 54 34 97t103 59q-107 58 -107 149q0 70 55 113.5t153 43.5
q97 0 156 -50.5t68 -136.5h-113q-3 45 -31.5 74.5t-81.5 29.5q-42 0 -66 -17t-24 -52q0 -39 35.5 -66.5t124.5 -59.5q91 -32 140.5 -73.5t49.5 -110.5q0 -53 -33 -94.5t-101 -61.5q49 -27 76.5 -64zM197.5 198.5q33.5 -28.5 93.5 -28.5q59 0 92.5 30t33.5 74
q0 46 -33.5 74.5t-94.5 28.5q-59 0 -92 -29.5t-33 -73.5q0 -47 33.5 -75.5z" />
    <glyph glyph-name="dieresis" unicode="&#xa8;" horiz-adv-x="365" 
d="M54 720q16 16 40 16t40.5 -16t16.5 -40q0 -23 -16.5 -39.5t-40.5 -16.5t-40 16.5t-16 39.5q0 24 16 40zM231 720q16 16 40 16t40 -16t16 -40q0 -23 -16 -39.5t-40 -16.5t-40 16.5t-16 39.5q0 24 16 40z" />
    <glyph glyph-name="copyright" unicode="&#xa9;" horiz-adv-x="788" 
d="M213 665q-79 -45 -123 -126t-44 -184t44 -184.5t123 -127t181 -45.5t181 45.5t123 126.5t44 185q0 103 -44 184t-123 126t-181 45t-181 -45zM556 630.5q69 -39.5 106 -111t37 -164.5q0 -92 -37 -164t-106.5 -112.5t-161.5 -40.5t-161.5 40.5t-106.5 112.5t-37 164
q0 93 37 164.5t106 111t162 39.5t162 -39.5zM531.5 539.5q57.5 -44.5 73.5 -121.5h-97q-13 41 -44 64.5t-71 23.5q-53 0 -88.5 -39.5t-35.5 -112.5q0 -72 35.5 -111.5t88.5 -39.5q40 0 71 23t44 65h97q-16 -78 -73.5 -122.5t-133.5 -44.5q-62 0 -112 27.5t-79 79.5t-29 124
q0 71 29 123t79 79t112 27q76 0 133.5 -44.5z" />
    <glyph glyph-name="ordfeminine" unicode="&#xaa;" horiz-adv-x="456" 
d="M326 627v78h87v-351h-87v78q-36 -84 -132 -84q-72 0 -117.5 49t-45.5 132t45 132t118 49q97 0 132 -83zM149 609.5q-28 -30.5 -28 -81.5q0 -50 28 -79t72 -29q47 0 76 29.5t29 80.5q0 50 -29.5 80t-75.5 30q-44 0 -72 -30.5z" />
    <glyph glyph-name="guillemotleft" unicode="&#xab;" horiz-adv-x="489" 
d="M138 120l-93 175l93 175h109l-95 -175l95 -175h-109zM335 120l-93 175l93 175h108l-95 -175l95 -175h-108z" />
    <glyph glyph-name="logicalnot" unicode="&#xac;" horiz-adv-x="748" 
d="M694 435v-227h-114v139h-539v88h653z" />
    <glyph glyph-name="uni00AD" unicode="&#xad;" horiz-adv-x="506" 
d="M403 410v-96h-412v96h412z" />
    <glyph glyph-name="registered" unicode="&#xae;" horiz-adv-x="802" 
d="M586.5 666.5q80.5 -44.5 125 -125.5t44.5 -186q0 -103 -44.5 -184.5t-125 -127t-184.5 -45.5t-185 45.5t-126 127t-45 184.5q0 105 44.5 186t125.5 125.5t186 44.5q104 0 184.5 -44.5zM566.5 82q70.5 39 108.5 109.5t38 163.5q0 95 -38 166.5t-108.5 110.5t-164.5 39
q-95 0 -166 -39t-109 -110.5t-38 -166.5q0 -93 38 -163.5t109 -109.5t166 -39q94 0 164.5 39zM548.5 375q-29.5 -33 -86.5 -42l119 -187h-81l-114 184h-51v-184h-74v439h162q78 0 116.5 -35.5t38.5 -91.5q0 -50 -29.5 -83zM335 379h81q87 0 87 70q0 34 -20.5 51.5
t-66.5 17.5h-81v-139z" />
    <glyph glyph-name="macron" unicode="&#xaf;" horiz-adv-x="418" 
d="M392 720v-78h-366v78h366z" />
    <glyph glyph-name="degree" unicode="&#xb0;" horiz-adv-x="422" 
d="M345 654.5q50 -47.5 50 -128.5q0 -82 -49.5 -130.5t-132.5 -48.5t-134.5 49t-51.5 130t50 128.5t134 47.5t134 -47.5zM143.5 609q-26.5 -30 -26.5 -84t27 -83.5t69 -29.5q41 0 66.5 29t25.5 84q0 54 -26 84t-67 30q-42 0 -68.5 -30z" />
    <glyph glyph-name="plusminus" unicode="&#xb1;" horiz-adv-x="571" 
d="M341 369v-172h200v-104h-510v104h199v172h-199v104h199v160h111v-160h200v-104h-200z" />
    <glyph glyph-name="twosuperior" unicode="&#xb2;" horiz-adv-x="358" 
d="M323 420v-68h-279v63l124 92q30 24 45.5 46.5t15.5 49.5q0 23 -12.5 34.5t-32.5 11.5q-25 0 -39.5 -16.5t-17.5 -48.5h-87q4 56 44 92t110 36q62 0 94.5 -29t32.5 -73q0 -40 -27 -71.5t-86 -66.5l-79 -52h194z" />
    <glyph glyph-name="threesuperior" unicode="&#xb3;" horiz-adv-x="349" 
d="M278 684q37 -28 37 -73q0 -64 -71 -79v-3q76 -19 76 -84q0 -43 -37 -70t-102 -27q-76 0 -112 28.5t-42 85.5h92q2 -29 16.5 -40t38.5 -11q26 0 40 12.5t14 36.5q0 25 -17 38.5t-45 13.5h-47v35h44q28 0 44 13.5t16 39.5q0 22 -14 35t-38 13q-48 0 -56 -49h-84q4 49 40 81
t109 32q61 0 98 -28z" />
    <glyph glyph-name="acute" unicode="&#xb4;" horiz-adv-x="273" 
d="M247 707l-221 -113v80l221 122v-89z" />
    <glyph glyph-name="uni00B5" unicode="&#xb5;" horiz-adv-x="681" 
d="M601 551v-551h-115v115q-21 -59 -69.5 -91t-113.5 -32q-33 0 -62 12t-47 39v-305h-114v813h114v-287q0 -84 40.5 -128t108.5 -44q65 0 104 42.5t39 124.5v292h115z" />
    <glyph glyph-name="paragraph" unicode="&#xb6;" horiz-adv-x="625" 
d="M545 0h-94v608h-85v-608h-93v282h-15q-118 0 -177.5 58t-59.5 148q0 91 60 149t177 58h287v-695z" />
    <glyph glyph-name="periodcentered" unicode="&#xb7;" horiz-adv-x="204" 
d="M166 395v-126h-129v126h129z" />
    <glyph glyph-name="cedilla" unicode="&#xb8;" horiz-adv-x="293" 
d="M230.5 -82.5q36.5 -24.5 36.5 -76.5q0 -51 -35.5 -77t-90.5 -26h-115v64h102q60 0 60 42q0 18 -14.5 29t-45.5 11h-59v123h70v-67q55 2 91.5 -22.5z" />
    <glyph glyph-name="onesuperior" unicode="&#xb9;" horiz-adv-x="216" 
d="M31 635v69h147v-352h-88v283h-59z" />
    <glyph glyph-name="ordmasculine" unicode="&#xba;" horiz-adv-x="439" 
d="M319.5 686q43.5 -23 67 -64.5t23.5 -94.5q0 -52 -24 -93.5t-67 -65t-99 -23.5t-99 23.5t-66.5 65t-23.5 93.5q0 53 23.5 94.5t66.5 64.5t99 23t99.5 -23zM148 610.5q-28 -29.5 -28 -83.5q0 -53 28 -82.5t72 -29.5t72.5 29.5t28.5 82.5q0 54 -28.5 83.5t-72.5 29.5
t-72 -29.5z" />
    <glyph glyph-name="guillemotright" unicode="&#xbb;" horiz-adv-x="489" 
d="M146 295l-96 175h110l92 -175l-92 -175h-110zM343 295l-96 175h109l92 -175l-92 -175h-109z" />
    <glyph glyph-name="onequarter" unicode="&#xbc;" horiz-adv-x="684" 
d="M561 706l-366 -706h-113l367 706h112zM53 635v69h147v-352h-88v283h-59zM653 68h-46v-68h-88v68h-186v49l160 236h114v-233h46v-52zM523 281l-106 -159h106v159z" />
    <glyph glyph-name="onehalf" unicode="&#xbd;" horiz-adv-x="750" 
d="M557 707l-372 -707h-112l371 707h113zM114 635h-59v69h147v-352h-88v283zM691 67v-68h-279v63l124 92q30 24 45.5 46.5t15.5 49.5q0 23 -12.5 34.5t-32.5 11.5q-25 0 -39.5 -16.5t-17.5 -48.5h-87q4 56 44 92t110 36q62 0 94.5 -29t32.5 -73q0 -40 -27 -71.5t-86 -66.5
l-79 -52h194z" />
    <glyph glyph-name="threequarters" unicode="&#xbe;" horiz-adv-x="763" 
d="M312 684q37 -28 37 -73q0 -64 -71 -79v-3q76 -19 76 -84q0 -43 -37 -70t-102 -27q-76 0 -112 28.5t-42 85.5h92q2 -29 16.5 -40t38.5 -11q26 0 40 12.5t14 36.5q0 25 -17 38.5t-45 13.5h-47v35h44q28 0 44 13.5t16 39.5q0 22 -14 35t-38 13q-48 0 -56 -49h-84q4 49 40 81
t109 32q61 0 98 -28zM650 707l-358 -707h-113l358 707h113zM735 68h-46v-68h-87v68h-187v49l150 236h124v-233h46v-52zM606 291l-106 -171h106v171z" />
    <glyph glyph-name="questiondown" unicode="&#xbf;" horiz-adv-x="498" 
d="M116 -132q-60 54 -60 150q0 104 64.5 156.5t175.5 54.5v110h108v-186h-48q-87 0 -137 -28.5t-50 -105.5q0 -52 30 -81.5t81 -29.5q54 0 87 31t33 81h109q1 -60 -27 -106.5t-81 -73t-125 -26.5q-100 0 -160 54zM284 428v126h130v-126h-130z" />
    <glyph glyph-name="Agrave" unicode="&#xc0;" horiz-adv-x="682" 
d="M490 153h-298l-54 -153h-122l260 695h131l259 -695h-122zM458 241l-117 330l-117 -330h234zM399 829v-80l-221 113v89z" />
    <glyph glyph-name="Aacute" unicode="&#xc1;" horiz-adv-x="682" 
d="M490 153h-298l-54 -153h-122l260 695h131l259 -695h-122zM458 241l-117 330l-117 -330h234zM499 862l-221 -113v80l221 122v-89z" />
    <glyph glyph-name="Acircumflex" unicode="&#xc2;" horiz-adv-x="682" 
d="M490 153h-298l-54 -153h-122l260 695h131l259 -695h-122zM458 241l-117 330l-117 -330h234zM342 846l-144 -84v78l144 83l142 -83v-78z" />
    <glyph glyph-name="Atilde" unicode="&#xc3;" horiz-adv-x="682" 
d="M490 153h-298l-54 -153h-122l260 695h131l259 -695h-122zM458 241l-117 330l-117 -330h234zM314.5 873.5q14.5 -6.5 36.5 -19.5q15 -11 27.5 -16.5t26.5 -5.5q17 0 28.5 12t15.5 35h60q-8 -58 -36.5 -87t-71.5 -29q-21 0 -37.5 7t-36.5 20q-19 11 -28.5 15.5t-22.5 4.5
q-37 0 -43 -47h-61q19 117 108 117q20 0 34.5 -6.5z" />
    <glyph glyph-name="Adieresis" unicode="&#xc4;" horiz-adv-x="682" 
d="M490 153h-298l-54 -153h-122l260 695h131l259 -695h-122zM458 241l-117 330l-117 -330h234zM212 875q16 16 40 16t40.5 -16t16.5 -40q0 -23 -16.5 -39.5t-40.5 -16.5t-40 16.5t-16 39.5q0 24 16 40zM389 875q16 16 40 16t40 -16t16 -40q0 -23 -16 -39.5t-40 -16.5
t-40 16.5t-16 39.5q0 24 16 40z" />
    <glyph glyph-name="Aring" unicode="&#xc5;" horiz-adv-x="682" 
d="M490 153h-298l-54 -153h-122l260 695h131l259 -695h-122zM458 241l-117 330l-117 -330h234zM419 949q31 -30 31 -80t-31.5 -79.5t-77.5 -29.5q-47 0 -78.5 29.5t-31.5 79.5t31.5 80t78.5 30t78 -30zM298.5 913.5q-16.5 -16.5 -16.5 -44.5q0 -27 16.5 -43.5t42.5 -16.5
q25 0 41.5 16.5t16.5 43.5q0 28 -16.5 44.5t-41.5 16.5q-26 0 -42.5 -16.5z" />
    <glyph glyph-name="AE" unicode="&#xc6;" horiz-adv-x="907" 
d="M580 614v-213h255v-88h-255v-220h285v-93h-400v148h-252l-82 -148h-126l389 706h471v-92h-285zM465 236v370l-204 -370h204z" />
    <glyph glyph-name="Ccedilla" unicode="&#xc7;" horiz-adv-x="761" 
d="M600 647q86 -66 116 -179h-121q-25 64 -79.5 101.5t-133.5 37.5q-63 0 -112.5 -31t-78 -88.5t-28.5 -134.5q0 -76 28.5 -133.5t78 -88.5t112.5 -31q79 0 133.5 37.5t79.5 100.5h121q-30 -113 -116 -178.5t-216 -65.5q-100 0 -177 45.5t-119 127t-42 186.5t42 186.5
t119 127.5t177 46q130 0 216 -66zM509.5 -82.5q36.5 -24.5 36.5 -76.5q0 -51 -35.5 -77t-90.5 -26h-115v64h102q60 0 60 42q0 18 -14.5 29t-45.5 11h-59v123h70v-67q55 2 91.5 -22.5z" />
    <glyph glyph-name="Egrave" unicode="&#xc8;" horiz-adv-x="515" 
d="M183 614v-214h260v-88h-260v-219h290v-93h-404v706h404v-92h-290zM329 829v-80l-221 113v89z" />
    <glyph glyph-name="Eacute" unicode="&#xc9;" horiz-adv-x="515" 
d="M183 614v-214h260v-88h-260v-219h290v-93h-404v706h404v-92h-290zM430 862l-221 -113v80l221 122v-89z" />
    <glyph glyph-name="Ecircumflex" unicode="&#xca;" horiz-adv-x="515" 
d="M183 614v-214h260v-88h-260v-219h290v-93h-404v706h404v-92h-290zM272 846l-144 -84v78l144 83l142 -83v-78z" />
    <glyph glyph-name="Edieresis" unicode="&#xcb;" horiz-adv-x="515" 
d="M183 614v-214h260v-88h-260v-219h290v-93h-404v706h404v-92h-290zM143 875q16 16 40 16t40.5 -16t16.5 -40q0 -23 -16.5 -39.5t-40.5 -16.5t-40 16.5t-16 39.5q0 24 16 40zM320 875q16 16 40 16t40 -16t16 -40q0 -23 -16 -39.5t-40 -16.5t-40 16.5t-16 39.5q0 24 16 40z
" />
    <glyph glyph-name="Igrave" unicode="&#xcc;" horiz-adv-x="252" 
d="M183 706v-706h-114v706h114zM184 829v-80l-221 113v89z" />
    <glyph glyph-name="Iacute" unicode="&#xcd;" horiz-adv-x="252" 
d="M183 706v-706h-114v706h114zM285 862l-221 -113v80l221 122v-89z" />
    <glyph glyph-name="Icircumflex" unicode="&#xce;" horiz-adv-x="252" 
d="M183 706v-706h-114v706h114zM127 846l-144 -84v78l144 83l142 -83v-78z" />
    <glyph glyph-name="Idieresis" unicode="&#xcf;" horiz-adv-x="252" 
d="M183 706v-706h-114v706h114zM-2 875q16 16 40 16t40.5 -16t16.5 -40q0 -23 -16.5 -39.5t-40.5 -16.5t-40 16.5t-16 39.5q0 24 16 40zM175 875q16 16 40 16t40 -16t16 -40q0 -23 -16 -39.5t-40 -16.5t-40 16.5t-16 39.5q0 24 16 40z" />
    <glyph glyph-name="Eth" unicode="&#xd0;" horiz-adv-x="742" 
d="M526.5 662.5q83.5 -43.5 127 -122.5t43.5 -186t-43.5 -186.5t-127 -123.5t-200.5 -44h-236v308h-85v92h85v306h236q117 0 200.5 -43.5zM512 169q68 66 68 185t-68 185t-195 66h-112v-205h184v-92h-184v-205h112q127 0 195 66z" />
    <glyph glyph-name="Ntilde" unicode="&#xd1;" horiz-adv-x="709" 
d="M640 0h-114l-343 521v-521h-114v705h114l343 -523v523h114v-705zM327.5 873.5q14.5 -6.5 36.5 -19.5q15 -11 27.5 -16.5t26.5 -5.5q17 0 28.5 12t15.5 35h60q-8 -58 -36.5 -87t-71.5 -29q-21 0 -37.5 7t-36.5 20q-19 11 -28.5 15.5t-22.5 4.5q-37 0 -43 -47h-61
q19 117 108 117q20 0 34.5 -6.5z" />
    <glyph glyph-name="Ograve" unicode="&#xd2;" horiz-adv-x="790" 
d="M573.5 669q79.5 -46 125 -128.5t45.5 -186.5t-45.5 -186.5t-125 -129t-177.5 -46.5q-99 0 -178.5 46.5t-125.5 129t-46 186.5t46 186.5t125.5 128.5t178.5 46q98 0 177.5 -46zM275 578q-53 -31 -82.5 -89t-29.5 -135t29.5 -135t82.5 -89t121 -31q67 0 119.5 31t82 89
t29.5 135t-29.5 135t-82 89t-119.5 31q-68 0 -121 -31zM453 829v-80l-221 113v89z" />
    <glyph glyph-name="Oacute" unicode="&#xd3;" horiz-adv-x="790" 
d="M573.5 669q79.5 -46 125 -128.5t45.5 -186.5t-45.5 -186.5t-125 -129t-177.5 -46.5q-99 0 -178.5 46.5t-125.5 129t-46 186.5t46 186.5t125.5 128.5t178.5 46q98 0 177.5 -46zM275 578q-53 -31 -82.5 -89t-29.5 -135t29.5 -135t82.5 -89t121 -31q67 0 119.5 31t82 89
t29.5 135t-29.5 135t-82 89t-119.5 31q-68 0 -121 -31zM554 862l-221 -113v80l221 122v-89z" />
    <glyph glyph-name="Ocircumflex" unicode="&#xd4;" horiz-adv-x="790" 
d="M573.5 669q79.5 -46 125 -128.5t45.5 -186.5t-45.5 -186.5t-125 -129t-177.5 -46.5q-99 0 -178.5 46.5t-125.5 129t-46 186.5t46 186.5t125.5 128.5t178.5 46q98 0 177.5 -46zM275 578q-53 -31 -82.5 -89t-29.5 -135t29.5 -135t82.5 -89t121 -31q67 0 119.5 31t82 89
t29.5 135t-29.5 135t-82 89t-119.5 31q-68 0 -121 -31zM396 846l-144 -84v78l144 83l142 -83v-78z" />
    <glyph glyph-name="Otilde" unicode="&#xd5;" horiz-adv-x="790" 
d="M573.5 669q79.5 -46 125 -128.5t45.5 -186.5t-45.5 -186.5t-125 -129t-177.5 -46.5q-99 0 -178.5 46.5t-125.5 129t-46 186.5t46 186.5t125.5 128.5t178.5 46q98 0 177.5 -46zM275 578q-53 -31 -82.5 -89t-29.5 -135t29.5 -135t82.5 -89t121 -31q67 0 119.5 31t82 89
t29.5 135t-29.5 135t-82 89t-119.5 31q-68 0 -121 -31zM368.5 873.5q14.5 -6.5 36.5 -19.5q15 -11 27.5 -16.5t26.5 -5.5q17 0 28.5 12t15.5 35h60q-8 -58 -36.5 -87t-71.5 -29q-21 0 -37.5 7t-36.5 20q-19 11 -28.5 15.5t-22.5 4.5q-37 0 -43 -47h-61q19 117 108 117
q20 0 34.5 -6.5z" />
    <glyph glyph-name="Odieresis" unicode="&#xd6;" horiz-adv-x="790" 
d="M573.5 669q79.5 -46 125 -128.5t45.5 -186.5t-45.5 -186.5t-125 -129t-177.5 -46.5q-99 0 -178.5 46.5t-125.5 129t-46 186.5t46 186.5t125.5 128.5t178.5 46q98 0 177.5 -46zM275 578q-53 -31 -82.5 -89t-29.5 -135t29.5 -135t82.5 -89t121 -31q67 0 119.5 31t82 89
t29.5 135t-29.5 135t-82 89t-119.5 31q-68 0 -121 -31zM267 875q16 16 40 16t40.5 -16t16.5 -40q0 -23 -16.5 -39.5t-40.5 -16.5t-40 16.5t-16 39.5q0 24 16 40zM444 875q16 16 40 16t40 -16t16 -40q0 -23 -16 -39.5t-40 -16.5t-40 16.5t-16 39.5q0 24 16 40z" />
    <glyph glyph-name="multiply" unicode="&#xd7;" horiz-adv-x="522" 
d="M415 135l-156 155l-154 -154l-74 73l154 155l-153 152l77 76l152 -152l150 151l74 -73l-151 -151l157 -157z" />
    <glyph glyph-name="Oslash" unicode="&#xd8;" horiz-adv-x="790" 
d="M654 603q43 -48 66.5 -111.5t23.5 -137.5q0 -104 -45.5 -186.5t-125 -129t-177.5 -46.5q-65 0 -122 20t-102 58l-63 -70h-68l95 105q-43 48 -66.5 111.5t-23.5 137.5q0 104 46 186.5t125.5 128.5t178.5 46q64 0 120.5 -20t101.5 -57l64 70h67zM211 188l334 369
q-30 25 -68 38.5t-81 13.5q-68 0 -121 -31t-82.5 -89t-29.5 -135q0 -97 48 -166zM579 520l-333 -369q60 -52 150 -52q67 0 119.5 31t82 89t29.5 135q0 97 -48 166z" />
    <glyph glyph-name="Ugrave" unicode="&#xd9;" horiz-adv-x="671" 
d="M178 706v-419q0 -94 41.5 -140t116.5 -46q74 0 115.5 46t41.5 140v419h114v-419q0 -145 -75 -219.5t-198 -74.5q-122 0 -196 74.5t-74 219.5v419h114zM393 829v-80l-221 113v89z" />
    <glyph glyph-name="Uacute" unicode="&#xda;" horiz-adv-x="671" 
d="M178 706v-419q0 -94 41.5 -140t116.5 -46q74 0 115.5 46t41.5 140v419h114v-419q0 -145 -75 -219.5t-198 -74.5q-122 0 -196 74.5t-74 219.5v419h114zM494 862l-221 -113v80l221 122v-89z" />
    <glyph glyph-name="Ucircumflex" unicode="&#xdb;" horiz-adv-x="671" 
d="M178 706v-419q0 -94 41.5 -140t116.5 -46q74 0 115.5 46t41.5 140v419h114v-419q0 -145 -75 -219.5t-198 -74.5q-122 0 -196 74.5t-74 219.5v419h114zM337 846l-144 -84v78l144 83l142 -83v-78z" />
    <glyph glyph-name="Udieresis" unicode="&#xdc;" horiz-adv-x="671" 
d="M178 706v-419q0 -94 41.5 -140t116.5 -46q74 0 115.5 46t41.5 140v419h114v-419q0 -145 -75 -219.5t-198 -74.5q-122 0 -196 74.5t-74 219.5v419h114zM207 875q16 16 40 16t40.5 -16t16.5 -40q0 -23 -16.5 -39.5t-40.5 -16.5t-40 16.5t-16 39.5q0 24 16 40zM384 875
q16 16 40 16t40 -16t16 -40q0 -23 -16 -39.5t-40 -16.5t-40 16.5t-16 39.5q0 24 16 40z" />
    <glyph glyph-name="Yacute" unicode="&#xdd;" horiz-adv-x="618" 
d="M602 706l-235 -449v-257h-115v257l-236 449h132l162 -327l162 327h130zM468 862l-221 -113v80l221 122v-89z" />
    <glyph glyph-name="Thorn" unicode="&#xde;" horiz-adv-x="585" 
d="M183 143v-143h-114v706h114v-140h126q122 0 183.5 -57t61.5 -156q0 -98 -63 -154t-182 -56h-126zM438 353q0 60 -33 91.5t-108 31.5h-114v-244h114q141 0 141 121z" />
    <glyph glyph-name="germandbls" unicode="&#xdf;" horiz-adv-x="675" 
d="M616 286.5q33 -48.5 33 -117.5q0 -50 -24.5 -90.5t-68.5 -64t-102 -23.5q-96 0 -149 52t-54 145h96q2 -45 26.5 -71t70.5 -26t69.5 25.5t23.5 61.5t-18.5 63.5t-65.5 57.5l-154 93v49l29 15q30 16 43.5 37.5t13.5 51.5q0 45 -26.5 73t-70.5 28q-48 0 -76.5 -29.5
t-28.5 -81.5v-535h-114v513q0 118 60 177.5t172 59.5q61 0 106.5 -21.5t70 -59t24.5 -84.5q0 -46 -24 -80.5t-77 -58.5l106 -65q76 -46 109 -94.5z" />
    <glyph glyph-name="agrave" unicode="&#xe0;" horiz-adv-x="675" 
d="M418 521q53 -37 75 -98v128h114v-551h-114v128q-22 -61 -75 -98t-128 -37q-72 0 -128.5 34t-88.5 98t-32 151q0 86 32 150t88.5 98t128.5 34q75 0 128 -37zM203.5 409.5q-45.5 -48.5 -45.5 -133.5t45.5 -133.5t121.5 -48.5q48 0 86 22.5t60 63.5t22 96q0 54 -22 95.5
t-60 64t-86 22.5q-76 0 -121.5 -48.5zM382 674v-80l-221 113v89z" />
    <glyph glyph-name="aacute" unicode="&#xe1;" horiz-adv-x="675" 
d="M418 521q53 -37 75 -98v128h114v-551h-114v128q-22 -61 -75 -98t-128 -37q-72 0 -128.5 34t-88.5 98t-32 151q0 86 32 150t88.5 98t128.5 34q75 0 128 -37zM203.5 409.5q-45.5 -48.5 -45.5 -133.5t45.5 -133.5t121.5 -48.5q48 0 86 22.5t60 63.5t22 96q0 54 -22 95.5
t-60 64t-86 22.5q-76 0 -121.5 -48.5zM483 707l-221 -113v80l221 122v-89z" />
    <glyph glyph-name="acircumflex" unicode="&#xe2;" horiz-adv-x="675" 
d="M418 521q53 -37 75 -98v128h114v-551h-114v128q-22 -61 -75 -98t-128 -37q-72 0 -128.5 34t-88.5 98t-32 151q0 86 32 150t88.5 98t128.5 34q75 0 128 -37zM203.5 409.5q-45.5 -48.5 -45.5 -133.5t45.5 -133.5t121.5 -48.5q48 0 86 22.5t60 63.5t22 96q0 54 -22 95.5
t-60 64t-86 22.5q-76 0 -121.5 -48.5zM325 691l-144 -84v78l144 83l142 -83v-78z" />
    <glyph glyph-name="atilde" unicode="&#xe3;" horiz-adv-x="675" 
d="M418 521q53 -37 75 -98v128h114v-551h-114v128q-22 -61 -75 -98t-128 -37q-72 0 -128.5 34t-88.5 98t-32 151q0 86 32 150t88.5 98t128.5 34q75 0 128 -37zM203.5 409.5q-45.5 -48.5 -45.5 -133.5t45.5 -133.5t121.5 -48.5q48 0 86 22.5t60 63.5t22 96q0 54 -22 95.5
t-60 64t-86 22.5q-76 0 -121.5 -48.5zM297.5 718.5q14.5 -6.5 36.5 -19.5q15 -11 27.5 -16.5t26.5 -5.5q17 0 28.5 12t15.5 35h60q-8 -58 -36.5 -87t-71.5 -29q-21 0 -37.5 7t-36.5 20q-19 11 -28.5 15.5t-22.5 4.5q-37 0 -43 -47h-61q19 117 108 117q20 0 34.5 -6.5z" />
    <glyph glyph-name="adieresis" unicode="&#xe4;" horiz-adv-x="675" 
d="M418 521q53 -37 75 -98v128h114v-551h-114v128q-22 -61 -75 -98t-128 -37q-72 0 -128.5 34t-88.5 98t-32 151q0 86 32 150t88.5 98t128.5 34q75 0 128 -37zM203.5 409.5q-45.5 -48.5 -45.5 -133.5t45.5 -133.5t121.5 -48.5q48 0 86 22.5t60 63.5t22 96q0 54 -22 95.5
t-60 64t-86 22.5q-76 0 -121.5 -48.5zM196 720q16 16 40 16t40.5 -16t16.5 -40q0 -23 -16.5 -39.5t-40.5 -16.5t-40 16.5t-16 39.5q0 24 16 40zM373 720q16 16 40 16t40 -16t16 -40q0 -23 -16 -39.5t-40 -16.5t-40 16.5t-16 39.5q0 24 16 40z" />
    <glyph glyph-name="aring" unicode="&#xe5;" horiz-adv-x="675" 
d="M418 521q53 -37 75 -98v128h114v-551h-114v128q-22 -61 -75 -98t-128 -37q-72 0 -128.5 34t-88.5 98t-32 151q0 86 32 150t88.5 98t128.5 34q75 0 128 -37zM203.5 409.5q-45.5 -48.5 -45.5 -133.5t45.5 -133.5t121.5 -48.5q48 0 86 22.5t60 63.5t22 96q0 54 -22 95.5
t-60 64t-86 22.5q-76 0 -121.5 -48.5zM402 794q31 -30 31 -80t-31.5 -79.5t-77.5 -29.5q-47 0 -78.5 29.5t-31.5 79.5t31.5 80t78.5 30t78 -30zM281.5 758.5q-16.5 -16.5 -16.5 -44.5q0 -27 16.5 -43.5t42.5 -16.5q25 0 41.5 16.5t16.5 43.5q0 28 -16.5 44.5t-41.5 16.5
q-26 0 -42.5 -16.5z" />
    <glyph glyph-name="ae" unicode="&#xe6;" horiz-adv-x="1097" 
d="M1051 253h-441q4 -85 50.5 -127t114.5 -42q61 0 102 29t52 79h121q-16 -89 -79.5 -144t-158.5 -55q-75 0 -129.5 35t-75.5 101v-129h-114v128q-22 -61 -75 -98t-128 -37q-72 0 -128.5 34t-88.5 98t-32 151q0 86 32 150t88.5 98t128.5 34q75 0 128 -37t75 -98v128h114
v-129q20 65 75 100.5t130 35.5t130 -33.5t84.5 -92t29.5 -130.5q0 -22 -5 -49zM921 395.5q-22 36.5 -60 54t-82 17.5q-68 0 -116 -40t-53 -122h330q3 54 -19 90.5zM411 116.5q38 22.5 60 63.5t22 96q0 54 -22 95.5t-60 64t-86 22.5q-76 0 -121.5 -48.5t-45.5 -133.5
t45.5 -133.5t121.5 -48.5q48 0 86 22.5z" />
    <glyph glyph-name="ccedilla" unicode="&#xe7;" horiz-adv-x="619" 
d="M491 501.5q70 -56.5 87 -153.5h-121q-10 52 -48.5 81.5t-96.5 29.5q-66 0 -110 -46.5t-44 -136.5t44 -137t110 -47q58 0 96.5 30t48.5 82h121q-17 -97 -87 -154t-177 -57q-80 0 -141.5 34t-96.5 98t-35 151q0 86 35 150t96.5 98t141.5 34q107 0 177 -56.5zM420.5 -82.5
q36.5 -24.5 36.5 -76.5q0 -51 -35.5 -77t-90.5 -26h-115v64h102q60 0 60 42q0 18 -14.5 29t-45.5 11h-59v123h70v-67q55 2 91.5 -22.5z" />
    <glyph glyph-name="egrave" unicode="&#xe8;" horiz-adv-x="622" 
d="M577 253h-424q3 -85 47 -126t109 -41q57 0 96.5 29t48.5 77h122q-11 -58 -46 -103t-91 -70.5t-125 -25.5q-80 0 -141.5 34t-96.5 98t-35 151q0 86 35 150t96.5 98t141.5 34q81 0 141.5 -33.5t93 -92t32.5 -130.5q0 -28 -4 -49zM447.5 395.5q-20.5 36.5 -56 54t-77.5 17.5
q-67 0 -112 -41t-49 -121h313q2 54 -18.5 90.5zM369 674v-80l-221 113v89z" />
    <glyph glyph-name="eacute" unicode="&#xe9;" horiz-adv-x="622" 
d="M577 253h-424q3 -85 47 -126t109 -41q57 0 96.5 29t48.5 77h122q-11 -58 -46 -103t-91 -70.5t-125 -25.5q-80 0 -141.5 34t-96.5 98t-35 151q0 86 35 150t96.5 98t141.5 34q81 0 141.5 -33.5t93 -92t32.5 -130.5q0 -28 -4 -49zM447.5 395.5q-20.5 36.5 -56 54t-77.5 17.5
q-67 0 -112 -41t-49 -121h313q2 54 -18.5 90.5zM470 707l-221 -113v80l221 122v-89z" />
    <glyph glyph-name="ecircumflex" unicode="&#xea;" horiz-adv-x="622" 
d="M577 253h-424q3 -85 47 -126t109 -41q57 0 96.5 29t48.5 77h122q-11 -58 -46 -103t-91 -70.5t-125 -25.5q-80 0 -141.5 34t-96.5 98t-35 151q0 86 35 150t96.5 98t141.5 34q81 0 141.5 -33.5t93 -92t32.5 -130.5q0 -28 -4 -49zM447.5 395.5q-20.5 36.5 -56 54t-77.5 17.5
q-67 0 -112 -41t-49 -121h313q2 54 -18.5 90.5zM313 691l-144 -84v78l144 83l142 -83v-78z" />
    <glyph glyph-name="edieresis" unicode="&#xeb;" horiz-adv-x="622" 
d="M577 253h-424q3 -85 47 -126t109 -41q57 0 96.5 29t48.5 77h122q-11 -58 -46 -103t-91 -70.5t-125 -25.5q-80 0 -141.5 34t-96.5 98t-35 151q0 86 35 150t96.5 98t141.5 34q81 0 141.5 -33.5t93 -92t32.5 -130.5q0 -28 -4 -49zM447.5 395.5q-20.5 36.5 -56 54t-77.5 17.5
q-67 0 -112 -41t-49 -121h313q2 54 -18.5 90.5zM183 720q16 16 40 16t40.5 -16t16.5 -40q0 -23 -16.5 -39.5t-40.5 -16.5t-40 16.5t-16 39.5q0 24 16 40zM360 720q16 16 40 16t40 -16t16 -40q0 -23 -16 -39.5t-40 -16.5t-40 16.5t-16 39.5q0 24 16 40z" />
    <glyph glyph-name="igrave" unicode="&#xec;" horiz-adv-x="276" 
d="M195 551v-551h-115v551h115zM196 674v-80l-221 113v89z" />
    <glyph glyph-name="iacute" unicode="&#xed;" horiz-adv-x="276" 
d="M195 551v-551h-115v551h115zM297 707l-221 -113v80l221 122v-89z" />
    <glyph glyph-name="icircumflex" unicode="&#xee;" horiz-adv-x="276" 
d="M195 551v-551h-115v551h115zM139 691l-144 -84v78l144 83l142 -83v-78z" />
    <glyph glyph-name="idieresis" unicode="&#xef;" horiz-adv-x="276" 
d="M195 551v-551h-115v551h115zM10 720q16 16 40 16t40.5 -16t16.5 -40q0 -23 -16.5 -39.5t-40.5 -16.5t-40 16.5t-16 39.5q0 24 16 40zM187 720q16 16 40 16t40 -16t16 -40q0 -23 -16 -39.5t-40 -16.5t-40 16.5t-16 39.5q0 24 16 40z" />
    <glyph glyph-name="eth" unicode="&#xf0;" horiz-adv-x="644" 
d="M603 312q0 -103 -36 -174.5t-99 -108t-143 -36.5q-82 0 -146.5 36.5t-101 103t-36.5 152.5q0 83 34.5 145t96.5 96t141 34q55 0 100 -28t68 -83q-26 109 -95 194l-128 -42v43l99 32q-31 33 -70 64h102l43 -39l112 37v-43l-81 -27q140 -157 140 -356zM440 141
q46 48 46 135q0 59 -22.5 101t-59.5 62.5t-81 20.5q-71 0 -118 -45.5t-47 -130.5q0 -61 22.5 -104t60.5 -65t84 -22q69 0 115 48z" />
    <glyph glyph-name="ntilde" unicode="&#xf1;" horiz-adv-x="653" 
d="M531 498q58 -62 58 -177v-321h-114v309q0 74 -38 114.5t-104 40.5q-68 0 -109 -43.5t-41 -127.5v-293h-114v551h114v-121q22 62 74 96t120 34q96 0 154 -62zM301.5 718.5q14.5 -6.5 36.5 -19.5q15 -11 27.5 -16.5t26.5 -5.5q17 0 28.5 12t15.5 35h60q-8 -58 -36.5 -87
t-71.5 -29q-21 0 -37.5 7t-36.5 20q-19 11 -28.5 15.5t-22.5 4.5q-37 0 -43 -47h-61q19 117 108 117q20 0 34.5 -6.5z" />
    <glyph glyph-name="ograve" unicode="&#xf2;" horiz-adv-x="642" 
d="M465 524q64 -34 100 -98t36 -150q0 -87 -36 -151t-100 -98t-144 -34t-143.5 34t-100 98.5t-36.5 150.5t36.5 150t100 98t143.5 34t144 -34zM240 439q-37 -20 -59.5 -61.5t-22.5 -101.5q0 -61 22.5 -102t59.5 -61t81 -20t81 20t59.5 61t22.5 102q0 60 -22.5 101.5
t-59.5 61.5t-81 20t-81 -20zM379 674v-80l-221 113v89z" />
    <glyph glyph-name="oacute" unicode="&#xf3;" horiz-adv-x="642" 
d="M465 524q64 -34 100 -98t36 -150q0 -87 -36 -151t-100 -98t-144 -34t-143.5 34t-100 98.5t-36.5 150.5t36.5 150t100 98t143.5 34t144 -34zM240 439q-37 -20 -59.5 -61.5t-22.5 -101.5q0 -61 22.5 -102t59.5 -61t81 -20t81 20t59.5 61t22.5 102q0 60 -22.5 101.5
t-59.5 61.5t-81 20t-81 -20zM480 707l-221 -113v80l221 122v-89z" />
    <glyph glyph-name="ocircumflex" unicode="&#xf4;" horiz-adv-x="642" 
d="M465 524q64 -34 100 -98t36 -150q0 -87 -36 -151t-100 -98t-144 -34t-143.5 34t-100 98.5t-36.5 150.5t36.5 150t100 98t143.5 34t144 -34zM240 439q-37 -20 -59.5 -61.5t-22.5 -101.5q0 -61 22.5 -102t59.5 -61t81 -20t81 20t59.5 61t22.5 102q0 60 -22.5 101.5
t-59.5 61.5t-81 20t-81 -20zM322 691l-144 -84v78l144 83l142 -83v-78z" />
    <glyph glyph-name="otilde" unicode="&#xf5;" horiz-adv-x="642" 
d="M465 524q64 -34 100 -98t36 -150q0 -87 -36 -151t-100 -98t-144 -34t-143.5 34t-100 98.5t-36.5 150.5t36.5 150t100 98t143.5 34t144 -34zM240 439q-37 -20 -59.5 -61.5t-22.5 -101.5q0 -61 22.5 -102t59.5 -61t81 -20t81 20t59.5 61t22.5 102q0 60 -22.5 101.5
t-59.5 61.5t-81 20t-81 -20zM294.5 718.5q14.5 -6.5 36.5 -19.5q15 -11 27.5 -16.5t26.5 -5.5q17 0 28.5 12t15.5 35h60q-8 -58 -36.5 -87t-71.5 -29q-21 0 -37.5 7t-36.5 20q-19 11 -28.5 15.5t-22.5 4.5q-37 0 -43 -47h-61q19 117 108 117q20 0 34.5 -6.5z" />
    <glyph glyph-name="odieresis" unicode="&#xf6;" horiz-adv-x="642" 
d="M465 524q64 -34 100 -98t36 -150q0 -87 -36 -151t-100 -98t-144 -34t-143.5 34t-100 98.5t-36.5 150.5t36.5 150t100 98t143.5 34t144 -34zM240 439q-37 -20 -59.5 -61.5t-22.5 -101.5q0 -61 22.5 -102t59.5 -61t81 -20t81 20t59.5 61t22.5 102q0 60 -22.5 101.5
t-59.5 61.5t-81 20t-81 -20zM193 720q16 16 40 16t40.5 -16t16.5 -40q0 -23 -16.5 -39.5t-40.5 -16.5t-40 16.5t-16 39.5q0 24 16 40zM370 720q16 16 40 16t40 -16t16 -40q0 -23 -16 -39.5t-40 -16.5t-40 16.5t-16 39.5q0 24 16 40z" />
    <glyph glyph-name="divide" unicode="&#xf7;" horiz-adv-x="571" 
d="M350 648v-126h-130v126h130zM541 413v-104h-510v104h510zM350 202v-125h-130v125h130z" />
    <glyph glyph-name="oslash" unicode="&#xf8;" horiz-adv-x="635" 
d="M528 472q33 -37 51 -86.5t18 -109.5q0 -87 -36 -151t-100 -98t-144 -34q-104 0 -176 55l-44 -48h-60l71 78q-71 76 -71 198q0 86 36.5 150t100 98t143.5 34q103 0 178 -56l45 49h60zM184 161l238 261q-43 37 -105 37q-44 0 -81 -20t-59.5 -61.5t-22.5 -101.5
q0 -69 30 -115zM451 388l-237 -260q42 -35 103 -35q44 0 81 20t59.5 61t22.5 102q0 67 -29 112z" />
    <glyph glyph-name="ugrave" unicode="&#xf9;" horiz-adv-x="645" 
d="M577 551v-551h-115v120q-21 -61 -73 -94.5t-121 -33.5q-96 0 -154 62t-58 177v320h114v-308q0 -75 38 -115.5t104 -40.5q68 0 109 44t41 128v292h115zM374 674v-80l-221 113v89z" />
    <glyph glyph-name="uacute" unicode="&#xfa;" horiz-adv-x="645" 
d="M577 551v-551h-115v120q-21 -61 -73 -94.5t-121 -33.5q-96 0 -154 62t-58 177v320h114v-308q0 -75 38 -115.5t104 -40.5q68 0 109 44t41 128v292h115zM475 707l-221 -113v80l221 122v-89z" />
    <glyph glyph-name="ucircumflex" unicode="&#xfb;" horiz-adv-x="645" 
d="M577 551v-551h-115v120q-21 -61 -73 -94.5t-121 -33.5q-96 0 -154 62t-58 177v320h114v-308q0 -75 38 -115.5t104 -40.5q68 0 109 44t41 128v292h115zM317 691l-144 -84v78l144 83l142 -83v-78z" />
    <glyph glyph-name="udieresis" unicode="&#xfc;" horiz-adv-x="645" 
d="M577 551v-551h-115v120q-21 -61 -73 -94.5t-121 -33.5q-96 0 -154 62t-58 177v320h114v-308q0 -75 38 -115.5t104 -40.5q68 0 109 44t41 128v292h115zM188 720q16 16 40 16t40.5 -16t16.5 -40q0 -23 -16.5 -39.5t-40.5 -16.5t-40 16.5t-16 39.5q0 24 16 40zM365 720
q16 16 40 16t40 -16t16 -40q0 -23 -16 -39.5t-40 -16.5t-40 16.5t-16 39.5q0 24 16 40z" />
    <glyph glyph-name="yacute" unicode="&#xfd;" horiz-adv-x="585" 
d="M134 551l165 -405l153 405h127l-333 -813h-127l119 275l-232 538h128zM451 707l-221 -113v80l221 122v-89z" />
    <glyph glyph-name="thorn" unicode="&#xfe;" horiz-adv-x="675" 
d="M508.5 521.5q58.5 -35.5 92 -99.5t33.5 -148t-33.5 -147.5t-92 -98.5t-130.5 -35q-70 0 -119.5 34t-75.5 94v-383h-114v1002h114v-304q25 57 75 89t120 32q72 0 130.5 -35.5zM266.5 435.5q-38.5 -21.5 -61 -62.5t-22.5 -97q0 -57 22.5 -98t61 -62.5t84.5 -21.5
q74 0 120.5 47t46.5 133t-47 134.5t-120 48.5q-46 0 -84.5 -21.5z" />
    <glyph glyph-name="ydieresis" unicode="&#xff;" horiz-adv-x="585" 
d="M134 551l165 -405l153 405h127l-333 -813h-127l119 275l-232 538h128zM164 720q16 16 40 16t40.5 -16t16.5 -40q0 -23 -16.5 -39.5t-40.5 -16.5t-40 16.5t-16 39.5q0 24 16 40zM341 720q16 16 40 16t40 -16t16 -40q0 -23 -16 -39.5t-40 -16.5t-40 16.5t-16 39.5
q0 24 16 40z" />
    <glyph glyph-name="Amacron" unicode="&#x100;" horiz-adv-x="682" 
d="M490 153h-298l-54 -153h-122l260 695h131l259 -695h-122zM458 241l-117 330l-117 -330h234zM524 875v-78h-366v78h366z" />
    <glyph glyph-name="amacron" unicode="&#x101;" horiz-adv-x="675" 
d="M418 521q53 -37 75 -98v128h114v-551h-114v128q-22 -61 -75 -98t-128 -37q-72 0 -128.5 34t-88.5 98t-32 151q0 86 32 150t88.5 98t128.5 34q75 0 128 -37zM203.5 409.5q-45.5 -48.5 -45.5 -133.5t45.5 -133.5t121.5 -48.5q48 0 86 22.5t60 63.5t22 96q0 54 -22 95.5
t-60 64t-86 22.5q-76 0 -121.5 -48.5zM507 720v-78h-366v78h366z" />
    <glyph glyph-name="Abreve" unicode="&#x102;" horiz-adv-x="682" 
d="M490 153h-298l-54 -153h-122l260 695h131l259 -695h-122zM458 241l-117 330l-117 -330h234zM230.5 804.5q-40.5 41.5 -40.5 109.5v10h59q0 -77 92 -77q46 0 69 20t23 57h59v-10q0 -68 -40.5 -109.5t-110.5 -41.5t-110.5 41.5z" />
    <glyph glyph-name="abreve" unicode="&#x103;" horiz-adv-x="675" 
d="M418 521q53 -37 75 -98v128h114v-551h-114v128q-22 -61 -75 -98t-128 -37q-72 0 -128.5 34t-88.5 98t-32 151q0 86 32 150t88.5 98t128.5 34q75 0 128 -37zM203.5 409.5q-45.5 -48.5 -45.5 -133.5t45.5 -133.5t121.5 -48.5q48 0 86 22.5t60 63.5t22 96q0 54 -22 95.5
t-60 64t-86 22.5q-76 0 -121.5 -48.5zM213.5 649.5q-40.5 41.5 -40.5 109.5v10h59q0 -77 92 -77q46 0 69 20t23 57h59v-10q0 -68 -40.5 -109.5t-110.5 -41.5t-110.5 41.5z" />
    <glyph glyph-name="Aogonek" unicode="&#x104;" horiz-adv-x="682" 
d="M705 -140v-64h-115q-57 0 -94 28t-37 80q0 36 20.5 61.5t63.5 37.5l-53 150h-298l-54 -153h-122l260 695h131l256 -688v-53h-62q-29 0 -45.5 -12.5t-16.5 -34.5t16.5 -34.5t45.5 -12.5h104zM458 241l-117 330l-117 -330h234z" />
    <glyph glyph-name="aogonek" unicode="&#x105;" horiz-adv-x="675" 
d="M418 521q53 -37 75 -98v128h114v-551h-114v128q-22 -61 -75 -98t-128 -37q-72 0 -128.5 34t-88.5 98t-32 151q0 86 32 150t88.5 98t128.5 34q75 0 128 -37zM203.5 409.5q-45.5 -48.5 -45.5 -133.5t45.5 -133.5t121.5 -48.5q48 0 86 22.5t60 63.5t22 96q0 54 -22 95.5
t-60 64t-86 22.5q-76 0 -121.5 -48.5zM606 13v-58h-62q-29 0 -45.5 -12.5t-16.5 -34.5t16.5 -34.5t45.5 -12.5h105v-64h-115q-58 0 -95 28t-37 80t35.5 80t86.5 28h82z" />
    <glyph glyph-name="Cacute" unicode="&#x106;" horiz-adv-x="761" 
d="M600 647q86 -66 116 -179h-121q-25 64 -79.5 101.5t-133.5 37.5q-63 0 -112.5 -31t-78 -88.5t-28.5 -134.5q0 -76 28.5 -133.5t78 -88.5t112.5 -31q79 0 133.5 37.5t79.5 100.5h121q-30 -113 -116 -178.5t-216 -65.5q-100 0 -177 45.5t-119 127t-42 186.5t42 186.5
t119 127.5t177 46q130 0 216 -66zM539 862l-221 -113v80l221 122v-89z" />
    <glyph glyph-name="cacute" unicode="&#x107;" horiz-adv-x="619" 
d="M491 501.5q70 -56.5 87 -153.5h-121q-10 52 -48.5 81.5t-96.5 29.5q-66 0 -110 -46.5t-44 -136.5t44 -137t110 -47q58 0 96.5 30t48.5 82h121q-17 -97 -87 -154t-177 -57q-80 0 -141.5 34t-96.5 98t-35 151q0 86 35 150t96.5 98t141.5 34q107 0 177 -56.5zM468 707
l-221 -113v80l221 122v-89z" />
    <glyph glyph-name="Cdotaccent" unicode="&#x10a;" horiz-adv-x="761" 
d="M600 647q86 -66 116 -179h-121q-25 64 -79.5 101.5t-133.5 37.5q-63 0 -112.5 -31t-78 -88.5t-28.5 -134.5q0 -76 28.5 -133.5t78 -88.5t112.5 -31q79 0 133.5 37.5t79.5 100.5h121q-30 -113 -116 -178.5t-216 -65.5q-100 0 -177 45.5t-119 127t-42 186.5t42 186.5
t119 127.5t177 46q130 0 216 -66zM340 875q16 16 39 16q24 0 40.5 -16t16.5 -40q0 -23 -16.5 -39.5t-40.5 -16.5q-23 0 -39 16.5t-16 39.5q0 24 16 40z" />
    <glyph glyph-name="cdotaccent" unicode="&#x10b;" horiz-adv-x="619" 
d="M491 501.5q70 -56.5 87 -153.5h-121q-10 52 -48.5 81.5t-96.5 29.5q-66 0 -110 -46.5t-44 -136.5t44 -137t110 -47q58 0 96.5 30t48.5 82h121q-17 -97 -87 -154t-177 -57q-80 0 -141.5 34t-96.5 98t-35 151q0 86 35 150t96.5 98t141.5 34q107 0 177 -56.5zM269 720
q16 16 39 16q24 0 40.5 -16t16.5 -40q0 -23 -16.5 -39.5t-40.5 -16.5q-23 0 -39 16.5t-16 39.5q0 24 16 40z" />
    <glyph glyph-name="Ccaron" unicode="&#x10c;" horiz-adv-x="761" 
d="M600 647q86 -66 116 -179h-121q-25 64 -79.5 101.5t-133.5 37.5q-63 0 -112.5 -31t-78 -88.5t-28.5 -134.5q0 -76 28.5 -133.5t78 -88.5t112.5 -31q79 0 133.5 37.5t79.5 100.5h121q-30 -113 -116 -178.5t-216 -65.5q-100 0 -177 45.5t-119 127t-42 186.5t42 186.5
t119 127.5t177 46q130 0 216 -66zM524 843l-142 -83l-144 83v78l144 -84l142 84v-78z" />
    <glyph glyph-name="ccaron" unicode="&#x10d;" horiz-adv-x="619" 
d="M491 501.5q70 -56.5 87 -153.5h-121q-10 52 -48.5 81.5t-96.5 29.5q-66 0 -110 -46.5t-44 -136.5t44 -137t110 -47q58 0 96.5 30t48.5 82h121q-17 -97 -87 -154t-177 -57q-80 0 -141.5 34t-96.5 98t-35 151q0 86 35 150t96.5 98t141.5 34q107 0 177 -56.5zM453 688
l-142 -83l-144 83v78l144 -84l142 84v-78z" />
    <glyph glyph-name="Dcaron" unicode="&#x10e;" horiz-adv-x="721" 
d="M631.5 167.5q-43.5 -79.5 -127 -123.5t-199.5 -44h-236v706h236q116 0 199.5 -43.5t127 -122.5t43.5 -186t-43.5 -186.5zM491 169q68 66 68 185t-68 185t-195 66h-113v-502h113q127 0 195 66zM515 843l-142 -83l-144 83v78l144 -84l142 84v-78z" />
    <glyph glyph-name="dcaron" unicode="&#x10f;" horiz-adv-x="770" 
d="M418 521q53 -37 74 -98v317h115v-740h-115v128q-21 -61 -74 -98t-128 -37q-72 0 -128.5 34t-88.5 98t-32 151q0 86 32 150t88.5 98t128.5 34q75 0 128 -37zM782 640q0 -60 -28.5 -92t-84.5 -32v48q26 0 38 14t12 44v21h-54v97h103q14 -52 14 -100zM203.5 409.5
q-45.5 -48.5 -45.5 -133.5t45.5 -133.5t121.5 -48.5q48 0 86 22.5t60 63.5t22 96q0 54 -22 95.5t-60 64t-86 22.5q-76 0 -121.5 -48.5z" />
    <glyph glyph-name="Dcroat" unicode="&#x110;" horiz-adv-x="742" 
d="M526.5 662.5q83.5 -43.5 127 -122.5t43.5 -186t-43.5 -186.5t-127 -123.5t-200.5 -44h-236v308h-85v92h85v306h236q117 0 200.5 -43.5zM512 169q68 66 68 185t-68 185t-195 66h-112v-205h184v-92h-184v-205h112q127 0 195 66z" />
    <glyph glyph-name="dcroat" unicode="&#x111;" horiz-adv-x="683" 
d="M673 623h-66v-623h-115v128q-21 -61 -74 -98t-128 -37q-72 0 -128.5 34t-88.5 98t-32 151q0 86 32 150t88.5 98t128.5 34q75 0 128 -37t74 -98v200h-136v54h136v63h115v-63h66v-54zM411 116.5q38 22.5 60 63.5t22 96q0 54 -22 95.5t-60 64t-86 22.5q-76 0 -121.5 -48.5
t-45.5 -133.5t45.5 -133.5t121.5 -48.5q48 0 86 22.5z" />
    <glyph glyph-name="Emacron" unicode="&#x112;" horiz-adv-x="515" 
d="M183 614v-214h260v-88h-260v-219h290v-93h-404v706h404v-92h-290zM454 875v-78h-366v78h366z" />
    <glyph glyph-name="emacron" unicode="&#x113;" horiz-adv-x="622" 
d="M577 253h-424q3 -85 47 -126t109 -41q57 0 96.5 29t48.5 77h122q-11 -58 -46 -103t-91 -70.5t-125 -25.5q-80 0 -141.5 34t-96.5 98t-35 151q0 86 35 150t96.5 98t141.5 34q81 0 141.5 -33.5t93 -92t32.5 -130.5q0 -28 -4 -49zM447.5 395.5q-20.5 36.5 -56 54t-77.5 17.5
q-67 0 -112 -41t-49 -121h313q2 54 -18.5 90.5zM495 720v-78h-366v78h366z" />
    <glyph glyph-name="Ebreve" unicode="&#x114;" horiz-adv-x="515" 
d="M183 614v-214h260v-88h-260v-219h290v-93h-404v706h404v-92h-290zM160.5 804.5q-40.5 41.5 -40.5 109.5v10h59q0 -77 92 -77q46 0 69 20t23 57h59v-10q0 -68 -40.5 -109.5t-110.5 -41.5t-110.5 41.5z" />
    <glyph glyph-name="ebreve" unicode="&#x115;" horiz-adv-x="622" 
d="M577 253h-424q3 -85 47 -126t109 -41q57 0 96.5 29t48.5 77h122q-11 -58 -46 -103t-91 -70.5t-125 -25.5q-80 0 -141.5 34t-96.5 98t-35 151q0 86 35 150t96.5 98t141.5 34q81 0 141.5 -33.5t93 -92t32.5 -130.5q0 -28 -4 -49zM447.5 395.5q-20.5 36.5 -56 54t-77.5 17.5
q-67 0 -112 -41t-49 -121h313q2 54 -18.5 90.5zM200.5 649.5q-40.5 41.5 -40.5 109.5v10h59q0 -77 92 -77q46 0 69 20t23 57h59v-10q0 -68 -40.5 -109.5t-110.5 -41.5t-110.5 41.5z" />
    <glyph glyph-name="Edotaccent" unicode="&#x116;" horiz-adv-x="515" 
d="M183 614v-214h260v-88h-260v-219h290v-93h-404v706h404v-92h-290zM231 875q16 16 39 16q24 0 40.5 -16t16.5 -40q0 -23 -16.5 -39.5t-40.5 -16.5q-23 0 -39 16.5t-16 39.5q0 24 16 40z" />
    <glyph glyph-name="edotaccent" unicode="&#x117;" horiz-adv-x="622" 
d="M577 253h-424q3 -85 47 -126t109 -41q57 0 96.5 29t48.5 77h122q-11 -58 -46 -103t-91 -70.5t-125 -25.5q-80 0 -141.5 34t-96.5 98t-35 151q0 86 35 150t96.5 98t141.5 34q81 0 141.5 -33.5t93 -92t32.5 -130.5q0 -28 -4 -49zM447.5 395.5q-20.5 36.5 -56 54t-77.5 17.5
q-67 0 -112 -41t-49 -121h313q2 54 -18.5 90.5zM271 720q16 16 39 16q24 0 40.5 -16t16.5 -40q0 -23 -16.5 -39.5t-40.5 -16.5q-23 0 -39 16.5t-16 39.5q0 24 16 40z" />
    <glyph glyph-name="Eogonek" unicode="&#x118;" horiz-adv-x="515" 
d="M183 614v-214h260v-88h-260v-219h290v-93h-404v706h404v-92h-290zM451 48v-58h-62q-29 0 -45.5 -12.5t-16.5 -34.5t16.5 -34.5t45.5 -12.5h105v-64h-115q-58 0 -95 28t-37 80t35.5 80t86.5 28h82z" />
    <glyph glyph-name="eogonek" unicode="&#x119;" horiz-adv-x="622" 
d="M577 253h-424q3 -84 47.5 -125.5t109.5 -41.5q57 0 96 29t48 77h122q-14 -75 -68.5 -127.5t-136.5 -65.5q-23 -4 -23 -24q0 -19 18 -31t50 -12h95v-64h-111q-57 0 -94 28t-37 80v22q-103 13 -165.5 86.5t-62.5 191.5q0 86 35 150t96.5 98t141.5 34q81 0 141.5 -33.5
t93 -92t32.5 -130.5q0 -28 -4 -49zM447.5 395.5q-20.5 36.5 -56 54t-77.5 17.5q-67 0 -112 -41t-49 -121h313q2 54 -18.5 90.5z" />
    <glyph glyph-name="Ecaron" unicode="&#x11a;" horiz-adv-x="515" 
d="M183 614v-214h260v-88h-260v-219h290v-93h-404v706h404v-92h-290zM414 843l-142 -83l-144 83v78l144 -84l142 84v-78z" />
    <glyph glyph-name="ecaron" unicode="&#x11b;" horiz-adv-x="622" 
d="M577 253h-424q3 -85 47 -126t109 -41q57 0 96.5 29t48.5 77h122q-11 -58 -46 -103t-91 -70.5t-125 -25.5q-80 0 -141.5 34t-96.5 98t-35 151q0 86 35 150t96.5 98t141.5 34q81 0 141.5 -33.5t93 -92t32.5 -130.5q0 -28 -4 -49zM447.5 395.5q-20.5 36.5 -56 54t-77.5 17.5
q-67 0 -112 -41t-49 -121h313q2 54 -18.5 90.5zM455 688l-142 -83l-144 83v78l144 -84l142 84v-78z" />
    <glyph glyph-name="Gbreve" unicode="&#x11e;" horiz-adv-x="773" 
d="M602 650q84 -62 111 -169h-120q-23 57 -75.5 91t-124.5 34q-66 0 -118.5 -31t-82 -88t-29.5 -134q0 -81 30 -139t84.5 -88.5t126.5 -30.5q88 0 151 54.5t76 149.5h-259v84h355v-109q-12 -78 -55.5 -141.5t-115 -101.5t-163.5 -38q-103 0 -182 46t-122 127.5t-43 186.5
t43 186.5t121.5 127t181.5 45.5q126 0 210 -62zM276.5 804.5q-40.5 41.5 -40.5 109.5v10h59q0 -77 92 -77q46 0 69 20t23 57h59v-10q0 -68 -40.5 -109.5t-110.5 -41.5t-110.5 41.5z" />
    <glyph glyph-name="gbreve" unicode="&#x11f;" horiz-adv-x="675" 
d="M418 521q53 -37 75 -98v128h114v-557q0 -77 -31.5 -136.5t-90.5 -93.5t-140 -34q-116 0 -187.5 55t-89.5 149h113q14 -49 54 -76.5t102 -27.5q68 0 112 42t44 122v134q-22 -61 -75 -98t-128 -37q-72 0 -128.5 34t-88.5 98t-32 151q0 86 32 150t88.5 98t128.5 34
q75 0 128 -37zM203.5 409.5q-45.5 -48.5 -45.5 -133.5t45.5 -133.5t121.5 -48.5q48 0 86 22.5t60 63.5t22 96q0 54 -22 95.5t-60 64t-86 22.5q-76 0 -121.5 -48.5zM213.5 649.5q-40.5 41.5 -40.5 109.5v10h59q0 -77 92 -77q46 0 69 20t23 57h59v-10q0 -68 -40.5 -109.5
t-110.5 -41.5t-110.5 41.5z" />
    <glyph glyph-name="Gdotaccent" unicode="&#x120;" horiz-adv-x="773" 
d="M602 650q84 -62 111 -169h-120q-23 57 -75.5 91t-124.5 34q-66 0 -118.5 -31t-82 -88t-29.5 -134q0 -81 30 -139t84.5 -88.5t126.5 -30.5q88 0 151 54.5t76 149.5h-259v84h355v-109q-12 -78 -55.5 -141.5t-115 -101.5t-163.5 -38q-103 0 -182 46t-122 127.5t-43 186.5
t43 186.5t121.5 127t181.5 45.5q126 0 210 -62zM347 875q16 16 39 16q24 0 40.5 -16t16.5 -40q0 -23 -16.5 -39.5t-40.5 -16.5q-23 0 -39 16.5t-16 39.5q0 24 16 40z" />
    <glyph glyph-name="gdotaccent" unicode="&#x121;" horiz-adv-x="675" 
d="M418 521q53 -37 75 -98v128h114v-557q0 -77 -31.5 -136.5t-90.5 -93.5t-140 -34q-116 0 -187.5 55t-89.5 149h113q14 -49 54 -76.5t102 -27.5q68 0 112 42t44 122v134q-22 -61 -75 -98t-128 -37q-72 0 -128.5 34t-88.5 98t-32 151q0 86 32 150t88.5 98t128.5 34
q75 0 128 -37zM203.5 409.5q-45.5 -48.5 -45.5 -133.5t45.5 -133.5t121.5 -48.5q48 0 86 22.5t60 63.5t22 96q0 54 -22 95.5t-60 64t-86 22.5q-76 0 -121.5 -48.5zM284 720q16 16 39 16q24 0 40.5 -16t16.5 -40q0 -23 -16.5 -39.5t-40.5 -16.5q-23 0 -39 16.5t-16 39.5
q0 24 16 40z" />
    <glyph glyph-name="uni0122" unicode="&#x122;" horiz-adv-x="775" 
d="M602 650q84 -62 111 -169h-120q-23 57 -75.5 91t-124.5 34q-66 0 -118.5 -31t-82 -88t-29.5 -134q0 -81 30 -139t84.5 -88.5t126.5 -30.5q88 0 151 54.5t76 149.5h-259v84h355v-109q-12 -78 -55.5 -141.5t-115 -101.5t-163.5 -38q-103 0 -182 46t-122 127.5t-43 186.5
t43 186.5t121.5 127t181.5 45.5q126 0 210 -62zM454 -128q0 -62 -29 -95t-83 -33v46q48 0 48 64v9h-50v89h100q14 -42 14 -80z" />
    <glyph glyph-name="uni0123" unicode="&#x123;" horiz-adv-x="675" 
d="M274 696q0 59 29 91.5t84 32.5v-47q-50 0 -50 -59v-21h54v-97h-103q-14 52 -14 100zM418 521q53 -37 75 -98v128h114v-557q0 -77 -31.5 -136.5t-90.5 -93.5t-140 -34q-116 0 -187.5 55t-89.5 149h113q14 -49 54 -76.5t102 -27.5q68 0 112 42t44 122v134q-22 -61 -75 -98
t-128 -37q-72 0 -128.5 34t-88.5 98t-32 151q0 86 32 150t88.5 98t128.5 34q75 0 128 -37zM203.5 409.5q-45.5 -48.5 -45.5 -133.5t45.5 -133.5t121.5 -48.5q48 0 86 22.5t60 63.5t22 96q0 54 -22 95.5t-60 64t-86 22.5q-76 0 -121.5 -48.5z" />
    <glyph glyph-name="Itilde" unicode="&#x128;" horiz-adv-x="252" 
d="M183 706v-706h-114v706h114zM99.5 873.5q14.5 -6.5 36.5 -19.5q15 -11 27.5 -16.5t26.5 -5.5q17 0 28.5 12t15.5 35h60q-8 -58 -36.5 -87t-71.5 -29q-21 0 -37.5 7t-36.5 20q-19 11 -28.5 15.5t-22.5 4.5q-37 0 -43 -47h-61q19 117 108 117q20 0 34.5 -6.5z" />
    <glyph glyph-name="itilde" unicode="&#x129;" horiz-adv-x="276" 
d="M195 551v-551h-115v551h115zM111.5 718.5q14.5 -6.5 36.5 -19.5q15 -11 27.5 -16.5t26.5 -5.5q17 0 28.5 12t15.5 35h60q-8 -58 -36.5 -87t-71.5 -29q-21 0 -37.5 7t-36.5 20q-19 11 -28.5 15.5t-22.5 4.5q-37 0 -43 -47h-61q19 117 108 117q20 0 34.5 -6.5z" />
    <glyph glyph-name="Imacron" unicode="&#x12a;" horiz-adv-x="252" 
d="M183 706v-706h-114v706h114zM309 875v-78h-366v78h366z" />
    <glyph glyph-name="imacron" unicode="&#x12b;" horiz-adv-x="276" 
d="M195 551v-551h-115v551h115zM321 720v-78h-366v78h366z" />
    <glyph glyph-name="uni012C" unicode="&#x12c;" horiz-adv-x="252" 
d="M183 706v-706h-114v706h114zM15.5 804.5q-40.5 41.5 -40.5 109.5v10h59q0 -77 92 -77q46 0 69 20t23 57h59v-10q0 -68 -40.5 -109.5t-110.5 -41.5t-110.5 41.5z" />
    <glyph glyph-name="uni012D" unicode="&#x12d;" horiz-adv-x="276" 
d="M195 551v-551h-115v551h115zM27.5 649.5q-40.5 41.5 -40.5 109.5v10h59q0 -77 92 -77q46 0 69 20t23 57h59v-10q0 -68 -40.5 -109.5t-110.5 -41.5t-110.5 41.5z" />
    <glyph glyph-name="Iogonek" unicode="&#x12e;" horiz-adv-x="252" 
d="M183 706v-706h-114v706h114zM183 13v-58h-62q-29 0 -45.5 -12.5t-16.5 -34.5t16.5 -34.5t45.5 -12.5h105v-64h-115q-58 0 -95 28t-37 80t35.5 80t86.5 28h82z" />
    <glyph glyph-name="iogonek" unicode="&#x12f;" horiz-adv-x="252" 
d="M73 759q20 19 53 19t53.5 -19t20.5 -48t-20.5 -47t-53.5 -18t-53 18t-20 47t20 48zM183 551v-551h-114v551h114zM183 13v-58h-62q-29 0 -45.5 -12.5t-16.5 -34.5t16.5 -34.5t45.5 -12.5h105v-64h-115q-58 0 -95 28t-37 80t35.5 80t86.5 28h82z" />
    <glyph glyph-name="Idotaccent" unicode="&#x130;" horiz-adv-x="252" 
d="M183 706v-706h-114v706h114zM86 875q16 16 39 16q24 0 40.5 -16t16.5 -40q0 -23 -16.5 -39.5t-40.5 -16.5q-23 0 -39 16.5t-16 39.5q0 24 16 40z" />
    <glyph glyph-name="dotlessi" unicode="&#x131;" horiz-adv-x="276" 
d="M195 551v-551h-115v551h115z" />
    <glyph glyph-name="uni0136" unicode="&#x136;" horiz-adv-x="637" 
d="M290 357l311 -357h-139l-279 327v-327h-114v706h114v-323l280 323h138zM365 -48q13 -39 13 -80q0 -62 -28.5 -95t-82.5 -33v46q48 0 48 64v9h-50v89h100z" />
    <glyph glyph-name="uni0137" unicode="&#x137;" horiz-adv-x="527" 
d="M522 0h-141l-198 245v-245h-114v740h114v-424l196 235h137l-240 -274zM317 -48q13 -39 13 -80q0 -62 -28.5 -95t-82.5 -33v46q48 0 48 64v9h-50v89h100z" />
    <glyph glyph-name="Lacute" unicode="&#x139;" horiz-adv-x="447" 
d="M183 89h244v-89h-358v706h114v-617zM331 862l-221 -113v80l221 122v-89z" />
    <glyph glyph-name="lacute" unicode="&#x13a;" horiz-adv-x="252" 
d="M183 740v-740h-114v740h114zM290 884l-221 -113v80l221 122v-89z" />
    <glyph glyph-name="uni013B" unicode="&#x13b;" horiz-adv-x="450" 
d="M183 89h244v-89h-358v706h114v-617zM322 -128q0 -62 -28.5 -95t-83.5 -33v46q49 0 49 64v9h-51v89h101q13 -39 13 -80z" />
    <glyph glyph-name="uni013C" unicode="&#x13c;" horiz-adv-x="252" 
d="M183 740v-740h-114v740h114zM190 -128q0 -62 -29 -95t-83 -33v46q49 0 49 64v9h-51v89h101q13 -39 13 -80z" />
    <glyph glyph-name="Lcaron" unicode="&#x13d;" horiz-adv-x="481" 
d="M183 89h244v-89h-358v706h114v-617zM413 606q0 -60 -28.5 -92t-83.5 -32v48q25 0 37 14.5t12 43.5v21h-54v97h103q14 -52 14 -100z" />
    <glyph glyph-name="lcaron" unicode="&#x13e;" horiz-adv-x="343" 
d="M183 740v-740h-114v740h114zM355 640q0 -60 -28.5 -92t-83.5 -32v48q50 0 50 58v21h-54v97h103q13 -48 13 -100z" />
    <glyph glyph-name="Ldot" unicode="&#x13f;" horiz-adv-x="447" 
d="M183 89h244v-89h-358v706h114v-617zM331 393q16 16 39 16q24 0 40.5 -16t16.5 -40q0 -23 -16.5 -39.5t-40.5 -16.5q-23 0 -39 16.5t-16 39.5q0 24 16 40z" />
    <glyph glyph-name="ldot" unicode="&#x140;" horiz-adv-x="286" 
d="M183 740v-740h-114v740h114zM229 410q16 16 39 16q24 0 40.5 -16t16.5 -40q0 -23 -16.5 -39.5t-40.5 -16.5q-23 0 -39 16.5t-16 39.5q0 24 16 40z" />
    <glyph glyph-name="Lslash" unicode="&#x141;" horiz-adv-x="465" 
d="M445 89v-89h-359v297l-76 -28v113l76 28v296h115v-254l121 45v-113l-121 -45v-250h244z" />
    <glyph glyph-name="lslash" unicode="&#x142;" horiz-adv-x="286" 
d="M276 431l-75 -29v-402h-115v357l-76 -29v111l76 29v272h115v-227l75 29v-111z" />
    <glyph glyph-name="Nacute" unicode="&#x143;" horiz-adv-x="709" 
d="M640 0h-114l-343 521v-521h-114v705h114l343 -523v523h114v-705zM513 862l-221 -113v80l221 122v-89z" />
    <glyph glyph-name="nacute" unicode="&#x144;" horiz-adv-x="653" 
d="M531 498q58 -62 58 -177v-321h-114v309q0 74 -38 114.5t-104 40.5q-68 0 -109 -43.5t-41 -127.5v-293h-114v551h114v-121q22 62 74 96t120 34q96 0 154 -62zM487 707l-221 -113v80l221 122v-89z" />
    <glyph glyph-name="uni0145" unicode="&#x145;" horiz-adv-x="733" 
d="M640 0h-114l-343 521v-521h-114v705h114l343 -523v523h114v-705zM428 -128q0 -62 -28.5 -95t-83.5 -33v46q49 0 49 64v9h-51v89h101q13 -39 13 -80z" />
    <glyph glyph-name="uni0146" unicode="&#x146;" horiz-adv-x="653" 
d="M531 498q58 -62 58 -177v-321h-114v309q0 74 -38 114.5t-104 40.5q-68 0 -109 -43.5t-41 -127.5v-293h-114v551h114v-121q22 62 74 96t120 34q96 0 154 -62zM390 -48q13 -39 13 -80q0 -62 -28.5 -95t-83.5 -33v46q49 0 49 64v9h-50v89h100z" />
    <glyph glyph-name="Ncaron" unicode="&#x147;" horiz-adv-x="709" 
d="M640 0h-114l-343 521v-521h-114v705h114l343 -523v523h114v-705zM497 843l-142 -83l-144 83v78l144 -84l142 84v-78z" />
    <glyph glyph-name="ncaron" unicode="&#x148;" horiz-adv-x="653" 
d="M531 498q58 -62 58 -177v-321h-114v309q0 74 -38 114.5t-104 40.5q-68 0 -109 -43.5t-41 -127.5v-293h-114v551h114v-121q22 62 74 96t120 34q96 0 154 -62zM472 688l-142 -83l-144 83v78l144 -84l142 84v-78z" />
    <glyph glyph-name="Omacron" unicode="&#x14c;" horiz-adv-x="790" 
d="M573.5 669q79.5 -46 125 -128.5t45.5 -186.5t-45.5 -186.5t-125 -129t-177.5 -46.5q-99 0 -178.5 46.5t-125.5 129t-46 186.5t46 186.5t125.5 128.5t178.5 46q98 0 177.5 -46zM275 578q-53 -31 -82.5 -89t-29.5 -135t29.5 -135t82.5 -89t121 -31q67 0 119.5 31t82 89
t29.5 135t-29.5 135t-82 89t-119.5 31q-68 0 -121 -31zM578 875v-78h-366v78h366z" />
    <glyph glyph-name="omacron" unicode="&#x14d;" horiz-adv-x="642" 
d="M465 524q64 -34 100 -98t36 -150q0 -87 -36 -151t-100 -98t-144 -34t-143.5 34t-100 98.5t-36.5 150.5t36.5 150t100 98t143.5 34t144 -34zM240 439q-37 -20 -59.5 -61.5t-22.5 -101.5q0 -61 22.5 -102t59.5 -61t81 -20t81 20t59.5 61t22.5 102q0 60 -22.5 101.5
t-59.5 61.5t-81 20t-81 -20zM504 720v-78h-366v78h366z" />
    <glyph glyph-name="uni014E" unicode="&#x14e;" horiz-adv-x="790" 
d="M573.5 669q79.5 -46 125 -128.5t45.5 -186.5t-45.5 -186.5t-125 -129t-177.5 -46.5q-99 0 -178.5 46.5t-125.5 129t-46 186.5t46 186.5t125.5 128.5t178.5 46q98 0 177.5 -46zM275 578q-53 -31 -82.5 -89t-29.5 -135t29.5 -135t82.5 -89t121 -31q67 0 119.5 31t82 89
t29.5 135t-29.5 135t-82 89t-119.5 31q-68 0 -121 -31zM284.5 804.5q-40.5 41.5 -40.5 109.5v10h59q0 -77 92 -77q46 0 69 20t23 57h59v-10q0 -68 -40.5 -109.5t-110.5 -41.5t-110.5 41.5z" />
    <glyph glyph-name="uni014F" unicode="&#x14f;" horiz-adv-x="642" 
d="M465 524q64 -34 100 -98t36 -150q0 -87 -36 -151t-100 -98t-144 -34t-143.5 34t-100 98.5t-36.5 150.5t36.5 150t100 98t143.5 34t144 -34zM240 439q-37 -20 -59.5 -61.5t-22.5 -101.5q0 -61 22.5 -102t59.5 -61t81 -20t81 20t59.5 61t22.5 102q0 60 -22.5 101.5
t-59.5 61.5t-81 20t-81 -20zM210.5 649.5q-40.5 41.5 -40.5 109.5v10h59q0 -77 92 -77q46 0 69 20t23 57h59v-10q0 -68 -40.5 -109.5t-110.5 -41.5t-110.5 41.5z" />
    <glyph glyph-name="Ohungarumlaut" unicode="&#x150;" horiz-adv-x="790" 
d="M573.5 669q79.5 -46 125 -128.5t45.5 -186.5t-45.5 -186.5t-125 -129t-177.5 -46.5q-99 0 -178.5 46.5t-125.5 129t-46 186.5t46 186.5t125.5 128.5t178.5 46q98 0 177.5 -46zM275 578q-53 -31 -82.5 -89t-29.5 -135t29.5 -135t82.5 -89t121 -31q67 0 119.5 31t82 89
t29.5 135t-29.5 135t-82 89t-119.5 31q-68 0 -121 -31zM343 756h-73l69 170h91zM506 756h-73l83 170h92z" />
    <glyph glyph-name="ohungarumlaut" unicode="&#x151;" horiz-adv-x="642" 
d="M465 524q64 -34 100 -98t36 -150q0 -87 -36 -151t-100 -98t-144 -34t-143.5 34t-100 98.5t-36.5 150.5t36.5 150t100 98t143.5 34t144 -34zM240 439q-37 -20 -59.5 -61.5t-22.5 -101.5q0 -61 22.5 -102t59.5 -61t81 -20t81 20t59.5 61t22.5 102q0 60 -22.5 101.5
t-59.5 61.5t-81 20t-81 -20zM274 601h-73l69 170h91zM437 601h-73l83 170h92z" />
    <glyph glyph-name="OE" unicode="&#x152;" horiz-adv-x="1079" 
d="M748 400h259v-88h-259v-219h289v-93h-404v145q-28 -70 -95 -111.5t-150 -43.5q-98 0 -176 46t-122 128.5t-44 187.5t44 187.5t122 129t176 46.5q82 0 149.5 -42t95.5 -113v146h404v-92h-289v-214zM515.5 127q52.5 31 82 89t29.5 136t-29.5 136t-82 89.5t-119.5 31.5
q-68 0 -121 -31.5t-82.5 -89.5t-29.5 -136t29.5 -136t82.5 -89t121 -31q67 0 119.5 31z" />
    <glyph glyph-name="oe" unicode="&#x153;" horiz-adv-x="1082" 
d="M1024 253h-423q3 -85 47 -126t109 -41q57 0 96 29t49 77h121q-11 -58 -46 -103t-90.5 -70.5t-124.5 -25.5q-75 0 -132.5 33.5t-86.5 94.5q-30 -61 -88.5 -94.5t-133.5 -33.5q-80 0 -143.5 34t-100 98.5t-36.5 150.5t36.5 150t100 98t143.5 34q75 0 133.5 -33.5
t88.5 -94.5q29 61 86.5 94.5t132.5 33.5q81 0 141.5 -33.5t92.5 -92t32 -130.5q0 -28 -4 -49zM894.5 395.5q-20.5 36.5 -55.5 54t-77 17.5q-67 0 -112 -41t-49 -121h312q2 54 -18.5 90.5zM402 113q37 20 59.5 61t22.5 102q0 60 -22.5 101.5t-59.5 61.5t-81 20t-81 -20
t-59.5 -61.5t-22.5 -101.5q0 -61 22.5 -102t59.5 -61t81 -20t81 20z" />
    <glyph glyph-name="Racute" unicode="&#x154;" horiz-adv-x="598" 
d="M440 0l-176 282h-81v-282h-114v706h249q121 0 183.5 -59t62.5 -156q0 -83 -46.5 -136t-134.5 -68l185 -287h-128zM183 363h126q138 0 138 122q0 58 -33.5 90.5t-104.5 32.5h-126v-245zM477 862l-221 -113v80l221 122v-89z" />
    <glyph glyph-name="racute" unicode="&#x155;" horiz-adv-x="399" 
d="M263 528.5q52 31.5 120 31.5v-124h-34q-75 0 -120.5 -36.5t-45.5 -120.5v-279h-114v551h114v-108q28 54 80 85.5zM384 707l-221 -113v80l221 122v-89z" />
    <glyph glyph-name="uni0156" unicode="&#x156;" horiz-adv-x="613" 
d="M568 0h-128l-176 282h-81v-282h-114v706h249q121 0 183.5 -59t62.5 -156q0 -83 -46.5 -136t-134.5 -68zM183 363h126q138 0 138 122q0 58 -33.5 90.5t-104.5 32.5h-126v-245zM353 -48q13 -39 13 -80q0 -62 -28.5 -95t-83.5 -33v46q49 0 49 64v9h-50v89h100z" />
    <glyph glyph-name="uni0157" unicode="&#x157;" horiz-adv-x="399" 
d="M263 528.5q52 31.5 120 31.5v-124h-34q-75 0 -120.5 -36.5t-45.5 -120.5v-279h-114v551h114v-108q28 54 80 85.5zM173 -48q13 -39 13 -80q0 -62 -28.5 -95t-82.5 -33v46q48 0 48 64v9h-50v89h100z" />
    <glyph glyph-name="Rcaron" unicode="&#x158;" horiz-adv-x="598" 
d="M440 0l-176 282h-81v-282h-114v706h249q121 0 183.5 -59t62.5 -156q0 -83 -46.5 -136t-134.5 -68l185 -287h-128zM183 363h126q138 0 138 122q0 58 -33.5 90.5t-104.5 32.5h-126v-245zM462 843l-142 -83l-144 83v78l144 -84l142 84v-78z" />
    <glyph glyph-name="rcaron" unicode="&#x159;" horiz-adv-x="399" 
d="M263 528.5q52 31.5 120 31.5v-124h-34q-75 0 -120.5 -36.5t-45.5 -120.5v-279h-114v551h114v-108q28 54 80 85.5zM369 688l-142 -83l-144 83v78l144 -84l142 84v-78z" />
    <glyph glyph-name="Sacute" unicode="&#x15a;" horiz-adv-x="578" 
d="M508 91.5q-25 -44.5 -76 -71.5t-125 -27q-72 0 -129 25.5t-91 71.5t-39 106h122q5 -46 39.5 -79t92.5 -33q52 0 80.5 28t28.5 72q0 38 -21 62.5t-52 38.5t-85 32q-66 21 -107.5 42t-70.5 61t-29 105q0 57 28 100t80 66.5t120 23.5q108 0 171.5 -52t72.5 -136h-123
q-7 40 -37.5 68.5t-83.5 28.5q-48 0 -77 -24.5t-29 -70.5q0 -36 20 -59.5t50.5 -37t83.5 -31.5q67 -21 109.5 -42.5t72 -62.5t29.5 -108q0 -52 -25 -96.5zM448 862l-221 -113v80l221 122v-89z" />
    <glyph glyph-name="sacute" unicode="&#x15b;" horiz-adv-x="528" 
d="M405.5 508.5q58.5 -49.5 71.5 -132.5h-108q-7 45 -38.5 72.5t-83.5 27.5q-43 0 -66.5 -20.5t-23.5 -55.5q0 -26 17 -42t42.5 -25t72.5 -20q62 -14 100.5 -29t66 -47.5t27.5 -88.5q0 -69 -52.5 -112t-141.5 -43q-103 0 -166.5 48t-76.5 134h111q5 -45 40 -73t92 -28
q41 0 64.5 21.5t23.5 54.5q0 29 -18 46t-45 26.5t-74 19.5q-60 14 -97.5 28t-64 45.5t-26.5 85.5q0 70 52.5 113.5t145.5 43.5q97 0 155.5 -49.5zM423 707l-221 -113v80l221 122v-89z" />
    <glyph glyph-name="uni015E" unicode="&#x15e;" horiz-adv-x="578" 
d="M508 91.5q-25 -44.5 -76 -71.5t-125 -27q-72 0 -129 25.5t-91 71.5t-39 106h122q5 -46 39.5 -79t92.5 -33q52 0 80.5 28t28.5 72q0 38 -21 62.5t-52 38.5t-85 32q-66 21 -107.5 42t-70.5 61t-29 105q0 57 28 100t80 66.5t120 23.5q108 0 171.5 -52t72.5 -136h-123
q-7 40 -37.5 68.5t-83.5 28.5q-48 0 -77 -24.5t-29 -70.5q0 -36 20 -59.5t50.5 -37t83.5 -31.5q67 -21 109.5 -42.5t72 -62.5t29.5 -108q0 -52 -25 -96.5zM422.5 -82.5q36.5 -24.5 36.5 -76.5q0 -51 -35.5 -77t-90.5 -26h-115v64h102q60 0 60 42q0 18 -14.5 29t-45.5 11h-59
v123h70v-67q55 2 91.5 -22.5z" />
    <glyph glyph-name="uni015F" unicode="&#x15f;" horiz-adv-x="528" 
d="M405.5 508.5q58.5 -49.5 71.5 -132.5h-108q-7 45 -38.5 72.5t-83.5 27.5q-43 0 -66.5 -20.5t-23.5 -55.5q0 -26 17 -42t42.5 -25t72.5 -20q62 -14 100.5 -29t66 -47.5t27.5 -88.5q0 -69 -52.5 -112t-141.5 -43q-103 0 -166.5 48t-76.5 134h111q5 -45 40 -73t92 -28
q41 0 64.5 21.5t23.5 54.5q0 29 -18 46t-45 26.5t-74 19.5q-60 14 -97.5 28t-64 45.5t-26.5 85.5q0 70 52.5 113.5t145.5 43.5q97 0 155.5 -49.5zM394.5 -82.5q36.5 -24.5 36.5 -76.5q0 -51 -35.5 -77t-90.5 -26h-115v64h102q60 0 60 42q0 18 -14.5 29t-45.5 11h-59v123h70
v-67q55 2 91.5 -22.5z" />
    <glyph glyph-name="Scaron" unicode="&#x160;" horiz-adv-x="578" 
d="M508 91.5q-25 -44.5 -76 -71.5t-125 -27q-72 0 -129 25.5t-91 71.5t-39 106h122q5 -46 39.5 -79t92.5 -33q52 0 80.5 28t28.5 72q0 38 -21 62.5t-52 38.5t-85 32q-66 21 -107.5 42t-70.5 61t-29 105q0 57 28 100t80 66.5t120 23.5q108 0 171.5 -52t72.5 -136h-123
q-7 40 -37.5 68.5t-83.5 28.5q-48 0 -77 -24.5t-29 -70.5q0 -36 20 -59.5t50.5 -37t83.5 -31.5q67 -21 109.5 -42.5t72 -62.5t29.5 -108q0 -52 -25 -96.5zM433 843l-142 -83l-144 83v78l144 -84l142 84v-78z" />
    <glyph glyph-name="scaron" unicode="&#x161;" horiz-adv-x="528" 
d="M405.5 508.5q58.5 -49.5 71.5 -132.5h-108q-7 45 -38.5 72.5t-83.5 27.5q-43 0 -66.5 -20.5t-23.5 -55.5q0 -26 17 -42t42.5 -25t72.5 -20q62 -14 100.5 -29t66 -47.5t27.5 -88.5q0 -69 -52.5 -112t-141.5 -43q-103 0 -166.5 48t-76.5 134h111q5 -45 40 -73t92 -28
q41 0 64.5 21.5t23.5 54.5q0 29 -18 46t-45 26.5t-74 19.5q-60 14 -97.5 28t-64 45.5t-26.5 85.5q0 70 52.5 113.5t145.5 43.5q97 0 155.5 -49.5zM408 688l-142 -83l-144 83v78l144 -84l142 84v-78z" />
    <glyph glyph-name="uni0162" unicode="&#x162;" horiz-adv-x="539" 
d="M326 614v-609q48 -11 69.5 -34t21.5 -58q0 -51 -35.5 -77t-91.5 -26h-112v63h102q31 0 44 11t13 32q0 39 -57 39h-69v659h-196v92h508v-92h-197z" />
    <glyph glyph-name="uni0163" unicode="&#x163;" horiz-adv-x="384" 
d="M356 -82.5q37 -24.5 37 -76.5q0 -51 -36 -77t-91 -26h-115v64h103q59 0 59 42q0 18 -14.5 29t-44.5 11h-60v128q-48 16 -72.5 57.5t-24.5 114.5v270h-79v97h79v137h115v-137h133v-97h-133v-272q0 -47 17.5 -65t61.5 -18h55v-99h-70h-11v-60q54 2 91 -22.5z" />
    <glyph glyph-name="Tcaron" unicode="&#x164;" horiz-adv-x="539" 
d="M523 706v-92h-197v-614h-115v614h-196v92h508zM413 843l-142 -83l-144 83v78l144 -84l142 84v-78z" />
    <glyph glyph-name="tcaron" unicode="&#x165;" horiz-adv-x="384" 
d="M383 716q0 -56 -28.5 -85.5t-84.5 -29.5v47q50 0 50 42v24h-54v97h103q14 -52 14 -95zM229.5 117q17.5 -18 61.5 -18h55v-99h-70q-88 0 -133.5 42.5t-45.5 141.5v270h-79v97h79v137h115v-137h133v-97h-133v-272q0 -47 17.5 -65z" />
    <glyph glyph-name="Utilde" unicode="&#x168;" horiz-adv-x="671" 
d="M178 706v-419q0 -94 41.5 -140t116.5 -46q74 0 115.5 46t41.5 140v419h114v-419q0 -145 -75 -219.5t-198 -74.5q-122 0 -196 74.5t-74 219.5v419h114zM308.5 873.5q14.5 -6.5 36.5 -19.5q15 -11 27.5 -16.5t26.5 -5.5q17 0 28.5 12t15.5 35h60q-8 -58 -36.5 -87
t-71.5 -29q-21 0 -37.5 7t-36.5 20q-19 11 -28.5 15.5t-22.5 4.5q-37 0 -43 -47h-61q19 117 108 117q20 0 34.5 -6.5z" />
    <glyph glyph-name="utilde" unicode="&#x169;" horiz-adv-x="645" 
d="M577 551v-551h-115v120q-21 -61 -73 -94.5t-121 -33.5q-96 0 -154 62t-58 177v320h114v-308q0 -75 38 -115.5t104 -40.5q68 0 109 44t41 128v292h115zM289.5 718.5q14.5 -6.5 36.5 -19.5q15 -11 27.5 -16.5t26.5 -5.5q17 0 28.5 12t15.5 35h60q-8 -58 -36.5 -87
t-71.5 -29q-21 0 -37.5 7t-36.5 20q-19 11 -28.5 15.5t-22.5 4.5q-37 0 -43 -47h-61q19 117 108 117q20 0 34.5 -6.5z" />
    <glyph glyph-name="Umacron" unicode="&#x16a;" horiz-adv-x="671" 
d="M178 706v-419q0 -94 41.5 -140t116.5 -46q74 0 115.5 46t41.5 140v419h114v-419q0 -145 -75 -219.5t-198 -74.5q-122 0 -196 74.5t-74 219.5v419h114zM519 875v-78h-366v78h366z" />
    <glyph glyph-name="umacron" unicode="&#x16b;" horiz-adv-x="645" 
d="M577 551v-551h-115v120q-21 -61 -73 -94.5t-121 -33.5q-96 0 -154 62t-58 177v320h114v-308q0 -75 38 -115.5t104 -40.5q68 0 109 44t41 128v292h115zM499 720v-78h-366v78h366z" />
    <glyph glyph-name="Ubreve" unicode="&#x16c;" horiz-adv-x="671" 
d="M178 706v-419q0 -94 41.5 -140t116.5 -46q74 0 115.5 46t41.5 140v419h114v-419q0 -145 -75 -219.5t-198 -74.5q-122 0 -196 74.5t-74 219.5v419h114zM224.5 804.5q-40.5 41.5 -40.5 109.5v10h59q0 -77 92 -77q46 0 69 20t23 57h59v-10q0 -68 -40.5 -109.5t-110.5 -41.5
t-110.5 41.5z" />
    <glyph glyph-name="ubreve" unicode="&#x16d;" horiz-adv-x="645" 
d="M577 551v-551h-115v120q-21 -61 -73 -94.5t-121 -33.5q-96 0 -154 62t-58 177v320h114v-308q0 -75 38 -115.5t104 -40.5q68 0 109 44t41 128v292h115zM205.5 649.5q-40.5 41.5 -40.5 109.5v10h59q0 -77 92 -77q46 0 69 20t23 57h59v-10q0 -68 -40.5 -109.5t-110.5 -41.5
t-110.5 41.5z" />
    <glyph glyph-name="Uring" unicode="&#x16e;" horiz-adv-x="671" 
d="M178 706v-419q0 -94 41.5 -140t116.5 -46q74 0 115.5 46t41.5 140v419h114v-419q0 -145 -75 -219.5t-198 -74.5q-122 0 -196 74.5t-74 219.5v419h114zM414 949q31 -30 31 -80t-31.5 -79.5t-77.5 -29.5q-47 0 -78.5 29.5t-31.5 79.5t31.5 80t78.5 30t78 -30zM293.5 913.5
q-16.5 -16.5 -16.5 -44.5q0 -27 16.5 -43.5t42.5 -16.5q25 0 41.5 16.5t16.5 43.5q0 28 -16.5 44.5t-41.5 16.5q-26 0 -42.5 -16.5z" />
    <glyph glyph-name="uring" unicode="&#x16f;" horiz-adv-x="645" 
d="M577 551v-551h-115v120q-21 -61 -73 -94.5t-121 -33.5q-96 0 -154 62t-58 177v320h114v-308q0 -75 38 -115.5t104 -40.5q68 0 109 44t41 128v292h115zM394 794q31 -30 31 -80t-31.5 -79.5t-77.5 -29.5q-47 0 -78.5 29.5t-31.5 79.5t31.5 80t78.5 30t78 -30zM273.5 758.5
q-16.5 -16.5 -16.5 -44.5q0 -27 16.5 -43.5t42.5 -16.5q25 0 41.5 16.5t16.5 43.5q0 28 -16.5 44.5t-41.5 16.5q-26 0 -42.5 -16.5z" />
    <glyph glyph-name="Uhungarumlaut" unicode="&#x170;" horiz-adv-x="671" 
d="M178 706v-419q0 -94 41.5 -140t116.5 -46q74 0 115.5 46t41.5 140v419h114v-419q0 -145 -75 -219.5t-198 -74.5q-122 0 -196 74.5t-74 219.5v419h114zM256 756h-73l69 170h91zM419 756h-73l83 170h92z" />
    <glyph glyph-name="uhungarumlaut" unicode="&#x171;" horiz-adv-x="645" 
d="M577 551v-551h-115v120q-21 -61 -73 -94.5t-121 -33.5q-96 0 -154 62t-58 177v320h114v-308q0 -75 38 -115.5t104 -40.5q68 0 109 44t41 128v292h115zM236 601h-73l69 170h91zM399 601h-73l83 170h92z" />
    <glyph glyph-name="Uogonek" unicode="&#x172;" horiz-adv-x="694" 
d="M300 -130.5q-35 29.5 -35 80.5q0 16 8 29.5t21 18.5q-97 17 -157.5 90.5t-60.5 198.5v419h114v-419q0 -94 41.5 -140t116.5 -46q72 0 114.5 44t42.5 142v419h114v-419q0 -127 -60 -199t-155 -87q-58 -9 -58 -51q0 -22 16.5 -34.5t46.5 -12.5h99v-63h-119q-54 0 -89 29.5z
" />
    <glyph glyph-name="uogonek" unicode="&#x173;" horiz-adv-x="645" 
d="M577 551v-551h-115v120q-21 -61 -73 -94.5t-121 -33.5q-96 0 -154 62t-58 177v320h114v-308q0 -75 38 -115.5t104 -40.5q68 0 109 44t41 128v292h115zM576 13v-58h-62q-29 0 -45.5 -12.5t-16.5 -34.5t16.5 -34.5t45.5 -12.5h105v-64h-115q-58 0 -95 28t-37 80t35.5 80
t86.5 28h82z" />
    <glyph glyph-name="Wcircumflex" unicode="&#x174;" horiz-adv-x="996" 
d="M963 706l-176 -706h-140l-149 546l-149 -546h-140l-176 706h125l122 -574l155 574h126l155 -574l122 574h125zM499 846l-144 -84v78l144 83l142 -83v-78z" />
    <glyph glyph-name="wcircumflex" unicode="&#x175;" horiz-adv-x="850" 
d="M841 551l-153 -551h-126l-136 426l-138 -426h-125l-153 551h115l105 -446l138 446h120l140 -446l105 446h108zM426 691l-144 -84v78l144 83l142 -83v-78z" />
    <glyph glyph-name="Ycircumflex" unicode="&#x176;" horiz-adv-x="618" 
d="M602 706l-235 -449v-257h-115v257l-236 449h132l162 -327l162 327h130zM310 846l-144 -84v78l144 83l142 -83v-78z" />
    <glyph glyph-name="ycircumflex" unicode="&#x177;" horiz-adv-x="585" 
d="M134 551l165 -405l153 405h127l-333 -813h-127l119 275l-232 538h128zM293 691l-144 -84v78l144 83l142 -83v-78z" />
    <glyph glyph-name="Ydieresis" unicode="&#x178;" horiz-adv-x="618" 
d="M602 706l-235 -449v-257h-115v257l-236 449h132l162 -327l162 327h130zM181 875q16 16 40 16t40.5 -16t16.5 -40q0 -23 -16.5 -39.5t-40.5 -16.5t-40 16.5t-16 39.5q0 24 16 40zM358 875q16 16 40 16t40 -16t16 -40q0 -23 -16 -39.5t-40 -16.5t-40 16.5t-16 39.5
q0 24 16 40z" />
    <glyph glyph-name="Zacute" unicode="&#x179;" horiz-adv-x="554" 
d="M169 93h343v-93h-470v89l336 524h-329v93h458v-89zM436 862l-221 -113v80l221 122v-89z" />
    <glyph glyph-name="zacute" unicode="&#x17a;" horiz-adv-x="459" 
d="M151 96h283v-96h-409v91l268 364h-261v96h392v-91zM388 707l-221 -113v80l221 122v-89z" />
    <glyph glyph-name="Zdotaccent" unicode="&#x17b;" horiz-adv-x="554" 
d="M169 93h343v-93h-470v89l336 524h-329v93h458v-89zM237 875q16 16 39 16q24 0 40.5 -16t16.5 -40q0 -23 -16.5 -39.5t-40.5 -16.5q-23 0 -39 16.5t-16 39.5q0 24 16 40z" />
    <glyph glyph-name="zdotaccent" unicode="&#x17c;" horiz-adv-x="459" 
d="M151 96h283v-96h-409v91l268 364h-261v96h392v-91zM189 720q16 16 39 16q24 0 40.5 -16t16.5 -40q0 -23 -16.5 -39.5t-40.5 -16.5q-23 0 -39 16.5t-16 39.5q0 24 16 40z" />
    <glyph glyph-name="Zcaron" unicode="&#x17d;" horiz-adv-x="554" 
d="M169 93h343v-93h-470v89l336 524h-329v93h458v-89zM420 843l-142 -83l-144 83v78l144 -84l142 84v-78z" />
    <glyph glyph-name="zcaron" unicode="&#x17e;" horiz-adv-x="459" 
d="M151 96h283v-96h-409v91l268 364h-261v96h392v-91zM373 688l-142 -83l-144 83v78l144 -84l142 84v-78z" />
    <glyph glyph-name="florin" unicode="&#x192;" horiz-adv-x="335" 
d="M268.5 653q-28.5 -20 -32.5 -63l-4 -39h111l-9 -96h-112l-55 -519q-9 -82 -54.5 -118t-127.5 -36h-31l9 99h32q27 0 40 12t17 43l56 519h-66l9 96h67l4 39q10 94 68.5 138t167.5 44l-9 -99q-52 0 -80.5 -20z" />
    <glyph glyph-name="uni01FC" unicode="&#x1fc;" horiz-adv-x="907" 
d="M580 614v-213h255v-88h-255v-220h285v-93h-400v148h-252l-82 -148h-126l389 706h471v-92h-285zM465 236v370l-204 -370h204zM626 862l-221 -113v80l221 122v-89z" />
    <glyph glyph-name="uni01FD" unicode="&#x1fd;" horiz-adv-x="1097" 
d="M1051 253h-441q4 -85 50.5 -127t114.5 -42q61 0 102 29t52 79h121q-16 -89 -79.5 -144t-158.5 -55q-75 0 -129.5 35t-75.5 101v-129h-114v128q-22 -61 -75 -98t-128 -37q-72 0 -128.5 34t-88.5 98t-32 151q0 86 32 150t88.5 98t128.5 34q75 0 128 -37t75 -98v128h114
v-129q20 65 75 100.5t130 35.5t130 -33.5t84.5 -92t29.5 -130.5q0 -22 -5 -49zM921 395.5q-22 36.5 -60 54t-82 17.5q-68 0 -116 -40t-53 -122h330q3 54 -19 90.5zM411 116.5q38 22.5 60 63.5t22 96q0 54 -22 95.5t-60 64t-86 22.5q-76 0 -121.5 -48.5t-45.5 -133.5
t45.5 -133.5t121.5 -48.5q48 0 86 22.5zM707 707l-221 -113v80l221 122v-89z" />
    <glyph glyph-name="uni0218" unicode="&#x218;" horiz-adv-x="606" 
d="M508 91.5q-25 -44.5 -76 -71.5t-125 -27q-72 0 -129 25.5t-91 71.5t-39 106h122q5 -46 39.5 -79t92.5 -33q52 0 80.5 28t28.5 72q0 38 -21 62.5t-52 38.5t-85 32q-66 21 -107.5 42t-70.5 61t-29 105q0 57 28 100t80 66.5t120 23.5q108 0 171.5 -52t72.5 -136h-123
q-7 40 -37.5 68.5t-83.5 28.5q-48 0 -77 -24.5t-29 -70.5q0 -36 20 -59.5t50.5 -37t83.5 -31.5q67 -21 109.5 -42.5t72 -62.5t29.5 -108q0 -52 -25 -96.5zM379 -128q0 -62 -29 -95t-83 -33v46q48 0 48 64v9h-50v89h100q14 -42 14 -80z" />
    <glyph glyph-name="uni0219" unicode="&#x219;" horiz-adv-x="528" 
d="M405.5 508.5q58.5 -49.5 71.5 -132.5h-108q-7 45 -38.5 72.5t-83.5 27.5q-43 0 -66.5 -20.5t-23.5 -55.5q0 -26 17 -42t42.5 -25t72.5 -20q62 -14 100.5 -29t66 -47.5t27.5 -88.5q0 -69 -52.5 -112t-141.5 -43q-103 0 -166.5 48t-76.5 134h111q5 -45 40 -73t92 -28
q41 0 64.5 21.5t23.5 54.5q0 29 -18 46t-45 26.5t-74 19.5q-60 14 -97.5 28t-64 45.5t-26.5 85.5q0 70 52.5 113.5t145.5 43.5q97 0 155.5 -49.5zM337 -128q0 -62 -29 -95t-83 -33v46q49 0 49 64v9h-51v89h101q13 -39 13 -80z" />
    <glyph glyph-name="uni021A" unicode="&#x21a;" horiz-adv-x="539" 
d="M523 706v-92h-197v-614h-115v614h-196v92h508zM331 -128q0 -62 -29 -95t-83 -33v46q49 0 49 64v9h-51v89h101q13 -39 13 -80z" />
    <glyph glyph-name="uni021B" unicode="&#x21b;" horiz-adv-x="384" 
d="M346 99v-99h-70q-88 0 -133.5 42.5t-45.5 141.5v270h-79v97h79v137h115v-137h133v-97h-133v-272q0 -47 17.5 -65t61.5 -18h55zM263 -48q14 -42 14 -80q0 -62 -29 -95t-83 -33v46q48 0 48 64v9h-50v89h100z" />
    <glyph glyph-name="uni02BC" unicode="&#x2bc;" horiz-adv-x="197" 
d="M157 704q0 -60 -28.5 -92t-83.5 -32v48q25 0 37 14.5t12 43.5v21h-54v97h103q14 -47 14 -100z" />
    <glyph glyph-name="circumflex" unicode="&#x2c6;" horiz-adv-x="338" 
d="M170 691l-144 -84v78l144 83l142 -83v-78z" />
    <glyph glyph-name="caron" unicode="&#x2c7;" horiz-adv-x="338" 
d="M312 688l-142 -83l-144 83v78l144 -84l142 84v-78z" />
    <glyph glyph-name="uni02C9" unicode="&#x2c9;" horiz-adv-x="418" 
d="M392 720v-78h-366v78h366z" />
    <glyph glyph-name="breve" unicode="&#x2d8;" horiz-adv-x="353" 
d="M66.5 649.5q-40.5 41.5 -40.5 109.5v10h59q0 -77 92 -77q46 0 69 20t23 57h59v-10q0 -68 -40.5 -109.5t-110.5 -41.5t-110.5 41.5z" />
    <glyph glyph-name="dotaccent" unicode="&#x2d9;" horiz-adv-x="172" 
d="M46 720q16 16 39 16q24 0 40.5 -16t16.5 -40q0 -23 -16.5 -39.5t-40.5 -16.5q-23 0 -39 16.5t-16 39.5q0 24 16 40z" />
    <glyph glyph-name="ring" unicode="&#x2da;" horiz-adv-x="271" 
d="M214 794q31 -30 31 -80t-31.5 -79.5t-77.5 -29.5q-47 0 -78.5 29.5t-31.5 79.5t31.5 80t78.5 30t78 -30zM93.5 758.5q-16.5 -16.5 -16.5 -44.5q0 -27 16.5 -43.5t42.5 -16.5q25 0 41.5 16.5t16.5 43.5q0 28 -16.5 44.5t-41.5 16.5q-26 0 -42.5 -16.5z" />
    <glyph glyph-name="ogonek" unicode="&#x2db;" horiz-adv-x="289" 
d="M225 -7v-58h-62q-29 0 -45.5 -12.5t-16.5 -34.5t16.5 -34.5t45.5 -12.5h105v-64h-115q-58 0 -95 28t-37 80t35.5 80t86.5 28h82z" />
    <glyph glyph-name="tilde" unicode="&#x2dc;" horiz-adv-x="380" 
d="M163.5 718.5q14.5 -6.5 36.5 -19.5q15 -11 27.5 -16.5t26.5 -5.5q17 0 28.5 12t15.5 35h60q-8 -58 -36.5 -87t-71.5 -29q-21 0 -37.5 7t-36.5 20q-19 11 -28.5 15.5t-22.5 4.5q-37 0 -43 -47h-61q19 117 108 117q20 0 34.5 -6.5z" />
    <glyph glyph-name="hungarumlaut" unicode="&#x2dd;" horiz-adv-x="390" 
d="M99 601h-73l69 170h91zM262 601h-73l83 170h92z" />
    <glyph glyph-name="pi" unicode="&#x3c0;" horiz-adv-x="715" 
d="M678 551v-87h-77v-464h-115v464h-255v-464h-115v464h-77v87h639z" />
    <glyph glyph-name="dvCandrabindu" unicode="&#x901;" horiz-adv-x="0" 
d="M-189.5 997q-13.5 14 -13.5 33q0 20 13.5 33.5t33.5 13.5t33.5 -13.5t13.5 -33.5t-13.5 -33.5t-33.5 -13.5t-33.5 14zM-314.5 868q-55.5 52 -55.5 134h85q0 -45 34 -77.5t95 -32.5t95 32.5t34 77.5h85q0 -82 -55.5 -134t-158.5 -52t-158.5 52z" />
    <glyph glyph-name="dvAnusvara" unicode="&#x902;" horiz-adv-x="0" 
d="M-198.5 848q-19.5 19 -19.5 47t19.5 47t47.5 19t47 -19t19 -47t-19 -47t-47 -19t-47.5 19z" />
    <glyph glyph-name="dvVisarga" unicode="&#x903;" horiz-adv-x="246" 
d="M75.5 438q-19.5 19 -19.5 47t19.5 47t47.5 19t47.5 -19t19.5 -47t-19.5 -47t-47.5 -19t-47.5 19zM75.5 138q-19.5 19 -19.5 47t19.5 47t47.5 19t47.5 -19t19.5 -47t-19.5 -47t-47.5 -19t-47.5 19z" />
    <glyph glyph-name="dvA" unicode="&#x905;" horiz-adv-x="831" 
d="M854 740v-88h-122v-652h-104v308l-138 1q10 -29 10 -61q0 -87 -56 -140t-148 -53q-66 0 -117.5 26t-80 72.5t-28.5 106.5h98q0 -50 33.5 -82.5t87.5 -32.5q53 0 84 31t31 82q0 29 -11 51h-2v5q-32 57 -113 57h-41v85h41q55 0 85.5 29.5t30.5 70.5q0 47 -30.5 75.5
t-76.5 28.5q-48 0 -80.5 -27.5t-32.5 -73.5h-97q0 57 26.5 100t74.5 66.5t109 23.5q90 0 145.5 -49t55.5 -130q0 -57 -30 -97.5t-87 -55.5v-2q28 -6 52 -20h205v345h226z" />
    <glyph glyph-name="dvAA" unicode="&#x906;" horiz-adv-x="1126" 
d="M854 740v-88h-122v-652h-104v308l-138 1q10 -29 10 -61q0 -87 -56 -140t-148 -53q-66 0 -117.5 26t-80 72.5t-28.5 106.5h98q0 -50 33.5 -82.5t87.5 -32.5q53 0 84 31t31 82q0 29 -11 51h-2v5q-32 57 -113 57h-41v85h41q55 0 85.5 29.5t30.5 70.5q0 47 -30.5 75.5
t-76.5 28.5q-48 0 -80.5 -27.5t-32.5 -73.5h-97q0 57 26.5 100t74.5 66.5t109 23.5q90 0 145.5 -49t55.5 -130q0 -57 -30 -97.5t-87 -55.5v-2q28 -6 52 -20h205v345h226zM929 652h-122v88h349v-88h-122v-652h-105v652z" />
    <glyph glyph-name="dvI" unicode="&#x907;" horiz-adv-x="580" 
d="M211.5 454q-30.5 -16 -30.5 -57q0 -37 26.5 -54t68.5 -17h44q88 0 147 -41t59 -133q0 -73 -47 -120t-131 -47q-63 0 -102.5 26t-55.5 55v-145h-99v256h94q5 -51 40 -82t94 -31q52 0 79.5 26t27.5 65q0 51 -35 73.5t-90 22.5h-56q-71 3 -120 39t-49 108q0 76 52 112
t131 36h106v106h-397v88h644v-88h-146v-182h-179q-45 0 -75.5 -16z" />
    <glyph glyph-name="dvII" unicode="&#x908;" horiz-adv-x="580" 
d="M211.5 454q-30.5 -16 -30.5 -57q0 -37 26.5 -54t68.5 -17h44q88 0 147 -41t59 -133q0 -73 -47 -120t-131 -47q-63 0 -102.5 26t-55.5 55v-145h-99v256h94q5 -51 40 -82t94 -31q52 0 79.5 26t27.5 65q0 51 -35 73.5t-90 22.5h-56q-71 3 -120 39t-49 108q0 76 52 112
t131 36h106v106h-397v88h644v-88h-146v-182h-179q-45 0 -75.5 -16zM366 811q0 89 42.5 144.5t133.5 55.5q83 0 128 -49t42 -130h-92q2 41 -19 66t-57 25q-80 0 -80 -111v-90h-98v89z" />
    <glyph glyph-name="dvU" unicode="&#x909;" horiz-adv-x="572" 
d="M455 459.5q-29 -40.5 -76 -49.5v-2q61 -14 97.5 -66.5t36.5 -122.5q0 -63 -26.5 -112t-76.5 -76.5t-119 -27.5q-70 0 -125.5 28.5t-86.5 80t-31 118.5h100q0 -57 39.5 -95t98.5 -38q58 0 93 36t35 94q0 54 -34 93.5t-101 39.5h-50v92h36q57 0 87.5 31t30.5 84v85h-407v88
h620v-88h-112v-91q0 -61 -29 -101.5z" />
    <glyph glyph-name="dvUU" unicode="&#x90a;" horiz-adv-x="861" 
d="M455 459.5q-29 -40.5 -76 -49.5v-2h199q105 0 168.5 -48.5t63.5 -148.5q0 -90 -53 -138t-140 -48q-16 0 -50 4v80q11 -1 33 -1q49 0 79 26t30 81q0 56 -36 82.5t-94 26.5h-95q28 -48 28 -110q0 -61 -26.5 -109t-76.5 -75t-118 -27q-70 0 -125.5 28.5t-86.5 80t-31 118.5
h100q0 -57 39.5 -95t98.5 -38q58 0 93 36t35 94q0 54 -34 93.5t-101 39.5h-50v92h36q57 0 87.5 31t30.5 84v85h-407v88h908v-88h-400v-91q0 -61 -29 -101.5z" />
    <glyph glyph-name="dvvR" unicode="&#x90b;" horiz-adv-x="1030" 
d="M589 652v-210h169q78 0 78 69v52h91v-353h-21q-51 0 -79 -26.5t-28 -68.5q0 -48 30.5 -70.5t79.5 -22.5q27 0 57 8v-84q-36 -8 -71 -8q-86 0 -141.5 43.5t-55.5 124.5q0 64 37 107t101 57v108q-42 -20 -93 -20h-154v-358h-97v244l-248 -244h-132v6l380 345q-12 52 -52 84
t-98 32q-76 0 -122 -47.5t-46 -126.5h-105q0 78 30 137.5t85 92.5t128 33q120 0 180 -89v185h-516v88h1078v-88h-465z" />
    <glyph glyph-name="dvvL" unicode="&#x90c;" horiz-adv-x="902" 
d="M687 652v-117q69 -18 109.5 -77t40.5 -150q0 -56 -16 -100h-7q-59 0 -89 -26.5t-30 -69.5q0 -47 31 -69.5t80 -22.5q32 0 58 8v-84q-34 -8 -70 -8q-89 0 -144.5 44t-55.5 127q0 60 38 103.5t97 54.5q4 19 4 44q0 61 -30 100t-85 39q-60 0 -90.5 -44.5t-30.5 -119.5v-21
h-88v21q0 74 -29 119t-87 45t-90 -39t-32 -102q0 -73 38 -114t106 -41l28 2v-92q-13 -1 -34 -1q-117 0 -180.5 67.5t-63.5 179.5q0 73 27.5 125.5t76 80t110.5 27.5q70 0 112.5 -39t59.5 -98h3q14 48 46 83.5t85 48.5v116h-609v88h949v-88h-238z" />
    <glyph glyph-name="dvEcandra" unicode="&#x90d;" horiz-adv-x="652" 
d="M377 436q48 0 70 27.5t22 86.5v102h-268v-383q0 -76 36 -118t103 -42q62 0 97 36.5t35 101.5h103q0 -107 -62.5 -167.5t-170.5 -60.5q-121 0 -183 68t-62 185l-1 380h-120v88h700v-88h-105v-105q0 -104 -40 -155.5t-131 -51.5q-20 0 -44 3v94q7 -1 21 -1zM168 884.5
q-54 52.5 -54 133.5h91q0 -45 31 -76t92 -31t92.5 31t31.5 76h90q0 -80 -54.5 -133t-159.5 -53q-106 0 -160 52.5z" />
    <glyph glyph-name="dvE" unicode="&#x90f;" horiz-adv-x="652" 
d="M377 436q48 0 70 27.5t22 86.5v102h-268v-383q0 -76 36 -118t103 -42q62 0 97 36.5t35 101.5h103q0 -107 -62.5 -167.5t-170.5 -60.5q-121 0 -183 68t-62 185l-1 380h-120v88h700v-88h-105v-105q0 -104 -40 -155.5t-131 -51.5q-20 0 -44 3v94q7 -1 21 -1z" />
    <glyph glyph-name="dvAI" unicode="&#x910;" horiz-adv-x="652" 
d="M377 436q48 0 70 27.5t22 86.5v102h-268v-383q0 -76 36 -118t103 -42q62 0 97 36.5t35 101.5h103q0 -107 -62.5 -167.5t-170.5 -60.5q-121 0 -183 68t-62 185l-1 380h-120v88h700v-88h-105v-105q0 -104 -40 -155.5t-131 -51.5q-20 0 -44 3v94q7 -1 21 -1zM388 846.5
q-31 33.5 -60.5 44t-81.5 10.5h-45v86h43q77 -1 121.5 -16.5t90 -67.5t111.5 -167h-99q-49 77 -80 110.5z" />
    <glyph glyph-name="dvOcandra" unicode="&#x911;" horiz-adv-x="1132" 
d="M854 740v-88h-122v-652h-104v308l-138 1q10 -29 10 -61q0 -87 -56 -140t-148 -53q-66 0 -117.5 26t-80 72.5t-28.5 106.5h98q0 -50 33.5 -82.5t87.5 -32.5q53 0 84 31t31 82q0 29 -11 51h-2v5q-32 57 -113 57h-41v85h41q55 0 85.5 29.5t30.5 70.5q0 47 -30.5 75.5
t-76.5 28.5q-48 0 -80.5 -27.5t-32.5 -73.5h-97q0 57 26.5 100t74.5 66.5t109 23.5q90 0 145.5 -49t55.5 -130q0 -57 -30 -97.5t-87 -55.5v-2q28 -6 52 -20h205v345h226zM929 652h-122v88h349v-88h-122v-652h-105v652zM673 884.5q-54 52.5 -54 133.5h91q0 -45 31 -76t92 -31
t92.5 31t31.5 76h90q0 -80 -54.5 -133t-159.5 -53q-106 0 -160 52.5z" />
    <glyph glyph-name="dvO" unicode="&#x913;" horiz-adv-x="1132" 
d="M851 846.5q-31 33.5 -60.5 44t-81.5 10.5h-45v86h43q77 -1 121.5 -16.5t90 -67.5t111.5 -167h-99q-49 77 -80 110.5zM854 740v-88h-122v-652h-104v308l-138 1q10 -29 10 -61q0 -87 -56 -140t-148 -53q-66 0 -117.5 26t-80 72.5t-28.5 106.5h98q0 -50 33.5 -82.5
t87.5 -32.5q53 0 84 31t31 82q0 29 -11 51h-2v5q-32 57 -113 57h-41v85h41q55 0 85.5 29.5t30.5 70.5q0 47 -30.5 75.5t-76.5 28.5q-48 0 -80.5 -27.5t-32.5 -73.5h-97q0 57 26.5 100t74.5 66.5t109 23.5q90 0 145.5 -49t55.5 -130q0 -57 -30 -97.5t-87 -55.5v-2
q28 -6 52 -20h205v345h226zM929 652h-122v88h349v-88h-122v-652h-105v652z" />
    <glyph glyph-name="dvAU" unicode="&#x914;" horiz-adv-x="1132" 
d="M818.5 1033q40.5 -17 86.5 -80.5t124 -215.5h-90q-61 46 -91.5 63t-59.5 22t-87 5h-46v67h44q56 0 85 -4t59 -19.5t75 -51.5q-42 76 -75 111t-62 43.5t-78 8.5h-48v68h46q77 0 117.5 -17zM854 740v-88h-122v-652h-104v308l-138 1q10 -29 10 -61q0 -87 -56 -140t-148 -53
q-66 0 -117.5 26t-80 72.5t-28.5 106.5h98q0 -50 33.5 -82.5t87.5 -32.5q53 0 84 31t31 82q0 29 -11 51h-2v5q-32 57 -113 57h-41v85h41q55 0 85.5 29.5t30.5 70.5q0 47 -30.5 75.5t-76.5 28.5q-48 0 -80.5 -27.5t-32.5 -73.5h-97q0 57 26.5 100t74.5 66.5t109 23.5
q90 0 145.5 -49t55.5 -130q0 -57 -30 -97.5t-87 -55.5v-2q28 -6 52 -20h205v345h226zM929 652h-122v88h349v-88h-122v-652h-105v652z" />
    <glyph glyph-name="dvKA" unicode="&#x915;" horiz-adv-x="986" 
d="M550 652v-195q22 43 63.5 68.5t100.5 25.5q61 0 108 -29.5t73 -81t26 -117.5q0 -71 -27 -122.5t-74 -79t-107 -27.5q-36 0 -64 7v83q15 -4 37 -4q56 0 92.5 37.5t36.5 103.5q0 62 -37.5 101t-94.5 39q-66 0 -99.5 -44t-33.5 -105v-312h-101v183q-23 -43 -67 -69t-106 -26
t-110 29t-74.5 81.5t-26.5 122.5q0 69 27 121t76 80.5t112 28.5q60 0 103 -25t66 -67v193h-473v88h1033v-88h-459zM386.5 197q31.5 21 47 54t15.5 68q0 57 -36 99.5t-103 42.5q-59 0 -99 -38.5t-40 -102.5q0 -66 39 -105t100 -39q45 0 76.5 21z" />
    <glyph glyph-name="dvKHA" unicode="&#x916;" horiz-adv-x="941" 
d="M965 740v-88h-122v-652h-104v200q-21 -33 -56.5 -52t-84.5 -19q-18 0 -36 3q-31 -61 -89 -98.5t-136 -37.5q-119 0 -189 68t-70 189v147h33q67 0 103.5 32.5t36.5 111.5v108h-275v88h989zM425 109q35 22 55 57q-37 27 -57.5 71t-20.5 99q0 59 25.5 105.5t70 72
t100.5 25.5q49 0 84.5 -19t56.5 -52v184h-383v-121q0 -103 -47.5 -153t-126.5 -54v-83q0 -69 42 -111.5t116 -42.5q50 0 85 22zM708 247.5q31 37.5 31 86.5q0 50 -30.5 87t-89.5 37q-52 0 -87.5 -33t-35.5 -89q0 -59 35 -92.5t88 -33.5q58 0 89 37.5z" />
    <glyph glyph-name="dvGA" unicode="&#x917;" horiz-adv-x="766" 
d="M789 740v-88h-122v-652h-104v652h-163v-257q0 -83 -43.5 -135t-132.5 -52q-87 0 -133.5 48.5t-46.5 132.5q0 21 1 31h102v-31q0 -39 17.5 -65t56.5 -26q41 0 57.5 26.5t16.5 66.5v261h-319v88h813z" />
    <glyph glyph-name="dvGHA" unicode="&#x918;" horiz-adv-x="707" 
d="M731 652h-121v-652h-106v205q-31 -49 -84.5 -76t-120.5 -27q-98 0 -159.5 47.5t-61.5 135.5q0 60 36 99.5t89 50.5v2q-50 10 -80 45.5t-30 101.5v68h-117v88h755v-88zM504 652h-306v-63q0 -54 29 -81.5t94 -27.5h45v-85h-53q-65 0 -97 -27.5t-32 -72.5q0 -52 38.5 -79.5
t100.5 -27.5q50 0 91.5 21.5t65.5 60.5t24 89v293z" />
    <glyph glyph-name="dvNGA" unicode="&#x919;" horiz-adv-x="672" 
d="M696 740v-88h-227v-182h-179q-45 0 -75 -16t-30 -56q0 -38 26 -55t67 -17h45q87 0 146 -41t59 -130q0 -78 -56 -124.5t-159 -46.5q-111 0 -178.5 52.5t-69.5 140.5h104q1 -51 38 -82t103 -31q57 0 88 25.5t31 66.5q0 50 -35 72.5t-90 22.5h-39q-75 0 -130 34.5t-55 115.5
q0 74 52 109t129 35h106v107h-391v88h720zM637.5 429.5q17.5 -17.5 17.5 -43.5q0 -25 -18 -42.5t-43 -17.5t-43 17.5t-18 42.5q0 26 18 43.5t43 17.5q26 0 43.5 -17.5z" />
    <glyph glyph-name="dvCA" unicode="&#x91a;" horiz-adv-x="740" 
d="M764 652h-122v-652h-105v191q-29 -45 -77.5 -70.5t-109.5 -25.5q-59 0 -106.5 23.5t-75.5 68t-28 105.5q0 48 19.5 86t56.5 62h-166v83h365v-83h-37q-62 0 -100.5 -36.5t-38.5 -94.5q0 -59 40.5 -93t100.5 -34q70 1 113.5 50t43.5 123v297h-561v88h788v-88z" />
    <glyph glyph-name="dvCHA" unicode="&#x91b;" horiz-adv-x="819" 
d="M633 652v-110q64 -15 102.5 -68t38.5 -137q0 -95 -46 -165.5t-131 -108.5t-198 -38q-150 0 -239.5 56.5t-89.5 163.5q0 65 36 107t94 55v3q-49 9 -79 45t-30 102v95h-115v88h867v-88h-210zM536 652h-341v-91q0 -54 28 -81.5t89 -27.5h21v-85h-19q-69 0 -103.5 -31.5
t-34.5 -80.5q0 -68 58.5 -104t165.5 -36q128 0 204.5 60t76.5 166q0 60 -28.5 94t-68.5 34q-38 0 -65.5 -26.5t-27.5 -78.5q0 -40 16 -88h-87q-17 46 -17 99q0 72 36.5 113.5t96.5 53.5v110z" />
    <glyph glyph-name="dvJA" unicode="&#x91c;" horiz-adv-x="846" 
d="M870 652h-122v-652h-105v406h-168v-76q0 -93 -55 -150.5t-149 -57.5q-96 0 -149.5 57t-53.5 151v166h106v-164q0 -54 26 -86t72 -32q47 0 74 32t27 86v164h270v156h-667v88h894v-88z" />
    <glyph glyph-name="dvJHA" unicode="&#x91d;" horiz-adv-x="855" 
d="M879 652h-122v-652h-103v246l-168 1q37 -42 37 -105q0 -67 -44 -109t-126 -42q-63 0 -101 23.5t-57 49.5v-143h-99v250h94q6 -45 40 -73.5t92 -28.5q51 0 77.5 24.5t26.5 61.5q0 45 -32 70.5t-93 25.5h-56q-71 3 -120 39t-49 108q0 76 52 112t131 36h106v106h-389v88h903
v-88zM654 326v326h-188v-182h-179q-45 0 -75.5 -16t-30.5 -57q0 -37 26.5 -54t68.5 -17h44h334z" />
    <glyph glyph-name="dvNYA" unicode="&#x91e;" horiz-adv-x="817" 
d="M841 652h-122v-652h-105v276h-98q-12 -89 -71.5 -143t-155.5 -54q-64 0 -112.5 23.5t-77 64.5t-34.5 92h99q11 -39 43.5 -65t82.5 -26q64 0 99 42.5t35 105.5q0 62 -35 104.5t-99 42.5q-51 0 -83.5 -26.5t-42.5 -64.5h-99q9 79 68 129.5t156 50.5q93 0 152.5 -51.5
t73.5 -135.5h99v287h-638v88h865v-88z" />
    <glyph glyph-name="dvTTA" unicode="&#x91f;" horiz-adv-x="649" 
d="M223 415.5q-53 -43.5 -53 -126.5q0 -71 47 -116.5t121 -45.5q76 0 123 47.5t47 122.5h100q0 -77 -33 -136.5t-94 -92t-141 -32.5q-79 0 -142 32t-98 89.5t-35 131.5q0 81 36 139.5t101 89t152 30.5h15v104h-393v88h697v-88h-201v-193h-112q-84 0 -137 -43.5z" />
    <glyph glyph-name="dvTTHA" unicode="&#x920;" horiz-adv-x="674" 
d="M388 652v-109q97 -15 159.5 -80.5t62.5 -167.5q0 -75 -35.5 -132.5t-98 -89t-139.5 -31.5t-139 31.5t-97.5 89t-35.5 132.5q0 101 61.5 166.5t157.5 81.5v109h-308v88h722v-88h-310zM459 412.5q-47 45.5 -122 45.5q-74 0 -121 -45.5t-47 -117.5q0 -47 21.5 -85t60 -59
t86.5 -21q75 0 122 46.5t47 118.5t-47 117.5z" />
    <glyph glyph-name="dvDDA" unicode="&#x921;" horiz-adv-x="572" 
d="M215 454q-30 -16 -30 -56q0 -38 26 -55t67 -17h45q87 0 146 -41t59 -130q0 -78 -56 -124.5t-159 -46.5q-111 0 -178.5 52.5t-69.5 140.5h104q1 -51 38 -82t103 -31q57 0 88 25.5t31 66.5q0 50 -35 72.5t-90 22.5h-39q-75 0 -130 34.5t-55 115.5q0 74 52 109t129 35h102
v107h-387v88h619v-88h-131v-182h-174q-45 0 -75 -16z" />
    <glyph glyph-name="dvDDHA" unicode="&#x922;" horiz-adv-x="645" 
d="M228 427q-62 -52 -62 -150q0 -57 25 -102t72 -70t111 -25q68 0 112 33t44 88q0 39 -24.5 64t-62.5 25q-33 0 -56 -21t-23 -55q0 -11 3 -19h-77q-3 17 -3 33q0 64 45 101t115 37q79 0 126 -45.5t47 -119.5q0 -91 -66.5 -144.5t-181.5 -53.5q-87 0 -157 33.5t-110 96.5
t-40 147q0 88 38 149.5t104 92.5t151 31h34v99h-416v88h693v-88h-178v-173h-101q-100 0 -162 -52z" />
    <glyph glyph-name="dvNNA" unicode="&#x923;" horiz-adv-x="867" 
d="M891 652h-122v-652h-105v652h-177v-274q0 -92 -52 -149t-148 -57q-95 0 -147 57.5t-52 148.5v274h-112v88h915v-88zM384 652h-193v-284q0 -48 26.5 -77.5t70.5 -29.5q45 0 70.5 29.5t25.5 77.5v284z" />
    <glyph glyph-name="dvTA" unicode="&#x924;" horiz-adv-x="698" 
d="M722 652h-122v-652h-105v406h-140q-86 0 -135 -41t-49 -119q0 -76 43.5 -118.5t125.5 -42.5h21v-83h-36q-118 0 -189 62.5t-71 183.5q0 124 78 186t207 62h145v156h-519v88h746v-88z" />
    <glyph glyph-name="dvTHA" unicode="&#x925;" horiz-adv-x="774" 
d="M798 740v-88h-122v-652h-105v217q-23 -51 -81 -87t-143 -36q-84 0 -146 33.5t-95.5 96t-33.5 146.5q0 31 4 58h95q200 0 200 133q0 42 -25.5 70t-68.5 28q-45 0 -71.5 -27.5t-26.5 -74.5q0 -15 4 -41h-95q-4 28 -4 44q0 59 25 101.5t69.5 65t99.5 22.5q57 0 100 -24
t67 -67.5t24 -99.5q0 -100 -69.5 -153t-189.5 -53h-37q2 -77 50 -123.5t139 -46.5q58 0 105.5 24.5t75.5 72t28 111.5v350h227z" />
    <glyph glyph-name="dvDA" unicode="&#x926;" horiz-adv-x="610" 
d="M219.5 422q-47.5 -39 -47.5 -109q0 -64 38 -102t102 -38q51 0 89 32t38 91h97v-317h-103v179q-22 -32 -61.5 -50.5t-88.5 -18.5q-62 0 -111.5 26.5t-78 77.5t-28.5 123q0 76 35 129t95 79.5t136 26.5h62v101h-417v88h658l-1 -88h-135v-191h-157q-74 0 -121.5 -39z" />
    <glyph glyph-name="dvDHA" unicode="&#x927;" horiz-adv-x="718" 
d="M746 652h-120v-652h-105v203q-31 -52 -87.5 -81.5t-130.5 -29.5q-96 0 -158 46t-62 130q0 61 36 99t84 46v3q-54 13 -90.5 55t-36.5 110q0 75 49 121.5t127 46.5q79 0 124.5 -45t45.5 -117q0 -13 -2 -35h-79l1 23q0 37 -23 61.5t-64 24.5t-65 -26t-24 -65q0 -53 40 -82
t105 -29h58v-85h-54q-60 0 -92.5 -25.5t-32.5 -69.5q0 -49 38 -74.5t100 -25.5q56 0 99.5 24.5t68.5 69t25 101.5v366h225v-88z" />
    <glyph glyph-name="dvNA" unicode="&#x928;" horiz-adv-x="799" 
d="M823 652h-122v-652h-105v414h-174q45 -52 45 -125q0 -57 -26 -99.5t-71.5 -64.5t-101.5 -22q-58 0 -106 24.5t-75.5 69.5t-27.5 105q0 63 28.5 108t78 68.5t111.5 23.5h319v150h-620v88h847v-88zM351.5 223q31.5 31 31.5 80q0 48 -32 79.5t-81 31.5q-51 0 -83.5 -31.5
t-32.5 -80.5t32 -79.5t84 -30.5q50 0 81.5 31z" />
    <glyph glyph-name="dvPA" unicode="&#x92a;" horiz-adv-x="661" 
d="M685 652h-122v-652h-104v262q-25 -36 -66 -56t-96 -20q-106 0 -161.5 68t-55.5 183v215h-104v88h709v-88zM459 652h-274v-215q0 -76 34 -119t104 -43q64 0 100 41.5t36 102.5v233z" />
    <glyph glyph-name="dvPHA" unicode="&#x92b;" horiz-adv-x="985" 
d="M545 652v-195q23 43 66.5 68.5t103.5 25.5t107 -29t73 -80t26 -116q0 -72 -26.5 -124.5t-74 -80t-107.5 -27.5q-37 0 -67 8v82q20 -5 41 -5q56 0 92 38.5t36 103.5q0 62 -37 101t-95 39q-68 0 -103 -46.5t-35 -113.5v-301h-105v260q-24 -35 -62.5 -54.5t-89.5 -19.5
q-101 0 -154.5 66.5t-53.5 179.5v220h-104v88h1033v-88h-464zM440 652h-255v-220q0 -74 32 -115.5t96 -41.5q60 0 93.5 40t33.5 99v238z" />
    <glyph glyph-name="dvBA" unicode="&#x92c;" horiz-adv-x="689" 
d="M712 740v-88h-121v-652h-101v175q-25 -42 -72 -67.5t-110 -25.5q-68 0 -123.5 30t-87.5 84.5t-32 125.5t31.5 125t86.5 84t123 30q62 0 109 -25.5t75 -67.5v184h-514v88h736zM214 451l257 -216q24 41 24 89q0 43 -19.5 81.5t-57.5 62t-91 23.5q-67 0 -113 -40zM180 235
q23 -37 62 -57t86 -20q69 0 113 41l-259 216q-25 -39 -25 -93q0 -50 23 -87z" />
    <glyph glyph-name="dvBHA" unicode="&#x92d;" horiz-adv-x="812" 
d="M836 740v-88h-123v-652h-105v371h-152v-69q0 -102 -49.5 -157.5t-141.5 -55.5q-88 0 -141.5 51t-53.5 134q0 87 57 135t146 48h85v89q0 53 -20 83t-61 30q-36 0 -58.5 -25t-22.5 -68q0 -19 4 -36h-105q-4 24 -4 40q0 81 48 130t134 49q96 0 139.5 -59t43.5 -162v-71h152
v283h228zM358 371h-82q-49 0 -78.5 -26t-29.5 -71q0 -44 27 -70t69 -26q45 0 69.5 31.5t24.5 87.5v74z" />
    <glyph glyph-name="dvMA" unicode="&#x92e;" horiz-adv-x="803" 
d="M826 652h-122v-652h-105v371h-167v-69q0 -102 -49.5 -157.5t-142.5 -55.5q-88 0 -141 51t-53 134q0 87 56.5 135t145.5 48h86v195h-358v88h850v-88zM599 652h-167v-195h167v195zM334 371h-83q-48 0 -78 -26t-30 -71q0 -44 27 -70t69 -26q45 0 70 31.5t25 87.5v74z" />
    <glyph glyph-name="dvYA" unicode="&#x92f;" horiz-adv-x="743" 
d="M767 652h-122v-652h-105v200q-30 -44 -83 -70.5t-126 -26.5q-127 0 -196.5 76t-69.5 206q0 26 3 51h13q86 0 128 36.5t42 117.5v62h-275v88h791v-88zM540 652h-185v-80q0 -182 -187 -193v-4q0 -84 49 -134t136 -50q53 0 96 23t67 64t24 93v281z" />
    <glyph glyph-name="dvRA" unicode="&#x930;" horiz-adv-x="534" 
d="M180 327v-125q0 -55 25 -88t74 -33q45 0 71.5 30.5t26.5 81.5v22h101v-19q0 -94 -52.5 -149.5t-144.5 -55.5q-99 0 -151.5 59.5t-52.5 156.5v206h104q163 0 163 156v83h-368v88h582v-88h-110v-83q0 -116 -56 -179t-174 -63h-38z" />
    <glyph glyph-name="dvRxA" unicode="&#x931;" horiz-adv-x="534" 
d="M180 327v-125q0 -55 25 -88t74 -33q45 0 71.5 30.5t26.5 81.5v22h101v-19q0 -94 -52.5 -149.5t-144.5 -55.5q-99 0 -151.5 59.5t-52.5 156.5v206h104q163 0 163 156v83h-368v88h582v-88h-110v-83q0 -116 -56 -179t-174 -63h-38zM66 -156.5q-19 18.5 -19 46.5t19 47.5
t47 19.5t47.5 -19.5t19.5 -47.5t-19 -46.5t-48 -18.5q-28 0 -47 18.5z" />
    <glyph glyph-name="dvLA" unicode="&#x932;" horiz-adv-x="907" 
d="M699 652v-124q66 -20 104.5 -78t38.5 -145q0 -72 -28 -128t-83 -88t-133 -32q-8 0 -34 2v92l28 -2q68 0 106 42t38 112q0 63 -31 102.5t-87 39.5q-60 0 -90.5 -44.5t-30.5 -119.5v-18h-88v18q0 74 -29 119t-87 45t-90 -39t-32 -103q0 -70 38 -112t106 -42l28 2v-92
q-26 -2 -34 -2q-78 0 -133 32t-83 88t-28 128q0 73 27.5 125t76 79.5t110.5 27.5q71 0 113.5 -38.5t59.5 -96.5h3q15 50 49.5 86t91.5 46v118h-620v88h954v-88h-231z" />
    <glyph glyph-name="dvLLA" unicode="&#x933;" horiz-adv-x="987" 
d="M761 652v-120q72 -20 116.5 -79t44.5 -143q0 -67 -29.5 -118.5t-81.5 -80t-115 -28.5q-73 0 -126 36.5t-75 96.5h-4q-21 -60 -74 -96.5t-126 -36.5q-63 0 -115 28.5t-81.5 80t-29.5 118.5q0 68 29.5 120.5t81 81t114.5 28.5q71 0 122.5 -35t79.5 -96h3q23 53 65 86.5
t99 41.5v115h-683v88h1034v-88h-249zM404 211q38 38 38 99q0 62 -38 101t-99 39t-99.5 -39t-38.5 -102q0 -61 39 -98.5t99 -37.5q61 0 99 38zM780.5 411q-38.5 39 -98.5 39q-61 0 -99 -39t-38 -101q0 -61 37.5 -99t98.5 -38t99.5 37.5t38.5 98.5q0 63 -38.5 102z" />
    <glyph glyph-name="dvVA" unicode="&#x935;" horiz-adv-x="672" 
d="M696 740v-88h-122v-652h-102v181q-26 -44 -71.5 -69.5t-108.5 -25.5q-68 0 -119.5 30t-79.5 84t-28 124q0 67 28.5 119.5t80 82t118.5 29.5q62 0 108 -25t72 -69v191h-496v88h720zM403.5 192q34.5 22 51.5 56t17 71v1q0 38 -17 72.5t-51.5 56t-84.5 21.5q-65 0 -108 -41
t-43 -108q0 -69 42.5 -110t108.5 -41q50 0 84.5 22z" />
    <glyph glyph-name="dvSHA" unicode="&#x936;" horiz-adv-x="826" 
d="M189 310v-98q0 -58 27.5 -93.5t84.5 -35.5q50 0 78 32.5t28 85.5v14h102v-15q0 -97 -55 -152.5t-150 -55.5q-105 0 -163 61.5t-58 165.5v180h144q82 0 134.5 35t52.5 107q0 54 -29 85.5t-79 31.5t-79 -31.5t-29 -85.5q0 -13 2 -41h-104q-4 30 -4 44q0 61 26 107.5
t74.5 72t113.5 25.5q97 0 155.5 -56.5t58.5 -158.5q0 -109 -71.5 -166.5t-184.5 -57.5h-75zM850 740v-88h-122v-652h-106v740h228z" />
    <glyph glyph-name="dvSSA" unicode="&#x937;" horiz-adv-x="670" 
d="M694 652h-122v-652h-103v258q-25 -38 -66.5 -58.5t-99.5 -20.5q-108 0 -165.5 70t-57.5 188v215h-104v88h718v-88zM469 652h-286l286 -221v221zM410 292.5q35 24.5 49 65.5l-278 215v-139q0 -78 36 -122t107 -44q51 0 86 24.5z" />
    <glyph glyph-name="dvSA" unicode="&#x938;" horiz-adv-x="822" 
d="M846 652h-123v-652h-104v335h-439v-132q0 -55 25.5 -88.5t75.5 -33.5q47 0 73.5 30.5t26.5 81.5v12h101q1 -7 1 -17q0 -91 -53.5 -144t-146.5 -53q-99 0 -152.5 60t-53.5 157v203h87q82 0 122.5 42t40.5 115v84h-351v88h870v-88zM619 652h-188v-84q0 -89 -48 -147h236
v231z" />
    <glyph glyph-name="dvHA" unicode="&#x939;" horiz-adv-x="586" 
d="M224 456q-26 -17 -26 -54q0 -26 15 -44t41 -27q28 5 54 5q100 0 156.5 -48.5t67.5 -122.5h-100q-9 35 -41.5 61t-84.5 26q-61 0 -97 -38.5t-36 -97.5q0 -60 35.5 -97.5t97.5 -37.5q50 0 83 25t43 60h100q-7 -48 -36 -87t-77.5 -62t-112.5 -23q-73 0 -126.5 29t-81.5 79.5
t-28 115.5q0 61 26.5 108.5t75.5 75.5q-36 18 -57 48t-21 72q0 61 44 94t118 33h116v103h-396v88h633v-88h-137v-179h-180q-42 0 -68 -17z" />
    <glyph glyph-name="dvNukta" unicode="&#x93c;" horiz-adv-x="0" 
d="M-384 -162.5q-19 18.5 -19 46.5t19 47.5t47 19.5t47.5 -19.5t19.5 -47.5t-19 -46.5t-48 -18.5q-28 0 -47 18.5z" />
    <glyph glyph-name="dvAvagraha" unicode="&#x93d;" horiz-adv-x="582" 
d="M70 146h234q36 0 55.5 15.5t19.5 40.5q0 29 -24 56t-77 70q-47 39 -76.5 68t-50.5 67t-21 82q0 64 43 95.5t113 31.5h210v-89h-185q-34 0 -54 -11.5t-20 -41.5t24.5 -57.5t77.5 -71.5q46 -38 75.5 -67t50 -66.5t20.5 -80.5q0 -58 -41 -94t-114 -36h-260v89z" />
    <glyph glyph-name="dvmAA" unicode="&#x93e;" 
d="M98 652h-122v88h349v-88h-122v-652h-105v652z" />
    <glyph glyph-name="dvmI" unicode="&#x93f;" 
d="M691.5 974.5q89.5 -31.5 142 -93.5t52.5 -148v-17h-105v15q0 66 -42 108t-108 61.5t-139 19.5q-119 0 -203 -41.5t-87 -138.5h123v-88h-122v-652h-105v652h-122v88h122q2 88 54.5 147.5t141 89t198.5 29.5t199.5 -31.5z" />
    <glyph glyph-name="dvmII" unicode="&#x940;" 
d="M325 740v-88h-122v-652h-105v652h-122v88h125v41q0 58 -22 97.5t-78 39.5t-79 -39.5t-23 -97.5v-65h-102v60q0 105 49 167.5t155 62.5q108 0 155 -62t47 -168v-36h122z" />
    <glyph glyph-name="dvmU" unicode="&#x941;" horiz-adv-x="0" 
d="M-373.5 -257.5q-68.5 53.5 -65.5 162.5h93q-3 -67 36.5 -100.5t105.5 -33.5q55 0 86.5 25t31.5 70q0 36 -24 60.5t-66 24.5h-27v82h27q86 0 132.5 -46t46.5 -122q0 -82 -54.5 -129t-149.5 -47q-104 0 -172.5 53.5z" />
    <glyph glyph-name="dvmUU" unicode="&#x942;" horiz-adv-x="0" 
d="M-304 -259q-49 42 -49 119q0 78 55 124t144 46q126 0 188 -79t62 -206q0 -27 -1 -40h-86v47q0 95 -43.5 147t-119.5 52q-51 0 -82.5 -24.5t-31.5 -67.5q0 -39 27 -61.5t67 -22.5q8 0 32 2v-77q-13 -1 -38 -1q-75 0 -124 42z" />
    <glyph glyph-name="dvmvR" unicode="&#x943;" horiz-adv-x="0" 
d="M-278 -275q-58 43 -58 132q0 78 52.5 126t144.5 48q33 0 41 -1v-72h-33q-49 0 -76.5 -27.5t-27.5 -69.5q0 -49 32 -71.5t82 -22.5q41 0 76 11v-82q-40 -14 -92 -14q-83 0 -141 43z" />
    <glyph glyph-name="dvmvRR" unicode="&#x944;" horiz-adv-x="0" 
d="M-263.5 -423q-52.5 34 -52.5 104q0 46 26 76.5t68 39.5v3q-43 10 -68 37t-25 73q0 62 44.5 91.5t104.5 29.5h68v-59h-29q-39 0 -63.5 -15.5t-24.5 -51.5q0 -34 25.5 -50t65.5 -16h50v-78h-47q-41 0 -67.5 -16t-26.5 -53q0 -36 27.5 -51.5t70.5 -15.5q27 0 55 5t43 10v-79
q-20 -8 -52 -13t-62 -5q-78 0 -130.5 34z" />
    <glyph glyph-name="dvmEcandra" unicode="&#x945;" horiz-adv-x="0" 
d="M-316 868.5q-54 52.5 -54 133.5h91q0 -45 31 -76t92 -31t92.5 31t31.5 76h90q0 -80 -54.5 -133t-159.5 -53q-106 0 -160 52.5z" />
    <glyph glyph-name="dvmE" unicode="&#x947;" horiz-adv-x="0" 
d="M-278 846.5q-31 33.5 -60.5 44t-81.5 10.5h-45v86h43q77 -1 121.5 -16.5t90 -67.5t111.5 -167h-99q-49 77 -80 110.5z" />
    <glyph glyph-name="dvmAI" unicode="&#x948;" horiz-adv-x="0" 
d="M-309.5 1033q40.5 -17 86.5 -80.5t124 -215.5h-90q-61 46 -91.5 63t-59.5 22t-87 5h-46v67h44q56 0 85 -4t59 -19.5t75 -51.5q-42 76 -75 111t-62 43.5t-78 8.5h-48v68h46q77 0 117.5 -17z" />
    <glyph glyph-name="dvmOcandra" unicode="&#x949;" horiz-adv-x="302" 
d="M98 652h-122v88h349v-88h-122v-652h-105v652zM-9 868.5q-54 52.5 -54 133.5h91q0 -45 31 -76t92 -31t92.5 31t31.5 76h90q0 -80 -54.5 -133t-159.5 -53q-106 0 -160 52.5z" />
    <glyph glyph-name="dvmO" unicode="&#x94b;" horiz-adv-x="302" 
d="M98 652h-122v88h349v-88h-122v-652h-105v652zM24 846.5q-31 33.5 -60.5 44t-81.5 10.5h-45v86h43q77 -1 121.5 -16.5t90 -67.5t111.5 -167h-99q-49 77 -80 110.5z" />
    <glyph glyph-name="dvmAU" unicode="&#x94c;" 
d="M98 652h-122v88h349v-88h-122v-652h-105v652zM-11.5 1033q40.5 -17 86.5 -80.5t124 -215.5h-90q-61 46 -91.5 63t-59.5 22t-87 5h-46v67h44q56 0 85 -4t59 -19.5t75 -51.5q-42 76 -75 111t-62 43.5t-78 8.5h-48v68h46q77 0 117.5 -17z" />
    <glyph glyph-name="dvVirama" unicode="&#x94d;" horiz-adv-x="0" 
d="M-200 -59h105l127 -206h-108z" />
    <glyph glyph-name="dvOm" unicode="&#x950;" horiz-adv-x="1061" 
d="M538.5 919.5q-13.5 13.5 -13.5 33.5t13.5 34t33.5 14t33.5 -14t13.5 -34t-13.5 -33.5t-33.5 -13.5t-33.5 13.5zM413 790.5q-55 51.5 -55 134.5h84q0 -45 34 -77.5t96 -32.5q61 0 95 32.5t34 77.5h85q0 -83 -55.5 -134.5t-158.5 -51.5q-104 0 -159 51.5zM931.5 622.5
q47.5 -62.5 47.5 -184.5v-132q0 -141 -63.5 -212.5t-195.5 -71.5q-39 0 -99 10v88q48 -8 81 -8q97 0 136 49t39 148v142q0 71 -23 108t-77 37q-51 0 -74 -31t-23 -84q0 -103 -43.5 -147t-143.5 -45q15 -37 15 -79q0 -90 -57 -144t-150 -54q-66 0 -117.5 25.5t-79.5 72
t-28 107.5h99q0 -50 33.5 -82.5t86.5 -32.5t84.5 32.5t31.5 85.5q0 47 -31.5 81.5t-95.5 34.5h-41v89h41q56 0 86.5 31t30.5 74q0 50 -31.5 79.5t-77.5 29.5q-48 0 -79.5 -27.5t-31.5 -73.5h-98q0 57 26.5 100t74.5 66.5t109 23.5q91 0 147.5 -50.5t56.5 -133.5
q0 -60 -30.5 -102t-87.5 -57v-3q24 -6 34 -11h59q56 0 83 24.5t27 86.5q0 98 45.5 150.5t149.5 52.5q107 0 154.5 -62.5z" />
    <glyph glyph-name="dvKxA" unicode="&#x958;" horiz-adv-x="986" 
d="M550 652v-195q22 43 63.5 68.5t100.5 25.5q61 0 108 -29.5t73 -81t26 -117.5q0 -71 -27 -122.5t-74 -79t-107 -27.5q-36 0 -64 7v83q15 -4 37 -4q56 0 92.5 37.5t36.5 103.5q0 62 -37.5 101t-94.5 39q-66 0 -99.5 -44t-33.5 -105v-312h-101v183q-23 -43 -67 -69t-106 -26
t-110 29t-74.5 81.5t-26.5 122.5q0 69 27 121t76 80.5t112 28.5q60 0 103 -25t66 -67v193h-473v88h1033v-88h-459zM386.5 197q31.5 21 47 54t15.5 68q0 57 -36 99.5t-103 42.5q-59 0 -99 -38.5t-40 -102.5q0 -66 39 -105t100 -39q45 0 76.5 21zM213 -99.5q-19 18.5 -19 46.5
t19 47.5t47 19.5t47.5 -19.5t19.5 -47.5t-19 -46.5t-48 -18.5q-28 0 -47 18.5z" />
    <glyph glyph-name="dvKHxA" unicode="&#x959;" horiz-adv-x="941" 
d="M965 740v-88h-122v-652h-104v200q-21 -33 -56.5 -52t-84.5 -19q-18 0 -36 3q-31 -61 -89 -98.5t-136 -37.5q-119 0 -189 68t-70 189v147h33q67 0 103.5 32.5t36.5 111.5v108h-275v88h989zM425 109q35 22 55 57q-37 27 -57.5 71t-20.5 99q0 59 25.5 105.5t70 72
t100.5 25.5q49 0 84.5 -19t56.5 -52v184h-383v-121q0 -103 -47.5 -153t-126.5 -54v-83q0 -69 42 -111.5t116 -42.5q50 0 85 22zM708 247.5q31 37.5 31 86.5q0 50 -30.5 87t-89.5 37q-52 0 -87.5 -33t-35.5 -89q0 -59 35 -92.5t88 -33.5q58 0 89 37.5zM271 -188.5
q-19 18.5 -19 46.5t19 47.5t47 19.5t47.5 -19.5t19.5 -47.5t-19 -46.5t-48 -18.5q-28 0 -47 18.5z" />
    <glyph glyph-name="dvGxA" unicode="&#x95a;" horiz-adv-x="765" 
d="M789 740v-88h-122v-652h-104v652h-163v-257q0 -83 -43.5 -135t-132.5 -52q-87 0 -133.5 48.5t-46.5 132.5q0 21 1 31h102v-31q0 -39 17.5 -65t56.5 -26q41 0 57.5 26.5t16.5 66.5v261h-319v88h813zM180 17.5q-19 18.5 -19 46.5t19 47.5t47 19.5t47.5 -19.5t19.5 -47.5
t-19 -46.5t-48 -18.5q-28 0 -47 18.5z" />
    <glyph glyph-name="dvJxA" unicode="&#x95b;" horiz-adv-x="846" 
d="M870 652h-122v-652h-105v406h-168v-76q0 -93 -55 -150.5t-149 -57.5q-96 0 -149.5 57t-53.5 151v166h106v-164q0 -54 26 -86t72 -32q47 0 74 32t27 86v164h270v156h-667v88h894v-88zM227 -64.5q-19 18.5 -19 46.5t19 47.5t47 19.5t47.5 -19.5t19.5 -47.5t-19 -46.5
t-48 -18.5q-28 0 -47 18.5z" />
    <glyph glyph-name="dvDDxA" unicode="&#x95c;" horiz-adv-x="572" 
d="M215 454q-30 -16 -30 -56q0 -38 26 -55t67 -17h45q87 0 146 -41t59 -130q0 -78 -56 -124.5t-159 -46.5q-111 0 -178.5 52.5t-69.5 140.5h104q1 -51 38 -82t103 -31q57 0 88 25.5t31 66.5q0 50 -35 72.5t-90 22.5h-39q-75 0 -130 34.5t-55 115.5q0 74 52 109t129 35h102
v107h-387v88h619v-88h-131v-182h-174q-45 0 -75 -16zM262 -202.5q-19 18.5 -19 46.5t19 47.5t47 19.5t47.5 -19.5t19.5 -47.5t-19 -46.5t-48 -18.5q-28 0 -47 18.5z" />
    <glyph glyph-name="dvDDHxA" unicode="&#x95d;" horiz-adv-x="645" 
d="M228 427q-62 -52 -62 -150q0 -57 25 -102t72 -70t111 -25q68 0 112 33t44 88q0 39 -24.5 64t-62.5 25q-33 0 -56 -21t-23 -55q0 -11 3 -19h-77q-3 17 -3 33q0 64 45 101t115 37q79 0 126 -45.5t47 -119.5q0 -91 -66.5 -144.5t-181.5 -53.5q-87 0 -157 33.5t-110 96.5
t-40 147q0 88 38 149.5t104 92.5t151 31h34v99h-416v88h693v-88h-178v-173h-101q-100 0 -162 -52zM302 -182.5q-19 18.5 -19 46.5t19 47.5t47 19.5t47.5 -19.5t19.5 -47.5t-19 -46.5t-48 -18.5q-28 0 -47 18.5z" />
    <glyph glyph-name="dvPHxA" unicode="&#x95e;" horiz-adv-x="985" 
d="M545 652v-195q23 43 66.5 68.5t103.5 25.5t107 -29t73 -80t26 -116q0 -72 -26.5 -124.5t-74 -80t-107.5 -27.5q-37 0 -67 8v82q20 -5 41 -5q56 0 92 38.5t36 103.5q0 62 -37 101t-95 39q-68 0 -103 -46.5t-35 -113.5v-301h-105v260q-24 -35 -62.5 -54.5t-89.5 -19.5
q-101 0 -154.5 66.5t-53.5 179.5v220h-104v88h1033v-88h-464zM440 652h-255v-220q0 -74 32 -115.5t96 -41.5q60 0 93.5 40t33.5 99v238zM203 3.5q-19 18.5 -19 46.5t19 47.5t47 19.5t47.5 -19.5t19.5 -47.5t-19 -46.5t-48 -18.5q-28 0 -47 18.5z" />
    <glyph glyph-name="dvvRR" unicode="&#x960;" horiz-adv-x="996" 
d="M589 652v-210h169q78 0 78 69v52h91v-355h-39q-38 0 -62.5 -15.5t-24.5 -51.5q0 -34 25.5 -49.5t65.5 -15.5h50v-79h-48q-41 0 -67.5 -16t-26.5 -53q0 -35 28 -51t70 -16q27 0 54 5t45 11v-79q-20 -8 -52 -13.5t-62 -5.5q-77 0 -130 34.5t-53 104.5q0 45 26 75.5t67 39.5
v3q-42 10 -67.5 37.5t-25.5 72.5q0 59 40 88.5t96 32.5v111q-42 -20 -93 -20h-154v-358h-97v244l-248 -244h-132v6l380 345q-12 52 -52 84t-98 32q-76 0 -122 -47.5t-46 -126.5h-105q0 78 30 137.5t85 92.5t128 33q120 0 180 -89v185h-516v88h1079v-88h-466z" />
    <glyph glyph-name="dvvLL" unicode="&#x961;" horiz-adv-x="911" 
d="M687 652v-117q69 -18 109.5 -77t40.5 -150q0 -56 -16 -100h-35q-38 0 -62.5 -15.5t-24.5 -51.5q0 -34 25.5 -49.5t65.5 -15.5h50v-79h-48q-41 0 -67.5 -16t-26.5 -53q0 -35 28 -51t70 -16q27 0 55 5t44 11v-79q-20 -8 -52 -13.5t-62 -5.5q-77 0 -130 34.5t-53 105.5
q0 44 26 74.5t67 39.5v3q-42 10 -67.5 37.5t-25.5 72.5q0 57 38 86.5t93 33.5q4 19 4 43q0 61 -30 100t-85 39q-60 0 -90.5 -44.5t-30.5 -119.5v-21h-88v21q0 74 -29 119t-87 45t-90 -39t-32 -102q0 -73 38 -114t106 -41l28 2v-92q-13 -1 -34 -1q-117 0 -180.5 67.5
t-63.5 179.5q0 73 27.5 125.5t76 80t110.5 27.5q70 0 112.5 -39t59.5 -98h3q14 48 46 83.5t85 48.5v116h-609v88h955v-88h-244z" />
    <glyph glyph-name="dvmvL" unicode="&#x962;" horiz-adv-x="0" 
d="M155 -395v-67q-25 -5 -52 -5q-67 0 -109 33t-42 94q0 45 27.5 77t71.5 41q2 9 2 28q0 45 -20.5 72.5t-60.5 27.5q-42 0 -63.5 -32t-21.5 -85v-15h-69v15q0 53 -21 85t-62 32q-42 0 -64.5 -27.5t-22.5 -73.5q0 -51 27 -80t75 -29q15 0 21 2v-72q-9 -1 -25 -1
q-86 0 -133.5 49.5t-47.5 131.5q0 81 44.5 127t113.5 46q52 0 83 -28.5t44 -70.5h2q13 42 46 70.5t87 28.5q66 0 109 -46.5t43 -126.5q0 -37 -11 -73h-6q-44 0 -66.5 -19t-22.5 -49q0 -33 23.5 -49.5t57.5 -16.5q27 0 43 6z" />
    <glyph glyph-name="dvmvLL" unicode="&#x963;" horiz-adv-x="0" 
d="M145 -515.5q20 3.5 32 7.5v-62q-14 -5 -37.5 -8.5t-46.5 -3.5q-58 0 -96.5 25t-38.5 77q0 34 19 56.5t49 28.5v2q-31 7 -49.5 28t-18.5 55q0 42 27 64.5t67 25.5q1 9 1 26q0 45 -20.5 72.5t-60.5 27.5q-42 0 -63.5 -32t-21.5 -85v-15h-69v15q0 53 -21 85t-62 32
q-42 0 -64.5 -27.5t-22.5 -73.5q0 -51 27 -80t75 -29q15 0 21 2v-72q-9 -1 -25 -1q-86 0 -133.5 49.5t-47.5 131.5q0 81 44.5 127t113.5 46q52 0 83 -28.5t44 -70.5h2q13 42 46 70.5t87 28.5q66 0 109 -46.5t43 -126.5q0 -37 -11 -73h-28q-27 0 -44.5 -11t-17.5 -36
q0 -24 18 -35.5t48 -11.5h35v-62h-33q-69 0 -69 -49q0 -25 19.5 -36t50.5 -11q20 0 40 3.5z" />
    <glyph glyph-name="danda" unicode="&#x964;" horiz-adv-x="300" 
d="M258 0h-104v741h104v-741z" />
    <glyph glyph-name="doubledanda" unicode="&#x965;" horiz-adv-x="529" 
d="M258 0h-104v741h104v-741zM486 0h-104v741h104v-741z" />
    <glyph glyph-name="dvZero" unicode="&#x966;" horiz-adv-x="623" 
d="M112 93.5q60 -95.5 200 -95.5t200 96t60 264q0 167 -60 262.5t-200 95.5t-200 -95t-60 -263q0 -169 60 -264.5zM428 171q-30 -65 -116 -65q-87 0 -117 65t-30 187q0 121 30 185t117 64q86 0 116 -64.5t30 -184.5q0 -122 -30 -187z" />
    <glyph glyph-name="dvOne" unicode="&#x967;" horiz-adv-x="307" 
d="M13 599v107h226v-706h-120v599h-106z" />
    <glyph glyph-name="dvTwo" unicode="&#x968;" horiz-adv-x="567" 
d="M299.5 306.5q97.5 106.5 97.5 197.5q0 54 -26.5 86t-85.5 32q-61 0 -92 -39.5t-35 -112.5h-111q7 121 74.5 185t172.5 64q103 0 161.5 -54.5t58.5 -150.5q0 -77 -47.5 -156t-120.5 -145.5t-151 -114.5h335v-93h-490v84q162 111 259.5 217.5z" />
    <glyph glyph-name="dvThree" unicode="&#x969;" horiz-adv-x="594" 
d="M420 703.5q50 -24.5 75.5 -67.5t25.5 -96q0 -67 -37.5 -111.5t-105.5 -53.5v-5q73 -21 114.5 -62.5t41.5 -114.5q0 -89 -59 -144.5t-169 -55.5q-113 0 -182 57.5t-79 170.5h113q6 -60 43 -95.5t100 -35.5q59 0 90.5 31t31.5 80q0 59 -45.5 90t-131.5 31h-27v94h27
q163 -2 163 111q0 49 -30 77t-82 28t-87 -31.5t-42 -91.5h-112q7 104 70 161.5t174 57.5q70 0 120 -24.5z" />
    <glyph glyph-name="dvFour" unicode="&#x96a;" horiz-adv-x="635" 
d="M35 152v96l351 464h122v-460h99v-100h-99v-152h-115v152h-358zM401 576l-248 -324h248v324z" />
    <glyph glyph-name="dvFive" unicode="&#x96b;" horiz-adv-x="624" 
d="M541 616h-349v-210q24 31 68 49.5t97 18.5q74 0 123 -31.5t72.5 -83.5t23.5 -115q0 -111 -62 -179.5t-180 -68.5q-111 0 -179 59t-74 157h112q9 -54 44.5 -85t90.5 -31q68 0 102 41t34 109q0 64 -35 100.5t-100 36.5q-46 0 -80.5 -20t-50.5 -53h-111v407h454v-101z" />
    <glyph glyph-name="dvSix" unicode="&#x96c;" horiz-adv-x="623" 
d="M316 634q-76 0 -114 -60.5t-38 -189.5l1 -34q15 54 65 86t118 32q104 0 163 -62t59 -175q0 -68 -27 -121.5t-81 -85t-133 -31.5q-153 0 -210 95t-57 261q0 190 61 284t200 94q104 0 159.5 -59t64.5 -152h-108q-18 118 -123 118zM213 135.5q38 -43.5 112 -43.5
q63 0 100.5 37t37.5 103q0 71 -38 109t-103 38q-59 0 -103 -35t-44 -100t38 -108.5z" />
    <glyph glyph-name="dvSeven" unicode="&#x96d;" horiz-adv-x="507" 
d="M481 624l-263 -624h-120l267 611h-350v99h466v-86z" />
    <glyph glyph-name="dvEight" unicode="&#x96e;" horiz-adv-x="631" 
d="M98 637q28 43 83.5 69t133.5 26t133.5 -26t84 -69t28.5 -95q0 -58 -30.5 -100t-90.5 -61q67 -21 103 -67.5t36 -113.5q0 -103 -73 -160.5t-191 -57.5t-190.5 57.5t-72.5 160.5q0 67 36 113.5t103 67.5q-60 19 -90.5 61t-30.5 100q0 52 28 95zM218.5 440.5
q35.5 -29.5 96.5 -29.5t97 29.5t36 83.5t-36.5 84t-96.5 30t-96 -30t-36 -84t35.5 -83.5zM204 110.5q41 -34.5 111 -34.5t111 34.5t41 95.5q0 62 -42.5 93.5t-109.5 31.5q-66 0 -109 -32t-43 -93t41 -95.5z" />
    <glyph glyph-name="dvNine" unicode="&#x96f;" horiz-adv-x="606" 
d="M216.5 116q31.5 -31 85.5 -31q76 0 113.5 60.5t37.5 190.5l-1 34q-16 -54 -66.5 -86.5t-117.5 -32.5q-104 0 -163 62.5t-59 174.5q0 68 27 122t81 85.5t133 31.5q153 0 210.5 -93.5t57.5 -258.5q0 -187 -58.5 -285t-194.5 -98q-105 0 -164.5 59.5t-68.5 152.5h108
q8 -57 39.5 -88zM403.5 584.5q-37.5 43.5 -112.5 43.5q-62 0 -99.5 -37t-37.5 -104q0 -71 37.5 -109t102.5 -38q38 0 71.5 15.5t54.5 46t21 74.5q0 65 -37.5 108.5z" />
    <glyph glyph-name="dvAbbreviationsign" unicode="&#x970;" horiz-adv-x="488" 
d="M365.5 227.5q-46.5 -45.5 -119.5 -45.5q-49 0 -87.5 21t-60 58t-21.5 84q0 72 47.5 117.5t121.5 45.5t120 -45.5t46 -118.5q0 -71 -46.5 -116.5zM171.5 274q29.5 -28 74.5 -28q44 0 71.5 27.5t27.5 70.5q0 44 -28 72t-71 28q-45 0 -74.5 -28t-29.5 -71t29.5 -71z" />
    <glyph glyph-name="dvAcandra" unicode="&#x972;" horiz-adv-x="833" 
d="M854 740v-88h-122v-652h-104v308l-138 1q10 -29 10 -61q0 -87 -56 -140t-148 -53q-66 0 -117.5 26t-80 72.5t-28.5 106.5h98q0 -50 33.5 -82.5t87.5 -32.5q53 0 84 31t31 82q0 29 -11 51h-2v5q-32 57 -113 57h-41v85h41q55 0 85.5 29.5t30.5 70.5q0 47 -30.5 75.5
t-76.5 28.5q-48 0 -80.5 -27.5t-32.5 -73.5h-97q0 57 26.5 100t74.5 66.5t109 23.5q90 0 145.5 -49t55.5 -130q0 -57 -30 -97.5t-87 -55.5v-2q28 -6 52 -20h205v345h226zM528 887.5q-54 52.5 -54 133.5h91q0 -45 31 -76t92 -31t92.5 31t31.5 76h90q0 -80 -54.5 -133
t-159.5 -53q-106 0 -160 52.5z" />
    <glyph glyph-name="Wgrave" unicode="&#x1e80;" horiz-adv-x="996" 
d="M963 706l-176 -706h-140l-149 546l-149 -546h-140l-176 706h125l122 -574l155 574h126l155 -574l122 574h125zM556 829v-80l-221 113v89z" />
    <glyph glyph-name="wgrave" unicode="&#x1e81;" horiz-adv-x="850" 
d="M841 551l-153 -551h-126l-136 426l-138 -426h-125l-153 551h115l105 -446l138 446h120l140 -446l105 446h108zM483 674v-80l-221 113v89z" />
    <glyph glyph-name="Wacute" unicode="&#x1e82;" horiz-adv-x="996" 
d="M963 706l-176 -706h-140l-149 546l-149 -546h-140l-176 706h125l122 -574l155 574h126l155 -574l122 574h125zM657 862l-221 -113v80l221 122v-89z" />
    <glyph glyph-name="wacute" unicode="&#x1e83;" horiz-adv-x="850" 
d="M841 551l-153 -551h-126l-136 426l-138 -426h-125l-153 551h115l105 -446l138 446h120l140 -446l105 446h108zM584 707l-221 -113v80l221 122v-89z" />
    <glyph glyph-name="Wdieresis" unicode="&#x1e84;" horiz-adv-x="996" 
d="M963 706l-176 -706h-140l-149 546l-149 -546h-140l-176 706h125l122 -574l155 574h126l155 -574l122 574h125zM370 875q16 16 40 16t40.5 -16t16.5 -40q0 -23 -16.5 -39.5t-40.5 -16.5t-40 16.5t-16 39.5q0 24 16 40zM547 875q16 16 40 16t40 -16t16 -40q0 -23 -16 -39.5
t-40 -16.5t-40 16.5t-16 39.5q0 24 16 40z" />
    <glyph glyph-name="wdieresis" unicode="&#x1e85;" horiz-adv-x="850" 
d="M841 551l-153 -551h-126l-136 426l-138 -426h-125l-153 551h115l105 -446l138 446h120l140 -446l105 446h108zM297 720q16 16 40 16t40.5 -16t16.5 -40q0 -23 -16.5 -39.5t-40.5 -16.5t-40 16.5t-16 39.5q0 24 16 40zM474 720q16 16 40 16t40 -16t16 -40q0 -23 -16 -39.5
t-40 -16.5t-40 16.5t-16 39.5q0 24 16 40z" />
    <glyph glyph-name="uni1EBC" unicode="&#x1ebc;" horiz-adv-x="515" 
d="M183 614v-214h260v-88h-260v-219h290v-93h-404v706h404v-92h-290zM244.5 873.5q14.5 -6.5 36.5 -19.5q15 -11 27.5 -16.5t26.5 -5.5q17 0 28.5 12t15.5 35h60q-8 -58 -36.5 -87t-71.5 -29q-21 0 -37.5 7t-36.5 20q-19 11 -28.5 15.5t-22.5 4.5q-37 0 -43 -47h-61
q19 117 108 117q20 0 34.5 -6.5z" />
    <glyph glyph-name="uni1EBD" unicode="&#x1ebd;" horiz-adv-x="622" 
d="M577 253h-424q3 -85 47 -126t109 -41q57 0 96.5 29t48.5 77h122q-11 -58 -46 -103t-91 -70.5t-125 -25.5q-80 0 -141.5 34t-96.5 98t-35 151q0 86 35 150t96.5 98t141.5 34q81 0 141.5 -33.5t93 -92t32.5 -130.5q0 -28 -4 -49zM447.5 395.5q-20.5 36.5 -56 54t-77.5 17.5
q-67 0 -112 -41t-49 -121h313q2 54 -18.5 90.5zM284.5 718.5q14.5 -6.5 36.5 -19.5q15 -11 27.5 -16.5t26.5 -5.5q17 0 28.5 12t15.5 35h60q-8 -58 -36.5 -87t-71.5 -29q-21 0 -37.5 7t-36.5 20q-19 11 -28.5 15.5t-22.5 4.5q-37 0 -43 -47h-61q19 117 108 117
q20 0 34.5 -6.5z" />
    <glyph glyph-name="Ygrave" unicode="&#x1ef2;" horiz-adv-x="618" 
d="M602 706l-235 -449v-257h-115v257l-236 449h132l162 -327l162 327h130zM367 829v-80l-221 113v89z" />
    <glyph glyph-name="ygrave" unicode="&#x1ef3;" horiz-adv-x="585" 
d="M134 551l165 -405l153 405h127l-333 -813h-127l119 275l-232 538h128zM350 674v-80l-221 113v89z" />
    <glyph glyph-name="uni1EF8" unicode="&#x1ef8;" horiz-adv-x="618" 
d="M602 706l-235 -449v-257h-115v257l-236 449h132l162 -327l162 327h130zM282.5 873.5q14.5 -6.5 36.5 -19.5q15 -11 27.5 -16.5t26.5 -5.5q17 0 28.5 12t15.5 35h60q-8 -58 -36.5 -87t-71.5 -29q-21 0 -37.5 7t-36.5 20q-19 11 -28.5 15.5t-22.5 4.5q-37 0 -43 -47h-61
q19 117 108 117q20 0 34.5 -6.5z" />
    <glyph glyph-name="uni1EF9" unicode="&#x1ef9;" horiz-adv-x="585" 
d="M134 551l165 -405l153 405h127l-333 -813h-127l119 275l-232 538h128zM265.5 718.5q14.5 -6.5 36.5 -19.5q15 -11 27.5 -16.5t26.5 -5.5q17 0 28.5 12t15.5 35h60q-8 -58 -36.5 -87t-71.5 -29q-21 0 -37.5 7t-36.5 20q-19 11 -28.5 15.5t-22.5 4.5q-37 0 -43 -47h-61
q19 117 108 117q20 0 34.5 -6.5z" />
    <glyph glyph-name="zerowidthnonjoiner" unicode="&#x200c;" horiz-adv-x="0" 
d="M-23 811h47v-1041h-47v1041z" />
    <glyph glyph-name="zerowidthjoiner" unicode="&#x200d;" horiz-adv-x="0" 
d="M23 635v-865h-47v865l-69 -73l-33 33l93 93l-95 95l33 33l95 -95l96 95l32 -32l-96 -96l96 -95l-33 -33z" />
    <glyph glyph-name="endash" unicode="&#x2013;" horiz-adv-x="629" 
d="M582 410v-96h-535v96h535z" />
    <glyph glyph-name="emdash" unicode="&#x2014;" horiz-adv-x="845" 
d="M798 410v-96h-751v96h751z" />
    <glyph glyph-name="quoteleft" unicode="&#x2018;" horiz-adv-x="197" 
d="M39 680q0 59 29 91.5t84 32.5v-47q-26 0 -37.5 -14.5t-11.5 -44.5v-21h54v-97h-103q-15 56 -15 100z" />
    <glyph glyph-name="quoteright" unicode="&#x2019;" horiz-adv-x="197" 
d="M157 704q0 -60 -28.5 -92t-83.5 -32v48q25 0 37 14.5t12 43.5v21h-54v97h103q14 -47 14 -100z" />
    <glyph glyph-name="quotesinglbase" unicode="&#x201a;" horiz-adv-x="203" 
d="M157 -17q0 -56 -29 -91.5t-88 -35.5v46q25 0 37 13t12 44v9h-58v110h108q18 -46 18 -95z" />
    <glyph glyph-name="quotedblleft" unicode="&#x201c;" horiz-adv-x="348" 
d="M39 680q0 59 29 91.5t84 32.5v-47q-26 0 -37.5 -14.5t-11.5 -44.5v-21h54v-97h-103q-15 56 -15 100zM191 680q0 59 28.5 91.5t83.5 32.5v-47q-49 0 -49 -59v-21h54v-97h-103q-14 52 -14 100z" />
    <glyph glyph-name="quotedblright" unicode="&#x201d;" horiz-adv-x="348" 
d="M157 704q0 -60 -28.5 -92t-83.5 -32v48q25 0 37 14.5t12 43.5v21h-54v97h103q14 -47 14 -100zM309 704q0 -60 -29 -92t-84 -32v48q26 0 37.5 14t11.5 44v21h-54v97h103q15 -55 15 -100z" />
    <glyph glyph-name="quotedblbase" unicode="&#x201e;" horiz-adv-x="348" 
d="M157 -3q0 -60 -28.5 -92t-83.5 -32v48q25 0 37 14.5t12 43.5v21h-54v97h103q14 -47 14 -100zM309 -3q0 -60 -29 -92t-84 -32v48q26 0 37.5 14t11.5 44v21h-54v97h103q15 -55 15 -100z" />
    <glyph glyph-name="dagger" unicode="&#x2020;" horiz-adv-x="564" 
d="M524 463l-196 8l11 -733h-114l11 733l-196 -8v88l196 -8l-11 240h114l-11 -240l196 8v-88z" />
    <glyph glyph-name="daggerdbl" unicode="&#x2021;" horiz-adv-x="564" 
d="M328 471v-420l197 9v-89l-197 8l11 -241h-114l11 241l-197 -8v89l197 -9v420l-197 -8v88l197 -8l-11 240h114l-11 -240l197 8v-88z" />
    <glyph glyph-name="bullet" unicode="&#x2022;" horiz-adv-x="388" 
d="M101 426.5q38 38.5 93 38.5t93 -38t38 -94q0 -55 -38 -92.5t-93 -37.5t-93 37.5t-38 92.5t38 93.5z" />
    <glyph glyph-name="ellipsis" unicode="&#x2026;" horiz-adv-x="602" 
d="M365 126v-126h-129v126h129zM571 126v-126h-129v126h129zM159 126v-126h-129v126h129z" />
    <glyph glyph-name="perthousand" unicode="&#x2030;" horiz-adv-x="1043" 
d="M292 674.5q42 -41.5 42 -112.5t-42 -112t-109 -41t-109.5 41t-42.5 112t42.5 112.5t109.5 41.5t109 -41.5zM606 707l-399 -707h-112l400 707h111zM129 501.5q20 -22.5 53 -22.5t53.5 23t20.5 60q0 38 -20.5 61t-53.5 23t-53 -23t-20 -61t20 -60.5zM628.5 257
q42.5 -41 42.5 -112t-42.5 -112.5t-109.5 -41.5q-66 0 -108.5 41.5t-42.5 112.5q0 70 42.5 111.5t108.5 41.5q67 0 109.5 -41zM969.5 256.5q42.5 -41.5 42.5 -111.5q0 -71 -42.5 -112.5t-108.5 -41.5q-67 0 -110 41.5t-43 112.5q0 70 43 111.5t110 41.5q66 0 108.5 -41.5z
M466 84q20 -23 53 -23t53.5 23t20.5 61q0 37 -20.5 60t-53.5 23t-53 -23t-20 -60q0 -38 20 -61zM807 84q20 -23 53 -23t53.5 23t20.5 61q0 37 -20.5 60t-53.5 23t-53 -23t-20 -60q0 -38 20 -61z" />
    <glyph glyph-name="guilsinglleft" unicode="&#x2039;" horiz-adv-x="297" 
d="M138 120l-93 175l93 175h109l-95 -175l95 -175h-109z" />
    <glyph glyph-name="guilsinglright" unicode="&#x203a;" horiz-adv-x="297" 
d="M146 295l-96 175h110l92 -175l-92 -175h-110z" />
    <glyph glyph-name="fraction" unicode="&#x2044;" horiz-adv-x="371" 
d="M436 707l-400 -707h-112l399 707h113z" />
    <glyph glyph-name="rupee" unicode="&#x20a8;" horiz-adv-x="1102" 
d="M517.5 355q-46.5 -53 -134.5 -68l185 -287h-128l-176 282h-81v-282h-114v706h249q121 0 183.5 -59t62.5 -156q0 -83 -46.5 -136zM183 363h126q138 0 138 122q0 58 -33.5 90.5t-104.5 32.5h-126v-245zM741 355.5q18 -15.5 45 -24t75 -19.5q64 -15 103.5 -29t68 -45.5
t28.5 -85.5q0 -46 -23.5 -82t-67.5 -56.5t-103 -20.5q-104 0 -169 48t-78 134h113q5 -43 40.5 -69.5t92.5 -26.5q44 0 67 20.5t23 54.5q0 27 -18.5 44t-46 26t-75.5 19q-62 14 -101.5 28t-67 45t-27.5 84q0 70 54 114t148 44q100 0 160.5 -49.5t73.5 -132.5h-113
q-6 42 -38.5 69t-84.5 27q-45 0 -71 -20.5t-26 -54.5q0 -26 18 -41.5z" />
    <glyph glyph-name="Euro" unicode="&#x20ac;" horiz-adv-x="815" 
d="M569 137.5q55 37.5 79 100.5h121q-30 -113 -115.5 -178.5t-215.5 -65.5q-125 0 -212 69t-115 186h-93v56h83q-2 32 -2 48q0 14 2 40h-83v57h91q27 120 114.5 191.5t214.5 71.5q130 0 215.5 -66t115.5 -179h-121q-24 64 -78.5 101.5t-133.5 37.5q-73 0 -128.5 -41.5
t-77.5 -115.5h225v-57h-237q-2 -26 -2 -40q0 -25 3 -48h236v-56h-223q24 -70 78 -109.5t126 -39.5q78 0 133 37.5z" />
    <glyph glyph-name="indianrupee" unicode="&#x20b9;" horiz-adv-x="628" 
d="M464 628v-103h116v-68h-119q-11 -94 -74 -137.5t-202 -43.5v-77q0 -59 25.5 -90.5t77.5 -31.5q99 0 99 120h107q-3 -98 -54.5 -152.5t-146.5 -54.5q-105 0 -160 56.5t-55 166.5v139q113 0 168.5 8t79 29.5t28.5 67.5h-305v68h307v103h-307v78h531v-78h-116z" />
    <glyph glyph-name="uni20BA" unicode="&#x20ba;" horiz-adv-x="793" 
d="M753 428q0 -226 -87 -334.5t-281 -108.5q-76 0 -194 22v242l-152 -33v72l152 33v94l-152 -34v69l152 35v223h116v-197l168 39v-71l-168 -38v-94l169 37v-72l-169 -37v-175q38 -7 77 -7q138 0 195.5 86.5t57.5 248.5h116z" />
    <glyph glyph-name="uni20BD" unicode="&#x20bd;" horiz-adv-x="645" 
d="M243 292v-92h199v-87h-199v-113h-114v113h-90v87h90v92h-90v90h90v324h240q122 0 183.5 -56t61.5 -151q0 -99 -63 -153t-182 -54h-126zM243 382h119q71 0 103.5 31t32.5 86q0 118 -136 118h-119v-235z" />
    <glyph glyph-name="uni2113" unicode="&#x2113;" horiz-adv-x="265" 
d="M183 740v-740h-114v740h114z" />
    <glyph glyph-name="trademark" unicode="&#x2122;" horiz-adv-x="810" 
d="M30 706h275v-70h-95v-281h-83v281h-97v70zM775 706v-351h-77l-2 241l-105 -241h-59l-105 249v-249h-74v351h110l101 -255l110 255h101z" />
    <glyph glyph-name="uni2126" unicode="&#x2126;" horiz-adv-x="793" 
d="M715 202.5q-36 -72.5 -109 -114.5h134v-88h-273v93q76 28 121.5 95.5t45.5 164.5q0 77 -30.5 135.5t-84.5 89.5t-122 31q-70 0 -124 -32t-84.5 -90t-30.5 -134q0 -97 45.5 -164.5t121.5 -95.5v-93h-273v88h134q-72 42 -108 114.5t-36 165.5q0 104 47 183t128 121.5
t180 42.5q98 0 179 -42.5t128 -121.5t47 -183q0 -93 -36 -165.5z" />
    <glyph glyph-name="estimated" unicode="&#x212e;" horiz-adv-x="757" 
d="M210.5 33q-77.5 40 -122 117t-44.5 183q0 105 39.5 189t115 133t179.5 49t180 -45.5t116 -120t40 -160.5v-61h-519v-171q38 -41 84 -61t108 -20q72 0 131 30.5t122 91.5l45 -51q-133 -143 -298 -143q-99 0 -176.5 40zM556 561q-31 35 -76.5 54t-101.5 19
q-58 0 -104.5 -21t-78.5 -62v-163h361v173z" />
    <glyph glyph-name="partialdiff" unicode="&#x2202;" horiz-adv-x="583" 
d="M440 432q-5 115 -44 178t-130 63q-33 0 -70 -9v61q53 15 108 15q118 0 180 -82.5t62 -246.5q0 -129 -36 -223.5t-102.5 -145.5t-157.5 -51q-59 0 -107.5 26.5t-77 80.5t-28.5 132q0 90 32.5 164.5t92.5 118t138 43.5q120 0 140 -124zM227 430q-36 -30 -55 -82t-19 -117
q0 -70 30 -104.5t76 -34.5q75 0 117.5 66t42.5 166q0 69 -28.5 102.5t-79.5 33.5q-48 0 -84 -30z" />
    <glyph glyph-name="uni2206" unicode="&#x2206;" horiz-adv-x="697" 
d="M396 696l281 -607v-89h-657v89l281 607h95zM138 89h421l-211 477z" />
    <glyph glyph-name="product" unicode="&#x220f;" horiz-adv-x="741" 
d="M702 707v-87h-76v-620h-115v620h-280v-620h-115v620h-77v87h663z" />
    <glyph glyph-name="summation" unicode="&#x2211;" horiz-adv-x="480" 
d="M467 608h-329l261 -240v-88l-263 -257h331v-89h-427v133l250 254l-250 243v132h427v-88z" />
    <glyph glyph-name="minus" unicode="&#x2212;" horiz-adv-x="473" 
d="M443 410v-96h-412v96h412z" />
    <glyph glyph-name="uni2215" unicode="&#x2215;" horiz-adv-x="378" 
d="M382 944l-272 -1120h-111l272 1120h111z" />
    <glyph glyph-name="uni2219" unicode="&#x2219;" horiz-adv-x="204" 
d="M166 395v-126h-129v126h129z" />
    <glyph glyph-name="radical" unicode="&#x221a;" horiz-adv-x="829" 
d="M805 879l-500 -922h-52l-132 233l-71 -40l-34 56l172 100l123 -217l426 790h68z" />
    <glyph glyph-name="infinity" unicode="&#x221e;" horiz-adv-x="702" 
d="M652.5 462.5q43.5 -40.5 43.5 -114.5q0 -72 -46 -114t-116 -42q-58 0 -101 25.5t-81 70.5q-28 -43 -70 -69.5t-94 -26.5q-77 0 -121 40.5t-44 114.5q0 72 46 114t116 42q60 0 100.5 -27t77.5 -75q28 46 70.5 74t97.5 28q78 0 121.5 -40.5zM256 289q30 19 52 55
q-31 41 -56.5 62t-56.5 21q-37 0 -59 -22t-22 -58q0 -35 21 -56t57 -21q34 0 64 19zM583 290.5q22 21.5 22 57.5t-21 57t-57 21t-67 -21.5t-55 -60.5q29 -37 56 -56t63 -19q37 0 59 21.5z" />
    <glyph glyph-name="integral" unicode="&#x222b;" horiz-adv-x="271" 
d="M300 925h18l-9 -99h-20q-21 0 -33 -11t-16 -38l-90 -841q-9 -82 -51.5 -118t-119.5 -36h-21l9 99h23q24 0 33 11.5t13 43.5l90 841q16 148 174 148z" />
    <glyph glyph-name="approxequal" unicode="&#x2248;" horiz-adv-x="553" 
d="M239 336.5q23 -9.5 56 -28.5q24 -14 41 -21.5t35 -7.5q51 0 62 68h89q-14 -85 -55 -128t-103 -43q-29 0 -52.5 9.5t-53.5 27.5q-24 15 -41.5 22.5t-35.5 7.5q-50 0 -63 -68h-87q14 85 54.5 128t102.5 43q28 0 51 -9.5zM239 558.5q23 -9.5 56 -28.5q24 -14 41 -21.5
t35 -7.5q51 0 62 68h89q-14 -85 -55 -128t-103 -43q-29 0 -52.5 9.5t-53.5 27.5q-24 15 -41.5 22.5t-35.5 7.5q-50 0 -63 -68h-87q14 85 54.5 128t102.5 43q28 0 51 -9.5z" />
    <glyph glyph-name="notequal" unicode="&#x2260;" horiz-adv-x="593" 
d="M373 422l-88 -121h278v-104h-354l-78 -106h-63l78 106h-115v104h191l88 121h-279v104h355l77 105h63l-77 -105h114v-104h-190z" />
    <glyph glyph-name="lessequal" unicode="&#x2264;" horiz-adv-x="439" 
d="M263 210l-232 189l232 190h142l-229 -190l229 -189h-142zM408 153v-90h-363v90h363z" />
    <glyph glyph-name="greaterequal" unicode="&#x2265;" horiz-adv-x="439" 
d="M34 210l229 189l-229 190h142l232 -190l-232 -189h-142zM31 153h363v-90h-363v90z" />
    <glyph glyph-name="lozenge" unicode="&#x25ca;" horiz-adv-x="557" 
d="M526 351l-247 -248l-248 248l249 247zM149 351l130 -131l130 131l-129 130z" />
    <glyph glyph-name="dottedcircle" unicode="&#x25cc;" horiz-adv-x="651" 
d="M270 467.5q-12 11.5 -12 30.5t12 30.5t31 11.5t31 -11.5t12 -30.5t-12 -30.5t-31 -11.5t-31 11.5zM391 452.5q-12 11.5 -12 30.5t12 30.5t31 11.5t31 -11.5t12 -30.5t-12 -30.5t-31 -11.5t-31 11.5zM153 425.5q-12 11.5 -12 30.5t12 30.5t31 11.5t31 -11.5t12 -30.5
t-12 -30.5t-31 -11.5t-31 11.5zM483 378.5q-12 11.5 -12 30.5t12 30.5t31 11.5t31 -11.5t12 -30.5t-12 -30.5t-31 -11.5t-31 11.5zM77 326.5q-12 11.5 -12 30.5t12 30.5t31 11.5t31 -11.5t12 -30.5t-12 -30.5t-31 -11.5t-31 11.5zM527 264.5q-12 11.5 -12 30.5t12 30.5
t31 11.5t31 -11.5t12 -30.5t-12 -30.5t-31 -11.5t-31 11.5zM62 205.5q-12 11.5 -12 30.5t12 30.5t31 11.5t31 -11.5t12 -30.5t-12 -30.5t-31 -11.5t-31 11.5zM517 144.5q-12 11.5 -12 30.5t12 30.5t31 11.5t31 -11.5t12 -30.5t-12 -30.5t-31 -11.5t-31 11.5zM107 92.5
q-12 11.5 -12 30.5t12 30.5t31 11.5t31 -11.5t12 -30.5t-12 -30.5t-31 -11.5t-31 11.5zM444 48.5q-12 11.5 -12 30.5t12 30.5t31 11.5t31 -11.5t12 -30.5t-12 -30.5t-31 -11.5t-31 11.5zM205 16.5q-12 11.5 -12 30.5t12 30.5t31 11.5t31 -11.5t12 -30.5t-12 -30.5t-31 -11.5
t-31 11.5zM329 2.5q-12 11.5 -12 30.5t12 30.5t31 11.5t31 -11.5t12 -30.5t-12 -30.5t-31 -11.5t-31 11.5z" />
    <glyph glyph-name="fi" unicode="&#xfb01;" horiz-adv-x="596" 
d="M205 551h316v-551h-114v453h-202v-453h-115v453h-74v98h74v18q0 101 57.5 151t172.5 45v-100q-64 2 -89.5 -22t-25.5 -83v-9zM411 653.5q-20 17.5 -20 46.5t20 46t54 17q33 0 53 -17.5t20 -45.5q0 -29 -20 -46.5t-53 -17.5q-34 0 -54 17.5z" />
    <glyph glyph-name="fl" unicode="&#xfb02;" horiz-adv-x="582" 
d="M232 643.5q-27 -24.5 -27 -83.5v-9h121v-98h-121v-453h-115v453h-75v98h75v18q0 101 59 151.5t177 44.5v-100q-67 3 -94 -21.5zM524 740v-740h-114v740h114z" />
    <glyph glyph-name="dvK_SSA" horiz-adv-x="818" 
d="M842 740v-88h-122v-652h-101v367h-296q-53 -25 -80.5 -42t-47 -43t-19.5 -63q0 -43 28.5 -72t75.5 -29q50 0 79.5 32.5t29.5 79.5h88v-287h-96v158q-15 -27 -50 -48.5t-86 -21.5q-79 0 -128 46.5t-49 120.5q0 51 22.5 87.5t57.5 61t87 50.5q-62 15 -101.5 58.5
t-39.5 111.5q0 55 26.5 96.5t73 64t104.5 22.5q53 0 96.5 -20t69.5 -58.5t26 -92.5q0 -43 -17 -75.5t-47 -59.5h193v296h223zM226 478.5q38 -31.5 99 -33.5q37 23 57 50t20 64q0 44 -30.5 72t-76.5 28q-45 0 -76 -26t-31 -73q0 -50 38 -81.5z" />
    <glyph glyph-name="dvJ_NYA" horiz-adv-x="817" 
d="M840 740v-88h-122v-652h-103v434h-187q39 -23 62 -62t23 -92q0 -54 -24 -95.5t-66 -64t-95 -22.5q-54 0 -96 21t-66 55v-149h-102v278h98q6 -56 44 -87.5t91 -31.5q56 0 88 33.5t32 85.5q0 62 -42 96.5t-106 34.5h-26v84h372v134h-639v88h864z" />
    <glyph glyph-name="dvK" horiz-adv-x="727" 
d="M550 652v-195q22 43 63.5 68.5t100.5 25.5q61 0 108 -29.5t73 -81.5t26 -119h-106q0 62 -37.5 101t-94.5 39q-66 0 -99.5 -44t-33.5 -105v-312h-101v183q-23 -43 -67 -69t-106 -26t-110 29t-74.5 81.5t-26.5 122.5q0 69 27 121t76 80.5t112 28.5q60 0 103 -25t66 -67v193
h-473v88h945v-88h-371zM386.5 197q31.5 21 47 54t15.5 68q0 57 -36 99.5t-103 42.5q-59 0 -99 -38.5t-40 -102.5q0 -66 39 -105t100 -39q45 0 76.5 21z" />
    <glyph glyph-name="dvKH" horiz-adv-x="673" 
d="M308.5 378q-47.5 -50 -126.5 -54v-83q0 -69 42 -111.5t116 -42.5q52 0 87 23t54 59q-37 28 -57.5 69.5t-20.5 94.5q0 62 28 108.5t77.5 71t113.5 24.5q98 0 158.5 -55t60.5 -149q0 -63 -28.5 -109.5t-78 -71t-112.5 -24.5q-30 0 -59 6q-31 -62 -89 -100t-137 -38
q-119 0 -189 68t-70 189v147h33q67 0 103.5 32.5t36.5 111.5v108h-275v88h865v-88h-485v-121q0 -103 -47.5 -153zM530.5 424q-34.5 -34 -34.5 -91t34.5 -91t91.5 -34q58 0 92.5 34t34.5 91t-34.5 91t-92.5 34q-57 0 -91.5 -34z" />
    <glyph glyph-name="dvG" horiz-adv-x="499" 
d="M523 652h-123v-257q0 -83 -43.5 -135t-132.5 -52q-87 0 -133.5 48.5t-46.5 132.5q0 21 1 31h102v-31q0 -39 17.5 -65t56.5 -26q41 0 57.5 26.5t16.5 66.5v261h-319v88h547v-88z" />
    <glyph glyph-name="dvGH" horiz-adv-x="411" 
d="M198 652v-63q0 -54 29 -81.5t94 -27.5h45v-85h-53q-65 0 -97 -27.5t-32 -72.5q0 -52 38.5 -79.5t100.5 -27.5q54 0 95 22t63.5 61t22.5 88h89q0 -72 -33 -130.5t-94.5 -92.5t-142.5 -34q-114 0 -179.5 47t-65.5 136q0 60 36 99.5t89 50.5v2q-50 10 -80 45.5t-30 101.5v68
h-117v88h617v-88h-395z" />
    <glyph glyph-name="dvNG" horiz-adv-x="672" 
d="M696 740v-88h-227v-182h-179q-45 0 -75 -16t-30 -56q0 -38 26 -55t67 -17h45q87 0 146 -41t59 -130q0 -78 -56 -124.5t-159 -46.5q-111 0 -178.5 52.5t-69.5 140.5h104q1 -51 38 -82t103 -31q57 0 88 25.5t31 66.5q0 50 -35 72.5t-90 22.5h-39q-75 0 -130 34.5t-55 115.5
q0 74 52 109t129 35h106v107h-391v88h720zM637.5 429.5q17.5 -17.5 17.5 -43.5q0 -25 -18 -42.5t-43 -17.5t-43 17.5t-18 42.5q0 26 18 43.5t43 17.5q26 0 43.5 -17.5zM265 -89h105l127 -206h-108z" />
    <glyph glyph-name="dvC" horiz-adv-x="451" 
d="M627 652h-651v88h651v-88zM597 220.5q-31 -59.5 -89.5 -93t-137.5 -33.5q-101 0 -165.5 52t-64.5 146q0 48 19.5 86t56.5 62h-166v83h365v-83h-37q-62 0 -100.5 -36.5t-38.5 -94.5q0 -59 40.5 -93t100.5 -34q70 1 113.5 50t43.5 123h90q1 -75 -30 -134.5z" />
    <glyph glyph-name="dvCH" horiz-adv-x="819" 
d="M195 652v-91q0 -54 28 -81.5t89 -27.5h21v-85h-19q-69 0 -103.5 -31.5t-34.5 -80.5q0 -68 58.5 -104t165.5 -36q128 0 204.5 60t76.5 166q0 60 -28.5 94t-68.5 34q-38 0 -65.5 -26.5t-27.5 -78.5q0 -40 16 -88h-87q-17 46 -17 99q0 87 52.5 129.5t129.5 42.5q54 0 97 -24
t67.5 -71.5t24.5 -114.5q0 -95 -46 -165.5t-131 -108.5t-198 -38q-150 0 -239.5 56.5t-89.5 163.5q0 65 36 107t94 55v3q-49 9 -79 45t-30 102v95h-115v88h867v-88h-648z" />
    <glyph glyph-name="dvJ" horiz-adv-x="547" 
d="M697 740v-88h-721v88h721zM697 406h-222v-76q0 -93 -55 -150.5t-149 -57.5q-96 0 -149.5 57t-53.5 151v166h106v-164q0 -54 26 -86t72 -32q47 0 74 32t27 86v164h324v-90z" />
    <glyph glyph-name="dvJH" horiz-adv-x="567" 
d="M211.5 454q-30.5 -16 -30.5 -57q0 -37 26.5 -54t68.5 -17h44h366v-80l-200 1q37 -42 37 -105q0 -67 -44 -109t-126 -42q-63 0 -101 23.5t-57 49.5v-143h-99v250h94q6 -45 40 -73.5t92 -28.5q51 0 77.5 24.5t26.5 61.5q0 45 -32 70.5t-93 25.5h-56q-71 3 -120 39t-49 108
q0 76 52 112t131 36h106v106h-389v88h710v-88h-220v-182h-179q-45 0 -75.5 -16z" />
    <glyph glyph-name="dvNY" horiz-adv-x="540" 
d="M670 740v-88h-694v88h694zM441.5 500.5q59.5 -51.5 73.5 -135.5h155v-89h-154q-12 -89 -71.5 -143t-155.5 -54q-64 0 -112.5 23.5t-77 64.5t-34.5 92h99q11 -39 43.5 -65t82.5 -26q64 0 99 42.5t35 105.5q0 62 -35 104.5t-99 42.5q-51 0 -83.5 -26.5t-42.5 -64.5h-99
q9 79 68 129.5t156 50.5q93 0 152.5 -51.5z" />
    <glyph glyph-name="dvTT" horiz-adv-x="649" 
d="M223 415.5q-53 -43.5 -53 -126.5q0 -71 47 -116.5t121 -45.5q76 0 123 47.5t47 122.5h100q0 -77 -33 -136.5t-94 -92t-141 -32.5q-79 0 -142 32t-98 89.5t-35 131.5q0 81 36 139.5t101 89t152 30.5h15v104h-393v88h697v-88h-201v-193h-112q-84 0 -137 -43.5zM290 -37h105
l127 -206h-108z" />
    <glyph glyph-name="dvTTH" horiz-adv-x="674" 
d="M388 652v-109q97 -15 159.5 -80.5t62.5 -167.5q0 -75 -35.5 -132.5t-98 -89t-139.5 -31.5t-139 31.5t-97.5 89t-35.5 132.5q0 101 61.5 166.5t157.5 81.5v109h-308v88h722v-88h-310zM459 412.5q-47 45.5 -122 45.5q-74 0 -121 -45.5t-47 -117.5q0 -47 21.5 -85t60 -59
t86.5 -21q75 0 122 46.5t47 118.5t-47 117.5zM289 -31h105l127 -206h-108z" />
    <glyph glyph-name="dvDD" horiz-adv-x="572" 
d="M215 454q-30 -16 -30 -56q0 -38 26 -55t67 -17h45q87 0 146 -41t59 -130q0 -78 -56 -124.5t-159 -46.5q-111 0 -178.5 52.5t-69.5 140.5h104q1 -51 38 -82t103 -31q57 0 88 25.5t31 66.5q0 50 -35 72.5t-90 22.5h-39q-75 0 -130 34.5t-55 115.5q0 74 52 109t129 35h102
v107h-387v88h619v-88h-131v-182h-174q-45 0 -75 -16zM258 -89h105l127 -206h-108z" />
    <glyph glyph-name="dvDDH" horiz-adv-x="645" 
d="M228 427q-62 -52 -62 -150q0 -57 25 -102t72 -70t111 -25q68 0 112 33t44 88q0 39 -24.5 64t-62.5 25q-33 0 -56 -21t-23 -55q0 -11 3 -19h-77q-3 17 -3 33q0 64 45 101t115 37q79 0 126 -45.5t47 -119.5q0 -91 -66.5 -144.5t-181.5 -53.5q-87 0 -157 33.5t-110 96.5
t-40 147q0 88 38 149.5t104 92.5t151 31h34v99h-416v88h693v-88h-178v-173h-101q-100 0 -162 -52zM299 -70h105l127 -206h-108z" />
    <glyph glyph-name="dvNN" horiz-adv-x="570" 
d="M594 652h-107v-274q0 -92 -52 -149t-148 -57q-95 0 -147 57.5t-52 148.5v274h-112v88h618v-88zM384 652h-193v-284q0 -48 26.5 -77.5t70.5 -29.5q45 0 70.5 29.5t25.5 77.5v284z" />
    <glyph glyph-name="dvT" horiz-adv-x="390" 
d="M-24 740h570v-88h-570v88zM355 406q-86 0 -135 -41t-49 -119q0 -76 43.5 -118.5t125.5 -42.5h21v-83h-36q-118 0 -189 62.5t-71 183.5q0 124 78 186t207 62h196v-90h-191z" />
    <glyph glyph-name="dvTH" horiz-adv-x="473" 
d="M662 354q0 -79 -39.5 -138t-107.5 -90.5t-151 -31.5q-137 0 -214.5 73t-77.5 203q0 31 4 58h95q200 0 200 133q0 42 -25.5 70t-68.5 28q-45 0 -71.5 -27.5t-26.5 -74.5q0 -15 4 -41h-95q-4 28 -4 44q0 59 25 101.5t69.5 65t99.5 22.5q57 0 100 -24t67 -67.5t24 -99.5
q0 -100 -69.5 -153t-189.5 -53h-37q2 -77 50 -123.5t139 -46.5q92 0 150.5 46.5t58.5 125.5h91z" />
    <glyph glyph-name="dvD" horiz-adv-x="609" 
d="M219.5 422q-47.5 -39 -47.5 -109q0 -64 38 -102t102 -38q51 0 89 32t38 91h97v-317h-103v179q-22 -32 -61.5 -50.5t-88.5 -18.5q-62 0 -111.5 26.5t-78 77.5t-28.5 123q0 76 35 129t95 79.5t136 26.5h62v101h-417v88h658l-1 -88h-135v-191h-157q-74 0 -121.5 -39z
M432 -94h105l127 -206h-108z" />
    <glyph glyph-name="dvDH" horiz-adv-x="428" 
d="M150 136.5q-67 45.5 -67 131.5q0 61 36 99t84 46v3q-54 13 -90.5 55t-36.5 110q0 75 49 121.5t127 46.5q79 0 124.5 -45t45.5 -117q0 -13 -2 -35h-79l1 23q0 37 -23 61.5t-64 24.5t-65 -26t-24 -65q0 -53 40 -82t105 -29h58v-85h-54q-60 0 -92.5 -25.5t-32.5 -69.5
q0 -51 41 -75.5t102 -24.5q88 0 138 41.5t50 109.5h92q0 -71 -35.5 -125t-101 -84t-152.5 -30q-107 0 -174 45.5z" />
    <glyph glyph-name="dvN" horiz-adv-x="511" 
d="M668 740v-88h-692v88h692zM87.5 410q28.5 45 78 68.5t111.5 23.5h391v-88h-246q45 -52 45 -125q0 -57 -26 -99.5t-71.5 -64.5t-101.5 -22q-58 0 -106 24.5t-75.5 69.5t-27.5 105q0 63 28.5 108zM351.5 223q31.5 31 31.5 80q0 48 -32 79.5t-81 31.5q-51 0 -83.5 -31.5
t-32.5 -80.5t32 -79.5t84 -30.5q50 0 81.5 31z" />
    <glyph glyph-name="dvP" horiz-adv-x="362" 
d="M185 652v-215q0 -76 34.5 -119t104.5 -43q63 0 99 41.5t36 102.5h87q0 -67 -27 -120t-79 -83t-124 -30q-114 0 -175 68.5t-61 182.5v215h-104v88h570v-88h-361z" />
    <glyph glyph-name="dvPH" horiz-adv-x="726" 
d="M545 652v-195q23 43 66.5 68.5t103.5 25.5q98 0 152 -63t54 -167h-106q0 65 -34 102.5t-98 37.5q-68 0 -103 -46.5t-35 -113.5v-301h-105v260q-24 -35 -62.5 -54.5t-89.5 -19.5q-101 0 -154.5 66.5t-53.5 179.5v220h-104v88h945v-88h-376zM440 652h-255v-220
q0 -74 32 -115.5t96 -41.5q60 0 93.5 40t33.5 99v238z" />
    <glyph glyph-name="dvB" horiz-adv-x="406" 
d="M576 740v-88h-600v88h600zM460.5 528q57.5 -34 85.5 -88.5t28 -115.5q0 -67 -29.5 -122.5t-86.5 -88t-137 -32.5q-76 0 -134 30.5t-90 85.5t-32 125t31.5 124.5t89.5 85t134 30.5q83 0 140.5 -34zM208 448l258 -217q25 41 25 90q0 43 -19.5 81.5t-57.5 62.5t-91 24
q-66 0 -115 -41zM176.5 232.5q23.5 -37.5 62.5 -57.5t85 -20q69 0 113 41l-259 217q-25 -41 -25 -93q0 -50 23.5 -87.5z" />
    <glyph glyph-name="dvBH" horiz-adv-x="519" 
d="M655 371h-199v-69q0 -102 -49.5 -157.5t-141.5 -55.5q-88 0 -141.5 51t-53.5 134q0 87 57 135t146 48h85v89q0 53 -20 83t-61 30q-36 0 -58.5 -25t-22.5 -68q0 -19 4 -36h-105q-4 24 -4 40q0 81 48 130t134 49q96 0 139.5 -59t43.5 -162v-71h199v-86zM358 371h-82
q-49 0 -78.5 -26t-29.5 -71q0 -44 27 -70t69 -26q45 0 69.5 31.5t24.5 87.5v74z" />
    <glyph glyph-name="dvM" horiz-adv-x="513" 
d="M432 652v-195h219v-86h-219v-69q0 -102 -49.5 -157.5t-142.5 -55.5q-88 0 -141 51t-53 134q0 87 56.5 135t145.5 48h86v195h-358v88h675v-88h-219zM334 371h-83q-48 0 -78 -26t-30 -71q0 -44 27 -70t69 -26q45 0 70 31.5t25 87.5v74z" />
    <glyph glyph-name="dvY" horiz-adv-x="441" 
d="M601 227.5q-35 -58.5 -99.5 -92t-149.5 -33.5q-134 0 -210.5 75.5t-76.5 207.5q0 26 3 51h13q86 0 128 36.5t42 117.5v62h-275v88h660v-88h-281v-80q0 -182 -187 -193v-4q0 -86 51.5 -135t136.5 -49q52 0 94 21.5t66 59.5t24 86h96q0 -72 -35 -130.5z" />
    <glyph glyph-name="dvR" horiz-adv-x="534" 
d="M180 327v-125q0 -55 25 -88t74 -33q45 0 71.5 30.5t26.5 81.5v22h101v-19q0 -94 -52.5 -149.5t-144.5 -55.5q-99 0 -151.5 59.5t-52.5 156.5v206h104q163 0 163 156v83h-368v88h582v-88h-110v-83q0 -116 -56 -179t-174 -63h-38zM220 -84h105l127 -206h-108z" />
    <glyph glyph-name="dvL" horiz-adv-x="657" 
d="M-24 740h866v-88h-866v88zM516 499q43 38 118 38q60 0 107 -27.5t74 -80t27 -124.5l-106 -2q0 63 -31 102.5t-87 39.5q-60 0 -90.5 -44.5t-30.5 -119.5v-18h-88v18q0 74 -29 119t-87 45t-90 -39t-32 -103q0 -70 38 -112t106 -42l28 2v-92q-26 -2 -34 -2q-78 0 -133 32
t-83 88t-28 128q0 73 27.5 125t76 79.5t110.5 27.5q71 0 113.5 -38.5t59.5 -96.5h3q18 59 61 97z" />
    <glyph glyph-name="dvV" horiz-adv-x="384" 
d="M-24 740h598v-88h-598v88zM184.5 116q-57.5 30 -88.5 83.5t-31 124.5q0 67 31.5 119.5t89.5 82t133 29.5q84 0 141.5 -33.5t85.5 -87.5t28 -115q0 -60 -28.5 -113t-86 -86.5t-140.5 -33.5q-77 0 -134.5 30zM405.5 191q34.5 22 51.5 57t17 72q0 39 -17 73.5t-51.5 56
t-84.5 21.5q-67 0 -111 -41t-44 -109q0 -69 43.5 -110.5t111.5 -41.5q50 0 84.5 22z" />
    <glyph glyph-name="dvSH" horiz-adv-x="542" 
d="M407 215h102v-15q0 -97 -55 -152.5t-150 -55.5q-105 0 -163 61.5t-58 165.5v180h144q82 0 134.5 35t52.5 107q0 54 -29 85.5t-79 31.5t-79 -31.5t-29 -85.5q0 -13 2 -41h-104q-4 30 -4 44q0 61 26 107.5t74.5 72t113.5 25.5q97 0 155.5 -56.5t58.5 -158.5
q0 -109 -71.5 -166.5t-184.5 -57.5h-75v-98q0 -58 27.5 -93.5t84.5 -35.5q50 0 78 32.5t28 85.5v14z" />
    <glyph glyph-name="dvSS" horiz-adv-x="386" 
d="M555 652h-373l373 -283q0 -46 -27.5 -90t-80 -72t-125.5 -28q-118 0 -180 70t-62 188v215h-104v88h579v-88zM415 293.5q35 25.5 46 63.5l-280 217v-140q0 -79 36 -122.5t109 -43.5q54 0 89 25.5z" />
    <glyph glyph-name="dvS" horiz-adv-x="520" 
d="M431 568q0 -89 -48 -147h248v-86h-451v-132q0 -55 25.5 -88.5t75.5 -33.5q47 0 73.5 30.5t26.5 81.5v12h101q1 -7 1 -17q0 -91 -53.5 -144t-146.5 -53q-99 0 -152.5 60t-53.5 157v203h87q82 0 122.5 42t40.5 115v84h-351v88h655v-88h-200v-84z" />
    <glyph glyph-name="dvH" horiz-adv-x="586" 
d="M224 456q-26 -17 -26 -54q0 -26 15 -44t41 -27q28 5 54 5q100 0 156.5 -48.5t67.5 -122.5h-100q-9 35 -41.5 61t-84.5 26q-61 0 -97 -38.5t-36 -97.5q0 -60 35.5 -97.5t97.5 -37.5q50 0 83 25t43 60h100q-7 -48 -36 -87t-77.5 -62t-112.5 -23q-73 0 -126.5 29t-81.5 79.5
t-28 115.5q0 61 26.5 108.5t75.5 75.5q-36 18 -57 48t-21 72q0 61 44 94t118 33h116v103h-396v88h633v-88h-137v-179h-180q-42 0 -68 -17zM251 -179h105l127 -206h-108z" />
    <glyph glyph-name="dvLL" horiz-adv-x="987" 
d="M-24 740h1034v-88h-1034v88zM176 111.5q-52 28.5 -81.5 80t-29.5 118.5q0 68 29.5 120.5t81 81t114.5 28.5q71 0 122.5 -35t79.5 -96h3q27 61 78.5 96t122.5 35q63 0 114.5 -28.5t81.5 -81t30 -120.5q0 -67 -29.5 -118.5t-81.5 -80t-115 -28.5q-73 0 -126 36.5t-75 96.5
h-4q-21 -60 -74 -96.5t-126 -36.5q-63 0 -115 28.5zM404 211q38 38 38 99q0 62 -38 101t-99 39t-99.5 -39t-38.5 -102q0 -61 39 -98.5t99 -37.5q61 0 99 38zM780.5 210.5q38.5 37.5 38.5 98.5q0 63 -38.5 102t-98.5 39q-61 0 -99 -39t-38 -101q0 -61 37.5 -99t98.5 -38
t99.5 37.5z" />
    <glyph glyph-name="dvK_SS" horiz-adv-x="538" 
d="M242.5 325q-27.5 -17 -47 -43t-19.5 -63q0 -43 28.5 -72t75.5 -29q50 0 79.5 32.5t29.5 79.5h88v-287h-96v158q-15 -27 -50 -48.5t-86 -21.5q-79 0 -128 46.5t-49 120.5q0 51 22.5 87.5t57.5 61t87 50.5q-62 15 -101.5 58.5t-39.5 111.5q0 55 26.5 96.5t73 64t104.5 22.5
q53 0 96.5 -20t69.5 -58.5t26 -92.5q0 -43 -17 -75.5t-47 -59.5h231v-77h-334q-53 -25 -80.5 -42zM226 478.5q38 -31.5 99 -33.5q37 23 57 50t20 64q0 44 -30.5 72t-76.5 28q-45 0 -76 -26t-31 -73q0 -50 38 -81.5z" />
    <glyph glyph-name="dvJ_NY" horiz-adv-x="538" 
d="M707 740v-88h-731v88h731zM243 518h464v-84h-279q39 -23 62 -62t23 -92q0 -54 -24 -95.5t-66 -64t-95 -22.5q-54 0 -96 21t-66 55v-149h-102v278h98q6 -56 44 -87.5t91 -31.5q56 0 88 33.5t32 85.5q0 62 -42 96.5t-106 34.5h-26v84z" />
    <glyph glyph-name="dvKx" horiz-adv-x="727" 
d="M550 652v-195q22 43 63.5 68.5t100.5 25.5q61 0 108 -29.5t73 -81.5t26 -119h-106q0 62 -37.5 101t-94.5 39q-66 0 -99.5 -44t-33.5 -105v-312h-101v183q-23 -43 -67 -69t-106 -26t-110 29t-74.5 81.5t-26.5 122.5q0 69 27 121t76 80.5t112 28.5q60 0 103 -25t66 -67v193
h-473v88h945v-88h-371zM386.5 197q31.5 21 47 54t15.5 68q0 57 -36 99.5t-103 42.5q-59 0 -99 -38.5t-40 -102.5q0 -66 39 -105t100 -39q45 0 76.5 21zM213 -99.5q-19 18.5 -19 46.5t19 47.5t47 19.5t47.5 -19.5t19.5 -47.5t-19 -46.5t-48 -18.5q-28 0 -47 18.5z" />
    <glyph glyph-name="dvKHx" horiz-adv-x="673" 
d="M308.5 378q-47.5 -50 -126.5 -54v-83q0 -69 42 -111.5t116 -42.5q52 0 87 23t54 59q-37 28 -57.5 69.5t-20.5 94.5q0 62 28 108.5t77.5 71t113.5 24.5q98 0 158.5 -55t60.5 -149q0 -63 -28.5 -109.5t-78 -71t-112.5 -24.5q-30 0 -59 6q-31 -62 -89 -100t-137 -38
q-119 0 -189 68t-70 189v147h33q67 0 103.5 32.5t36.5 111.5v108h-275v88h865v-88h-485v-121q0 -103 -47.5 -153zM530.5 424q-34.5 -34 -34.5 -91t34.5 -91t91.5 -34q58 0 92.5 34t34.5 91t-34.5 91t-92.5 34q-57 0 -91.5 -34zM271 -188.5q-19 18.5 -19 46.5t19 47.5
t47 19.5t47.5 -19.5t19.5 -47.5t-19 -46.5t-48 -18.5q-28 0 -47 18.5z" />
    <glyph glyph-name="dvGx" horiz-adv-x="499" 
d="M523 652h-123v-257q0 -83 -43.5 -135t-132.5 -52q-87 0 -133.5 48.5t-46.5 132.5q0 21 1 31h102v-31q0 -39 17.5 -65t56.5 -26q41 0 57.5 26.5t16.5 66.5v261h-319v88h547v-88zM180 17.5q-19 18.5 -19 46.5t19 47.5t47 19.5t47.5 -19.5t19.5 -47.5t-19 -46.5t-48 -18.5
q-28 0 -47 18.5z" />
    <glyph glyph-name="dvJx" horiz-adv-x="547" 
d="M697 740v-88h-721v88h721zM697 406h-222v-76q0 -93 -55 -150.5t-149 -57.5q-96 0 -149.5 57t-53.5 151v166h106v-164q0 -54 26 -86t72 -32q47 0 74 32t27 86v164h324v-90zM227 -64.5q-19 18.5 -19 46.5t19 47.5t47 19.5t47.5 -19.5t19.5 -47.5t-19 -46.5t-48 -18.5
q-28 0 -47 18.5z" />
    <glyph glyph-name="dvPHx" horiz-adv-x="726" 
d="M545 652v-195q23 43 66.5 68.5t103.5 25.5q98 0 152 -63t54 -167h-106q0 65 -34 102.5t-98 37.5q-68 0 -103 -46.5t-35 -113.5v-301h-105v260q-24 -35 -62.5 -54.5t-89.5 -19.5q-101 0 -154.5 66.5t-53.5 179.5v220h-104v88h945v-88h-376zM440 652h-255v-220
q0 -74 32 -115.5t96 -41.5q60 0 93.5 40t33.5 99v238zM203 3.5q-19 18.5 -19 46.5t19 47.5t47 19.5t47.5 -19.5t19.5 -47.5t-19 -46.5t-48 -18.5q-28 0 -47 18.5z" />
    <glyph glyph-name="dvReph" horiz-adv-x="0" 
d="M-196 811q0 89 42.5 144.5t133.5 55.5q83 0 128 -49t42 -130h-92q2 41 -19 66t-57 25q-80 0 -80 -111v-90h-98v89z" />
    <glyph glyph-name="dvEyelash" horiz-adv-x="311" 
d="M-24 740h412v-88h-412v88zM343.5 352q-36.5 -9 -74.5 -9q-98 0 -167.5 49t-71.5 154h100q1 -66 45.5 -96t108.5 -30q39 0 80 15l39 -60q-23 -14 -59.5 -23z" />
    <glyph glyph-name="dvRashtrasign" horiz-adv-x="0" 
d="M-139 -97l-122 139l-122 -139h-108l160 179h140l161 -179h-109z" />
    <glyph glyph-name="dvK_RA" horiz-adv-x="986" 
d="M550 652v-195q22 43 63.5 68.5t100.5 25.5q61 0 108 -29.5t73 -81t26 -117.5q0 -71 -27 -122.5t-74 -79t-107 -27.5q-36 0 -64 7v83q15 -4 37 -4q56 0 92.5 37.5t36.5 103.5q0 62 -37.5 101t-94.5 39q-65 0 -98.5 -44t-34.5 -105v-312h-101v188q-15 -26 -34 -44
l-185 -190h-114l141 143q-56 4 -99.5 33t-68 78.5t-24.5 112.5q0 69 27 121t76 80.5t112 28.5q60 0 103 -25t66 -67v193h-473v88h1033v-88h-459zM423 233q26 40 26 86q0 57 -36 99.5t-103 42.5q-59 0 -99 -38.5t-40 -102.5q0 -66 39 -105t100 -39q11 0 29 2l4 5l6 -2
q48 12 74 52z" />
    <glyph glyph-name="dvKH_RA" horiz-adv-x="941" 
d="M965 740v-88h-122v-652h-104v200q-21 -33 -56.5 -52t-84.5 -19q-19 0 -37 3q-17 -30 -35 -51l-206 -222h-112v6l130 135h-1q-119 0 -189 67t-70 186v147h33q67 0 103.5 32.5t36.5 111.5v108h-275v88h989zM425 109q35 22 55 57q-37 27 -57.5 71t-20.5 99q0 59 25.5 105.5
t70 72t100.5 25.5q49 0 84.5 -19t56.5 -52v184h-383v-121q0 -103 -47.5 -153t-126.5 -54v-83q0 -69 42 -111.5t116 -42.5q50 0 85 22zM708 247.5q31 37.5 31 86.5q0 50 -30.5 87t-89.5 37q-52 0 -87.5 -33t-35.5 -89q0 -59 35 -92.5t88 -33.5q58 0 89 37.5z" />
    <glyph glyph-name="dvG_RA" horiz-adv-x="765" 
d="M789 740v-88h-122v-652h-102v231l-250 -251h-121l369 359v313h-163v-199q0 -83 -43.5 -135t-132.5 -52q-87 0 -133.5 48.5t-46.5 132.5q0 21 1 31h102v-31q0 -39 17.5 -65t56.5 -26q41 0 57.5 26.5t16.5 65.5v204h-319v88h813z" />
    <glyph glyph-name="dvGH_RA" horiz-adv-x="707" 
d="M731 652h-121v-652h-106v207q-10 -15 -23 -29h1l-218 -230h-115l160 159h-10q-98 0 -159.5 46.5t-61.5 131.5q0 60 36 99.5t89 50.5v2q-50 10 -80 45.5t-30 101.5v68h-117v88h755v-88zM504 652h-306v-61q0 -54 29.5 -82.5t93.5 -28.5h45v-85h-53q-65 0 -97 -27.5
t-32 -72.5q0 -52 38.5 -79.5t100.5 -27.5q50 0 91.5 21.5t65.5 60.5t24 89v293z" />
    <glyph glyph-name="dvNG_RA" horiz-adv-x="672" 
d="M696 740v-88h-227v-182h-179q-45 0 -75 -16t-30 -56q0 -38 26 -55t67 -17h45q87 0 146 -41t59 -130q0 -78 -56 -124.5t-159 -46.5q-111 0 -178.5 52.5t-69.5 140.5h104q1 -51 38 -82t103 -31q57 0 88 25.5t31 66.5q0 50 -35 72.5t-90 22.5h-39q-75 0 -130 34.5t-55 115.5
q0 74 52 109t129 35h106v107h-391v88h720zM637.5 429.5q17.5 -17.5 17.5 -43.5q0 -25 -18 -42.5t-43 -17.5t-43 17.5t-18 42.5q0 26 18 43.5t43 17.5q26 0 43.5 -17.5zM431 -158l-122 139l-122 -139h-108l160 179h140l161 -179h-109z" />
    <glyph glyph-name="dvC_RA" horiz-adv-x="740" 
d="M764 652h-122v-652h-105v193q-19 -29 -43 -47l-182 -192h-114l144 145q-57 2 -103 25t-72.5 66.5t-26.5 101.5q0 48 19.5 86t56.5 62h-166v83h365v-83h-37q-62 0 -100.5 -36.5t-38.5 -94.5q0 -59 40.5 -93t100.5 -34q70 1 113.5 50t43.5 123v297h-561v88h788v-88z" />
    <glyph glyph-name="dvCH_RA" horiz-adv-x="819" 
d="M633 652v-110q64 -15 102.5 -68t38.5 -137q0 -95 -46 -165.5t-131 -108.5t-198 -38q-150 0 -239.5 56.5t-89.5 163.5q0 65 36 107t94 55v3q-49 9 -79 45t-30 102v95h-115v88h867v-88h-210zM536 652h-341v-91q0 -54 28 -81.5t89 -27.5h21v-85h-19q-69 0 -103.5 -31.5
t-34.5 -80.5q0 -68 58.5 -104t165.5 -36q128 0 204.5 60t76.5 166q0 60 -28.5 94t-68.5 34q-38 0 -65.5 -26.5t-27.5 -78.5q0 -40 16 -88h-87q-17 46 -17 99q0 72 36.5 113.5t96.5 53.5v110zM543 -117l-122 139l-122 -139h-108l160 179h140l161 -179h-109z" />
    <glyph glyph-name="dvJ_RA" horiz-adv-x="846" 
d="M870 652h-122v-652h-98v218l-239 -256h-116l353 363v89h-177v-14q0 -93 -53.5 -151t-146.5 -58q-96 0 -149.5 57.5t-53.5 151.5v99h106v-97q0 -54 26 -86t72 -32q47 0 74 32t27 86v97h275v153h-672v88h894v-88z" />
    <glyph glyph-name="dvJH_RA" horiz-adv-x="922" 
d="M945 652h-121v-652h-100v93l-157 -202h-106l263 321v34l-239 1q38 -41 38 -105q0 -67 -44 -109t-126 -42q-63 0 -101 23.5t-57 49.5v-143h-99v250h94q6 -45 40 -73.5t92 -28.5q51 0 77.5 24.5t26.5 61.5q0 45 -32 70.5t-93 25.5h-56q-71 3 -120 39t-49 108q0 76 52 112
t131 36h106v106h-389v88h969v-88zM320 326h401v326h-255v-182h-179q-45 0 -75.5 -16t-30.5 -57q0 -37 26.5 -54t68.5 -17h44z" />
    <glyph glyph-name="dvNY_RA" horiz-adv-x="817" 
d="M887 652h-122v-652h-103v134l-199 -216h-108l307 323v55h-145q-10 -88 -70 -142t-158 -54q-64 0 -113.5 24t-78 65t-32.5 91h99q7 -38 41 -64.5t85 -26.5q64 0 99 40t35 99q0 57 -35 96t-99 39q-51 0 -83.5 -26.5t-42.5 -64.5h-99q9 79 68 129.5t156 50.5
q90 0 148.5 -45.5t75.5 -121.5h147v267h-684v88h911v-88z" />
    <glyph glyph-name="dvTT_RA" horiz-adv-x="649" 
d="M223 415.5q-53 -43.5 -53 -126.5q0 -71 47 -116.5t121 -45.5q76 0 123 47.5t47 122.5h100q0 -77 -33 -136.5t-94 -92t-141 -32.5q-79 0 -142 32t-98 89.5t-35 131.5q0 81 36 139.5t101 89t152 30.5h15v104h-393v88h697v-88h-201v-193h-112q-84 0 -137 -43.5zM459 -100
l-122 139l-122 -139h-108l160 179h140l161 -179h-109z" />
    <glyph glyph-name="dvTTH_RA" horiz-adv-x="676" 
d="M388 652v-109q97 -15 159.5 -80.5t62.5 -167.5q0 -75 -35.5 -132.5t-98 -89t-139.5 -31.5t-139 31.5t-97.5 89t-35.5 132.5q0 101 61.5 166.5t157.5 81.5v109h-308v88h722v-88h-310zM459 412.5q-47 45.5 -122 45.5q-74 0 -121 -45.5t-47 -117.5q0 -47 21.5 -85t60 -59
t86.5 -21q75 0 122 46.5t47 118.5t-47 117.5zM462 -102l-122 139l-122 -139h-108l160 179h140l161 -179h-109z" />
    <glyph glyph-name="dvDD_RA" horiz-adv-x="572" 
d="M215 454q-30 -16 -30 -56q0 -38 26 -55t67 -17h45q87 0 146 -41t59 -130q0 -78 -56 -124.5t-159 -46.5q-111 0 -178.5 52.5t-69.5 140.5h104q1 -51 38 -82t103 -31q57 0 88 25.5t31 66.5q0 50 -35 72.5t-90 22.5h-39q-75 0 -130 34.5t-55 115.5q0 74 52 109t129 35h102
v107h-387v88h619v-88h-131v-182h-174q-45 0 -75 -16zM425 -158l-122 139l-122 -139h-108l160 179h140l161 -179h-109z" />
    <glyph glyph-name="dvDDH_RA" horiz-adv-x="645" 
d="M228 427q-62 -52 -62 -150q0 -57 25 -102t72 -70t111 -25q68 0 112 33t44 88q0 39 -24.5 64t-62.5 25q-33 0 -56 -21t-23 -55q0 -11 3 -19h-77q-3 17 -3 33q0 64 45 101t115 37q79 0 126 -45.5t47 -119.5q0 -91 -66.5 -144.5t-181.5 -53.5q-87 0 -157 33.5t-110 96.5
t-40 147q0 88 38 149.5t104 92.5t151 31h34v99h-416v88h693v-88h-178v-173h-101q-100 0 -162 -52zM473 -139l-122 139l-122 -139h-108l160 179h140l161 -179h-109z" />
    <glyph glyph-name="dvNN_RA" horiz-adv-x="865" 
d="M889 652h-122v-652h-99v233l-252 -269h-120l368 381v307h-177v-197q0 -92 -52 -149t-148 -57q-95 0 -147 57.5t-52 148.5v197h-112v88h913v-88zM384 652h-193v-206q0 -48 26.5 -78t70.5 -30q45 0 70.5 30t25.5 78v206z" />
    <glyph glyph-name="dvT_RA" horiz-adv-x="699" 
d="M723 652h-122v-652h-101v243l-246 -243h-136v5l376 347q-21 41 -63 66.5t-96 25.5q-71 0 -117.5 -43t-46.5 -119h-105q-1 74 29 129.5t85.5 85.5t128.5 30q65 0 112.5 -25.5t76.5 -64.5v215h-522v88h747v-88z" />
    <glyph glyph-name="dvTH_RA" horiz-adv-x="774" 
d="M798 740v-88h-122v-652h-105v217q-17 -37 -52 -64l3 -1l-266 -224h-129v6l201 163q-119 6 -187.5 79t-68.5 194q0 31 4 58h95q200 0 200 133q0 42 -25.5 70t-68.5 28q-45 0 -71.5 -27.5t-26.5 -74.5q0 -15 4 -41h-95q-4 28 -4 44q0 59 25 101.5t69.5 65t99.5 22.5
q57 0 100 -24t67 -67.5t24 -99.5q0 -100 -69.5 -153t-189.5 -53h-37q2 -77 50 -123.5t139 -46.5q58 0 105.5 24.5t75.5 72t28 111.5v350h227z" />
    <glyph glyph-name="dvD_RA" horiz-adv-x="609" 
d="M219.5 422q-47.5 -39 -47.5 -109q0 -64 38 -102t102 -38q51 0 89 32t38 91h97v-317h-103v180q-10 -13 -20 -22h1l-193 -199h-114l155 156q-88 6 -142.5 64.5t-54.5 157.5q0 76 35 129t95 79.5t136 26.5h62v101h-417v88h657v-88h-135v-191h-157q-74 0 -121.5 -39z" />
    <glyph glyph-name="dvDH_RA" horiz-adv-x="718" 
d="M746 652h-120v-652h-105v204q-13 -23 -31 -40h1l-218 -230h-115l160 160h-15q-96 0 -158 45.5t-62 128.5q0 61 36 99t84 46v3q-54 13 -90.5 55t-36.5 110q0 75 49 121.5t127 46.5q79 0 124.5 -45t45.5 -117q0 -13 -2 -35h-79l1 23q0 37 -23 61.5t-64 24.5t-65 -26
t-24 -65q0 -53 40 -82t105 -29h58v-85h-54q-60 0 -92.5 -25.5t-32.5 -69.5q0 -49 38 -74.5t100 -25.5q56 0 99.5 24.5t68.5 69t25 101.5v366h225v-88z" />
    <glyph glyph-name="dvN_RA" horiz-adv-x="835" 
d="M858 652h-121v-652h-95v174l-229 -252h-115l338 353v139h-214q45 -52 45 -125q0 -54 -26 -96.5t-71 -66t-102 -23.5q-58 0 -106 24.5t-75.5 69.5t-27.5 105q0 63 28.5 108t78 68.5t111.5 23.5h359v150h-660v88h882v-88zM351.5 223q31.5 31 31.5 80q0 48 -32 79.5
t-81 31.5q-51 0 -83.5 -31.5t-32.5 -80.5t32 -79.5t84 -30.5q50 0 81.5 31z" />
    <glyph glyph-name="dvP_RA" horiz-adv-x="661" 
d="M685 652h-122v-652h-104v265q-11 -16 -26 -28l-230 -253h-115l200 207q-102 3 -155 69t-53 177v215h-104v88h709v-88zM459 652h-274v-215q0 -76 34 -119t104 -43q64 0 100 41.5t36 102.5v233z" />
    <glyph glyph-name="dvPH_RA" horiz-adv-x="985" 
d="M545 652v-195q23 43 66.5 68.5t103.5 25.5t107 -29t73 -80t26 -116q0 -72 -26.5 -124.5t-74 -80t-107.5 -27.5q-37 0 -67 8v82q20 -5 41 -5q56 0 92 38.5t36 103.5q0 62 -37 101t-95 39q-68 0 -103 -46.5t-35 -113.5v-301h-105v263q-9 -13 -24 -28l-223 -251h-115
l196 207q-94 5 -144 70t-50 171v220h-104v88h1033v-88h-464zM440 652h-255v-220q0 -74 32 -115.5t96 -41.5q60 0 93.5 40t33.5 99v238z" />
    <glyph glyph-name="dvB_RA" horiz-adv-x="688" 
d="M712 740v-88h-121v-652h-101v174q-14 -20 -25 -31l-193 -199h-112l147 143q-68 0 -123 29.5t-87 83t-32 122.5q0 71 31.5 125t86.5 84t123 30q62 0 109 -25.5t75 -67.5v184h-514v88h736zM214 451l257 -216q24 41 24 89q0 43 -19.5 81.5t-57.5 62t-91 23.5q-67 0 -113 -40
zM180 235q23 -37 62 -57t86 -20q69 0 113 41l-259 216q-25 -39 -25 -93q0 -50 23 -87z" />
    <glyph glyph-name="dvBH_RA" horiz-adv-x="812" 
d="M856 740v-88h-123v-652h-95v174l-251 -252h-116l362 347v107h-179v-54q0 -98 -50 -155t-139 -57q-88 0 -141.5 48t-53.5 127q0 84 57 130t146 46h86v85q0 113 -84 113q-37 0 -59 -24.5t-22 -67.5q0 -15 3 -35h-102q-4 26 -4 40q0 80 48 128.5t134 48.5q94 0 137.5 -59
t43.5 -162v-67h179v279h223zM359 376h-85q-47 0 -77 -24.5t-30 -66.5q0 -40 27 -64t70 -24q46 0 70.5 31.5t24.5 87.5v60z" />
    <glyph glyph-name="dvM_RA" horiz-adv-x="803" 
d="M826 652h-122v-652h-95v175l-252 -253h-116l363 348v123h-174v-66q0 -99 -50 -155t-140 -56q-87 0 -140.5 49.5t-53.5 130.5q0 86 56.5 133.5t145.5 47.5h87v175h-359v88h850v-88zM604 652h-174v-175h174v175zM335 393h-86q-47 0 -76.5 -26t-29.5 -70q0 -43 27 -69
t69 -26q46 0 71 32t25 88v71z" />
    <glyph glyph-name="dvY_RA" horiz-adv-x="743" 
d="M767 652h-122v-652h-105v201q-15 -22 -33 -37h1l-266 -225h-128v6l198 160q-118 6 -182.5 80.5t-64.5 199.5q0 26 3 51h13q86 0 128 36.5t42 117.5v62h-275v88h791v-88zM540 652h-185v-80q0 -182 -187 -193v-4q0 -84 49 -134t136 -50q53 0 96 23t67 64t24 93v281z" />
    <glyph glyph-name="dvL_RA" horiz-adv-x="907" 
d="M699 652v-124q66 -20 104.5 -78t38.5 -145q0 -72 -28 -128t-83 -88t-133 -32q-8 0 -34 2v92l28 -2q68 0 106 42t38 112q0 63 -31 102.5t-87 39.5q-60 0 -90.5 -44.5t-30.5 -119.5v-18h-88v18q0 74 -29 119t-87 45t-90 -39t-32 -103q0 -70 38 -112t106 -42l28 2v-92
q-26 -2 -34 -2q-78 0 -133 32t-83 88t-28 128q0 73 27.5 125t76 79.5t110.5 27.5q71 0 113.5 -38.5t59.5 -96.5h3q15 50 49.5 86t91.5 46v118h-620v88h954v-88h-231zM755 -172l-122 139l-122 -139h-108l160 179h140l161 -179h-109z" />
    <glyph glyph-name="dvV_RA" horiz-adv-x="672" 
d="M696 740v-88h-122v-652h-102v185q-12 -22 -39 -47l-180 -182h-114l140 136q-97 4 -155.5 67.5t-58.5 164.5q0 67 28.5 119.5t80 82t118.5 29.5q62 0 108 -25t72 -69v191h-496v88h720zM403.5 192q34.5 22 51.5 56t17 71v1q0 38 -17 72.5t-51.5 56t-84.5 21.5
q-65 0 -108 -41t-43 -108q0 -69 42.5 -110t108.5 -41q50 0 84.5 22z" />
    <glyph glyph-name="dvSH_RA" horiz-adv-x="822" 
d="M846 740v-88h-122v-652h-103v158l-72 38l-215 -203h-123v9l261 235l-149 79l-166 -129h-120v13l206 159q-70 42 -106 91t-36 113q0 52 24.5 94.5t70 67t105.5 24.5q62 0 108 -24t71 -65t25 -91q0 -59 -26 -104t-85 -93l211 -112l9 -2l-2 -2l9 -5v489h225zM315 414l2 2
q44 33 68 66t24 77q0 42 -28.5 72t-76.5 31q-46 0 -75.5 -30.5t-29.5 -72.5q0 -43 24 -75.5t71 -58.5z" />
    <glyph glyph-name="dvSS_RA" horiz-adv-x="670" 
d="M694 652h-122v-652h-103v260q-15 -23 -37 -39l-229 -237h-115l204 198q-103 4 -157.5 72.5t-54.5 182.5v215h-104v88h718v-88zM469 652h-287l287 -221v221zM217 312q36 -44 107 -44q51 0 85.5 24.5t49.5 65.5l-278 214v-138q0 -78 36 -122z" />
    <glyph glyph-name="dvS_RA" horiz-adv-x="888" 
d="M912 652h-122v-652h-92v195l-188 -254h-102l281 358v41h-513v-154q0 -47 22.5 -76t67.5 -29q39 0 61.5 29.5t22.5 76.5v13h91q1 -8 1 -18q0 -88 -46.5 -139.5t-128.5 -51.5q-91 0 -140.5 55.5t-49.5 144.5v220h87q82 0 122.5 42t40.5 115v84h-351v88h936v-88zM689 652
h-258v-84q0 -89 -48 -147h306v231z" />
    <glyph glyph-name="dvH_RA" horiz-adv-x="586" 
d="M224 456q-26 -17 -26 -54q0 -26 15.5 -44.5t42.5 -26.5q21 4 50 4q82 0 139 -39t72 -98l-104 -109h-95l105 110q-16 24 -44.5 40t-69.5 16q-64 0 -102 -44t-38 -111q0 -66 38 -108.5t104 -42.5q51 0 84.5 25.5t44.5 59.5h92q-7 -47 -36 -85t-78 -60.5t-112 -22.5
q-73 0 -126.5 31t-81.5 85t-28 122q0 65 27.5 116.5t77.5 80.5q-37 17 -59 48t-22 73q0 61 44 94t118 33h116v103h-396v88h633v-88h-137v-179h-180q-42 0 -68 -17z" />
    <glyph glyph-name="dvLL_RA" horiz-adv-x="987" 
d="M761 652v-120q72 -20 116.5 -79t44.5 -143q0 -75 -36 -130t-98 -80l143 -159h-109l-122 139l-122 -139h-108l141 157q-42 16 -72 47t-44 71h-4q-21 -60 -74 -96.5t-126 -36.5q-63 0 -115 28.5t-81.5 80t-29.5 118.5q0 68 29.5 120.5t81 81t114.5 28.5q71 0 122.5 -35
t79.5 -96h3q23 53 65 86.5t99 41.5v115h-683v88h1034v-88h-249zM404 211q38 38 38 99q0 62 -38 101t-99 39t-99.5 -39t-38.5 -102q0 -61 39 -98.5t99 -37.5q61 0 99 38zM780.5 411q-38.5 39 -98.5 39q-61 0 -99 -39t-38 -101q0 -61 37.5 -99t98.5 -38t99.5 37.5t38.5 98.5
q0 63 -38.5 102z" />
    <glyph glyph-name="dvKx_RA" horiz-adv-x="1042" 
d="M606 652v-194q22 43 63.5 68t100.5 25q61 0 108 -29.5t73 -81t26 -117.5q0 -71 -27 -122.5t-74 -79t-107 -27.5q-36 0 -64 7v83q15 -4 38 -4q56 0 92 37.5t36 103.5q0 62 -37 101t-95 39q-65 0 -98.5 -44t-34.5 -105v-312h-101v187q-12 -22 -35 -43l-184 -190h-114
l142 143q-56 4 -100 33t-68.5 78.5t-24.5 112.5q0 69 27 121t76 80.5t112 28.5q61 0 103.5 -24.5t65.5 -66.5v192h-529v88h1090v-88h-460zM479.5 233.5q25.5 39.5 25.5 85.5q0 57 -36 99.5t-103 42.5q-60 0 -99.5 -38.5t-39.5 -102.5q0 -66 39 -105t100 -39q15 0 30 3l4 4
l5 -2q49 13 74.5 52.5zM129 103.5q18 -17.5 18 -43.5q0 -25 -18 -42.5t-44 -17.5q-25 0 -42.5 17.5t-17.5 42.5q0 26 17 43.5t43 17.5t44 -17.5z" />
    <glyph glyph-name="dvKHx_RA" horiz-adv-x="941" 
d="M965 740v-88h-122v-652h-104v200q-21 -33 -56.5 -52t-84.5 -19q-19 0 -37 3q-17 -30 -35 -51l-206 -222h-112v6l130 135h-1q-119 0 -189 67t-70 186v147h33q67 0 103.5 32.5t36.5 111.5v108h-275v88h989zM425 109q35 22 55 57q-37 27 -57.5 71t-20.5 99q0 59 25.5 105.5
t70 72t100.5 25.5q49 0 84.5 -19t56.5 -52v184h-383v-121q0 -103 -47.5 -153t-126.5 -54v-83q0 -69 42 -111.5t116 -42.5q50 0 85 22zM708 247.5q31 37.5 31 86.5q0 50 -30.5 87t-89.5 37q-52 0 -87.5 -33t-35.5 -89q0 -59 35 -92.5t88 -33.5q58 0 89 37.5z
M56.3203 -113.823q-17.4004 16.9434 -17.4004 42.5869q0 25.6426 17.4004 43.502q17.4004 17.8584 43.0439 17.8584t43.502 -17.8584q17.8594 -17.8594 17.8594 -43.502q0 -25.6436 -17.4014 -42.5869q-17.4004 -16.9424 -43.96 -16.9424q-25.6436 0 -43.0439 16.9424z" />
    <glyph glyph-name="dvGx_RA" horiz-adv-x="765" 
d="M789 740v-88h-122v-652h-102v231l-250 -251h-121l369 359v313h-163v-199q0 -83 -43.5 -135t-132.5 -52q-87 0 -133.5 48.5t-46.5 132.5q0 21 1 31h102v-31q0 -39 17.5 -65t56.5 -26q41 0 57.5 26.5t16.5 65.5v204h-319v88h813zM57.3203 60.1768
q-17.4004 16.9434 -17.4004 42.5869q0 25.6426 17.4004 43.502q17.4004 17.8584 43.0439 17.8584t43.502 -17.8584q17.8594 -17.8594 17.8594 -43.502q0 -25.6436 -17.4014 -42.5869q-17.4004 -16.9424 -43.96 -16.9424q-25.6436 0 -43.0439 16.9424z" />
    <glyph glyph-name="dvJx_RA" horiz-adv-x="846" 
d="M870 652h-122v-652h-98v218l-239 -256h-116l353 363v89h-177v-14q0 -93 -53.5 -151t-146.5 -58q-96 0 -149.5 57.5t-53.5 151.5v99h106v-97q0 -54 26 -86t72 -32q47 0 74 32t27 86v97h275v153h-672v88h894v-88zM102.32 -2.82324q-17.4004 16.9434 -17.4004 42.5869
q0 25.6426 17.4004 43.502q17.4004 17.8584 43.0439 17.8584t43.502 -17.8584q17.8594 -17.8594 17.8594 -43.502q0 -25.6436 -17.4014 -42.5869q-17.4004 -16.9424 -43.96 -16.9424q-25.6436 0 -43.0439 16.9424z" />
    <glyph glyph-name="dvPHx_RA" horiz-adv-x="1052" 
d="M613 652v-193q24 42 66.5 67t102.5 25q61 0 107.5 -29t72.5 -80t26 -116q0 -72 -26.5 -124.5t-74 -80t-107.5 -27.5q-34 0 -68 8v82q23 -5 42 -5q57 0 92.5 38.5t35.5 103.5q0 62 -37 101t-94 39q-68 0 -103 -46.5t-35 -113.5v-301h-106v263q-7 -11 -25 -29l-222 -250
h-115l196 207q-94 5 -144 70t-50 171v220h-171v88h1100v-88h-463zM507 652h-255v-220q0 -74 32 -115.5t96 -41.5q60 0 93.5 40t33.5 99v238zM129 178.5q18 -17.5 18 -43.5q0 -25 -18 -42.5t-44 -17.5q-25 0 -42.5 17.5t-17.5 42.5q0 26 17 43.5t43 17.5t44 -17.5z" />
    <glyph glyph-name="dvK_R" horiz-adv-x="727" 
d="M550 652v-195q22 43 63.5 68.5t100.5 25.5q61 0 108 -29.5t73 -81.5t26 -119h-106q0 62 -37.5 101t-94.5 39q-65 0 -98.5 -44t-34.5 -105v-312h-101v188q-15 -26 -34 -44l-185 -190h-114l141 143q-56 4 -99.5 33t-68 78.5t-24.5 112.5q0 69 27 121t76 80.5t112 28.5
q60 0 103 -25t66 -67v193h-473v88h945v-88h-371zM423 233q26 40 26 86q0 57 -36 99.5t-103 42.5q-59 0 -99 -38.5t-40 -102.5q0 -66 39 -105t100 -39q11 0 29 2l4 5l6 -2q48 12 74 52z" />
    <glyph glyph-name="dvKH_R" horiz-adv-x="673" 
d="M308.5 378q-47.5 -50 -126.5 -54v-83q0 -69 42 -111.5t116 -42.5q52 0 87 23t54 59q-37 28 -57.5 69.5t-20.5 94.5q0 62 28 108.5t77.5 71t113.5 24.5q98 0 158.5 -55t60.5 -149q0 -63 -28.5 -109.5t-78 -71t-112.5 -24.5q-31 0 -60 6q-16 -30 -36 -53l-206 -222h-112v6
l130 135h-1q-119 0 -189 67t-70 186v147h33q67 0 103.5 32.5t36.5 111.5v108h-275v88h865v-88h-485v-121q0 -103 -47.5 -153zM530.5 424q-34.5 -34 -34.5 -91t34.5 -91t91.5 -34q58 0 92.5 34t34.5 91t-34.5 91t-92.5 34q-57 0 -91.5 -34z" />
    <glyph glyph-name="dvG_R" horiz-adv-x="499" 
d="M584 740v-88h-184v-199q0 -83 -43.5 -135t-132.5 -52q-87 0 -133.5 48.5t-46.5 132.5q0 21 1 31h102v-31q0 -39 17.5 -65t56.5 -26q41 0 57.5 26.5t16.5 65.5v204h-319v88h608zM194 -20l390 379v-109l-269 -270h-121z" />
    <glyph glyph-name="dvGH_R" horiz-adv-x="411" 
d="M198 652v-63q0 -54 29 -81.5t94 -27.5h45v-85h-53q-65 0 -97 -27.5t-32 -72.5q0 -52 38.5 -79.5t100.5 -27.5q54 0 95 22t63.5 61t22.5 88h89q0 -59 -22.5 -110t-65.5 -86l-202 -215h-114l155 155q-7 -1 -21 -1q-114 0 -179.5 47t-65.5 136q0 60 36 99.5t89 50.5v2
q-50 10 -80 45.5t-30 101.5v68h-117v88h617v-88h-395z" />
    <glyph glyph-name="dvNG_R" horiz-adv-x="672" 
d="M696 740v-88h-227v-182h-179q-45 0 -75 -16t-30 -56q0 -38 26 -55t67 -17h45q87 0 146 -41t59 -130q0 -78 -56 -124.5t-159 -46.5q-111 0 -178.5 52.5t-69.5 140.5h104q1 -51 38 -82t103 -31q57 0 88 25.5t31 66.5q0 50 -35 72.5t-90 22.5h-39q-75 0 -130 34.5t-55 115.5
q0 74 52 109t129 35h106v107h-391v88h720zM637.5 429.5q17.5 -17.5 17.5 -43.5q0 -25 -18 -42.5t-43 -17.5t-43 17.5t-18 42.5q0 26 18 43.5t43 17.5q26 0 43.5 -17.5zM431 -158l-122 139l-122 -139h-108l160 179h140l161 -179h-109zM259 -176h105l127 -206h-108z" />
    <glyph glyph-name="dvC_R" horiz-adv-x="451" 
d="M627 652h-651v88h651v-88zM605 237q-23 -53 -67 -89l-181 -194h-114l139 140h-12q-101 0 -165.5 52t-64.5 146q0 48 19.5 86t56.5 62h-166v83h365v-83h-37q-62 0 -100.5 -36.5t-38.5 -94.5q0 -59 40.5 -93t100.5 -34q70 1 113.5 50t43.5 123h90q1 -65 -22 -118z" />
    <glyph glyph-name="dvCH_R" horiz-adv-x="819" 
d="M543 -117l-122 139l-122 -139h-108l160 179h140l161 -179h-109zM195 652v-91q0 -54 28 -81.5t89 -27.5h21v-85h-19q-69 0 -103.5 -31.5t-34.5 -80.5q0 -68 58.5 -104t165.5 -36q128 0 204.5 60t76.5 166q0 60 -28.5 94t-68.5 34q-38 0 -65.5 -26.5t-27.5 -78.5
q0 -40 16 -88h-87q-17 46 -17 99q0 87 52.5 129.5t129.5 42.5q54 0 97 -24t67.5 -71.5t24.5 -114.5q0 -95 -46 -165.5t-131 -108.5t-198 -38q-150 0 -239.5 56.5t-89.5 163.5q0 65 36 107t94 55v3q-49 9 -79 45t-30 102v95h-115v88h867v-88h-648z" />
    <glyph glyph-name="dvJ_R" horiz-adv-x="547" 
d="M697 740v-88h-721v88h721zM697 409h-226v-9q0 -93 -53.5 -151t-146.5 -58q-96 0 -149.5 57.5t-53.5 151.5v99h106v-97q0 -54 26 -86t72 -32q47 0 74 32t27 86v97h324v-90zM295 -38l402 414v-106l-286 -308h-116z" />
    <glyph glyph-name="dvJH_R" horiz-adv-x="567" 
d="M211.5 454q-30.5 -16 -30.5 -57q0 -37 26.5 -54t68.5 -17h44h402v-80l-237 1q38 -41 38 -105q0 -67 -44 -109t-126 -42q-63 0 -101 23.5t-57 49.5v-143h-99v250h94q6 -45 40 -73.5t92 -28.5q51 0 77.5 24.5t26.5 61.5q0 45 -32 70.5t-93 25.5h-56q-71 3 -120 39t-49 108
q0 76 52 112t131 36h106v106h-389v88h746v-88h-256v-182h-179q-45 0 -75.5 -16zM461 -109l261 312v-107l-155 -205h-106z" />
    <glyph glyph-name="dvNY_R" horiz-adv-x="540" 
d="M683 740v-88h-707v88h707zM437.5 506.5q58.5 -45.5 75.5 -121.5h170v-89h-166q-10 -88 -70 -142t-158 -54q-64 0 -113.5 24t-78 65t-32.5 91h99q7 -38 41 -64.5t85 -26.5q64 0 99 40t35 99q0 57 -35 96t-99 39q-51 0 -83.5 -26.5t-42.5 -64.5h-99q9 79 68 129.5t156 50.5
q90 0 148.5 -45.5zM355 -82l328 350v-110l-220 -240h-108z" />
    <glyph glyph-name="dvTT_R" horiz-adv-x="649" 
d="M223 415.5q-53 -43.5 -53 -126.5q0 -71 47 -116.5t121 -45.5q76 0 123 47.5t47 122.5h100q0 -77 -33 -136.5t-94 -92t-141 -32.5q-79 0 -142 32t-98 89.5t-35 131.5q0 81 36 139.5t101 89t152 30.5h15v104h-393v88h697v-88h-201v-193h-112q-84 0 -137 -43.5zM459 -100
l-122 139l-122 -139h-108l160 179h140l161 -179h-109zM290 -118h105l127 -206h-108z" />
    <glyph glyph-name="dvTTH_R" horiz-adv-x="676" 
d="M388 652v-109q97 -15 159.5 -80.5t62.5 -167.5q0 -75 -35.5 -132.5t-98 -89t-139.5 -31.5t-139 31.5t-97.5 89t-35.5 132.5q0 101 61.5 166.5t157.5 81.5v109h-308v88h722v-88h-310zM459 412.5q-47 45.5 -122 45.5q-74 0 -121 -45.5t-47 -117.5q0 -47 21.5 -85t60 -59
t86.5 -21q75 0 122 46.5t47 118.5t-47 117.5zM462 -102l-122 139l-122 -139h-108l160 179h140l161 -179h-109zM288 -121h105l127 -206h-108z" />
    <glyph glyph-name="dvDD_R" horiz-adv-x="572" 
d="M215 454q-30 -16 -30 -56q0 -38 26 -55t67 -17h45q87 0 146 -41t59 -130q0 -78 -56 -124.5t-159 -46.5q-111 0 -178.5 52.5t-69.5 140.5h104q1 -51 38 -82t103 -31q57 0 88 25.5t31 66.5q0 50 -35 72.5t-90 22.5h-39q-75 0 -130 34.5t-55 115.5q0 74 52 109t129 35h102
v107h-387v88h619v-88h-131v-182h-174q-45 0 -75 -16zM425 -158l-122 139l-122 -139h-108l160 179h140l161 -179h-109zM252 -176h105l127 -206h-108z" />
    <glyph glyph-name="dvDDH_R" horiz-adv-x="645" 
d="M228 427q-62 -52 -62 -150q0 -57 25 -102t72 -70t111 -25q68 0 112 33t44 88q0 39 -24.5 64t-62.5 25q-33 0 -56 -21t-23 -55q0 -11 3 -19h-77q-3 17 -3 33q0 64 45 101t115 37q79 0 126 -45.5t47 -119.5q0 -91 -66.5 -144.5t-181.5 -53.5q-87 0 -157 33.5t-110 96.5
t-40 147q0 88 38 149.5t104 92.5t151 31h34v99h-416v88h693v-88h-178v-173h-101q-100 0 -162 -52zM473 -139l-122 139l-122 -139h-108l160 179h140l161 -179h-109zM305 -157h105l127 -206h-108z" />
    <glyph glyph-name="dvNN_R" horiz-adv-x="570" 
d="M666 740v-88h-179v-197q0 -92 -52 -149t-148 -57q-95 0 -147 57.5t-52 148.5v197h-112v88h690zM384 652h-193v-206q0 -48 26.5 -78t70.5 -30q45 0 70.5 30t25.5 78v206zM296 -36l370 384v-118l-250 -266h-120z" />
    <glyph glyph-name="dvT_R" horiz-adv-x="422" 
d="M597 740v-88h-621v88h621zM501.5 476q71.5 -52 95.5 -139l-343 -337h-136v5l376 347q-20 41 -61.5 66.5t-95.5 25.5q-72 0 -119 -43t-47 -119h-105q0 72 33 128t93 87t139 31q99 0 170.5 -52z" />
    <glyph glyph-name="dvTH_R" horiz-adv-x="473" 
d="M636.5 241.5q-25.5 -50.5 -70.5 -85.5l-276 -236h-130v6l208 168h-4q-137 0 -214.5 73t-77.5 203q0 31 4 58h95q200 0 200 133q0 42 -25.5 70t-68.5 28q-45 0 -71.5 -27.5t-26.5 -74.5q0 -15 4 -41h-95q-4 28 -4 44q0 59 25 101.5t69.5 65t99.5 22.5q57 0 100 -24
t67 -67.5t24 -99.5q0 -100 -69.5 -153t-189.5 -53h-37q2 -77 50 -123.5t139 -46.5q92 0 150.5 46.5t58.5 125.5h91q0 -62 -25.5 -112.5z" />
    <glyph glyph-name="dvD_R" horiz-adv-x="609" 
d="M219.5 422q-47.5 -39 -47.5 -109q0 -64 38 -102t102 -38q51 0 89 32t38 91h97v-317h-103v180q-10 -13 -20 -22h1l-193 -199h-114l155 156q-88 6 -142.5 64.5t-54.5 157.5q0 76 35 129t95 79.5t136 26.5h62v101h-417v88h657v-88h-135v-191h-157q-74 0 -121.5 -39zM432 -94
h105l127 -206h-108z" />
    <glyph glyph-name="dvDH_R" horiz-adv-x="428" 
d="M593 233.5q-20 -43.5 -57 -75.5l-208 -224h-115l159 159q-32 -2 -48 -2q-107 0 -174 45.5t-67 131.5q0 61 36 99t84 46v3q-54 13 -90.5 55t-36.5 110q0 75 49 121.5t127 46.5q79 0 124.5 -45t45.5 -117q0 -13 -2 -35h-79l1 23q0 37 -23 61.5t-64 24.5t-65 -26t-24 -65
q0 -53 40 -82t105 -29h58v-85h-54q-60 0 -92.5 -25.5t-32.5 -69.5q0 -51 41 -75.5t102 -24.5q88 0 138 41.5t50 109.5h92q0 -53 -20 -96.5z" />
    <glyph glyph-name="dvN_R" horiz-adv-x="511" 
d="M668 740v-88h-692v88h692zM87.5 410q28.5 45 78 68.5t111.5 23.5h391v-88h-246q45 -52 45 -125q0 -57 -26 -99.5t-71.5 -64.5t-101.5 -22q-58 0 -106 24.5t-75.5 69.5t-27.5 105q0 63 28.5 108zM351.5 223q31.5 31 31.5 80q0 48 -32 79.5t-81 31.5q-51 0 -83.5 -31.5
t-32.5 -80.5t32 -79.5t84 -30.5q50 0 81.5 31zM298 -78l370 388v-110l-255 -278h-115z" />
    <glyph glyph-name="dvP_R" horiz-adv-x="362" 
d="M185 652v-215q0 -76 34.5 -119t104.5 -43q63 0 99 41.5t36 102.5h87q0 -59 -20.5 -107t-60.5 -79l-223 -249h-114l195 202h-7q-114 0 -175 68.5t-61 182.5v215h-104v88h570v-88h-361z" />
    <glyph glyph-name="dvPH_R" horiz-adv-x="726" 
d="M545 652v-195q23 43 66.5 68.5t103.5 25.5q98 0 152 -63t54 -167h-106q0 65 -34 102.5t-98 37.5q-68 0 -103 -46.5t-35 -113.5v-301h-105v263q-9 -13 -24 -28l-223 -251h-115l196 207q-94 5 -144 70t-50 171v220h-104v88h945v-88h-376zM440 652h-255v-220
q0 -74 32 -115.5t96 -41.5q60 0 93.5 40t33.5 99v238z" />
    <glyph glyph-name="dvB_R" horiz-adv-x="406" 
d="M576 740v-88h-600v88h600zM460.5 528q57.5 -34 85.5 -88.5t28 -115.5q0 -56 -20.5 -104t-59.5 -81l-184 -195h-108l140 138q-7 -1 -21 -1q-76 0 -134 30.5t-90 85.5t-32 125t31.5 124.5t89.5 85t134 30.5q83 0 140.5 -34zM208 448l258 -217q25 41 25 90q0 43 -19.5 81.5
t-57.5 62.5t-91 24q-66 0 -115 -41zM176.5 232.5q23.5 -37.5 62.5 -57.5t85 -20q69 0 113 41l-259 217q-25 -41 -25 -93q0 -50 23.5 -87.5z" />
    <glyph glyph-name="dvBH_R" horiz-adv-x="519" 
d="M655 461v-85h-201v-54q0 -98 -50 -155t-139 -57q-88 0 -141.5 48t-53.5 127q0 84 57 130t146 46h86v85q0 113 -84 113q-37 0 -59 -24.5t-22 -67.5q0 -15 3 -35h-102q-4 26 -4 40q0 80 48 128.5t134 48.5q94 0 137.5 -59t43.5 -162v-67h201zM359 376h-85q-47 0 -77 -24.5
t-30 -66.5q0 -40 27 -64t70 -24q46 0 70.5 31.5t24.5 87.5v60zM271 -78l384 367v-97l-268 -270h-116z" />
    <glyph glyph-name="dvM_R" horiz-adv-x="513" 
d="M430 652v-175h220v-84h-220v-66q0 -99 -50 -155t-140 -56q-87 0 -140.5 49.5t-53.5 130.5q0 86 56.5 133.5t145.5 47.5h87v175h-359v88h675v-88h-221zM335 393h-86q-47 0 -76.5 -26t-29.5 -70q0 -43 27 -69t69 -26q46 0 71 32t25 88v71zM241 -78l408 390v-97l-292 -293
h-116z" />
    <glyph glyph-name="dvY_R" horiz-adv-x="441" 
d="M611.5 245.5q-25.5 -51.5 -73.5 -87.5l-259 -219h-128v6l195 157q-131 1 -206 76.5t-75 206.5q0 26 3 51h13q86 0 128 36.5t42 117.5v62h-275v88h660v-88h-281v-80q0 -182 -187 -193v-4q0 -86 51.5 -135t136.5 -49q52 0 94 21.5t66 59.5t24 86h96q1 -61 -24.5 -112.5z
" />
    <glyph glyph-name="dvL_R" horiz-adv-x="907" 
d="M699 652v-124q66 -20 104.5 -78t38.5 -145q0 -72 -28 -128t-83 -88t-133 -32q-8 0 -34 2v92l28 -2q68 0 106 42t38 112q0 63 -31 102.5t-87 39.5q-60 0 -90.5 -44.5t-30.5 -119.5v-18h-88v18q0 74 -29 119t-87 45t-90 -39t-32 -103q0 -70 38 -112t106 -42l28 2v-92
q-26 -2 -34 -2q-78 0 -133 32t-83 88t-28 128q0 73 27.5 125t76 79.5t110.5 27.5q71 0 113.5 -38.5t59.5 -96.5h3q15 50 49.5 86t91.5 46v118h-620v88h954v-88h-231zM755 -172l-122 139l-122 -139h-108l160 179h140l161 -179h-109zM580 -190h105l127 -206h-108z" />
    <glyph glyph-name="dvV_R" horiz-adv-x="384" 
d="M574 740v-88h-598v88h598zM460.5 521.5q57.5 -33.5 85.5 -87.5t28 -115q0 -48 -19 -92.5t-55 -77.5l-191 -204h-112l144 142q-7 -1 -22 -1q-77 0 -134.5 30t-88.5 83.5t-31 124.5q0 67 31.5 119.5t89.5 82t133 29.5q84 0 141.5 -33.5zM211 211q43 -41 110 -41q49 0 83 22
t51 56.5t17 71.5q0 38 -16.5 72.5t-51 56t-83.5 21.5q-66 0 -109.5 -41t-43.5 -108q0 -69 43 -110z" />
    <glyph glyph-name="dvSH_R" horiz-adv-x="505" 
d="M551 290v-93l-217 -204h-126v7l265 238l-150 78l-166 -129h-120v13l206 159q-70 42 -106 91t-36 113q0 52 24.5 94.5t70 67t105.5 24.5q62 0 108 -24t71 -65t25 -91q0 -59 -26 -104t-84 -93zM315 414l2 2q44 34 68 66.5t24 76.5q0 42 -28.5 72t-76.5 31
q-46 0 -75.5 -30.5t-29.5 -72.5q0 -43 24 -75.5t71 -58.5z" />
    <glyph glyph-name="dvSS_R" horiz-adv-x="386" 
d="M555 652h-373l373 -283q0 -35 -15.5 -69t-44.5 -60l-248 -256h-114l200 195h-11q-118 0 -180 70t-62 188v215h-104v88h579v-88zM217 311.5q36 -43.5 109 -43.5q54 0 89 25.5t46 63.5l-280 217v-140q0 -79 36 -122.5z" />
    <glyph glyph-name="dvS_R" horiz-adv-x="520" 
d="M431 568q0 -89 -48 -147h266v-81h-473v-154q0 -47 22.5 -76t67.5 -29q39 0 61.5 29.5t22.5 76.5v13h91q1 -8 1 -18q0 -88 -46.5 -139.5t-128.5 -51.5q-91 0 -140.5 55.5t-49.5 144.5v220h87q82 0 122.5 42t40.5 115v84h-351v88h673v-88h-218v-84zM408 -59l241 305v-116
l-139 -189h-102z" />
    <glyph glyph-name="dvH_R" horiz-adv-x="586" 
d="M224 456q-26 -17 -26 -54q0 -26 15.5 -44.5t42.5 -26.5q21 4 50 4q82 0 139 -39t72 -98l-104 -109h-95l105 110q-16 24 -44.5 40t-69.5 16q-64 0 -102 -44t-38 -111q0 -66 38 -108.5t104 -42.5q51 0 84.5 25.5t44.5 59.5h92q-7 -47 -36 -85t-78 -60.5t-112 -22.5
q-73 0 -126.5 31t-81.5 85t-28 122q0 65 27.5 116.5t77.5 80.5q-37 17 -59 48t-22 73q0 61 44 94t118 33h116v103h-396v88h633v-88h-137v-179h-180q-42 0 -68 -17zM251 -207h105l127 -206h-108z" />
    <glyph glyph-name="dvLL_R" horiz-adv-x="987" 
d="M-24 740h1034v-88h-1034v88zM176 111.5q-52 28.5 -81.5 80t-29.5 118.5q0 68 29.5 120.5t81 81t114.5 28.5q71 0 122.5 -35t79.5 -96h3q27 61 78.5 96t122.5 35q63 0 114.5 -28.5t81.5 -81t30 -120.5q0 -67 -29.5 -118.5t-81.5 -80t-115 -28.5q-73 0 -126 36.5t-75 96.5
h-4q-21 -60 -74 -96.5t-126 -36.5q-63 0 -115 28.5zM404 211q38 38 38 99q0 62 -38 101t-99 39t-99.5 -39t-38.5 -102q0 -61 39 -98.5t99 -37.5q61 0 99 38zM780.5 210.5q38.5 37.5 38.5 98.5q0 63 -38.5 102t-98.5 39q-61 0 -99 -39t-38 -101q0 -61 37.5 -99t98.5 -38
t99.5 37.5zM822 -59l-122 139l-122 -139h-108l160 179h140l161 -179h-109z" />
    <glyph glyph-name="dvKx_R" horiz-adv-x="783" 
d="M606 652v-194q22 43 63.5 68t100.5 25q61 0 108 -29.5t73 -81.5t26 -119h-106q0 62 -37 101t-95 39q-65 0 -98.5 -44t-34.5 -105v-312h-101v187q-12 -22 -35 -43l-184 -190h-114l142 143q-56 4 -100 33t-68.5 78.5t-24.5 112.5q0 69 27 121t76 80.5t112 28.5
q61 0 103.5 -24.5t65.5 -66.5v192h-529v88h1001v-88h-371zM479.5 233.5q25.5 39.5 25.5 85.5q0 57 -36 99.5t-103 42.5q-60 0 -99.5 -38.5t-39.5 -102.5q0 -66 39 -105t100 -39q15 0 30 3l4 4l5 -2q49 13 74.5 52.5zM129 103.5q18 -17.5 18 -43.5q0 -25 -18 -42.5t-44 -17.5
q-25 0 -42.5 17.5t-17.5 42.5q0 26 17 43.5t43 17.5t44 -17.5z" />
    <glyph glyph-name="dvKHx_R" horiz-adv-x="673" 
d="M308.5 378q-47.5 -50 -126.5 -54v-83q0 -69 42 -111.5t116 -42.5q52 0 87 23t54 59q-37 28 -57.5 69.5t-20.5 94.5q0 62 28 108.5t77.5 71t113.5 24.5q98 0 158.5 -55t60.5 -149q0 -63 -28.5 -109.5t-78 -71t-112.5 -24.5q-31 0 -60 6q-16 -30 -36 -53l-206 -222h-112v6
l130 135h-1q-119 0 -189 67t-70 186v147h33q67 0 103.5 32.5t36.5 111.5v108h-275v88h865v-88h-485v-121q0 -103 -47.5 -153zM530.5 424q-34.5 -34 -34.5 -91t34.5 -91t91.5 -34q58 0 92.5 34t34.5 91t-34.5 91t-92.5 34q-57 0 -91.5 -34zM56.3203 -113.823
q-17.4004 16.9434 -17.4004 42.5869q0 25.6426 17.4004 43.502q17.4004 17.8584 43.0439 17.8584t43.502 -17.8584q17.8594 -17.8594 17.8594 -43.502q0 -25.6436 -17.4014 -42.5869q-17.4004 -16.9424 -43.96 -16.9424q-25.6436 0 -43.0439 16.9424z" />
    <glyph glyph-name="dvGx_R" horiz-adv-x="499" 
d="M584 740v-88h-184v-199q0 -83 -43.5 -135t-132.5 -52q-87 0 -133.5 48.5t-46.5 132.5q0 21 1 31h102v-31q0 -39 17.5 -65t56.5 -26q41 0 57.5 26.5t16.5 65.5v204h-319v88h608zM194 -20l390 379v-109l-269 -270h-121zM57.3203 60.1768q-17.4004 16.9434 -17.4004 42.5869
q0 25.6426 17.4004 43.502q17.4004 17.8584 43.0439 17.8584t43.502 -17.8584q17.8594 -17.8594 17.8594 -43.502q0 -25.6436 -17.4014 -42.5869q-17.4004 -16.9424 -43.96 -16.9424q-25.6436 0 -43.0439 16.9424z" />
    <glyph glyph-name="dvJx_R" horiz-adv-x="547" 
d="M697 740v-88h-721v88h721zM697 409h-226v-9q0 -93 -53.5 -151t-146.5 -58q-96 0 -149.5 57.5t-53.5 151.5v99h106v-97q0 -54 26 -86t72 -32q47 0 74 32t27 86v97h324v-90zM295 -38l402 414v-106l-286 -308h-116zM102.32 -2.82324q-17.4004 16.9434 -17.4004 42.5869
q0 25.6426 17.4004 43.502q17.4004 17.8584 43.0439 17.8584t43.502 -17.8584q17.8594 -17.8594 17.8594 -43.502q0 -25.6436 -17.4014 -42.5869q-17.4004 -16.9424 -43.96 -16.9424q-25.6436 0 -43.0439 16.9424z" />
    <glyph glyph-name="dvPHx_R" horiz-adv-x="794" 
d="M613 652v-193q24 42 66.5 67t102.5 25q98 0 152 -63t54 -167h-106q0 64 -34 102t-97 38q-68 0 -103 -46.5t-35 -113.5v-301h-106v263q-7 -11 -25 -29l-222 -250h-115l196 207q-94 5 -144 70t-50 171v220h-171v88h1012v-88h-375zM507 652h-255v-220q0 -74 32 -115.5
t96 -41.5q60 0 93.5 40t33.5 99v238zM129 178.5q18 -17.5 18 -43.5q0 -25 -18 -42.5t-44 -17.5q-25 0 -42.5 17.5t-17.5 42.5q0 26 17 43.5t43 17.5t44 -17.5z" />
    <glyph glyph-name="dvK_KA" horiz-adv-x="1725" 
d="M1289 652v-195q22 43 63.5 68.5t100.5 25.5q61 0 108 -29.5t73 -81t26 -117.5q0 -71 -27 -122.5t-74 -79t-107 -27.5q-36 0 -64 7v83q15 -4 37 -4q56 0 92.5 37.5t36.5 103.5q0 62 -37.5 101t-94.5 39q-66 0 -99.5 -44t-33.5 -105v-312h-101v183q-23 -43 -67 -69
t-106 -26t-110 29t-74.5 81.5t-26.5 122.5q0 63 -35 101.5t-91 38.5q-65 0 -96.5 -43.5t-31.5 -105.5v-312h-101v183q-23 -43 -67 -69t-106 -26t-110 29t-74.5 81.5t-26.5 122.5q0 69 27 121t76 80.5t112 28.5q60 0 103 -25t66 -67v193h-473v88h1772v-88h-459zM859 483
q29 33 69.5 50.5t90.5 17.5q60 0 103 -25t66 -67v193h-638v-192q21 42 61.5 66.5t97.5 24.5q95 0 150 -68zM386.5 197q31.5 21 47 54t15.5 68q0 57 -36 99.5t-103 42.5q-59 0 -99 -38.5t-40 -102.5q0 -66 39 -105t100 -39q45 0 76.5 21zM1125.5 197q31.5 21 47 54t15.5 68
q0 57 -36 99.5t-103 42.5q-59 0 -99 -38.5t-40 -102.5q0 -66 39 -105t100 -39q45 0 76.5 21z" />
    <glyph glyph-name="dvKx_KxA" horiz-adv-x="1725" 
d="M1289 652v-195q22 43 63.5 68.5t100.5 25.5q61 0 108 -29.5t73 -81t26 -117.5q0 -71 -27 -122.5t-74 -79t-107 -27.5q-36 0 -64 7v83q15 -4 37 -4q56 0 92.5 37.5t36.5 103.5q0 62 -37.5 101t-94.5 39q-66 0 -99.5 -44t-33.5 -105v-312h-101v183q-23 -43 -67 -69
t-106 -26t-110 29t-74.5 81.5t-26.5 122.5q0 63 -35 101.5t-91 38.5q-65 0 -96.5 -43.5t-31.5 -105.5v-312h-101v183q-23 -43 -67 -69t-106 -26t-110 29t-74.5 81.5t-26.5 122.5q0 69 27 121t76 80.5t112 28.5q60 0 103 -25t66 -67v193h-473v88h1772v-88h-459zM792.5 531.5
q36.5 -19.5 60.5 -55.5q29 36 71.5 55.5t94.5 19.5q60 0 103 -25t66 -67v193h-638v-192q21 42 61.5 66.5t97.5 24.5q47 0 83.5 -19.5zM386.5 197q31.5 21 47 54t15.5 68q0 57 -36 99.5t-103 42.5q-59 0 -99 -38.5t-40 -102.5q0 -66 39 -105t100 -39q45 0 76.5 21z
M1125.5 197q31.5 21 47 54t15.5 68q0 57 -36 99.5t-103 42.5q-59 0 -99 -38.5t-40 -102.5q0 -66 39 -105t100 -39q45 0 76.5 21zM308 -5.5q19 -19.5 19 -47.5t-19 -46.5t-48 -18.5q-28 0 -47 18.5t-19 46.5t19 47.5t47 19.5q29 0 48 -19.5zM1047 -5.5q19 -19.5 19 -47.5
t-19 -46.5t-48 -18.5q-28 0 -47 18.5t-19 46.5t19 47.5t47 19.5q29 0 48 -19.5z" />
    <glyph glyph-name="dvK_KHA" horiz-adv-x="1667" 
d="M1690 652h-122v-652h-104v199q-21 -32 -56 -51t-85 -19q-18 0 -35 3q-32 -61 -89.5 -98.5t-135.5 -37.5q-79 0 -137.5 30t-90 85.5t-31.5 131.5v78q0 63 -35 101.5t-91 38.5q-65 0 -96.5 -43.5t-31.5 -105.5v-312h-101v183q-23 -43 -67 -69t-106 -26t-110 29t-74.5 81.5
t-26.5 122.5q0 69 27 121t76 80.5t112 28.5q60 0 103 -25t66 -67v193h-473v88h1714v-88zM824.5 508.5q46.5 -37.5 65.5 -102.5q86 23 86 138v108h-426v-195q22 41 62 65t97 24q69 0 115.5 -37.5zM1151 109q35 22 54 57q-37 28 -57.5 71.5t-20.5 98.5q0 59 25.5 105.5t70 72
t100.5 25.5q49 0 84.5 -19t56.5 -52v184h-383v-121q0 -103 -47 -153t-126 -54v-83q0 -69 42 -111.5t115 -42.5q51 0 86 22zM386.5 197q31.5 21 47 54t15.5 68q0 57 -36 99.5t-103 42.5q-59 0 -99 -38.5t-40 -102.5q0 -66 39 -105t100 -39q45 0 76.5 21zM1433 247.5
q31 37.5 31 86.5q0 50 -30 87t-89 37q-52 0 -87.5 -33t-35.5 -89q0 -59 34.5 -92.5t88.5 -33.5q57 0 88 37.5z" />
    <glyph glyph-name="dvK_CA" horiz-adv-x="1362" 
d="M1386 652h-122v-652h-105v191q-29 -45 -77.5 -70.5t-109.5 -25.5q-91 0 -150.5 50t-59.5 142q0 53 23 94.5t66 65.5h-155q-75 0 -110.5 -41t-35.5 -102v-304h-101v183q-23 -43 -67 -69t-106 -26t-110 29t-74.5 81.5t-26.5 122.5q0 69 27 121t76 80.5t112 28.5
q60 0 103 -25t66 -67v193h-473v88h1410v-88zM1159 652h-609v-208q22 41 66 64t110 23h311v-84h-37q-63 0 -101 -37t-38 -97q0 -62 40 -96.5t100 -34.5q71 1 114.5 50t43.5 123v297zM386.5 197q31.5 21 47 54t15.5 68q0 57 -36 99.5t-103 42.5q-59 0 -99 -38.5t-40 -102.5
q0 -66 39 -105t100 -39q45 0 76.5 21z" />
    <glyph glyph-name="dvK_JA" horiz-adv-x="1580" 
d="M1604 652h-122v-652h-105v406h-168v-76q0 -93 -55 -150.5t-149 -57.5q-63 0 -108.5 25.5t-69 69t-23.5 96.5v11q0 62 -35 99.5t-91 37.5q-65 0 -96.5 -43.5t-31.5 -105.5v-312h-101v183q-23 -43 -67 -69t-106 -26t-110 29t-74.5 81.5t-26.5 122.5q0 69 27 121t76 80.5
t112 28.5q60 0 103 -25t66 -67v193h-473v88h1628v-88zM1377 652h-827v-192q21 42 61.5 66.5t97.5 24.5q60 0 105.5 -27t69.5 -74t24 -104v-14q0 -54 26 -86t72 -32q47 0 73.5 32t26.5 86v164h271v156zM386.5 197q31.5 21 47 54t15.5 68q0 57 -36 99.5t-103 42.5
q-59 0 -99 -38.5t-40 -102.5q0 -66 39 -105t100 -39q45 0 76.5 21z" />
    <glyph glyph-name="dvK_TTA" horiz-adv-x="1386" 
d="M960 415.5q-53 -43.5 -53 -126.5q0 -71 47 -116.5t121 -45.5q76 0 123 47.5t47 122.5h100q0 -77 -33 -136.5t-94 -92t-141 -32.5q-79 0 -142 32t-98 89.5t-35 131.5q0 14 2 36q-2 62 -36.5 99t-89.5 37q-65 0 -96.5 -43.5t-31.5 -105.5v-312h-101v183q-23 -43 -67 -69
t-106 -26t-110 29t-74.5 81.5t-26.5 122.5q0 69 27 121t76 80.5t112 28.5q60 0 103 -25t66 -67v193h-473v88h1434v-88h-201v-193h-112q-84 0 -137 -43.5zM963 527.5q57 20.5 128 20.5h15v104h-556v-192q21 42 61.5 66.5t97.5 24.5q52 0 92.5 -22t66.5 -62q38 40 95 60.5z
M386.5 197q31.5 21 47 54t15.5 68q0 57 -36 99.5t-103 42.5q-59 0 -99 -38.5t-40 -102.5q0 -66 39 -105t100 -39q45 0 76.5 21z" />
    <glyph glyph-name="dvK_NNA" horiz-adv-x="1578" 
d="M1601 652h-122v-652h-105v652h-177v-274q0 -92 -52 -149t-148 -57q-93 0 -145 55.5t-54 143.5q-11 41 -43.5 65.5t-76.5 24.5q-65 0 -96.5 -43.5t-31.5 -105.5v-312h-101v183q-23 -43 -67 -69t-106 -26t-110 29t-74.5 81.5t-26.5 122.5q0 69 27 121t76 80.5t112 28.5
q60 0 103 -25t66 -67v193h-473v88h1625v-88zM798 519v133h-248v-196q22 40 60.5 63t95.5 23q52 0 92 -23zM1094 652h-193v-284q0 -48 26.5 -77.5t70.5 -29.5q45 0 70.5 29.5t25.5 77.5v284zM386.5 197q31.5 21 47 54t15.5 68q0 57 -36 99.5t-103 42.5q-59 0 -99 -38.5
t-40 -102.5q0 -66 39 -105t100 -39q45 0 76.5 21z" />
    <glyph glyph-name="dvK_TA" horiz-adv-x="1092" 
d="M637 652v-256q24 44 68.5 69.5t108.5 25.5q62 0 111 -30t76 -82.5t27 -119.5q0 -73 -28 -126.5t-78 -81.5t-114 -28q-40 0 -69 7v83q20 -4 43 -4q62 0 100.5 39.5t38.5 108.5q0 64 -38.5 104t-97.5 40q-50 0 -83 -21t-49 -54.5t-16 -70.5v-255h-101v395h-126
q-86 0 -135.5 -39.5t-49.5 -115.5q0 -73 44 -114t126 -41h20v-83h-36q-76 0 -134 27t-91 78.5t-33 123.5q0 109 74 166h-157v88h498v167h-560v88h1140v-88h-479z" />
    <glyph glyph-name="dvKx_TA" horiz-adv-x="1415" 
d="M1439 652h-122v-652h-105v406h-140q-86 0 -135 -41t-49 -119q0 -76 43.5 -118.5t125.5 -42.5h21v-83h-36q-118 0 -189 62.5t-71 183.5q0 31 4 52q4 77 -28.5 117.5t-85.5 40.5q-63 0 -92.5 -42.5t-29.5 -103.5v-312h-101v183q-23 -43 -67 -69t-106 -26t-110 29
t-74.5 81.5t-26.5 122.5q0 69 27 121t76 80.5t112 28.5q60 0 103 -25t66 -67v193h-473v88h1463v-88zM1212 652h-662v-193q20 39 58 61.5t93 22.5q57 0 100 -27t63 -79q75 59 203 59h145v156zM386.5 197q31.5 21 47 54t15.5 68q0 57 -36 99.5t-103 42.5q-59 0 -99 -38.5
t-40 -102.5q0 -66 39 -105t100 -39q45 0 76.5 21zM308 -5.5q19 -19.5 19 -47.5t-19 -46.5t-48 -18.5q-28 0 -47 18.5t-19 46.5t19 47.5t47 19.5q29 0 48 -19.5z" />
    <glyph glyph-name="dvK_T_YA" horiz-adv-x="1849" 
d="M1873 652h-122v-652h-104v200q-30 -44 -83 -70.5t-126 -26.5q-122 0 -192 68.5t-75 186.5q-24 64 -124 64q-75 0 -115.5 -40.5t-40.5 -119.5q0 -76 43.5 -118.5t125.5 -42.5h21v-83h-36q-118 0 -189 63t-71 184q0 14 1 21h-1q1 8 1 24q0 74 -31.5 111t-82.5 37
q-63 0 -92.5 -42.5t-29.5 -103.5v-312h-101v183q-23 -43 -67 -69t-106 -26t-110 29t-74.5 81.5t-26.5 122.5q0 69 27 121t76 80.5t112 28.5q60 0 103 -25t66 -67v193h-473v88h1897v-88zM1231 439q64 8 95.5 44.5t31.5 106.5v62h-808v-190q20 38 55.5 59.5t86.5 21.5
q54 0 93 -27t57 -79q66 75 199 75q132 0 190 -73zM1647 652h-186v-80q0 -91 -49 -141.5t-137 -55.5v-11q0 -79 48.5 -126t135.5 -47q54 0 97 23t67 64t24 93v281zM386.5 197q31.5 21 47 54t15.5 68q0 57 -36 99.5t-103 42.5q-59 0 -99 -38.5t-40 -102.5q0 -66 39 -105
t100 -39q45 0 76.5 21z" />
    <glyph glyph-name="dvK_T_RA" horiz-adv-x="1443" 
d="M1466 652h-122v-652h-101v243l-246 -243h-136v5l376 347q-21 41 -63 66.5t-96 25.5q-71 0 -117.5 -43t-46.5 -119h-105v7q-1 83 -37 127.5t-93 44.5q-64 0 -96.5 -44t-32.5 -105v-312h-101v183q-23 -43 -67 -69t-106 -26t-110 29t-74.5 81.5t-26.5 122.5q0 69 27 121
t76 80.5t112 28.5q60 0 103 -25t66 -67v193h-473v88h1490v-88zM1241 652h-691v-193q21 42 61 67t97 25q51 0 92.5 -25.5t66.5 -72.5q33 36 80 55t105 19q65 0 112.5 -25.5t76.5 -64.5v215zM386.5 197q31.5 21 47 54t15.5 68q0 57 -36 99.5t-103 42.5q-59 0 -99 -38.5
t-40 -102.5q0 -66 39 -105t100 -39q45 0 76.5 21z" />
    <glyph glyph-name="dvK_T_VA" horiz-adv-x="1781" 
d="M1805 652h-122v-652h-102v181q-26 -44 -71.5 -69.5t-108.5 -25.5q-68 0 -119.5 30t-79.5 84t-28 124q0 45 12 82h-111q-86 0 -135 -41t-49 -119q0 -76 43.5 -118.5t125.5 -42.5h21v-83h-36q-118 0 -189 62.5t-71 183.5v17v0q1 10 1 29q0 82 -30 123t-84 41
q-63 0 -92.5 -42.5t-29.5 -103.5v-312h-101v183q-23 -43 -67 -69t-106 -26t-110 29t-74.5 81.5t-26.5 122.5q0 69 27 121t76 80.5t112 28.5q60 0 103 -25t66 -67v193h-473v88h1829v-88zM1242 496q31 28 71.5 43.5t87.5 15.5q62 0 108 -25t72 -69v191h-1031v-191
q21 38 57.5 60t88.5 22q54 0 93.5 -32t55.5 -94q38 40 96 59.5t129 19.5h172zM1512.5 192q34.5 22 51.5 56t17 71v1q0 38 -17 72.5t-51.5 56t-84.5 21.5q-65 0 -108 -41t-43 -108q0 -69 42.5 -110t108.5 -41q50 0 84.5 22zM386.5 197q31.5 21 47 54t15.5 68q0 57 -36 99.5
t-103 42.5q-59 0 -99 -38.5t-40 -102.5q0 -66 39 -105t100 -39q45 0 76.5 21z" />
    </font>
</defs>
</svg>
