<?xml version="1.0" standalone="no"?>
<!DOCTYPE svg PUBLIC "-//W3C//DTD SVG 1.1//EN" "http://www.w3.org/Graphics/SVG/1.1/DTD/svg11.dtd" >
<svg>
<metadata>
Created by FontForge 20120731 at Thu Aug 22 18:11:59 2019
 By www
Copyright(c) 2007 Linotype GmbH, www.linotype.com. All rights reserved.
</metadata>
<defs>
<font id="Avenir-Heavy" horiz-adv-x="574" >
  <font-face 
    font-family="Avenir Heavy"
    font-weight="900"
    font-stretch="normal"
    units-per-em="1000"
    panose-1="2 11 7 3 2 2 3 2 2 4"
    ascent="800"
    descent="-200"
    x-height="480"
    cap-height="708"
    bbox="-450 -433 1425 1126"
    underline-thickness="50"
    underline-position="-100"
    unicode-range="U+000D-FE48"
  />
<missing-glyph horiz-adv-x="512" 
d="M222 117v67h56v-67h-56zM225 234l-2 17q0 56 13 81q7 13 18 27.5t28 31.5q32 30 41 47.5t9 35.5q0 36 -22.5 60.5t-53.5 24.5t-53.5 -22t-28.5 -73l-50 8q7 72 44 104.5t91 32.5t89 -35.5t35 -95.5q0 -32 -12.5 -58.5t-50.5 -61.5q-37 -33 -43 -52q-6 -20 -6 -72h-46z
M462 50v617h-412v-617h412zM512 718v-718h-512v718h512z" />
    <glyph glyph-name="IJ" unicode="IJ" horiz-adv-x="767" 
d="M76 708h126v-708h-126v708zM693 196q0 -42 -13.5 -81t-40 -68.5t-66.5 -47t-93 -17.5q-84 0 -137.5 39t-70.5 124l118 28q6 -35 28.5 -56t55.5 -21q54 0 73.5 36.5t19.5 100.5v475h126v-512z" />
    <glyph glyph-name="ij" unicode="ij" horiz-adv-x="484" 
d="M70 480h120v-480h-120v480zM53 643q0 29 21.5 50.5t54.5 21.5t55.5 -20.5t22.5 -51.5t-22.5 -51.5t-55.5 -20.5t-54.5 21.5t-21.5 50.5zM414 480v-509q0 -45 -6 -83.5t-23.5 -67t-49.5 -44.5t-83 -16q-17 0 -33 2t-32 7l9 104q10 -2 19 -3.5t19 -1.5q22 0 34.5 9.5
t18 24.5t6.5 33t1 35v510h120zM277 643q0 29 21.5 50.5t54.5 21.5t55.5 -20.5t22.5 -51.5t-22.5 -51.5t-55.5 -20.5t-54.5 21.5t-21.5 50.5z" />
    <glyph glyph-name="napostrophe" unicode="&#x22;n" 
d="M68 480h114v-77h2q17 36 52 62.5t95 26.5q48 0 81.5 -16t54.5 -42t30 -60t9 -71v-303h-120v243q0 20 -2 44.5t-10.5 46t-26.5 36t-49 14.5q-30 0 -50.5 -10t-34 -27t-19.5 -39t-6 -46v-262h-120v480zM-2 708h122l-85 -198h-97z" />
    <glyph glyph-name="fi" unicode="fi" horiz-adv-x="593" 
d="M111 378h-99v102h99v68q0 50 7 90.5t26.5 69.5t54.5 44.5t91 15.5q41 0 76 -7l-8 -102q-13 3 -25 5t-25 2q-25 0 -40 -8t-23.5 -21.5t-11 -31.5t-2.5 -38v-87h111v-102h-111v-378h-120v378zM420 480h120v-480h-120v480zM404 643q0 29 21.5 50.5t54.5 21.5t55.5 -20.5
t22.5 -51.5t-22.5 -51.5t-55.5 -20.5t-54.5 21.5t-21.5 50.5z" />
    <glyph glyph-name="fl" unicode="fl" horiz-adv-x="593" 
d="M111 378h-99v102h99v68q0 50 7 90.5t26.5 69.5t54.5 44.5t91 15.5q41 0 76 -7l-8 -102q-13 3 -25 5t-25 2q-25 0 -40 -8t-23.5 -21.5t-11 -31.5t-2.5 -38v-87h111v-102h-111v-378h-120v378zM420 756h120v-756h-120v756z" />
    <glyph glyph-name=".notdef" horiz-adv-x="512" 
d="M222 117v67h56v-67h-56zM225 234l-2 17q0 56 13 81q7 13 18 27.5t28 31.5q32 30 41 47.5t9 35.5q0 36 -22.5 60.5t-53.5 24.5t-53.5 -22t-28.5 -73l-50 8q7 72 44 104.5t91 32.5t89 -35.5t35 -95.5q0 -32 -12.5 -58.5t-50.5 -61.5q-37 -33 -43 -52q-6 -20 -6 -72h-46z
M462 50v617h-412v-617h412zM512 718v-718h-512v718h512z" />
    <glyph glyph-name=".null" horiz-adv-x="0" 
 />
    <glyph glyph-name="nonmarkingreturn" unicode="&#xd;" horiz-adv-x="0" 
 />
    <glyph glyph-name="space" unicode=" " horiz-adv-x="296" 
 />
    <glyph glyph-name="exclam" unicode="!" horiz-adv-x="296" 
d="M208 222h-120v486h120v-486zM68 70q0 32 23.5 55t56.5 23q32 0 56 -22t24 -54t-23.5 -55t-56.5 -23q-16 0 -30.5 6t-25.5 16t-17.5 24t-6.5 30z" />
    <glyph glyph-name="quotedbl" unicode="&#x22;" horiz-adv-x="519" 
d="M120 708h102v-264h-102v264zM297 708h102v-264h-102v264z" />
    <glyph glyph-name="numbersign" unicode="#" horiz-adv-x="592" 
d="M137 209h-90v84h101l18 122h-90v84h101l30 209h88l-30 -209h103l30 209h87l-30 -209h90v-84h-102l-17 -122h90v-84h-100l-31 -209h-87l30 209h-104l-30 -209h-87zM253 415l-17 -122h103l17 122h-103z" />
    <glyph glyph-name="dollar" unicode="$" horiz-adv-x="592" 
d="M318 720h9q51 0 104.5 -17.5t91.5 -51.5l-83 -93q-23 25 -55 39.5t-67 14.5v-200l4 -1q42 -11 82.5 -25t72 -36.5t51 -56.5t19.5 -85q0 -50 -18 -88.5t-49 -66t-72.5 -43.5t-89.5 -21v-72h-54v71q-66 -1 -126.5 20t-106.5 69l91 93q24 -34 62 -52t80 -22v211l-5 1
q-42 12 -80 26.5t-67.5 38t-46.5 57t-17 83.5q0 45 18 81t48 62.5t69 42.5t81 20v67h54v-66zM264 610q-35 -6 -62.5 -29.5t-27.5 -61.5q0 -23 7.5 -37t19.5 -24t28.5 -16.5t34.5 -14.5v183zM318 96q21 4 39.5 12.5t32.5 21t22.5 30t8.5 39.5t-9.5 37t-24.5 25t-33 17t-36 13
v-195z" />
    <glyph glyph-name="percent" unicode="%" horiz-adv-x="907" 
d="M505 174q0 39 14.5 72.5t40 59t59 40t72.5 14.5t72.5 -14.5t59 -40t40 -59t14.5 -72.5t-14.5 -72.5t-40 -59t-59 -40t-72.5 -14.5t-72.5 14.5t-59 40t-40 59t-14.5 72.5zM781 174q0 38 -26 64t-64 26t-64 -26t-26 -64t26 -64t64 -26t64 26t26 64zM30 534q0 39 14.5 72.5
t40 59t59 40t72.5 14.5t72.5 -14.5t59 -40t40 -59t14.5 -72.5t-14.5 -72.5t-40 -59t-59 -40t-72.5 -14.5t-72.5 14.5t-59 40t-40 59t-14.5 72.5zM306 534q0 38 -26 64t-64 26t-64 -26t-26 -64t26 -64t64 -26t64 26t26 64zM621 740l83 -38l-416 -734l-83 38z" />
    <glyph glyph-name="ampersand" unicode="&#x26;" horiz-adv-x="741" 
d="M574 167l153 -167h-155l-75 81q-43 -51 -92 -75t-117 -24q-47 0 -90.5 13.5t-76.5 40t-53 65t-20 89.5q0 36 12 66.5t32.5 56t48.5 45t60 31.5q-17 19 -31.5 37t-25.5 37t-17.5 41t-6.5 48q0 43 16.5 76t44.5 54.5t65 32.5t77 11t76 -10t63.5 -30.5t44 -52.5t16.5 -75
q0 -33 -12 -60.5t-32 -50t-45.5 -41t-51.5 -31.5l114 -123l79 120h141zM325 618q-35 0 -60 -19.5t-25 -51.5q0 -14 6 -27.5t16 -27t21.5 -25.5t23.5 -23q15 8 32 18.5t31.5 24t23.5 29.5t9 36q0 29 -23 47.5t-55 18.5zM277 318q-18 -11 -35 -22.5t-31 -25.5t-22.5 -32
t-8.5 -41t9 -43t24.5 -34t35.5 -22t43 -8q41 0 72 22t58 48z" />
    <glyph glyph-name="quotesingle" unicode="'" horiz-adv-x="296" 
d="M97 708h102v-264h-102v264z" />
    <glyph glyph-name="parenleft" unicode="(" horiz-adv-x="296" 
d="M279 680l-1 -4q-60 -84 -94 -184.5t-34 -203.5q0 -104 34 -204.5t94 -184.5l-84 -55q-69 95 -107.5 208t-38.5 236q0 122 38.5 235.5t107.5 208.5z" />
    <glyph glyph-name="parenright" unicode=")" horiz-adv-x="296" 
d="M17 -104l1 4q60 84 94 184.5t34 203.5q0 104 -34 204t-94 184l84 56q69 -95 107.5 -208t38.5 -236q0 -122 -38.5 -235.5t-107.5 -208.5z" />
    <glyph glyph-name="asterisk" unicode="*" horiz-adv-x="463" 
d="M274 566l135 44l26 -80l-136 -44l86 -117l-69 -50l-86 118l-84 -115l-67 51l86 113l-137 47l26 80l136 -47v142h84v-142z" />
    <glyph glyph-name="plus" unicode="+" horiz-adv-x="666" 
d="M282 354v220h102v-220h220v-102h-220v-220h-102v220h-220v102h220z" />
    <glyph glyph-name="comma" unicode="," horiz-adv-x="296" 
d="M108 138h122l-85 -264h-107z" />
    <glyph glyph-name="hyphen" unicode="-" horiz-adv-x="315" 
d="M281 195h-247v102h247v-102z" />
    <glyph glyph-name="period" unicode="." horiz-adv-x="296" 
d="M68 70q0 32 23.5 55t56.5 23q32 0 56 -22t24 -54t-23.5 -55t-56.5 -23q-16 0 -30.5 6t-25.5 16t-17.5 24t-6.5 30z" />
    <glyph glyph-name="slash" unicode="/" horiz-adv-x="389" 
d="M74 -48l-83 30l312 776l83 -32z" />
    <glyph glyph-name="zero" unicode="0" horiz-adv-x="592" 
d="M40 354q0 84 13.5 143.5t35.5 100t49.5 65t56 37t55 16.5t46.5 4t46.5 -4t55 -16.5t56 -37t49.5 -65t35.5 -100t13.5 -143.5t-13.5 -143.5t-35.5 -100t-49.5 -65t-56 -37t-55 -16.5t-46.5 -4t-46.5 4t-55 16.5t-56 37t-49.5 65t-35.5 100t-13.5 143.5zM160 354
q0 -33 4.5 -76.5t18.5 -82.5t41 -66t72 -27t72 27t41 66t18.5 82.5t4.5 76.5t-4.5 76.5t-18.5 82.5t-41 66t-72 27t-72 -27t-41 -66t-18.5 -82.5t-4.5 -76.5z" />
    <glyph glyph-name="one" unicode="1" horiz-adv-x="592" 
d="M268 570l-133 -123l-70 83l214 178h109v-708h-120v570z" />
    <glyph glyph-name="two" unicode="2" horiz-adv-x="592" 
d="M59 127l275 266q12 12 25 25.5t23.5 28.5t17.5 31.5t7 34.5q0 22 -8.5 39t-22.5 29t-32.5 18.5t-39.5 6.5q-45 0 -74 -26t-35 -70l-126 10q4 49 23.5 86.5t50.5 62.5t72 38t89 13t89.5 -12.5t72.5 -37t49 -62.5t18 -89q0 -67 -30.5 -115.5t-78.5 -92.5l-219 -203h328
v-108h-474v127z" />
    <glyph glyph-name="three" unicode="3" horiz-adv-x="592" 
d="M222 423h31q26 0 50.5 3t44 13t31.5 29t12 51q0 41 -28 67t-73 26q-36 0 -64.5 -20.5t-41.5 -57.5l-127 34q12 39 34 68t52 47.5t66 27.5t75 9q46 0 87 -12t72 -35.5t49.5 -59t18.5 -82.5q0 -57 -32 -101.5t-89 -58.5v-2q68 -10 103 -58t35 -114q0 -51 -19.5 -90
t-52.5 -65.5t-76.5 -40t-90.5 -13.5q-44 0 -83 9.5t-70.5 29.5t-54.5 51.5t-35 75.5l128 34q11 -44 39 -68t76 -24q24 0 45.5 8t38 22.5t26 35t9.5 45.5q0 34 -14.5 55.5t-37 33t-50.5 15.5t-55 4h-29v108z" />
    <glyph glyph-name="four" unicode="4" horiz-adv-x="592" 
d="M335 144h-301v119l285 445h136v-456h103v-108h-103v-144h-120v144zM335 538h-2l-177 -286h179v286z" />
    <glyph glyph-name="five" unicode="5" horiz-adv-x="592" 
d="M505 600h-285l-3 -141q14 5 35.5 7t40.5 2q52 0 95.5 -16.5t74.5 -47.5t48.5 -74t17.5 -97q0 -57 -19.5 -102.5t-54 -77t-81.5 -48.5t-101 -17q-85 0 -144.5 40t-84.5 122l126 34q12 -38 41 -60t75 -22q27 0 49.5 9t39 25.5t25.5 38.5t9 48q0 37 -13.5 63t-36.5 42.5
t-53 24t-63 7.5q-39 0 -77.5 -9t-70.5 -25l7 382h403v-108z" />
    <glyph glyph-name="six" unicode="6" horiz-adv-x="592" 
d="M437 708l-170 -262l2 -2q11 6 29.5 9t36.5 3q47 0 86 -18t67.5 -49t44 -72t15.5 -87q0 -55 -19 -100t-52.5 -76.5t-80 -48.5t-100.5 -17q-56 0 -102 16.5t-79.5 47.5t-52 76t-18.5 101t18.5 101.5t47.5 92.5l181 285h146zM170 231q0 -27 10 -50.5t27.5 -41t41 -27.5
t50.5 -10t50.5 10t41 27.5t27.5 41t10 50.5t-10 50.5t-27.5 41t-41 27.5t-50.5 10t-50.5 -10t-41 -27.5t-27.5 -41t-10 -50.5z" />
    <glyph glyph-name="seven" unicode="7" horiz-adv-x="592" 
d="M42 708h481v-110l-283 -598h-141l289 594h-346v114z" />
    <glyph glyph-name="eight" unicode="8" horiz-adv-x="592" 
d="M296 720q45 0 84.5 -12.5t69 -36t46.5 -58t17 -79.5q0 -57 -26.5 -100t-80.5 -59v-2q25 -5 48.5 -20.5t41.5 -38t28.5 -51.5t10.5 -62q0 -53 -19 -92.5t-51 -66.5t-76 -40.5t-93 -13.5q-50 0 -93.5 13.5t-75.5 40.5t-51 66.5t-19 92.5q0 33 10.5 62t28.5 51.5t41.5 38
t48.5 20.5v2q-54 16 -80.5 59t-26.5 100q0 45 17 79.5t46.5 58t69 36t84.5 12.5zM296 618q-46 0 -71.5 -28t-25.5 -68q0 -42 26 -70.5t71 -28.5q20 0 37.5 7.5t31 21t21 31.5t7.5 39q0 40 -27.5 68t-69.5 28zM296 327q-24 0 -46 -8t-38 -23t-25.5 -35.5t-9.5 -44.5
q0 -51 33.5 -82.5t85.5 -31.5t85.5 31.5t33.5 82.5q0 24 -9.5 44.5t-25.5 35.5t-38 23t-46 8z" />
    <glyph glyph-name="nine" unicode="9" horiz-adv-x="592" 
d="M155 0l170 262l-2 2q-11 -6 -29.5 -9t-36.5 -3q-47 0 -86 18t-67.5 49t-44 72t-15.5 87q0 55 19 100t52.5 76.5t80 48.5t100.5 17q55 0 101.5 -16.5t80 -47.5t52 -76t18.5 -101t-18.5 -101.5t-47.5 -92.5l-181 -285h-146zM422 477q0 27 -10 50.5t-27.5 41t-41 27.5
t-50.5 10t-50.5 -10t-41 -27.5t-27.5 -41t-10 -50.5t10 -50.5t27.5 -41t41 -27.5t50.5 -10t50.5 10t41 27.5t27.5 41t10 50.5z" />
    <glyph glyph-name="colon" unicode=":" horiz-adv-x="296" 
d="M68 70q0 32 23.5 55t56.5 23q32 0 56 -22t24 -54t-23.5 -55t-56.5 -23q-16 0 -30.5 6t-25.5 16t-17.5 24t-6.5 30zM68 409q0 32 23.5 55t56.5 23q32 0 56 -22t24 -54t-23.5 -55t-56.5 -23q-16 0 -30.5 6t-25.5 16t-17.5 24t-6.5 30z" />
    <glyph glyph-name="semicolon" unicode=";" horiz-adv-x="296" 
d="M108 138h122l-85 -264h-107zM68 409q0 32 23.5 55t56.5 23q32 0 56 -22t24 -54t-23.5 -55t-56.5 -23q-16 0 -30.5 6t-25.5 16t-17.5 24t-6.5 30z" />
    <glyph glyph-name="less" unicode="&#x3c;" horiz-adv-x="666" 
d="M80 267v72l506 225v-110l-338 -151l338 -151v-110z" />
    <glyph glyph-name="equal" unicode="=" horiz-adv-x="666" 
d="M604 444v-102h-542v102h542zM604 264v-102h-542v102h542z" />
    <glyph glyph-name="greater" unicode="&#x3e;" horiz-adv-x="666" 
d="M586 339v-72l-506 -225v110l338 151l-338 151v110z" />
    <glyph glyph-name="question" unicode="?" horiz-adv-x="519" 
d="M210 209v55q0 22 2.5 37.5t9 28t17 24t25.5 27.5l77 78q25 25 25 65q0 39 -25.5 63.5t-64.5 24.5q-42 0 -69 -28.5t-31 -69.5l-128 10q6 48 25 85.5t49.5 63.5t70.5 39.5t88 13.5q45 0 83.5 -13t67 -37.5t44.5 -61t16 -83.5q0 -33 -9 -58t-24 -46t-34.5 -40t-41.5 -40
q-14 -13 -24 -23t-16.5 -20.5t-9.5 -24t-3 -32.5v-38h-120zM190 70q0 32 23.5 55t56.5 23q32 0 56 -22t24 -54t-23.5 -55t-56.5 -23q-16 0 -30.5 6t-25.5 16t-17.5 24t-6.5 30z" />
    <glyph glyph-name="at" unicode="@" horiz-adv-x="800" 
d="M401 456q-25 0 -45 -9.5t-33.5 -26t-20.5 -38.5t-7 -47q0 -8 1.5 -23.5t9 -30.5t24.5 -26.5t48 -11.5q28 0 47 11t30 28.5t15.5 39t4.5 42.5q0 40 -18 66t-56 26zM727 133q-54 -74 -134.5 -112.5t-172.5 -38.5q-80 0 -150.5 27.5t-123.5 76.5t-83.5 117.5t-30.5 149.5
q0 80 30 148t82 118t121.5 78.5t148.5 28.5q66 0 129.5 -21.5t113.5 -63.5t80.5 -103.5t30.5 -140.5q0 -53 -12.5 -92t-32 -66t-44 -44t-49 -26t-47 -12.5t-37.5 -3.5q-42 0 -60 17t-19 37h-2q-20 -20 -50 -37t-78 -17q-32 0 -58.5 12.5t-45.5 34.5t-29.5 53t-10.5 68
q0 44 14 84.5t39.5 72t62.5 50t84 18.5q40 0 66.5 -13t41.5 -44h2l8 45h94l-37 -197l-6 -28t-3 -29q0 -18 5.5 -27.5t21.5 -9.5t31.5 8.5t27.5 27t19.5 46.5t7.5 67q0 60 -19.5 105.5t-54 76.5t-82.5 46.5t-105 15.5q-62 0 -113 -21t-87.5 -59t-56.5 -90t-20 -113
q0 -66 22 -118t61.5 -88t93.5 -55.5t117 -19.5q57 0 104.5 16t84.5 45h110z" />
    <glyph glyph-name="A" unicode="A" horiz-adv-x="722" 
d="M308 708h109l305 -708h-144l-66 162h-307l-64 -162h-141zM468 270l-109 288l-111 -288h220z" />
    <glyph glyph-name="B" unicode="B" horiz-adv-x="648" 
d="M79 708h276q40 0 79 -9.5t69.5 -31t49.5 -55.5t19 -82q0 -60 -34 -99t-89 -56v-2q33 -4 61.5 -18.5t48.5 -37t31.5 -52t11.5 -63.5q0 -58 -23 -96.5t-60.5 -62t-86 -33.5t-98.5 -10h-255v708zM205 420h115q63 0 94.5 24.5t31.5 64.5q0 46 -32.5 68.5t-104.5 22.5h-104
v-180zM205 108h116q24 0 51.5 3t50.5 14t38 31.5t15 55.5q0 56 -36.5 78t-113.5 22h-121v-204z" />
    <glyph glyph-name="C" unicode="C" horiz-adv-x="685" 
d="M565 542q-39 42 -75.5 56t-73.5 14q-55 0 -99.5 -19.5t-76.5 -54t-49.5 -80.5t-17.5 -99q0 -57 17.5 -105t49.5 -83t76.5 -55t99.5 -20q43 0 83.5 20.5t75.5 65.5l104 -74q-48 -66 -117 -96t-147 -30q-82 0 -150.5 26.5t-118 75t-77.5 116.5t-28 151q0 85 28 154.5
t77.5 118.5t118 75.5t150.5 26.5q72 0 133.5 -25.5t114.5 -86.5z" />
    <glyph glyph-name="D" unicode="D" horiz-adv-x="759" 
d="M79 708h279q70 0 135 -21.5t115 -65.5t80 -110.5t30 -156.5q0 -91 -34.5 -157.5t-89 -110t-121 -65t-130.5 -21.5h-264v708zM299 114q59 0 111.5 13.5t91.5 42t61.5 74t22.5 110.5q0 64 -20 110t-55.5 74.5t-84 42t-106.5 13.5h-115v-480h94z" />
    <glyph glyph-name="E" unicode="E" horiz-adv-x="611" 
d="M79 708h469v-114h-343v-174h325v-114h-325v-192h361v-114h-487v708z" />
    <glyph glyph-name="F" unicode="F" 
d="M79 708h457v-114h-331v-186h312v-114h-312v-294h-126v708z" />
    <glyph glyph-name="G" unicode="G" horiz-adv-x="778" 
d="M708 52q-131 -70 -293 -70q-82 0 -150.5 26.5t-118 75t-77.5 116.5t-28 151q0 85 28 154.5t77.5 118.5t118 75.5t150.5 26.5q81 0 152 -19.5t127 -69.5l-93 -94q-34 33 -82.5 51t-102.5 18q-55 0 -99.5 -19.5t-76.5 -54t-49.5 -80.5t-17.5 -99q0 -57 17.5 -105t49.5 -83
t76.5 -55t99.5 -20q48 0 90.5 9t75.5 28v167h-145v114h271v-362z" />
    <glyph glyph-name="H" unicode="H" horiz-adv-x="741" 
d="M79 708h126v-282h331v282h126v-708h-126v312h-331v-312h-126v708z" />
    <glyph glyph-name="I" unicode="I" horiz-adv-x="278" 
d="M76 708h126v-708h-126v708z" />
    <glyph glyph-name="J" unicode="J" horiz-adv-x="500" 
d="M426 196q0 -42 -13.5 -81t-40 -68.5t-66.5 -47t-93 -17.5q-84 0 -137.5 39t-70.5 124l118 28q6 -35 28.5 -56t55.5 -21q54 0 73.5 36.5t19.5 100.5v475h126v-512z" />
    <glyph glyph-name="K" unicode="K" horiz-adv-x="685" 
d="M79 708h126v-300h6l293 300h170l-331 -327l353 -381h-177l-307 348h-7v-348h-126v708z" />
    <glyph glyph-name="L" unicode="L" horiz-adv-x="519" 
d="M79 708h126v-594h301v-114h-427v708z" />
    <glyph glyph-name="M" unicode="M" horiz-adv-x="926" 
d="M82 708h192l189 -496l191 496h190v-708h-120v588h-2l-215 -588h-88l-215 588h-2v-588h-120v708z" />
    <glyph glyph-name="N" unicode="N" horiz-adv-x="796" 
d="M79 708h167l343 -526h2v526h126v-708h-160l-350 543h-2v-543h-126v708z" />
    <glyph glyph-name="O" unicode="O" horiz-adv-x="833" 
d="M41 351q0 85 28 154.5t77.5 118.5t118 75.5t150.5 26.5q83 1 152 -24.5t119 -74.5t78 -118t28 -154q0 -83 -28 -151t-78 -117t-119 -76.5t-152 -28.5q-82 0 -150.5 26.5t-118 75t-77.5 116.5t-28 151zM173 359q0 -57 17.5 -105t49.5 -83t76.5 -55t99.5 -20t100 20t77 55
t49.5 83t17.5 105q0 53 -17.5 99t-49.5 80.5t-77 54t-100 19.5t-99.5 -19.5t-76.5 -54t-49.5 -80.5t-17.5 -99z" />
    <glyph glyph-name="P" unicode="P" horiz-adv-x="611" 
d="M79 708h238q51 0 98.5 -10t83.5 -33.5t57.5 -63t21.5 -98.5q0 -67 -23 -108t-62 -63.5t-90.5 -30.5t-107.5 -8h-90v-293h-126v708zM281 401q27 0 56 2t53.5 12t40 30t15.5 56q0 33 -14 52.5t-36 30t-49 13.5t-52 3h-90v-199h76z" />
    <glyph glyph-name="Q" unicode="Q" horiz-adv-x="852" 
d="M839 0h-412q-83 0 -153.5 25.5t-122 73t-81 116t-29.5 154.5q0 78 29.5 143.5t80.5 113t118.5 74t143.5 26.5t143.5 -26.5t118.5 -74t80.5 -113t29.5 -143.5q0 -56 -13.5 -98.5t-35.5 -75t-48.5 -54.5t-51.5 -37v-2h203v-102zM410 612q-51 0 -94.5 -18.5t-75 -51.5
t-49.5 -78t-18 -98q0 -54 18 -100.5t50 -80t75.5 -52.5t95.5 -19t96.5 19t76.5 52.5t50 80t18 100.5q0 53 -18 98t-50 78t-76.5 51.5t-98.5 18.5z" />
    <glyph glyph-name="R" unicode="R" horiz-adv-x="630" 
d="M79 708h246q51 0 98.5 -9.5t84.5 -32.5t59 -62t22 -99q0 -77 -42.5 -129t-121.5 -63l188 -313h-152l-164 300h-92v-300h-126v708zM303 408q27 0 54 2.5t49.5 12t36.5 29t14 54.5q0 31 -13 50t-34 28.5t-46.5 12.5t-49.5 3h-109v-192h98z" />
    <glyph glyph-name="S" unicode="S" 
d="M426 556q-20 29 -53.5 42.5t-70.5 13.5q-22 0 -42.5 -5t-37 -16t-26.5 -28.5t-10 -41.5q0 -36 25 -55t62 -33t81 -27t81 -36t62 -61t25 -101q0 -57 -21 -99.5t-56.5 -70.5t-82.5 -42t-99 -14q-66 0 -127 22t-105 74l95 92q23 -35 60.5 -54.5t79.5 -19.5q22 0 44 6t40 18
t29 30.5t11 42.5q0 39 -25 60t-62 35.5t-81 27.5t-81 35.5t-62 60t-25 100.5q0 55 22.5 95t59 66.5t83.5 39.5t96 13q56 0 108.5 -17t94.5 -56z" />
    <glyph glyph-name="T" unicode="T" 
d="M224 594h-217v114h560v-114h-217v-594h-126v594z" />
    <glyph glyph-name="U" unicode="U" horiz-adv-x="722" 
d="M646 260q0 -64 -22 -115.5t-60 -87.5t-90 -55.5t-113 -19.5t-113 19.5t-90.5 55.5t-60 87.5t-21.5 115.5v448h126v-444q0 -26 8 -54.5t26.5 -52.5t49 -39.5t75.5 -15.5t75.5 15.5t49 39.5t26.5 52.5t8 54.5v444h126v-448z" />
    <glyph glyph-name="V" unicode="V" horiz-adv-x="667" 
d="M-3 708h145l193 -535l199 535h136l-286 -708h-109z" />
    <glyph glyph-name="W" unicode="W" horiz-adv-x="981" 
d="M0 708h138l133 -510h2l159 510h124l156 -510h2l139 510h128l-206 -708h-120l-164 539h-2l-164 -539h-116z" />
    <glyph glyph-name="X" unicode="X" horiz-adv-x="685" 
d="M252 370l-236 338h159l167 -262l165 262h153l-232 -338l257 -370h-160l-187 299l-186 -299h-152z" />
    <glyph glyph-name="Y" unicode="Y" horiz-adv-x="630" 
d="M252 303l-266 405h158l174 -282l176 282h150l-266 -405v-303h-126v303z" />
    <glyph glyph-name="Z" unicode="Z" horiz-adv-x="611" 
d="M35 114l378 480h-372v114h529v-114l-381 -480h387v-114h-541v114z" />
    <glyph glyph-name="bracketleft" unicode="[" horiz-adv-x="278" 
d="M258 654h-90v-732h90v-78h-192v888h192v-78z" />
    <glyph glyph-name="backslash" unicode="\" horiz-adv-x="389" 
d="M86 758l312 -776l-83 -30l-312 774z" />
    <glyph glyph-name="bracketright" unicode="]" horiz-adv-x="278" 
d="M20 -78h90v732h-90v78h192v-888h-192v78z" />
    <glyph glyph-name="asciicircum" unicode="^" horiz-adv-x="666" 
d="M69 343l223 365h82l223 -365h-118l-147 239l-145 -239h-118z" />
    <glyph glyph-name="underscore" unicode="_" horiz-adv-x="500" 
d="M0 -125v50h500v-50h-500z" />
    <glyph glyph-name="grave" unicode="`" horiz-adv-x="260" 
d="M177 564h-94l-141 144h136z" />
    <glyph glyph-name="a" unicode="a" horiz-adv-x="537" 
d="M368 66h-3q-26 -41 -66 -59.5t-88 -18.5q-33 0 -64.5 9t-56 27t-39.5 45t-15 63q0 39 14 66.5t37.5 46t54.5 29.5t64.5 16.5t67.5 7t64 1.5h30v13q0 45 -31 67.5t-79 22.5q-38 0 -71 -13.5t-57 -36.5l-63 63q40 41 93.5 59t110.5 18q51 0 86 -11.5t58 -29.5t35.5 -41.5
t18 -47.5t6.5 -46.5t1 -39.5v-276h-108v66zM361 215h-25q-25 0 -56 -2t-58.5 -9.5t-46.5 -22t-19 -40.5q0 -17 7.5 -28.5t19.5 -19.5t27 -11.5t30 -3.5q62 0 91.5 29.5t29.5 80.5v27z" />
    <glyph glyph-name="b" unicode="b" horiz-adv-x="630" 
d="M68 756h120v-337h3q9 12 23 24.5t34 23.5t46 18t60 7q51 0 94 -19.5t73.5 -53.5t47.5 -80t17 -99t-16 -99t-47 -80t-75 -53.5t-99 -19.5q-51 0 -95 20t-70 64h-2v-72h-114v756zM466 240q0 28 -9.5 54t-28 46t-44.5 32t-59 12t-59 -12t-44.5 -32t-28 -46t-9.5 -54t9.5 -54
t28 -46t44.5 -32t59 -12t59 12t44.5 32t28 46t9.5 54z" />
    <glyph glyph-name="c" unicode="c" horiz-adv-x="482" 
d="M396 336q-21 22 -44 35t-47 13q-33 0 -59 -12t-44.5 -32t-28 -46t-9.5 -54t9.5 -54t28 -46t44.5 -32t59 -12q28 0 52 11.5t41 33.5l80 -86q-18 -18 -41.5 -31t-47.5 -21t-46 -11.5t-38 -3.5q-54 0 -102 18t-83 51t-55.5 79.5t-20.5 103.5t20.5 103.5t55.5 79.5t83 51
t102 18q46 0 92.5 -17.5t81.5 -55.5z" />
    <glyph glyph-name="d" unicode="d" horiz-adv-x="630" 
d="M448 72h-2q-26 -44 -70 -64t-95 -20q-56 0 -99.5 19.5t-74.5 53.5t-47 80t-16 99t17 99t47.5 80t73.5 53.5t94 19.5q34 0 60 -7t46 -18t34 -23.5t23 -24.5h3v337h120v-756h-114v72zM164 240q0 -28 9.5 -54t28 -46t44.5 -32t59 -12t59 12t44.5 32t28 46t9.5 54t-9.5 54
t-28 46t-44.5 32t-59 12t-59 -12t-44.5 -32t-28 -46t-9.5 -54z" />
    <glyph glyph-name="e" unicode="e" 
d="M164 198q6 -54 42 -84t87 -30q45 0 75.5 18.5t53.5 46.5l86 -65q-42 -52 -94 -74t-109 -22q-54 0 -102 18t-83 51t-55.5 79.5t-20.5 103.5t20.5 103.5t55.5 79.5t83 51t102 18q50 0 91.5 -17.5t71 -50.5t46 -81.5t16.5 -111.5v-33h-366zM410 288q-1 53 -33 83.5t-89 30.5
q-54 0 -85.5 -31t-38.5 -83h246z" />
    <glyph glyph-name="f" unicode="f" horiz-adv-x="352" 
d="M111 378h-99v102h99v68q0 50 7 90.5t26.5 69.5t54.5 44.5t91 15.5q41 0 76 -7l-8 -102q-13 3 -25 5t-25 2q-25 0 -40 -8t-23.5 -21.5t-11 -31.5t-2.5 -38v-87h111v-102h-111v-378h-120v378z" />
    <glyph glyph-name="g" unicode="g" horiz-adv-x="630" 
d="M562 480v-437q0 -65 -16 -117.5t-49.5 -89t-84.5 -56.5t-121 -20q-67 0 -127 17t-111 62l72 98q36 -33 75 -51t90 -18q43 0 72.5 12t47 33t25 50.5t7.5 65.5v35h-2q-26 -35 -69 -52.5t-88 -17.5q-54 0 -98 19.5t-75.5 52.5t-48.5 78t-17 96q0 53 16 99t47 80t74.5 53.5
t99.5 19.5q51 0 95 -20t70 -64h2v72h114zM306 384q-32 0 -58 -10.5t-44.5 -29t-29 -45t-10.5 -58.5q0 -29 10.5 -54t29.5 -44t45 -30t56 -11q33 0 59.5 11t45 29.5t28.5 44.5t10 56q0 63 -38 102t-104 39z" />
    <glyph glyph-name="h" unicode="h" 
d="M188 413h2q14 30 49.5 54.5t91.5 24.5q48 0 81.5 -16t54.5 -42t30 -60t9 -71v-303h-120v243q0 20 -2 44.5t-10.5 46t-26.5 36t-49 14.5q-30 0 -50.5 -10t-34 -27t-19.5 -39t-6 -46v-262h-120v756h120v-343z" />
    <glyph glyph-name="i" unicode="i" horiz-adv-x="260" 
d="M70 480h120v-480h-120v480zM53 643q0 29 21.5 50.5t54.5 21.5t55.5 -20.5t22.5 -51.5t-22.5 -51.5t-55.5 -20.5t-54.5 21.5t-21.5 50.5z" />
    <glyph glyph-name="j" unicode="j" horiz-adv-x="260" 
d="M190 480v-509q0 -45 -6 -83.5t-23.5 -67t-49.5 -44.5t-83 -16q-17 0 -33 2t-32 7l9 104q10 -2 19 -3.5t19 -1.5q22 0 34.5 9.5t18 24.5t6.5 33t1 35v510h120zM53 643q0 29 21.5 50.5t54.5 21.5t55.5 -20.5t22.5 -51.5t-22.5 -51.5t-55.5 -20.5t-54.5 21.5t-21.5 50.5z
" />
    <glyph glyph-name="k" unicode="k" horiz-adv-x="537" 
d="M68 756h120v-475l185 199h154l-206 -218l219 -262h-159l-191 245h-2v-245h-120v756z" />
    <glyph glyph-name="l" unicode="l" horiz-adv-x="260" 
d="M70 756h120v-756h-120v756z" />
    <glyph glyph-name="m" unicode="m" horiz-adv-x="870" 
d="M63 480h114v-75h2q16 34 51.5 60.5t95.5 26.5q113 0 150 -89q26 46 65 67.5t93 21.5q48 0 81 -16t53.5 -44t29.5 -65.5t9 -80.5v-286h-120v272q0 22 -4 42.5t-14 36t-27 24.5t-44 9q-28 0 -47.5 -10.5t-32 -28t-18 -40t-5.5 -45.5v-260h-120v286q0 45 -19 71.5t-63 26.5
q-30 0 -50.5 -10t-34 -27t-19.5 -39t-6 -46v-262h-120v480z" />
    <glyph glyph-name="n" unicode="n" 
d="M68 480h114v-77h2q17 36 52 62.5t95 26.5q48 0 81.5 -16t54.5 -42t30 -60t9 -71v-303h-120v243q0 20 -2 44.5t-10.5 46t-26.5 36t-49 14.5q-30 0 -50.5 -10t-34 -27t-19.5 -39t-6 -46v-262h-120v480z" />
    <glyph glyph-name="o" unicode="o" horiz-adv-x="610" 
d="M44 240q0 57 20.5 103.5t55.5 79.5t83 51t102 18t102 -18t83 -51t55.5 -79.5t20.5 -103.5t-20.5 -103.5t-55.5 -79.5t-83 -51t-102 -18t-102 18t-83 51t-55.5 79.5t-20.5 103.5zM164 240q0 -28 9.5 -54t28 -46t44.5 -32t59 -12t59 12t44.5 32t28 46t9.5 54t-9.5 54
t-28 46t-44.5 32t-59 12t-59 -12t-44.5 -32t-28 -46t-9.5 -54z" />
    <glyph glyph-name="p" unicode="p" horiz-adv-x="630" 
d="M68 480h114v-72h2q26 44 70 64t95 20q55 0 99 -19.5t75 -53.5t47 -80t16 -99t-17 -99t-47.5 -80t-73.5 -53.5t-94 -19.5q-34 0 -60 7t-46 18t-34 23.5t-23 24.5h-3v-289h-120v708zM466 240q0 28 -9.5 54t-28 46t-44.5 32t-59 12t-59 -12t-44.5 -32t-28 -46t-9.5 -54
t9.5 -54t28 -46t44.5 -32t59 -12t59 12t44.5 32t28 46t9.5 54z" />
    <glyph glyph-name="q" unicode="q" horiz-adv-x="630" 
d="M562 -228h-120v289h-3q-9 -12 -23 -24.5t-34 -23.5t-46 -18t-60 -7q-51 0 -94 19.5t-73.5 53.5t-47.5 80t-17 99t16 99t47 80t74.5 53.5t99.5 19.5q51 0 95 -20t70 -64h2v72h114v-708zM164 240q0 -28 9.5 -54t28 -46t44.5 -32t59 -12t59 12t44.5 32t28 46t9.5 54t-9.5 54
t-28 46t-44.5 32t-59 12t-59 -12t-44.5 -32t-28 -46t-9.5 -54z" />
    <glyph glyph-name="r" unicode="r" horiz-adv-x="389" 
d="M68 480h120v-76h2q20 42 57 65t85 23q11 0 21.5 -2t21.5 -5v-116q-15 4 -29.5 6.5t-28.5 2.5q-42 0 -67.5 -15.5t-39 -35.5t-18 -40t-4.5 -30v-257h-120v480z" />
    <glyph glyph-name="s" unicode="s" horiz-adv-x="444" 
d="M324 347q-35 49 -94 49q-24 0 -47 -12t-23 -39q0 -22 19 -32t48 -17t62.5 -14.5t62.5 -23t48 -42.5t19 -74q0 -43 -18.5 -72.5t-48 -47.5t-66.5 -26t-74 -8q-56 0 -103 16t-84 58l80 75q23 -26 49.5 -42.5t64.5 -16.5q13 0 27 3t26 10t19.5 17.5t7.5 24.5q0 25 -19 37
t-48 19.5t-62.5 14t-62.5 21t-48 40.5t-19 72q0 40 16.5 69.5t43.5 48.5t62 28t71 9q48 0 95 -16.5t76 -56.5z" />
    <glyph glyph-name="t" unicode="t" horiz-adv-x="389" 
d="M12 378v102h99v139h120v-139h132v-102h-132v-210q0 -36 13.5 -57t53.5 -21q16 0 35 3.5t30 11.5v-101q-19 -9 -46.5 -12.5t-48.5 -3.5q-48 0 -78.5 10.5t-48 32t-24 53.5t-6.5 74v220h-99z" />
    <glyph glyph-name="u" unicode="u" 
d="M506 0h-114v77h-2q-17 -36 -52 -62.5t-95 -26.5q-48 0 -81.5 15.5t-54.5 42t-30 60.5t-9 71v303h120v-243q0 -20 2 -44.5t10.5 -46t26 -36t49.5 -14.5q30 0 50.5 10t34 27t19.5 39t6 46v262h120v-480z" />
    <glyph glyph-name="v" unicode="v" horiz-adv-x="519" 
d="M3 480h131l128 -336h2l129 336h123l-189 -480h-128z" />
    <glyph glyph-name="w" unicode="w" horiz-adv-x="796" 
d="M3 480h130l104 -336h2l97 336h130l104 -336h2l100 336h121l-163 -480h-119l-114 328h-2l-101 -328h-124z" />
    <glyph glyph-name="x" unicode="x" horiz-adv-x="537" 
d="M192 258l-166 222h146l96 -144l104 144h137l-164 -222l193 -258h-146l-125 172l-126 -172h-142z" />
    <glyph glyph-name="y" unicode="y" horiz-adv-x="519" 
d="M3 480h132l134 -333h2l120 333h125l-227 -583q-13 -34 -28.5 -59.5t-36.5 -43t-49.5 -26t-68.5 -8.5q-47 0 -92 12l15 108q14 -5 29.5 -8.5t31.5 -3.5q22 0 37 4t25.5 12.5t17.5 22t15 32.5l23 57z" />
    <glyph glyph-name="z" unicode="z" horiz-adv-x="482" 
d="M34 111l257 271v2h-245v96h390v-109l-260 -275h272v-96h-414v111z" />
    <glyph glyph-name="braceleft" unicode="{" horiz-adv-x="278" 
d="M0 332q10 0 26 3t31 10.5t26 21.5t11 35v198q0 34 14 58.5t34 41t42 24.5t38 8h91v-84h-55q-21 0 -33.5 -7t-19 -17.5t-8 -22.5t-1.5 -23v-188q0 -29 -11 -48t-26.5 -30.5t-32 -16.5t-28.5 -6v-2q12 -1 28.5 -5t32 -15t26.5 -31.5t11 -55.5v-182q0 -11 1.5 -23t8 -22.5
t19 -17.5t33.5 -7h55v-84h-91q-16 0 -38 8t-42 24.5t-34 41t-14 58.5v191q0 24 -11 39t-26 23.5t-31 11.5t-26 3v88z" />
    <glyph glyph-name="bar" unicode="|" horiz-adv-x="222" 
d="M162 750v-1000h-102v1000h102z" />
    <glyph glyph-name="braceright" unicode="}" horiz-adv-x="278" 
d="M278 244q-11 0 -27 -3t-31 -10.5t-25.5 -21.5t-10.5 -35v-198q0 -34 -14 -58.5t-34 -41t-42 -24.5t-38 -8h-91v84h55q21 0 33.5 7t19 17.5t8 22.5t1.5 23v188q0 29 11 48t26.5 30t32 16t28.5 7v2q-12 1 -28.5 5t-32 15t-26.5 31.5t-11 55.5v182q0 11 -1.5 23t-8 22.5
t-19 17.5t-33.5 7h-55v84h91q16 0 38 -8t42 -24.5t34 -41t14 -58.5v-191q0 -24 10.5 -39t25.5 -23.5t31 -11.5t27 -3v-88z" />
    <glyph glyph-name="asciitilde" unicode="~" horiz-adv-x="666" 
d="M565 301q-11 -16 -23.5 -31.5t-27 -27.5t-33 -19.5t-41.5 -7.5q-28 0 -52.5 9.5t-49.5 23.5q-24 14 -52 24.5t-63 10.5q-17 0 -30.5 -6.5t-24 -16t-18 -21.5t-13.5 -24l-36 84q8 16 19 31.5t26 27.5t34 19.5t43 7.5q29 0 58 -9.5t58 -22.5q28 -12 54.5 -24t46.5 -12
q15 0 28 6.5t23.5 16t19.5 21.5l18 24z" />
    <glyph glyph-name="uni00A0" unicode="&#xa0;" horiz-adv-x="296" 
 />
    <glyph glyph-name="exclamdown" unicode="&#xa1;" horiz-adv-x="296" 
d="M88 265h120v-487h-120v487zM228 416q0 -32 -23.5 -55t-56.5 -23q-32 0 -56 22t-24 54t23.5 55t56.5 23q16 0 30.5 -6t25.5 -16t17.5 -24t6.5 -30z" />
    <glyph glyph-name="cent" unicode="&#xa2;" horiz-adv-x="592" 
d="M354 492q48 -2 93.5 -17t76.5 -52l-77 -78q-19 20 -42.5 31.5t-50.5 13.5v-300q28 0 53.5 13t43.5 33l73 -79q-32 -35 -77.5 -51t-92.5 -18v-72h-54v72q-51 4 -92.5 25.5t-70 55t-44 77.5t-15.5 95q0 105 59.5 171t162.5 80v67h54v-67zM300 389q-28 -6 -48 -19.5
t-33.5 -33t-20 -44.5t-6.5 -52q0 -53 27 -94.5t81 -55.5v299z" />
    <glyph glyph-name="sterling" unicode="&#xa3;" horiz-adv-x="592" 
d="M66 96h102v219h-102v84h102v100q0 37 13 76t41 71.5t72 53t106 20.5q54 0 104 -15.5t87 -48.5l-81 -87q-22 20 -48 31.5t-58 11.5q-28 0 -49.5 -10.5t-36.5 -27.5t-22.5 -39t-7.5 -46v-90h162v-84h-162v-219h253v-96h-475v96z" />
    <glyph glyph-name="currency" unicode="&#xa4;" horiz-adv-x="592" 
d="M36 155l49 49q-23 32 -36 70t-13 81q0 42 13 80.5t36 70.5l-49 49l60 59l49 -48q32 23 70 35.5t81 12.5t81 -12.5t70 -35.5l49 48l60 -59l-49 -49q49 -67 49 -151q0 -42 -13 -80.5t-36 -70.5l49 -49l-60 -60l-49 49q-32 -23 -70 -36t-81 -13q-84 0 -151 49l-49 -49z
M150 355q0 -69 39.5 -110.5t106.5 -41.5t106.5 41.5t39.5 110.5t-39.5 110t-106.5 41t-106.5 -41t-39.5 -110z" />
    <glyph glyph-name="yen" unicode="&#xa5;" horiz-adv-x="592" 
d="M236 177h-170v78h170v48l-19 34h-151v78h108l-162 293h135l155 -294l149 294h129l-162 -293h108v-78h-151l-19 -34v-48h170v-78h-170v-177h-120v177z" />
    <glyph glyph-name="brokenbar" unicode="&#xa6;" horiz-adv-x="222" 
d="M162 675v-350h-102v350h102zM162 175v-350h-102v350h102z" />
    <glyph glyph-name="section" unicode="&#xa7;" horiz-adv-x="593" 
d="M398 566q-11 30 -37 47t-58 17q-30 0 -55.5 -16t-25.5 -50q0 -28 22 -46.5t55.5 -34t72.5 -31.5t72.5 -38.5t55.5 -54.5t22 -79q0 -42 -24 -76.5t-61 -51.5q29 -22 45 -52.5t16 -66.5q0 -45 -20 -78.5t-52 -55.5t-72 -32.5t-79 -10.5q-36 0 -69 6.5t-62 20.5t-52.5 37.5
t-38.5 58.5l107 52q11 -38 44 -55.5t70 -17.5q15 0 31.5 3.5t30 11t22 20t8.5 30.5q0 28 -22 46t-55.5 33t-72.5 30.5t-72.5 37t-55.5 52t-22 77.5q0 55 26.5 90t69.5 58q-31 20 -48.5 48t-17.5 66q0 42 18 73t47 51.5t65.5 30.5t73.5 10q29 0 59 -5t57.5 -17t50 -31.5
t36.5 -47.5zM362 194q18 10 32 30t14 40q0 19 -7.5 32t-19 23t-26 17.5t-28.5 15.5l-89 42q-24 -11 -41 -26t-17 -44q0 -18 8 -31.5t20.5 -23t27.5 -17t29 -13.5z" />
    <glyph glyph-name="dieresis" unicode="&#xa8;" horiz-adv-x="260" 
d="M-50 636q0 29 21.5 50.5t54.5 21.5t55.5 -20.5t22.5 -51.5t-22.5 -51.5t-55.5 -20.5t-54.5 21.5t-21.5 50.5zM156 636q0 29 21.5 50.5t54.5 21.5t55.5 -20.5t22.5 -51.5t-22.5 -51.5t-55.5 -20.5t-54.5 21.5t-21.5 50.5z" />
    <glyph glyph-name="copyright" unicode="&#xa9;" horiz-adv-x="800" 
d="M588 297q-5 -38 -21.5 -66.5t-40.5 -48t-53.5 -29.5t-62.5 -10q-47 0 -84 16.5t-62.5 45.5t-39 68t-13.5 84q0 46 13 84.5t37.5 66.5t61.5 43.5t85 15.5q34 0 64 -9t54 -27t40 -45.5t22 -63.5h-94q-7 35 -29 48t-49 13q-58 0 -83.5 -35t-25.5 -89q0 -28 7 -52t20.5 -42
t33.5 -28t46 -10q32 0 55 15.5t25 54.5h94zM28 354q0 77 29.5 144.5t80 118t118 80t144.5 29.5t144.5 -29.5t118 -80t80 -118t29.5 -144.5t-29.5 -144.5t-80 -118t-118 -80t-144.5 -29.5t-144.5 29.5t-118 80t-80 118t-29.5 144.5zM124 354q0 -60 21.5 -112.5t58.5 -91.5
t87.5 -61.5t108.5 -22.5t108.5 22.5t87.5 61.5t58.5 91.5t21.5 112.5t-21.5 112.5t-58.5 91.5t-87.5 61.5t-108.5 22.5t-108.5 -22.5t-87.5 -61.5t-58.5 -91.5t-21.5 -112.5z" />
    <glyph glyph-name="ordfeminine" unicode="&#xaa;" horiz-adv-x="349" 
d="M243 470h-2q-15 -25 -44.5 -35t-58.5 -10q-13 0 -31.5 3.5t-36 13t-30 27t-12.5 44.5q0 35 20 55t49.5 30t64 12.5t64.5 2.5h17v8q0 17 -20 25t-49 8q-25 0 -45 -8.5t-38 -23.5l-43 53q26 23 62 34t76 11q72 0 103.5 -29.5t31.5 -90.5v-169h-78v39zM211 553q-12 0 -29 -1
t-32.5 -5t-26.5 -11t-11 -20q0 -15 15.5 -23t34.5 -8q43 0 60 17.5t17 44.5v6h-28z" />
    <glyph glyph-name="guillemotleft" unicode="&#xab;" horiz-adv-x="519" 
d="M142 248l116 -175l-76 -51l-152 226l152 224l75 -51zM365 248l116 -175l-76 -51l-152 226l152 224l75 -51z" />
    <glyph glyph-name="logicalnot" unicode="&#xac;" horiz-adv-x="666" 
d="M502 342h-440v102h542v-297h-102v195z" />
    <glyph glyph-name="uni00AD" unicode="&#xad;" horiz-adv-x="296" 
 />
    <glyph glyph-name="registered" unicode="&#xae;" horiz-adv-x="800" 
d="M257 553h125q34 0 65.5 -5t56 -17.5t39.5 -35t15 -57.5q0 -26 -8 -47.5t-20.5 -36.5t-28 -24.5t-31.5 -11.5l100 -155h-105l-89 150h-23v-150h-96v390zM352 391h47q9 0 20 1t20.5 5t16 12.5t6.5 23.5t-6.5 23.5t-16 12.5t-20.5 5t-20 1h-47v-84zM28 354q0 77 29.5 144.5
t80 118t118 80t144.5 29.5t144.5 -29.5t118 -80t80 -118t29.5 -144.5t-29.5 -144.5t-80 -118t-118 -80t-144.5 -29.5t-144.5 29.5t-118 80t-80 118t-29.5 144.5zM124 354q0 -60 21.5 -112.5t58.5 -91.5t87.5 -61.5t108.5 -22.5t108.5 22.5t87.5 61.5t58.5 91.5t21.5 112.5
t-21.5 112.5t-58.5 91.5t-87.5 61.5t-108.5 22.5t-108.5 -22.5t-87.5 -61.5t-58.5 -91.5t-21.5 -112.5z" />
    <glyph glyph-name="macron" unicode="&#xaf;" horiz-adv-x="260" 
d="M290 595h-320v78h320v-78z" />
    <glyph glyph-name="degree" unicode="&#xb0;" horiz-adv-x="400" 
d="M40 560q0 33 12.5 62t34.5 51t51 34.5t62 12.5t62 -12.5t51 -34.5t34.5 -51t12.5 -62t-12.5 -62t-34.5 -51t-51 -34.5t-62 -12.5t-62 12.5t-51 34.5t-34.5 51t-12.5 62zM118 560q0 -34 24 -58t58 -24t58 24t24 58t-24 58t-58 24t-58 -24t-24 -58z" />
    <glyph glyph-name="plusminus" unicode="&#xb1;" horiz-adv-x="666" 
d="M283 574h102v-143h219v-102h-219v-143h-102v143h-221v102h221v143zM62 134h542v-102h-542v102z" />
    <glyph glyph-name="twosuperior" unicode="&#xb2;" horiz-adv-x="385" 
d="M31 384l180 152q14 12 27.5 26t13.5 29q0 21 -16.5 30t-39.5 9q-27 0 -43.5 -15.5t-18.5 -38.5l-96 6q5 72 49.5 105t113.5 33q66 0 109.5 -32t43.5 -96q0 -65 -58 -109l-140 -108v-2h198v-84h-323v95z" />
    <glyph glyph-name="threesuperior" unicode="&#xb3;" horiz-adv-x="385" 
d="M146 552h32q13 0 26 1.5t22.5 6.5t15.5 14t6 23q0 16 -14.5 24.5t-38.5 8.5q-23 0 -39.5 -11.5t-21.5 -32.5l-103 20q7 32 23 53.5t37.5 35t48 19.5t55.5 6q30 0 58 -7t49.5 -21t34.5 -35.5t13 -50.5q0 -35 -20.5 -60.5t-58.5 -32.5v-2q42 -5 64.5 -34t22.5 -66
q0 -32 -13.5 -56t-36 -40t-52.5 -24t-64 -8q-62 0 -106.5 27t-58.5 91l103 22q5 -23 20 -36.5t42 -13.5t45.5 11t18.5 37q0 17 -7.5 26.5t-19.5 14t-28 5.5t-32 1h-23v84z" />
    <glyph glyph-name="acute" unicode="&#xb4;" horiz-adv-x="260" 
d="M182 708h136l-141 -144h-94z" />
    <glyph glyph-name="mu" unicode="&#xb5;" 
d="M188 480v-243q0 -20 2 -44.5t10.5 -46t26 -36t49.5 -14.5q30 0 50.5 10t34 27t19.5 39t6 46v262h120v-480h-114v77h-2q-17 -36 -52 -62.5t-95 -26.5q-33 0 -55 7v-223h-120v708h120z" />
    <glyph glyph-name="paragraph" unicode="&#xb6;" horiz-adv-x="600" 
d="M246 338q-49 0 -88.5 13.5t-67.5 38t-43.5 58t-15.5 72.5q0 50 17 86t47.5 58.5t73.5 33t95 10.5h269v-834h-90v762h-107v-762h-90v464z" />
    <glyph glyph-name="periodcentered" unicode="&#xb7;" horiz-adv-x="296" 
d="M68 291q0 32 23.5 55t56.5 23q32 0 56 -22t24 -54t-23.5 -55t-56.5 -23q-16 0 -30.5 6t-25.5 16t-17.5 24t-6.5 30z" />
    <glyph glyph-name="cedilla" unicode="&#xb8;" horiz-adv-x="260" 
d="M177 -60q22 0 43.5 -2t39 -10.5t28 -25t10.5 -45.5q0 -27 -13.5 -46t-33.5 -30t-45 -16t-47 -5q-56 0 -106 28l22 46q38 -20 82 -20q8 0 18 2t18.5 6.5t14.5 13t6 20.5q0 20 -17.5 28t-33.5 8q-10 0 -19 -2t-18 -5l-27 25l62 90h58z" />
    <glyph glyph-name="onesuperior" unicode="&#xb9;" horiz-adv-x="385" 
d="M179 606l-84 -75l-55 66l150 117h91v-425h-102v317z" />
    <glyph glyph-name="ordmasculine" unicode="&#xba;" horiz-adv-x="397" 
d="M197 425q-35 0 -65.5 10.5t-53 30t-35.5 46.5t-12 60q0 33 13 60t35.5 46.5t52.5 30.5t65 11t66 -11t54 -30.5t36 -46.5t13 -60t-13 -60t-36 -46.5t-54 -30t-66 -10.5zM197 497q21 0 37 7t26.5 18t16 24t5.5 26t-5.5 26.5t-16 24.5t-26.5 18t-37 7t-37 -7t-26.5 -18
t-15.5 -24.5t-5 -26.5t5 -26t15.5 -24t26.5 -18t37 -7z" />
    <glyph glyph-name="guillemotright" unicode="&#xbb;" horiz-adv-x="519" 
d="M377 246l-116 175l76 51l152 -226l-152 -224l-75 51zM154 246l-116 175l76 51l152 -226l-152 -224l-75 51z" />
    <glyph glyph-name="onequarter" unicode="&#xbc;" horiz-adv-x="889" 
d="M168 606l-84 -75l-55 66l150 117h91v-425h-102v317zM705 85h-198v78l188 262h112v-256h53v-84h-53v-85h-102v85zM705 303l-1 2l-95 -136h96v134zM600 740l83 -38l-416 -734l-83 38z" />
    <glyph glyph-name="onehalf" unicode="&#xbd;" horiz-adv-x="889" 
d="M171 606l-84 -75l-55 66l150 117h91v-425h-102v317zM535 95l179 152q14 12 27.5 26t13.5 29q0 21 -16.5 30t-39.5 9q-27 0 -43.5 -15.5t-18.5 -38.5l-96 6q5 72 49.5 105t113.5 33q66 0 109.5 -32t43.5 -96q0 -65 -58 -109l-140 -108v-2h198v-84h-322v95zM602 740l83 -38
l-416 -734l-83 38z" />
    <glyph glyph-name="threequarters" unicode="&#xbe;" horiz-adv-x="889" 
d="M715 335h-2l-118 -176v-2h120v178zM142 552h32q13 0 26 1.5t22.5 6.5t15.5 14t6 23q0 16 -14.5 24.5t-38.5 8.5q-23 0 -39.5 -11.5t-21.5 -32.5l-103 20q7 32 23 53.5t37.5 35t48 19.5t55.5 6q30 0 58 -7t49.5 -21t34.5 -35.5t13 -50.5q0 -35 -20.5 -60.5t-58.5 -32.5v-2
q42 -5 64.5 -34t22.5 -66q0 -32 -13.5 -56t-36 -40t-52.5 -24t-64 -8q-62 0 -106.5 27t-58.5 91l103 22q5 -23 20 -36.5t42 -13.5t45.5 11t18.5 37q0 17 -7.5 26.5t-19.5 14t-28 5.5t-32 1h-23v84zM712 85h-198v78l188 262h112v-256h52v-84h-52v-85h-102v85zM627 740l83 -38
l-416 -734l-83 38z" />
    <glyph glyph-name="questiondown" unicode="&#xbf;" horiz-adv-x="519" 
d="M309 277v-55q0 -23 -2.5 -38t-9 -27.5t-17 -24t-25.5 -27.5l-77 -78q-25 -25 -25 -65q0 -39 25.5 -63.5t64.5 -24.5q42 0 69 28.5t31 69.5l128 -10q-6 -48 -25 -85.5t-49.5 -63.5t-70.5 -39.5t-88 -13.5q-45 0 -83.5 12.5t-67 37.5t-44.5 61.5t-16 83.5q0 33 9 58t24 46
t34.5 40t41.5 40q14 13 24 23t16.5 20.5t9.5 23.5t3 33v38h120zM329 416q0 -32 -23.5 -55t-56.5 -23q-32 0 -56 22t-24 54t23.5 55t56.5 23q16 0 30.5 -6t25.5 -16t17.5 -24t6.5 -30z" />
    <glyph glyph-name="Agrave" unicode="&#xc0;" horiz-adv-x="722" 
d="M308 708h109l305 -708h-144l-66 162h-307l-64 -162h-141zM468 270l-109 288l-111 -288h220zM408 756h-94l-141 144h136z" />
    <glyph glyph-name="Aacute" unicode="&#xc1;" horiz-adv-x="722" 
d="M308 708h109l305 -708h-144l-66 162h-307l-64 -162h-141zM468 270l-109 288l-111 -288h220zM413 900h136l-141 -144h-94z" />
    <glyph glyph-name="Acircumflex" unicode="&#xc2;" horiz-adv-x="722" 
d="M308 708h109l305 -708h-144l-66 162h-307l-64 -162h-141zM468 270l-109 288l-111 -288h220zM429 756l-69 90l-69 -90h-112l115 144h135l114 -144h-114z" />
    <glyph glyph-name="Atilde" unicode="&#xc3;" horiz-adv-x="722" 
d="M308 708h109l305 -708h-144l-66 162h-307l-64 -162h-141zM468 270l-109 288l-111 -288h220zM177 760q4 24 11.5 47t20.5 40.5t32.5 28.5t47.5 11q20 0 40.5 -6t39.5 -12.5t35.5 -12.5t28.5 -6q20 0 30.5 12.5t15.5 29.5h66q-4 -24 -11.5 -47t-20.5 -40.5t-32.5 -28.5
t-47.5 -11q-20 0 -40.5 6t-39.5 13t-35.5 13t-28.5 6q-20 0 -30.5 -13t-15.5 -30h-66z" />
    <glyph glyph-name="Adieresis" unicode="&#xc4;" horiz-adv-x="722" 
d="M308 708h109l305 -708h-144l-66 162h-307l-64 -162h-141zM468 270l-109 288l-111 -288h220zM181 828q0 29 21.5 50.5t54.5 21.5t55.5 -20.5t22.5 -51.5t-22.5 -51.5t-55.5 -20.5t-54.5 21.5t-21.5 50.5zM387 828q0 29 21.5 50.5t54.5 21.5t55.5 -20.5t22.5 -51.5
t-22.5 -51.5t-55.5 -20.5t-54.5 21.5t-21.5 50.5z" />
    <glyph glyph-name="Aring" unicode="&#xc5;" horiz-adv-x="722" 
d="M308 708h109l305 -708h-144l-66 162h-307l-64 -162h-141zM468 270l-109 288l-111 -288h220zM466 837q0 -45 -30 -73.5t-75 -28.5t-75 28t-30 73q0 22 8 41t22 32.5t33 21.5t42 8q45 0 75 -28.5t30 -73.5zM418 837q0 23 -17 38.5t-40 15.5t-40 -15.5t-17 -38.5t17 -38.5
t40 -15.5t40 15t17 39z" />
    <glyph glyph-name="AE" unicode="&#xc6;" horiz-adv-x="1000" 
d="M529 186h-268l-114 -186h-153l453 708h496v-114h-288v-174h270v-114h-270v-192h300v-114h-426v186zM529 294v300h-15l-187 -300h202z" />
    <glyph glyph-name="Ccedilla" unicode="&#xc7;" horiz-adv-x="685" 
d="M565 542q-39 42 -75.5 56t-73.5 14q-55 0 -99.5 -19.5t-76.5 -54t-49.5 -80.5t-17.5 -99q0 -57 17.5 -105t49.5 -83t76.5 -55t99.5 -20q43 0 83.5 20.5t75.5 65.5l104 -74q-48 -66 -115 -95.5t-145 -30.5l-29 -42q22 0 43.5 -2t39 -10.5t28 -25t10.5 -45.5
q0 -27 -13.5 -46t-33.5 -30t-45 -16t-47 -5q-56 0 -106 28l22 46q38 -20 82 -20q8 0 18 2t18.5 6.5t14.5 13t6 20.5q0 20 -17.5 28t-33.5 8q-10 0 -19 -2t-18 -5l-27 25l51 75q-72 8 -131 38t-101.5 77.5t-66 111t-23.5 139.5q0 85 28 154.5t77.5 118.5t118 75.5t150.5 26.5
q72 0 133.5 -25.5t114.5 -86.5z" />
    <glyph glyph-name="Egrave" unicode="&#xc8;" horiz-adv-x="611" 
d="M79 708h469v-114h-343v-174h325v-114h-325v-192h361v-114h-487v708zM353 756h-94l-141 144h136z" />
    <glyph glyph-name="Eacute" unicode="&#xc9;" horiz-adv-x="611" 
d="M79 708h469v-114h-343v-174h325v-114h-325v-192h361v-114h-487v708zM358 900h136l-141 -144h-94z" />
    <glyph glyph-name="Ecircumflex" unicode="&#xca;" horiz-adv-x="611" 
d="M79 708h469v-114h-343v-174h325v-114h-325v-192h361v-114h-487v708zM374 756l-69 90l-69 -90h-112l115 144h135l114 -144h-114z" />
    <glyph glyph-name="Edieresis" unicode="&#xcb;" horiz-adv-x="611" 
d="M79 708h469v-114h-343v-174h325v-114h-325v-192h361v-114h-487v708zM126 828q0 29 21.5 50.5t54.5 21.5t55.5 -20.5t22.5 -51.5t-22.5 -51.5t-55.5 -20.5t-54.5 21.5t-21.5 50.5zM332 828q0 29 21.5 50.5t54.5 21.5t55.5 -20.5t22.5 -51.5t-22.5 -51.5t-55.5 -20.5
t-54.5 21.5t-21.5 50.5z" />
    <glyph glyph-name="Igrave" unicode="&#xcc;" horiz-adv-x="278" 
d="M76 708h126v-708h-126v708zM186 756h-94l-141 144h136z" />
    <glyph glyph-name="Iacute" unicode="&#xcd;" horiz-adv-x="278" 
d="M76 708h126v-708h-126v708zM191 900h136l-141 -144h-94z" />
    <glyph glyph-name="Icircumflex" unicode="&#xce;" horiz-adv-x="278" 
d="M76 708h126v-708h-126v708zM207 756l-69 90l-69 -90h-112l115 144h135l114 -144h-114z" />
    <glyph glyph-name="Idieresis" unicode="&#xcf;" horiz-adv-x="278" 
d="M76 708h126v-708h-126v708zM-41 828q0 29 21.5 50.5t54.5 21.5t55.5 -20.5t22.5 -51.5t-22.5 -51.5t-55.5 -20.5t-54.5 21.5t-21.5 50.5zM165 828q0 29 21.5 50.5t54.5 21.5t55.5 -20.5t22.5 -51.5t-22.5 -51.5t-55.5 -20.5t-54.5 21.5t-21.5 50.5z" />
    <glyph glyph-name="Eth" unicode="&#xd0;" horiz-adv-x="759" 
d="M79 324h-66v84h66v300h279q70 0 135 -21.5t115 -65.5t80 -110.5t30 -156.5q0 -91 -34.5 -157.5t-89 -110t-121 -65t-130.5 -21.5h-264v324zM299 114q59 0 111.5 13.5t91.5 42t61.5 74t22.5 110.5q0 64 -20 110t-55.5 74.5t-84 42t-106.5 13.5h-115v-186h216v-84h-216
v-210h94z" />
    <glyph glyph-name="Ntilde" unicode="&#xd1;" horiz-adv-x="796" 
d="M79 708h167l343 -526h2v526h126v-708h-160l-350 543h-2v-543h-126v708zM214 760q4 24 11.5 47t20.5 40.5t32.5 28.5t47.5 11q20 0 40.5 -6t39.5 -12.5t35.5 -12.5t28.5 -6q20 0 30.5 12.5t15.5 29.5h66q-4 -24 -11.5 -47t-20.5 -40.5t-32.5 -28.5t-47.5 -11
q-20 0 -40.5 6t-39.5 13t-35.5 13t-28.5 6q-20 0 -30.5 -13t-15.5 -30h-66z" />
    <glyph glyph-name="Ograve" unicode="&#xd2;" horiz-adv-x="833" 
d="M41 351q0 85 28 154.5t77.5 118.5t118 75.5t150.5 26.5q83 1 152 -24.5t119 -74.5t78 -118t28 -154q0 -83 -28 -151t-78 -117t-119 -76.5t-152 -28.5q-82 0 -150.5 26.5t-118 75t-77.5 116.5t-28 151zM173 359q0 -57 17.5 -105t49.5 -83t76.5 -55t99.5 -20t100 20t77 55
t49.5 83t17.5 105q0 53 -17.5 99t-49.5 80.5t-77 54t-100 19.5t-99.5 -19.5t-76.5 -54t-49.5 -80.5t-17.5 -99zM464 756h-94l-141 144h136z" />
    <glyph glyph-name="Oacute" unicode="&#xd3;" horiz-adv-x="833" 
d="M41 351q0 85 28 154.5t77.5 118.5t118 75.5t150.5 26.5q83 1 152 -24.5t119 -74.5t78 -118t28 -154q0 -83 -28 -151t-78 -117t-119 -76.5t-152 -28.5q-82 0 -150.5 26.5t-118 75t-77.5 116.5t-28 151zM173 359q0 -57 17.5 -105t49.5 -83t76.5 -55t99.5 -20t100 20t77 55
t49.5 83t17.5 105q0 53 -17.5 99t-49.5 80.5t-77 54t-100 19.5t-99.5 -19.5t-76.5 -54t-49.5 -80.5t-17.5 -99zM469 900h136l-141 -144h-94z" />
    <glyph glyph-name="Ocircumflex" unicode="&#xd4;" horiz-adv-x="833" 
d="M41 351q0 85 28 154.5t77.5 118.5t118 75.5t150.5 26.5q83 1 152 -24.5t119 -74.5t78 -118t28 -154q0 -83 -28 -151t-78 -117t-119 -76.5t-152 -28.5q-82 0 -150.5 26.5t-118 75t-77.5 116.5t-28 151zM173 359q0 -57 17.5 -105t49.5 -83t76.5 -55t99.5 -20t100 20t77 55
t49.5 83t17.5 105q0 53 -17.5 99t-49.5 80.5t-77 54t-100 19.5t-99.5 -19.5t-76.5 -54t-49.5 -80.5t-17.5 -99zM485 756l-69 90l-69 -90h-112l115 144h135l114 -144h-114z" />
    <glyph glyph-name="Otilde" unicode="&#xd5;" horiz-adv-x="833" 
d="M41 351q0 85 28 154.5t77.5 118.5t118 75.5t150.5 26.5q83 1 152 -24.5t119 -74.5t78 -118t28 -154q0 -83 -28 -151t-78 -117t-119 -76.5t-152 -28.5q-82 0 -150.5 26.5t-118 75t-77.5 116.5t-28 151zM173 359q0 -57 17.5 -105t49.5 -83t76.5 -55t99.5 -20t100 20t77 55
t49.5 83t17.5 105q0 53 -17.5 99t-49.5 80.5t-77 54t-100 19.5t-99.5 -19.5t-76.5 -54t-49.5 -80.5t-17.5 -99zM233 760q4 24 11.5 47t20.5 40.5t32.5 28.5t47.5 11q20 0 40.5 -6t39.5 -12.5t35.5 -12.5t28.5 -6q20 0 30.5 12.5t15.5 29.5h66q-4 -24 -11.5 -47t-20.5 -40.5
t-32.5 -28.5t-47.5 -11q-20 0 -40.5 6t-39.5 13t-35.5 13t-28.5 6q-20 0 -30.5 -13t-15.5 -30h-66z" />
    <glyph glyph-name="Odieresis" unicode="&#xd6;" horiz-adv-x="833" 
d="M41 351q0 85 28 154.5t77.5 118.5t118 75.5t150.5 26.5q83 1 152 -24.5t119 -74.5t78 -118t28 -154q0 -83 -28 -151t-78 -117t-119 -76.5t-152 -28.5q-82 0 -150.5 26.5t-118 75t-77.5 116.5t-28 151zM173 359q0 -57 17.5 -105t49.5 -83t76.5 -55t99.5 -20t100 20t77 55
t49.5 83t17.5 105q0 53 -17.5 99t-49.5 80.5t-77 54t-100 19.5t-99.5 -19.5t-76.5 -54t-49.5 -80.5t-17.5 -99zM237 828q0 29 21.5 50.5t54.5 21.5t55.5 -20.5t22.5 -51.5t-22.5 -51.5t-55.5 -20.5t-54.5 21.5t-21.5 50.5zM443 828q0 29 21.5 50.5t54.5 21.5t55.5 -20.5
t22.5 -51.5t-22.5 -51.5t-55.5 -20.5t-54.5 21.5t-21.5 50.5z" />
    <glyph glyph-name="multiply" unicode="&#xd7;" horiz-adv-x="666" 
d="M333 374l182 182l70 -70l-181 -181l185 -186l-74 -74l-183 181l-181 -181l-74 73l185 182l-184 186l72 71z" />
    <glyph glyph-name="Oslash" unicode="&#xd8;" horiz-adv-x="833" 
d="M559 567q-62 45 -143 45q-55 0 -99.5 -19.5t-76.5 -54t-49.5 -80.5t-17.5 -99q0 -47 12 -88t34 -74zM264 148q31 -25 69 -38.5t83 -13.5q55 0 100 20t77 55t49.5 83t17.5 105q0 97 -54 162zM781 712l-86 -94q47 -49 72 -115.5t25 -147.5q0 -83 -28 -151t-78 -117
t-119 -76.5t-152 -28.5q-69 0 -129 19.5t-107 54.5l-85 -92l-50 43l87 94q-43 48 -66.5 111t-23.5 139q0 85 28 154.5t77.5 118.5t118 75.5t150.5 26.5q67 2 124.5 -15.5t105.5 -49.5l87 94z" />
    <glyph glyph-name="Ugrave" unicode="&#xd9;" horiz-adv-x="722" 
d="M646 260q0 -64 -22 -115.5t-60 -87.5t-90 -55.5t-113 -19.5t-113 19.5t-90.5 55.5t-60 87.5t-21.5 115.5v448h126v-444q0 -26 8 -54.5t26.5 -52.5t49 -39.5t75.5 -15.5t75.5 15.5t49 39.5t26.5 52.5t8 54.5v444h126v-448zM408 756h-94l-141 144h136z" />
    <glyph glyph-name="Uacute" unicode="&#xda;" horiz-adv-x="722" 
d="M646 260q0 -64 -22 -115.5t-60 -87.5t-90 -55.5t-113 -19.5t-113 19.5t-90.5 55.5t-60 87.5t-21.5 115.5v448h126v-444q0 -26 8 -54.5t26.5 -52.5t49 -39.5t75.5 -15.5t75.5 15.5t49 39.5t26.5 52.5t8 54.5v444h126v-448zM413 900h136l-141 -144h-94z" />
    <glyph glyph-name="Ucircumflex" unicode="&#xdb;" horiz-adv-x="722" 
d="M646 260q0 -64 -22 -115.5t-60 -87.5t-90 -55.5t-113 -19.5t-113 19.5t-90.5 55.5t-60 87.5t-21.5 115.5v448h126v-444q0 -26 8 -54.5t26.5 -52.5t49 -39.5t75.5 -15.5t75.5 15.5t49 39.5t26.5 52.5t8 54.5v444h126v-448zM429 756l-69 90l-69 -90h-112l115 144h135
l114 -144h-114z" />
    <glyph glyph-name="Udieresis" unicode="&#xdc;" horiz-adv-x="722" 
d="M646 260q0 -64 -22 -115.5t-60 -87.5t-90 -55.5t-113 -19.5t-113 19.5t-90.5 55.5t-60 87.5t-21.5 115.5v448h126v-444q0 -26 8 -54.5t26.5 -52.5t49 -39.5t75.5 -15.5t75.5 15.5t49 39.5t26.5 52.5t8 54.5v444h126v-448zM181 828q0 29 21.5 50.5t54.5 21.5t55.5 -20.5
t22.5 -51.5t-22.5 -51.5t-55.5 -20.5t-54.5 21.5t-21.5 50.5zM387 828q0 29 21.5 50.5t54.5 21.5t55.5 -20.5t22.5 -51.5t-22.5 -51.5t-55.5 -20.5t-54.5 21.5t-21.5 50.5z" />
    <glyph glyph-name="Yacute" unicode="&#xdd;" horiz-adv-x="630" 
d="M252 303l-266 405h158l174 -282l176 282h150l-266 -405v-303h-126v303zM367 900h136l-141 -144h-94z" />
    <glyph glyph-name="Thorn" unicode="&#xde;" horiz-adv-x="611" 
d="M79 708h126v-137h112q51 0 98.5 -10t83.5 -33.5t57.5 -63t21.5 -98.5q0 -67 -23 -108t-62 -63.5t-90.5 -30.5t-107.5 -8h-90v-156h-126v708zM281 264q27 0 56 2t53.5 12t40 30t15.5 56q0 33 -14 52.5t-36 30t-49 13.5t-52 3h-90v-199h76z" />
    <glyph glyph-name="germandbls" unicode="&#xdf;" horiz-adv-x="611" 
d="M56 511q0 136 59.5 196.5t180.5 60.5q43 0 82.5 -11.5t69.5 -35t47.5 -58t17.5 -80.5q0 -55 -27.5 -96t-78.5 -62v-2q40 -5 70 -23t50 -45.5t30 -62.5t10 -74q0 -51 -17.5 -93.5t-48.5 -73t-74.5 -47t-94.5 -16.5q-21 0 -42 2.5t-42 8.5v101q14 -6 27 -8t28 -2
q63 0 103.5 37t40.5 101q0 71 -42.5 107t-109.5 36h-14v102h8q45 0 74.5 24.5t29.5 69.5q0 42 -29.5 67.5t-71.5 25.5q-60 0 -88 -34.5t-28 -86.5v-539h-120v511z" />
    <glyph glyph-name="agrave" unicode="&#xe0;" horiz-adv-x="537" 
d="M368 66h-3q-26 -41 -66 -59.5t-88 -18.5q-33 0 -64.5 9t-56 27t-39.5 45t-15 63q0 39 14 66.5t37.5 46t54.5 29.5t64.5 16.5t67.5 7t64 1.5h30v13q0 45 -31 67.5t-79 22.5q-38 0 -71 -13.5t-57 -36.5l-63 63q40 41 93.5 59t110.5 18q51 0 86 -11.5t58 -29.5t35.5 -41.5
t18 -47.5t6.5 -46.5t1 -39.5v-276h-108v66zM361 215h-25q-25 0 -56 -2t-58.5 -9.5t-46.5 -22t-19 -40.5q0 -17 7.5 -28.5t19.5 -19.5t27 -11.5t30 -3.5q62 0 91.5 29.5t29.5 80.5v27zM316 564h-94l-141 144h136z" />
    <glyph glyph-name="aacute" unicode="&#xe1;" horiz-adv-x="537" 
d="M368 66h-3q-26 -41 -66 -59.5t-88 -18.5q-33 0 -64.5 9t-56 27t-39.5 45t-15 63q0 39 14 66.5t37.5 46t54.5 29.5t64.5 16.5t67.5 7t64 1.5h30v13q0 45 -31 67.5t-79 22.5q-38 0 -71 -13.5t-57 -36.5l-63 63q40 41 93.5 59t110.5 18q51 0 86 -11.5t58 -29.5t35.5 -41.5
t18 -47.5t6.5 -46.5t1 -39.5v-276h-108v66zM361 215h-25q-25 0 -56 -2t-58.5 -9.5t-46.5 -22t-19 -40.5q0 -17 7.5 -28.5t19.5 -19.5t27 -11.5t30 -3.5q62 0 91.5 29.5t29.5 80.5v27zM321 708h136l-141 -144h-94z" />
    <glyph glyph-name="acircumflex" unicode="&#xe2;" horiz-adv-x="537" 
d="M368 66h-3q-26 -41 -66 -59.5t-88 -18.5q-33 0 -64.5 9t-56 27t-39.5 45t-15 63q0 39 14 66.5t37.5 46t54.5 29.5t64.5 16.5t67.5 7t64 1.5h30v13q0 45 -31 67.5t-79 22.5q-38 0 -71 -13.5t-57 -36.5l-63 63q40 41 93.5 59t110.5 18q51 0 86 -11.5t58 -29.5t35.5 -41.5
t18 -47.5t6.5 -46.5t1 -39.5v-276h-108v66zM361 215h-25q-25 0 -56 -2t-58.5 -9.5t-46.5 -22t-19 -40.5q0 -17 7.5 -28.5t19.5 -19.5t27 -11.5t30 -3.5q62 0 91.5 29.5t29.5 80.5v27zM337 564l-69 90l-69 -90h-112l115 144h135l114 -144h-114z" />
    <glyph glyph-name="atilde" unicode="&#xe3;" horiz-adv-x="537" 
d="M368 66h-3q-26 -41 -66 -59.5t-88 -18.5q-33 0 -64.5 9t-56 27t-39.5 45t-15 63q0 39 14 66.5t37.5 46t54.5 29.5t64.5 16.5t67.5 7t64 1.5h30v13q0 45 -31 67.5t-79 22.5q-38 0 -71 -13.5t-57 -36.5l-63 63q40 41 93.5 59t110.5 18q51 0 86 -11.5t58 -29.5t35.5 -41.5
t18 -47.5t6.5 -46.5t1 -39.5v-276h-108v66zM361 215h-25q-25 0 -56 -2t-58.5 -9.5t-46.5 -22t-19 -40.5q0 -17 7.5 -28.5t19.5 -19.5t27 -11.5t30 -3.5q62 0 91.5 29.5t29.5 80.5v27zM85 568q4 24 11.5 47t20.5 40.5t32.5 28.5t47.5 11q20 0 40.5 -6t39.5 -12.5t35.5 -12.5
t28.5 -6q20 0 30.5 12.5t15.5 29.5h66q-4 -24 -11.5 -47t-20.5 -40.5t-32.5 -28.5t-47.5 -11q-20 0 -40.5 6t-39.5 13t-35.5 13t-28.5 6q-20 0 -30.5 -13t-15.5 -30h-66z" />
    <glyph glyph-name="adieresis" unicode="&#xe4;" horiz-adv-x="537" 
d="M368 66h-3q-26 -41 -66 -59.5t-88 -18.5q-33 0 -64.5 9t-56 27t-39.5 45t-15 63q0 39 14 66.5t37.5 46t54.5 29.5t64.5 16.5t67.5 7t64 1.5h30v13q0 45 -31 67.5t-79 22.5q-38 0 -71 -13.5t-57 -36.5l-63 63q40 41 93.5 59t110.5 18q51 0 86 -11.5t58 -29.5t35.5 -41.5
t18 -47.5t6.5 -46.5t1 -39.5v-276h-108v66zM361 215h-25q-25 0 -56 -2t-58.5 -9.5t-46.5 -22t-19 -40.5q0 -17 7.5 -28.5t19.5 -19.5t27 -11.5t30 -3.5q62 0 91.5 29.5t29.5 80.5v27zM89 636q0 29 21.5 50.5t54.5 21.5t55.5 -20.5t22.5 -51.5t-22.5 -51.5t-55.5 -20.5
t-54.5 21.5t-21.5 50.5zM295 636q0 29 21.5 50.5t54.5 21.5t55.5 -20.5t22.5 -51.5t-22.5 -51.5t-55.5 -20.5t-54.5 21.5t-21.5 50.5z" />
    <glyph glyph-name="aring" unicode="&#xe5;" horiz-adv-x="537" 
d="M368 66h-3q-26 -41 -66 -59.5t-88 -18.5q-33 0 -64.5 9t-56 27t-39.5 45t-15 63q0 39 14 66.5t37.5 46t54.5 29.5t64.5 16.5t67.5 7t64 1.5h30v13q0 45 -31 67.5t-79 22.5q-38 0 -71 -13.5t-57 -36.5l-63 63q40 41 93.5 59t110.5 18q51 0 86 -11.5t58 -29.5t35.5 -41.5
t18 -47.5t6.5 -46.5t1 -39.5v-276h-108v66zM361 215h-25q-25 0 -56 -2t-58.5 -9.5t-46.5 -22t-19 -40.5q0 -17 7.5 -28.5t19.5 -19.5t27 -11.5t30 -3.5q62 0 91.5 29.5t29.5 80.5v27zM374 655q0 -45 -30 -73.5t-75 -28.5t-75 28.5t-30 72.5q0 22 8 41t22 32.5t33 21.5t42 8
q45 0 75 -28.5t30 -73.5zM326 655q0 23 -17 38.5t-40 15.5t-40 -15.5t-17 -38.5t17 -38.5t40 -15.5t40 15t17 39z" />
    <glyph glyph-name="ae" unicode="&#xe6;" horiz-adv-x="852" 
d="M816 204h-350q-1 -29 10 -52.5t28.5 -40t38.5 -25t40 -8.5q45 0 75 18.5t53 46.5l83 -59q-40 -51 -92.5 -73.5t-118.5 -22.5q-61 0 -107 25t-72 61q-32 -49 -82.5 -67t-110.5 -18q-32 0 -63.5 8.5t-56 26t-40 44.5t-15.5 65q0 85 60.5 120t171.5 35h98q0 53 -27 84
t-81 31q-38 0 -71 -13.5t-57 -36.5l-63 63q40 41 93.5 59t110.5 18q42 2 86 -15.5t73 -55.5q29 32 66 51.5t89 18.5q58 0 101.5 -20t72.5 -54.5t43 -81t14 -99.5v-33zM239 79q30 0 54 10t40 25.5t24.5 36t8.5 41.5v12h-60q-25 0 -51.5 -2.5t-48.5 -9t-36 -19t-14 -32.5
q0 -17 8.5 -29t21 -19.5t27 -10.5t26.5 -3zM700 288q-3 51 -33 82.5t-83 31.5q-50 0 -81.5 -32t-34.5 -82h232z" />
    <glyph glyph-name="ccedilla" unicode="&#xe7;" horiz-adv-x="482" 
d="M396 336q-21 22 -44 35t-47 13q-33 0 -59 -12t-44.5 -32t-28 -46t-9.5 -54t9.5 -54t28 -46t44.5 -32t59 -12q28 0 52 11.5t41 33.5l80 -86q-18 -18 -41 -30.5t-46.5 -21t-45.5 -12t-38 -3.5l-34 -48q22 0 43.5 -2t39 -10.5t28 -25t10.5 -45.5q0 -27 -13.5 -46t-33.5 -30
t-45 -16t-47 -5q-56 0 -106 28l22 46q38 -20 82 -20q8 0 18 2t18.5 6.5t14.5 13t6 20.5q0 20 -17.5 28t-33.5 8q-10 0 -19 -2t-18 -5l-27 25l57 83q-45 8 -83 29t-65.5 53t-43.5 73.5t-16 91.5q0 57 20.5 103.5t55.5 79.5t83 51t102 18q46 0 92.5 -17.5t81.5 -55.5z" />
    <glyph glyph-name="egrave" unicode="&#xe8;" 
d="M164 198q6 -54 42 -84t87 -30q45 0 75.5 18.5t53.5 46.5l86 -65q-42 -52 -94 -74t-109 -22q-54 0 -102 18t-83 51t-55.5 79.5t-20.5 103.5t20.5 103.5t55.5 79.5t83 51t102 18q50 0 91.5 -17.5t71 -50.5t46 -81.5t16.5 -111.5v-33h-366zM410 288q-1 53 -33 83.5t-89 30.5
q-54 0 -85.5 -31t-38.5 -83h246zM334 564h-94l-141 144h136z" />
    <glyph glyph-name="eacute" unicode="&#xe9;" 
d="M164 198q6 -54 42 -84t87 -30q45 0 75.5 18.5t53.5 46.5l86 -65q-42 -52 -94 -74t-109 -22q-54 0 -102 18t-83 51t-55.5 79.5t-20.5 103.5t20.5 103.5t55.5 79.5t83 51t102 18q50 0 91.5 -17.5t71 -50.5t46 -81.5t16.5 -111.5v-33h-366zM410 288q-1 53 -33 83.5t-89 30.5
q-54 0 -85.5 -31t-38.5 -83h246zM339 708h136l-141 -144h-94z" />
    <glyph glyph-name="ecircumflex" unicode="&#xea;" 
d="M164 198q6 -54 42 -84t87 -30q45 0 75.5 18.5t53.5 46.5l86 -65q-42 -52 -94 -74t-109 -22q-54 0 -102 18t-83 51t-55.5 79.5t-20.5 103.5t20.5 103.5t55.5 79.5t83 51t102 18q50 0 91.5 -17.5t71 -50.5t46 -81.5t16.5 -111.5v-33h-366zM410 288q-1 53 -33 83.5t-89 30.5
q-54 0 -85.5 -31t-38.5 -83h246zM355 564l-69 90l-69 -90h-112l115 144h135l114 -144h-114z" />
    <glyph glyph-name="edieresis" unicode="&#xeb;" 
d="M164 198q6 -54 42 -84t87 -30q45 0 75.5 18.5t53.5 46.5l86 -65q-42 -52 -94 -74t-109 -22q-54 0 -102 18t-83 51t-55.5 79.5t-20.5 103.5t20.5 103.5t55.5 79.5t83 51t102 18q50 0 91.5 -17.5t71 -50.5t46 -81.5t16.5 -111.5v-33h-366zM410 288q-1 53 -33 83.5t-89 30.5
q-54 0 -85.5 -31t-38.5 -83h246zM107 636q0 29 21.5 50.5t54.5 21.5t55.5 -20.5t22.5 -51.5t-22.5 -51.5t-55.5 -20.5t-54.5 21.5t-21.5 50.5zM313 636q0 29 21.5 50.5t54.5 21.5t55.5 -20.5t22.5 -51.5t-22.5 -51.5t-55.5 -20.5t-54.5 21.5t-21.5 50.5z" />
    <glyph glyph-name="igrave" unicode="&#xec;" horiz-adv-x="260" 
d="M70 480h120v-480h-120v480zM189 564h-94l-141 144h136z" />
    <glyph glyph-name="iacute" unicode="&#xed;" horiz-adv-x="260" 
d="M70 480h120v-480h-120v480zM173 708h136l-141 -144h-94z" />
    <glyph glyph-name="icircumflex" unicode="&#xee;" horiz-adv-x="260" 
d="M70 480h120v-480h-120v480zM198 564l-69 90l-69 -90h-112l115 144h135l114 -144h-114z" />
    <glyph glyph-name="idieresis" unicode="&#xef;" horiz-adv-x="260" 
d="M70 480h120v-480h-120v480zM-50 636q0 29 21.5 50.5t54.5 21.5t55.5 -20.5t22.5 -51.5t-22.5 -51.5t-55.5 -20.5t-54.5 21.5t-21.5 50.5zM156 636q0 29 21.5 50.5t54.5 21.5t55.5 -20.5t22.5 -51.5t-22.5 -51.5t-55.5 -20.5t-54.5 21.5t-21.5 50.5z" />
    <glyph glyph-name="eth" unicode="&#xf0;" horiz-adv-x="610" 
d="M506 712l-117 -54q36 -39 68 -82.5t56.5 -91t38.5 -99.5t14 -108q0 -63 -16.5 -116t-49.5 -91.5t-82 -60t-113 -21.5q-54 0 -102 18t-83 51t-55.5 79.5t-20.5 103.5t20 103.5t54.5 79.5t80 51t96.5 18q33 0 62.5 -8.5t51.5 -29.5l2 2q-26 42 -58.5 79t-67.5 73l-3 3
l-106 -49l-60 57l107 50q-7 7 -17 15.5t-21 17.5t-21.5 17.5t-17.5 14.5l100 58q27 -21 50.5 -42.5t34.5 -32.5l111 51zM305 96q33 0 59 12t44.5 32t28 46t9.5 54t-9.5 54t-28 46t-44.5 32t-59 12t-59 -12t-44.5 -32t-28 -46t-9.5 -54t9.5 -54t28 -46t44.5 -32t59 -12z" />
    <glyph glyph-name="ntilde" unicode="&#xf1;" 
d="M68 480h114v-77h2q17 36 52 62.5t95 26.5q48 0 81.5 -16t54.5 -42t30 -60t9 -71v-303h-120v243q0 20 -2 44.5t-10.5 46t-26.5 36t-49 14.5q-30 0 -50.5 -10t-34 -27t-19.5 -39t-6 -46v-262h-120v480zM103 568q4 24 11.5 47t20.5 40.5t32.5 28.5t47.5 11q20 0 40.5 -6
t39.5 -12.5t35.5 -12.5t28.5 -6q20 0 30.5 12.5t15.5 29.5h66q-4 -24 -11.5 -47t-20.5 -40.5t-32.5 -28.5t-47.5 -11q-20 0 -40.5 6t-39.5 13t-35.5 13t-28.5 6q-20 0 -30.5 -13t-15.5 -30h-66z" />
    <glyph glyph-name="ograve" unicode="&#xf2;" horiz-adv-x="610" 
d="M44 240q0 57 20.5 103.5t55.5 79.5t83 51t102 18t102 -18t83 -51t55.5 -79.5t20.5 -103.5t-20.5 -103.5t-55.5 -79.5t-83 -51t-102 -18t-102 18t-83 51t-55.5 79.5t-20.5 103.5zM164 240q0 -28 9.5 -54t28 -46t44.5 -32t59 -12t59 12t44.5 32t28 46t9.5 54t-9.5 54
t-28 46t-44.5 32t-59 12t-59 -12t-44.5 -32t-28 -46t-9.5 -54zM352 564h-94l-141 144h136z" />
    <glyph glyph-name="oacute" unicode="&#xf3;" horiz-adv-x="610" 
d="M44 240q0 57 20.5 103.5t55.5 79.5t83 51t102 18t102 -18t83 -51t55.5 -79.5t20.5 -103.5t-20.5 -103.5t-55.5 -79.5t-83 -51t-102 -18t-102 18t-83 51t-55.5 79.5t-20.5 103.5zM164 240q0 -28 9.5 -54t28 -46t44.5 -32t59 -12t59 12t44.5 32t28 46t9.5 54t-9.5 54
t-28 46t-44.5 32t-59 12t-59 -12t-44.5 -32t-28 -46t-9.5 -54zM357 708h136l-141 -144h-94z" />
    <glyph glyph-name="ocircumflex" unicode="&#xf4;" horiz-adv-x="610" 
d="M44 240q0 57 20.5 103.5t55.5 79.5t83 51t102 18t102 -18t83 -51t55.5 -79.5t20.5 -103.5t-20.5 -103.5t-55.5 -79.5t-83 -51t-102 -18t-102 18t-83 51t-55.5 79.5t-20.5 103.5zM164 240q0 -28 9.5 -54t28 -46t44.5 -32t59 -12t59 12t44.5 32t28 46t9.5 54t-9.5 54
t-28 46t-44.5 32t-59 12t-59 -12t-44.5 -32t-28 -46t-9.5 -54zM373 564l-69 90l-69 -90h-112l115 144h135l114 -144h-114z" />
    <glyph glyph-name="otilde" unicode="&#xf5;" horiz-adv-x="610" 
d="M44 240q0 57 20.5 103.5t55.5 79.5t83 51t102 18t102 -18t83 -51t55.5 -79.5t20.5 -103.5t-20.5 -103.5t-55.5 -79.5t-83 -51t-102 -18t-102 18t-83 51t-55.5 79.5t-20.5 103.5zM164 240q0 -28 9.5 -54t28 -46t44.5 -32t59 -12t59 12t44.5 32t28 46t9.5 54t-9.5 54
t-28 46t-44.5 32t-59 12t-59 -12t-44.5 -32t-28 -46t-9.5 -54zM121 568q4 24 11.5 47t20.5 40.5t32.5 28.5t47.5 11q20 0 40.5 -6t39.5 -12.5t35.5 -12.5t28.5 -6q20 0 30.5 12.5t15.5 29.5h66q-4 -24 -11.5 -47t-20.5 -40.5t-32.5 -28.5t-47.5 -11q-20 0 -40.5 6t-39.5 13
t-35.5 13t-28.5 6q-20 0 -30.5 -13t-15.5 -30h-66z" />
    <glyph glyph-name="odieresis" unicode="&#xf6;" horiz-adv-x="610" 
d="M44 240q0 57 20.5 103.5t55.5 79.5t83 51t102 18t102 -18t83 -51t55.5 -79.5t20.5 -103.5t-20.5 -103.5t-55.5 -79.5t-83 -51t-102 -18t-102 18t-83 51t-55.5 79.5t-20.5 103.5zM164 240q0 -28 9.5 -54t28 -46t44.5 -32t59 -12t59 12t44.5 32t28 46t9.5 54t-9.5 54
t-28 46t-44.5 32t-59 12t-59 -12t-44.5 -32t-28 -46t-9.5 -54zM125 636q0 29 21.5 50.5t54.5 21.5t55.5 -20.5t22.5 -51.5t-22.5 -51.5t-55.5 -20.5t-54.5 21.5t-21.5 50.5zM331 636q0 29 21.5 50.5t54.5 21.5t55.5 -20.5t22.5 -51.5t-22.5 -51.5t-55.5 -20.5t-54.5 21.5
t-21.5 50.5z" />
    <glyph glyph-name="divide" unicode="&#xf7;" horiz-adv-x="666" 
d="M604 354v-102h-542v102h542zM258 483q0 31 22 53t53 22t53 -22t22 -53t-22 -53t-53 -22t-53 22t-22 53zM258 123q0 31 22 53t53 22t53 -22t22 -53t-22 -53t-53 -22t-53 22t-22 53z" />
    <glyph glyph-name="oslash" unicode="&#xf8;" horiz-adv-x="610" 
d="M384 360q-16 11 -36 17.5t-43 6.5q-33 0 -59 -12t-44.5 -32t-28 -46t-9.5 -54q0 -45 23 -80zM227 119q32 -23 78 -23q33 0 59 12t44.5 32t28 46t9.5 54q0 43 -21 78zM579 474l-70 -71q26 -32 41.5 -73t15.5 -90q0 -57 -20.5 -103.5t-55.5 -79.5t-83 -51t-102 -18
q-46 0 -86.5 13t-72.5 36l-70 -71l-40 41l67 68q-28 32 -43.5 73.5t-15.5 91.5q0 57 20.5 103.5t55.5 79.5t83 51t102 18q46 0 87 -13t74 -37l71 72z" />
    <glyph glyph-name="ugrave" unicode="&#xf9;" 
d="M506 0h-114v77h-2q-17 -36 -52 -62.5t-95 -26.5q-48 0 -81.5 15.5t-54.5 42t-30 60.5t-9 71v303h120v-243q0 -20 2 -44.5t10.5 -46t26 -36t49.5 -14.5q30 0 50.5 10t34 27t19.5 39t6 46v262h120v-480zM334 564h-94l-141 144h136z" />
    <glyph glyph-name="uacute" unicode="&#xfa;" 
d="M506 0h-114v77h-2q-17 -36 -52 -62.5t-95 -26.5q-48 0 -81.5 15.5t-54.5 42t-30 60.5t-9 71v303h120v-243q0 -20 2 -44.5t10.5 -46t26 -36t49.5 -14.5q30 0 50.5 10t34 27t19.5 39t6 46v262h120v-480zM339 708h136l-141 -144h-94z" />
    <glyph glyph-name="ucircumflex" unicode="&#xfb;" 
d="M506 0h-114v77h-2q-17 -36 -52 -62.5t-95 -26.5q-48 0 -81.5 15.5t-54.5 42t-30 60.5t-9 71v303h120v-243q0 -20 2 -44.5t10.5 -46t26 -36t49.5 -14.5q30 0 50.5 10t34 27t19.5 39t6 46v262h120v-480zM355 564l-69 90l-69 -90h-112l115 144h135l114 -144h-114z" />
    <glyph glyph-name="udieresis" unicode="&#xfc;" 
d="M506 0h-114v77h-2q-17 -36 -52 -62.5t-95 -26.5q-48 0 -81.5 15.5t-54.5 42t-30 60.5t-9 71v303h120v-243q0 -20 2 -44.5t10.5 -46t26 -36t49.5 -14.5q30 0 50.5 10t34 27t19.5 39t6 46v262h120v-480zM107 636q0 29 21.5 50.5t54.5 21.5t55.5 -20.5t22.5 -51.5
t-22.5 -51.5t-55.5 -20.5t-54.5 21.5t-21.5 50.5zM313 636q0 29 21.5 50.5t54.5 21.5t55.5 -20.5t22.5 -51.5t-22.5 -51.5t-55.5 -20.5t-54.5 21.5t-21.5 50.5z" />
    <glyph glyph-name="yacute" unicode="&#xfd;" horiz-adv-x="519" 
d="M3 480h132l134 -333h2l120 333h125l-227 -583q-13 -34 -28.5 -59.5t-36.5 -43t-49.5 -26t-68.5 -8.5q-47 0 -92 12l15 108q14 -5 29.5 -8.5t31.5 -3.5q22 0 37 4t25.5 12.5t17.5 22t15 32.5l23 57zM312 708h136l-141 -144h-94z" />
    <glyph glyph-name="thorn" unicode="&#xfe;" horiz-adv-x="630" 
d="M68 756h120v-338h2q22 36 65 55t94 19q55 0 99 -19.5t75 -53.5t47 -80t16 -99t-17 -99t-47.5 -80t-73.5 -53.5t-94 -19.5q-34 0 -60 7t-46 18t-34 23.5t-23 24.5h-3v-289h-120v984zM466 240q0 28 -9.5 54t-28 46t-44.5 32t-59 12t-59 -12t-44.5 -32t-28 -46t-9.5 -54
t9.5 -54t28 -46t44.5 -32t59 -12t59 12t44.5 32t28 46t9.5 54z" />
    <glyph glyph-name="ydieresis" unicode="&#xff;" horiz-adv-x="519" 
d="M3 480h132l134 -333h2l120 333h125l-227 -583q-13 -34 -28.5 -59.5t-36.5 -43t-49.5 -26t-68.5 -8.5q-47 0 -92 12l15 108q14 -5 29.5 -8.5t31.5 -3.5q22 0 37 4t25.5 12.5t17.5 22t15 32.5l23 57zM80 636q0 29 21.5 50.5t54.5 21.5t55.5 -20.5t22.5 -51.5t-22.5 -51.5
t-55.5 -20.5t-54.5 21.5t-21.5 50.5zM286 636q0 29 21.5 50.5t54.5 21.5t55.5 -20.5t22.5 -51.5t-22.5 -51.5t-55.5 -20.5t-54.5 21.5t-21.5 50.5z" />
    <glyph glyph-name="Amacron" unicode="&#x100;" horiz-adv-x="722" 
d="M308 708h109l305 -708h-144l-66 162h-307l-64 -162h-141zM468 270l-109 288l-111 -288h220zM518 787h-320v78h320v-78z" />
    <glyph glyph-name="amacron" unicode="&#x101;" horiz-adv-x="537" 
d="M368 66h-3q-26 -41 -66 -59.5t-88 -18.5q-33 0 -64.5 9t-56 27t-39.5 45t-15 63q0 39 14 66.5t37.5 46t54.5 29.5t64.5 16.5t67.5 7t64 1.5h30v13q0 45 -31 67.5t-79 22.5q-38 0 -71 -13.5t-57 -36.5l-63 63q40 41 93.5 59t110.5 18q51 0 86 -11.5t58 -29.5t35.5 -41.5
t18 -47.5t6.5 -46.5t1 -39.5v-276h-108v66zM361 215h-25q-25 0 -56 -2t-58.5 -9.5t-46.5 -22t-19 -40.5q0 -17 7.5 -28.5t19.5 -19.5t27 -11.5t30 -3.5q62 0 91.5 29.5t29.5 80.5v27zM444 595h-320v78h320v-78z" />
    <glyph glyph-name="Abreve" unicode="&#x102;" horiz-adv-x="722" 
d="M308 708h109l305 -708h-144l-66 162h-307l-64 -162h-141zM468 270l-109 288l-111 -288h220zM255 900q7 -38 36 -52t67 -14q43 0 68 12t36 54h66q-8 -75 -53.5 -109.5t-117.5 -34.5t-118 34.5t-51 109.5h67z" />
    <glyph glyph-name="abreve" unicode="&#x103;" horiz-adv-x="537" 
d="M368 66h-3q-26 -41 -66 -59.5t-88 -18.5q-33 0 -64.5 9t-56 27t-39.5 45t-15 63q0 39 14 66.5t37.5 46t54.5 29.5t64.5 16.5t67.5 7t64 1.5h30v13q0 45 -31 67.5t-79 22.5q-38 0 -71 -13.5t-57 -36.5l-63 63q40 41 93.5 59t110.5 18q51 0 86 -11.5t58 -29.5t35.5 -41.5
t18 -47.5t6.5 -46.5t1 -39.5v-276h-108v66zM361 215h-25q-25 0 -56 -2t-58.5 -9.5t-46.5 -22t-19 -40.5q0 -17 7.5 -28.5t19.5 -19.5t27 -11.5t30 -3.5q62 0 91.5 29.5t29.5 80.5v27zM181 708q7 -38 36 -52t67 -14q43 0 68 12t36 54h66q-8 -74 -53.5 -109t-117.5 -35
t-118 34.5t-51 109.5h67z" />
    <glyph glyph-name="Aogonek" unicode="&#x104;" horiz-adv-x="722" 
d="M689 -196q-21 -17 -46.5 -27.5t-53.5 -10.5q-20 0 -38.5 5.5t-33 17t-23 28t-8.5 38.5q0 20 8.5 40.5t22 39.5t29.5 35.5t32 29.5l-66 162h-307l-64 -162h-141l308 708h109l305 -708h-82q-12 -11 -25 -25.5t-24.5 -31t-19 -33.5t-7.5 -32q0 -19 13.5 -32.5t32.5 -13.5
q14 0 28.5 6t25.5 15zM468 270l-109 288l-111 -288h220z" />
    <glyph glyph-name="aogonek" unicode="&#x105;" horiz-adv-x="537" 
d="M368 66h-3q-26 -42 -66 -60t-88 -18q-33 0 -64.5 9t-56 27t-39.5 45t-15 63q0 39 14 66.5t37.5 46t54.5 29.5t64.5 16.5t67.5 7t64 1.5h30v13q0 45 -31 67.5t-79 22.5q-38 0 -71 -13.5t-57 -36.5l-63 63q40 42 93.5 59.5t110.5 17.5q51 0 86 -11.5t58 -29.5t35.5 -41.5
t18 -47.5t6.5 -46.5t1 -39.5v-276h-46q-12 -11 -25 -25.5t-24.5 -31t-19 -33.5t-7.5 -32q0 -19 13.5 -32.5t32.5 -13.5q14 0 28.5 6t25.5 15l25 -49q-21 -17 -46.5 -27.5t-53.5 -10.5q-20 0 -38.5 5.5t-33 17t-23 28t-8.5 38.5q0 20 8.5 40.5t22 39.5t29.5 35.5t32 29.5v66z
M361 215h-25q-25 0 -56 -2t-58.5 -9.5t-46.5 -22.5t-19 -40q0 -17 7.5 -28.5t19.5 -19.5t27 -11.5t30 -3.5q63 0 92 29.5t29 80.5v27z" />
    <glyph glyph-name="Cacute" unicode="&#x106;" horiz-adv-x="685" 
d="M565 542q-39 42 -75.5 56t-73.5 14q-55 0 -99.5 -19.5t-76.5 -54t-49.5 -80.5t-17.5 -99q0 -57 17.5 -105t49.5 -83t76.5 -55t99.5 -20q43 0 83.5 20.5t75.5 65.5l104 -74q-48 -66 -117 -96t-147 -30q-82 0 -150.5 26.5t-118 75t-77.5 116.5t-28 151q0 85 28 154.5
t77.5 118.5t118 75.5t150.5 26.5q72 0 133.5 -25.5t114.5 -86.5zM440 900h136l-141 -144h-94z" />
    <glyph glyph-name="cacute" unicode="&#x107;" horiz-adv-x="482" 
d="M396 336q-21 22 -44 35t-47 13q-33 0 -59 -12t-44.5 -32t-28 -46t-9.5 -54t9.5 -54t28 -46t44.5 -32t59 -12q28 0 52 11.5t41 33.5l80 -86q-18 -18 -41.5 -31t-47.5 -21t-46 -11.5t-38 -3.5q-54 0 -102 18t-83 51t-55.5 79.5t-20.5 103.5t20.5 103.5t55.5 79.5t83 51
t102 18q46 0 92.5 -17.5t81.5 -55.5zM341 708h136l-141 -144h-94z" />
    <glyph glyph-name="Ccircumflex" unicode="&#x108;" horiz-adv-x="685" 
d="M565 542q-39 42 -75.5 56t-73.5 14q-55 0 -99.5 -19.5t-76.5 -54t-49.5 -80.5t-17.5 -99q0 -57 17.5 -105t49.5 -83t76.5 -55t99.5 -20q43 0 83.5 20.5t75.5 65.5l104 -74q-48 -66 -117 -96t-147 -30q-82 0 -150.5 26.5t-118 75t-77.5 116.5t-28 151q0 85 28 154.5
t77.5 118.5t118 75.5t150.5 26.5q72 0 133.5 -25.5t114.5 -86.5zM480 756l-69 90l-69 -90h-112l115 144h135l114 -144h-114z" />
    <glyph glyph-name="ccircumflex" unicode="&#x109;" horiz-adv-x="482" 
d="M396 336q-21 22 -44 35t-47 13q-33 0 -59 -12t-44.5 -32t-28 -46t-9.5 -54t9.5 -54t28 -46t44.5 -32t59 -12q28 0 52 11.5t41 33.5l80 -86q-18 -18 -41.5 -31t-47.5 -21t-46 -11.5t-38 -3.5q-54 0 -102 18t-83 51t-55.5 79.5t-20.5 103.5t20.5 103.5t55.5 79.5t83 51
t102 18q46 0 92.5 -17.5t81.5 -55.5zM362 564l-69 90l-69 -90h-112l115 144h135l114 -144h-114z" />
    <glyph glyph-name="Cdotaccent" unicode="&#x10a;" horiz-adv-x="685" 
d="M565 542q-39 42 -75.5 56t-73.5 14q-55 0 -99.5 -19.5t-76.5 -54t-49.5 -80.5t-17.5 -99q0 -57 17.5 -105t49.5 -83t76.5 -55t99.5 -20q43 0 83.5 20.5t75.5 65.5l104 -74q-48 -66 -117 -96t-147 -30q-82 0 -150.5 26.5t-118 75t-77.5 116.5t-28 151q0 85 28 154.5
t77.5 118.5t118 75.5t150.5 26.5q72 0 133.5 -25.5t114.5 -86.5zM335 828q0 29 21.5 50.5t54.5 21.5t55.5 -20.5t22.5 -51.5t-22.5 -51.5t-55.5 -20.5t-54.5 21.5t-21.5 50.5z" />
    <glyph glyph-name="cdotaccent" unicode="&#x10b;" horiz-adv-x="482" 
d="M396 336q-21 22 -44 35t-47 13q-33 0 -59 -12t-44.5 -32t-28 -46t-9.5 -54t9.5 -54t28 -46t44.5 -32t59 -12q28 0 52 11.5t41 33.5l80 -86q-18 -18 -41.5 -31t-47.5 -21t-46 -11.5t-38 -3.5q-54 0 -102 18t-83 51t-55.5 79.5t-20.5 103.5t20.5 103.5t55.5 79.5t83 51
t102 18q46 0 92.5 -17.5t81.5 -55.5zM217 636q0 29 21.5 50.5t54.5 21.5t55.5 -20.5t22.5 -51.5t-22.5 -51.5t-55.5 -20.5t-54.5 21.5t-21.5 50.5z" />
    <glyph glyph-name="Ccaron" unicode="&#x10c;" horiz-adv-x="685" 
d="M565 542q-39 42 -75.5 56t-73.5 14q-55 0 -99.5 -19.5t-76.5 -54t-49.5 -80.5t-17.5 -99q0 -57 17.5 -105t49.5 -83t76.5 -55t99.5 -20q43 0 83.5 20.5t75.5 65.5l104 -74q-48 -66 -117 -96t-147 -30q-82 0 -150.5 26.5t-118 75t-77.5 116.5t-28 151q0 85 28 154.5
t77.5 118.5t118 75.5t150.5 26.5q72 0 133.5 -25.5t114.5 -86.5zM345 900l69 -90l69 90h110l-115 -144h-133l-114 144h114z" />
    <glyph glyph-name="ccaron" unicode="&#x10d;" horiz-adv-x="482" 
d="M396 336q-21 22 -44 35t-47 13q-33 0 -59 -12t-44.5 -32t-28 -46t-9.5 -54t9.5 -54t28 -46t44.5 -32t59 -12q28 0 52 11.5t41 33.5l80 -86q-18 -18 -41.5 -31t-47.5 -21t-46 -11.5t-38 -3.5q-54 0 -102 18t-83 51t-55.5 79.5t-20.5 103.5t20.5 103.5t55.5 79.5t83 51
t102 18q46 0 92.5 -17.5t81.5 -55.5zM226 708l69 -90l69 90h110l-115 -144h-133l-114 144h114z" />
    <glyph glyph-name="Dcaron" unicode="&#x10e;" horiz-adv-x="759" 
d="M79 708h279q70 0 135 -21.5t115 -65.5t80 -110.5t30 -156.5q0 -91 -34.5 -157.5t-89 -110t-121 -65t-130.5 -21.5h-264v708zM299 114q59 0 111.5 13.5t91.5 42t61.5 74t22.5 110.5q0 64 -20 110t-55.5 74.5t-84 42t-106.5 13.5h-115v-480h94zM266 900l69 -90l69 90h110
l-115 -144h-133l-114 144h114z" />
    <glyph glyph-name="dcaron" unicode="&#x10f;" horiz-adv-x="630" 
d="M448 72h-2q-26 -44 -70 -64t-95 -20q-56 0 -99.5 19.5t-74.5 53.5t-47 80t-16 99t17 99t47.5 80t73.5 53.5t94 19.5q34 0 60 -7t46 -18t34 -23.5t23 -24.5h3v337h120v-756h-114v72zM164 240q0 -28 9.5 -54t28 -46t44.5 -32t59 -12t59 12t44.5 32t28 46t9.5 54t-9.5 54
t-28 46t-44.5 32t-59 12t-59 -12t-44.5 -32t-28 -46t-9.5 -54zM670 708h122l-85 -198h-97z" />
    <glyph glyph-name="Dcroat" unicode="&#x110;" horiz-adv-x="759" 
d="M79 324h-66v84h66v300h279q70 0 135 -21.5t115 -65.5t80 -110.5t30 -156.5q0 -91 -34.5 -157.5t-89 -110t-121 -65t-130.5 -21.5h-264v324zM299 114q59 0 111.5 13.5t91.5 42t61.5 74t22.5 110.5q0 64 -20 110t-55.5 74.5t-84 42t-106.5 13.5h-115v-186h216v-84h-216
v-210h94z" />
    <glyph glyph-name="dcroat" unicode="&#x111;" horiz-adv-x="630" 
d="M633 565h-71v-565h-114v72h-2q-26 -45 -70 -64.5t-95 -19.5q-56 0 -99.5 19.5t-74.5 53.5t-47 80t-16 99t17 99t47.5 80t73.5 53.5t94 19.5q33 0 59.5 -7t46.5 -18t34 -23.5t23 -24.5h3v146h-129v78h129v113h120v-113h71v-78zM164 240q0 -28 9.5 -54t28 -46t44.5 -32
t59 -12t59 12t44.5 32t28 46t9.5 54t-9.5 54t-28 46t-44.5 32t-59 12t-59 -12t-44.5 -32t-28 -46t-9.5 -54z" />
    <glyph glyph-name="Emacron" unicode="&#x112;" horiz-adv-x="611" 
d="M79 708h469v-114h-343v-174h325v-114h-325v-192h361v-114h-487v708zM480 787h-320v78h320v-78z" />
    <glyph glyph-name="emacron" unicode="&#x113;" 
d="M164 198q6 -54 42 -84t87 -30q45 0 75.5 18.5t53.5 46.5l86 -65q-42 -52 -94 -74t-109 -22q-54 0 -102 18t-83 51t-55.5 79.5t-20.5 103.5t20.5 103.5t55.5 79.5t83 51t102 18q50 0 91.5 -17.5t71 -50.5t46 -81.5t16.5 -111.5v-33h-366zM410 288q-1 53 -33 83.5t-89 30.5
q-54 0 -85.5 -31t-38.5 -83h246zM460 595h-320v78h320v-78z" />
    <glyph glyph-name="Ebreve" unicode="&#x114;" horiz-adv-x="611" 
d="M79 708h469v-114h-343v-174h325v-114h-325v-192h361v-114h-487v708zM220 900q7 -38 36 -52t67 -14q43 0 68 12t36 54h66q-8 -75 -53.5 -109.5t-117.5 -34.5t-118 34.5t-51 109.5h67z" />
    <glyph glyph-name="ebreve" unicode="&#x115;" 
d="M164 198q6 -54 42 -84t87 -30q45 0 75.5 18.5t53.5 46.5l86 -65q-42 -52 -94 -74t-109 -22q-54 0 -102 18t-83 51t-55.5 79.5t-20.5 103.5t20.5 103.5t55.5 79.5t83 51t102 18q50 0 91.5 -17.5t71 -50.5t46 -81.5t16.5 -111.5v-33h-366zM410 288q-1 53 -33 83.5t-89 30.5
q-54 0 -85.5 -31t-38.5 -83h246zM197 708q7 -38 36 -52t67 -14q43 0 68 12t36 54h66q-8 -74 -53.5 -109t-117.5 -35t-118 34.5t-51 109.5h67z" />
    <glyph glyph-name="Edotaccent" unicode="&#x116;" horiz-adv-x="611" 
d="M79 708h469v-114h-343v-174h325v-114h-325v-192h361v-114h-487v708zM258 828q0 29 21.5 50.5t54.5 21.5t55.5 -20.5t22.5 -51.5t-22.5 -51.5t-55.5 -20.5t-54.5 21.5t-21.5 50.5z" />
    <glyph glyph-name="edotaccent" unicode="&#x117;" 
d="M164 198q6 -54 42 -84t87 -30q45 0 75.5 18.5t53.5 46.5l86 -65q-42 -52 -94 -74t-109 -22q-54 0 -102 18t-83 51t-55.5 79.5t-20.5 103.5t20.5 103.5t55.5 79.5t83 51t102 18q50 0 91.5 -17.5t71 -50.5t46 -81.5t16.5 -111.5v-33h-366zM410 288q-1 53 -33 83.5t-89 30.5
q-54 0 -85.5 -31t-38.5 -83h246zM223 636q0 29 21.5 50.5t54.5 21.5t55.5 -20.5t22.5 -51.5t-22.5 -51.5t-55.5 -20.5t-54.5 21.5t-21.5 50.5z" />
    <glyph glyph-name="Eogonek" unicode="&#x118;" horiz-adv-x="611" 
d="M79 708h469v-114h-343v-174h325v-114h-325v-192h361v-114h-59q-12 -11 -25 -25.5t-24.5 -31t-19 -33.5t-7.5 -32q0 -19 13.5 -32.5t32.5 -13.5q14 0 28.5 6t25.5 15l25 -49q-21 -17 -46.5 -27.5t-53.5 -10.5q-20 0 -38.5 5.5t-33 17t-23 28t-8.5 38.5q0 20 8.5 40.5
t22 39.5t29.5 35.5t32 29.5h-366v708z" />
    <glyph glyph-name="eogonek" unicode="&#x119;" 
d="M414 -196q-21 -17 -46.5 -27.5t-53.5 -10.5q-20 0 -38.5 5.5t-33 17t-23 28t-8.5 38.5q0 18 7 36.5t18 35.5t25 33t28 29q-51 3 -96 22t-78 51.5t-52 77.5t-19 100q0 57 20.5 103.5t55.5 79.5t83 51t102 18q50 0 91.5 -17.5t71 -50.5t46 -81.5t16.5 -111.5v-33h-366
q6 -54 42 -84t87 -30q45 0 75.5 18.5t53.5 46.5l86 -65q-32 -40 -70.5 -61.5t-80.5 -29.5q-11 -11 -23 -25t-22 -29t-16.5 -31t-6.5 -30q0 -19 13.5 -32.5t32.5 -13.5q14 0 28.5 6t25.5 15zM410 288q-1 54 -33 84t-89 30q-54 0 -85.5 -31t-38.5 -83h246z" />
    <glyph glyph-name="Ecaron" unicode="&#x11a;" horiz-adv-x="611" 
d="M79 708h469v-114h-343v-174h325v-114h-325v-192h361v-114h-487v708zM258 900l69 -90l69 90h110l-115 -144h-133l-114 144h114z" />
    <glyph glyph-name="ecaron" unicode="&#x11b;" 
d="M164 198q6 -54 42 -84t87 -30q45 0 75.5 18.5t53.5 46.5l86 -65q-42 -52 -94 -74t-109 -22q-54 0 -102 18t-83 51t-55.5 79.5t-20.5 103.5t20.5 103.5t55.5 79.5t83 51t102 18q50 0 91.5 -17.5t71 -50.5t46 -81.5t16.5 -111.5v-33h-366zM410 288q-1 53 -33 83.5t-89 30.5
q-54 0 -85.5 -31t-38.5 -83h246zM233 708l69 -90l69 90h110l-115 -144h-133l-114 144h114z" />
    <glyph glyph-name="Gcircumflex" unicode="&#x11c;" horiz-adv-x="778" 
d="M708 52q-131 -70 -293 -70q-82 0 -150.5 26.5t-118 75t-77.5 116.5t-28 151q0 85 28 154.5t77.5 118.5t118 75.5t150.5 26.5q81 0 152 -19.5t127 -69.5l-93 -94q-34 33 -82.5 51t-102.5 18q-55 0 -99.5 -19.5t-76.5 -54t-49.5 -80.5t-17.5 -99q0 -57 17.5 -105t49.5 -83
t76.5 -55t99.5 -20q48 0 90.5 9t75.5 28v167h-145v114h271v-362zM479 756l-69 90l-69 -90h-112l115 144h135l114 -144h-114z" />
    <glyph glyph-name="gcircumflex" unicode="&#x11d;" horiz-adv-x="630" 
d="M562 480v-437q0 -65 -16 -117.5t-49.5 -89t-84.5 -56.5t-121 -20q-67 0 -127 17t-111 62l72 98q36 -33 75 -51t90 -18q43 0 72.5 12t47 33t25 50.5t7.5 65.5v35h-2q-26 -35 -69 -52.5t-88 -17.5q-54 0 -98 19.5t-75.5 52.5t-48.5 78t-17 96q0 53 16 99t47 80t74.5 53.5
t99.5 19.5q51 0 95 -20t70 -64h2v72h114zM306 384q-32 0 -58 -10.5t-44.5 -29t-29 -45t-10.5 -58.5q0 -29 10.5 -54t29.5 -44t45 -30t56 -11q33 0 59.5 11t45 29.5t28.5 44.5t10 56q0 63 -38 102t-104 39zM395 564l-69 90l-69 -90h-112l115 144h135l114 -144h-114z" />
    <glyph glyph-name="Gbreve" unicode="&#x11e;" horiz-adv-x="778" 
d="M708 52q-131 -70 -293 -70q-82 0 -150.5 26.5t-118 75t-77.5 116.5t-28 151q0 85 28 154.5t77.5 118.5t118 75.5t150.5 26.5q81 0 152 -19.5t127 -69.5l-93 -94q-34 33 -82.5 51t-102.5 18q-55 0 -99.5 -19.5t-76.5 -54t-49.5 -80.5t-17.5 -99q0 -57 17.5 -105t49.5 -83
t76.5 -55t99.5 -20q48 0 90.5 9t75.5 28v167h-145v114h271v-362zM310 900q7 -38 36 -52t67 -14q43 0 68 12t36 54h66q-8 -75 -53.5 -109.5t-117.5 -34.5t-118 34.5t-51 109.5h67z" />
    <glyph glyph-name="gbreve" unicode="&#x11f;" horiz-adv-x="630" 
d="M562 480v-437q0 -65 -16 -117.5t-49.5 -89t-84.5 -56.5t-121 -20q-67 0 -127 17t-111 62l72 98q36 -33 75 -51t90 -18q43 0 72.5 12t47 33t25 50.5t7.5 65.5v35h-2q-26 -35 -69 -52.5t-88 -17.5q-54 0 -98 19.5t-75.5 52.5t-48.5 78t-17 96q0 53 16 99t47 80t74.5 53.5
t99.5 19.5q51 0 95 -20t70 -64h2v72h114zM306 384q-32 0 -58 -10.5t-44.5 -29t-29 -45t-10.5 -58.5q0 -29 10.5 -54t29.5 -44t45 -30t56 -11q33 0 59.5 11t45 29.5t28.5 44.5t10 56q0 63 -38 102t-104 39zM224 708q7 -38 36 -52t67 -14q43 0 68 12t36 54h66
q-8 -74 -53.5 -109t-117.5 -35t-118 34.5t-51 109.5h67z" />
    <glyph glyph-name="Gdotaccent" unicode="&#x120;" horiz-adv-x="778" 
d="M708 52q-131 -70 -293 -70q-82 0 -150.5 26.5t-118 75t-77.5 116.5t-28 151q0 85 28 154.5t77.5 118.5t118 75.5t150.5 26.5q81 0 152 -19.5t127 -69.5l-93 -94q-34 33 -82.5 51t-102.5 18q-55 0 -99.5 -19.5t-76.5 -54t-49.5 -80.5t-17.5 -99q0 -57 17.5 -105t49.5 -83
t76.5 -55t99.5 -20q48 0 90.5 9t75.5 28v167h-145v114h271v-362zM337 828q0 29 21.5 50.5t54.5 21.5t55.5 -20.5t22.5 -51.5t-22.5 -51.5t-55.5 -20.5t-54.5 21.5t-21.5 50.5z" />
    <glyph glyph-name="gdotaccent" unicode="&#x121;" horiz-adv-x="630" 
d="M562 480v-437q0 -65 -16 -117.5t-49.5 -89t-84.5 -56.5t-121 -20q-67 0 -127 17t-111 62l72 98q36 -33 75 -51t90 -18q43 0 72.5 12t47 33t25 50.5t7.5 65.5v35h-2q-26 -35 -69 -52.5t-88 -17.5q-54 0 -98 19.5t-75.5 52.5t-48.5 78t-17 96q0 53 16 99t47 80t74.5 53.5
t99.5 19.5q51 0 95 -20t70 -64h2v72h114zM306 384q-32 0 -58 -10.5t-44.5 -29t-29 -45t-10.5 -58.5q0 -29 10.5 -54t29.5 -44t45 -30t56 -11q33 0 59.5 11t45 29.5t28.5 44.5t10 56q0 63 -38 102t-104 39zM240 636q0 29 21.5 50.5t54.5 21.5t55.5 -20.5t22.5 -51.5
t-22.5 -51.5t-55.5 -20.5t-54.5 21.5t-21.5 50.5z" />
    <glyph glyph-name="Gcommaaccent" unicode="&#x122;" horiz-adv-x="778" 
d="M708 52q-131 -70 -293 -70q-82 0 -150.5 26.5t-118 75t-77.5 116.5t-28 151q0 85 28 154.5t77.5 118.5t118 75.5t150.5 26.5q81 0 152 -19.5t127 -69.5l-93 -94q-34 33 -82.5 51t-102.5 18q-55 0 -99.5 -19.5t-76.5 -54t-49.5 -80.5t-17.5 -99q0 -57 17.5 -105t49.5 -83
t76.5 -55t99.5 -20q48 0 90.5 9t75.5 28v167h-145v114h271v-362zM379 -60h122l-85 -198h-107z" />
    <glyph glyph-name="gcommaaccent" unicode="&#x123;" horiz-adv-x="630" 
d="M562 480v-437q0 -65 -16 -117.5t-49.5 -89t-84.5 -56.5t-121 -20q-67 0 -127 17t-111 62l72 98q36 -33 75 -51t90 -18q43 0 72.5 12t47 33t25 50.5t7.5 65.5v35h-2q-26 -35 -69 -52.5t-88 -17.5q-54 0 -98 19.5t-75.5 52.5t-48.5 78t-17 96q0 53 16 99t47 80t74.5 53.5
t99.5 19.5q51 0 95 -20t70 -64h2v72h114zM306 384q-32 0 -58 -10.5t-44.5 -29t-29 -45t-10.5 -58.5q0 -29 10.5 -54t29.5 -44t45 -30t56 -11q33 0 59.5 11t45 29.5t28.5 44.5t10 56q0 63 -38 102t-104 39zM357 584h-122l85 198h107z" />
    <glyph glyph-name="Hcircumflex" unicode="&#x124;" horiz-adv-x="741" 
d="M79 708h126v-282h331v282h126v-708h-126v312h-331v-312h-126v708zM438 756l-69 90l-69 -90h-112l115 144h135l114 -144h-114z" />
    <glyph glyph-name="hcircumflex" unicode="&#x125;" 
d="M188 413h2q14 30 49.5 54.5t91.5 24.5q48 0 81.5 -16t54.5 -42t30 -60t9 -71v-303h-120v243q0 20 -2 44.5t-10.5 46t-26.5 36t-49 14.5q-30 0 -50.5 -10t-34 -27t-19.5 -39t-6 -46v-262h-120v756h120v-343zM358 796l-69 90l-69 -90h-112l115 144h135l114 -144h-114z" />
    <glyph glyph-name="Hbar" unicode="&#x126;" horiz-adv-x="741" 
d="M79 708h126v-89h331v89h126v-708h-126v312h-331v-312h-126v708zM536 426v115h-331v-115h331z" />
    <glyph glyph-name="hbar" unicode="&#x127;" 
d="M317 565h-129v-152h2q14 30 49 54.5t92 24.5q48 0 81.5 -16t54.5 -42t30 -60t9 -71v-303h-120v243q0 20 -2 44.5t-10.5 46t-26.5 36t-49 14.5q-30 0 -50.5 -10t-34 -27t-19.5 -39t-6 -46v-262h-120v565h-71v78h71v113h120v-113h129v-78z" />
    <glyph glyph-name="Itilde" unicode="&#x128;" horiz-adv-x="278" 
d="M76 708h126v-708h-126v708zM-44 760q4 24 11.5 47t20.5 40.5t32.5 28.5t47.5 11q20 0 40.5 -6t39.5 -12.5t35.5 -12.5t28.5 -6q20 0 30.5 12.5t15.5 29.5h66q-4 -24 -11.5 -47t-20.5 -40.5t-32.5 -28.5t-47.5 -11q-20 0 -40.5 6t-39.5 13t-35.5 13t-28.5 6
q-20 0 -30.5 -13t-15.5 -30h-66z" />
    <glyph glyph-name="itilde" unicode="&#x129;" horiz-adv-x="260" 
d="M70 480h120v-480h-120v480zM-52 568q4 24 11.5 47t20.5 40.5t32.5 28.5t47.5 11q20 0 40.5 -6t39.5 -12.5t35.5 -12.5t28.5 -6q20 0 30.5 12.5t15.5 29.5h66q-4 -24 -11.5 -47t-20.5 -40.5t-32.5 -28.5t-47.5 -11q-20 0 -40.5 6t-39.5 13t-35.5 13t-28.5 6
q-20 0 -30.5 -13t-15.5 -30h-66z" />
    <glyph glyph-name="Imacron" unicode="&#x12a;" horiz-adv-x="278" 
d="M76 708h126v-708h-126v708zM298 787h-320v78h320v-78z" />
    <glyph glyph-name="imacron" unicode="&#x12b;" horiz-adv-x="260" 
d="M70 480h120v-480h-120v480zM292 595h-320v78h320v-78z" />
    <glyph glyph-name="Ibreve" unicode="&#x12c;" horiz-adv-x="278" 
d="M76 708h126v-708h-126v708zM36 902q7 -38 36 -52t67 -14q43 0 68 12t36 54h66q-8 -74 -53.5 -109t-117.5 -35t-118 34.5t-51 109.5h67z" />
    <glyph glyph-name="ibreve" unicode="&#x12d;" horiz-adv-x="260" 
d="M70 480h120v-480h-120v480zM27 675q7 -38 36 -52t67 -14q43 0 68 12t36 54h66q-8 -74 -53.5 -109t-117.5 -35t-118 34.5t-51 109.5h67z" />
    <glyph glyph-name="Iogonek" unicode="&#x12e;" horiz-adv-x="278" 
d="M76 708h126v-708h-36q-12 -11 -25 -25.5t-24.5 -31t-19 -33.5t-7.5 -32q0 -19 13.5 -32.5t32.5 -13.5q14 0 28.5 6t25.5 15l25 -49q-21 -17 -46.5 -27.5t-53.5 -10.5q-20 0 -38.5 5.5t-33 17t-23 28t-8.5 38.5q0 20 8.5 40.5t22 39.5t29.5 35.5t32 29.5h-28v708z" />
    <glyph glyph-name="iogonek" unicode="&#x12f;" horiz-adv-x="260" 
d="M70 480h120v-480h-58q-12 -11 -25 -25.5t-24.5 -31t-19 -33.5t-7.5 -32q0 -19 13.5 -32.5t32.5 -13.5q14 0 28.5 6t25.5 15l25 -49q-21 -17 -46.5 -27.5t-53.5 -10.5q-20 0 -38.5 5.5t-33 17t-23 28t-8.5 38.5q0 20 8.5 40.5t22 39.5t29.5 35.5t32 29.5v480zM53 643
q0 29 21.5 50.5t54.5 21.5t55.5 -20.5t22.5 -51.5t-22.5 -51.5t-55.5 -20.5t-54.5 21.5t-21.5 50.5z" />
    <glyph glyph-name="Idotaccent" unicode="&#x130;" horiz-adv-x="278" 
d="M76 708h126v-708h-126v708zM63 828q0 29 21.5 50.5t54.5 21.5t55.5 -20.5t22.5 -51.5t-22.5 -51.5t-55.5 -20.5t-54.5 21.5t-21.5 50.5z" />
    <glyph glyph-name="dotlessi" unicode="&#x131;" horiz-adv-x="260" 
d="M70 480h120v-480h-120v480z" />
    <glyph glyph-name="Jcircumflex" unicode="&#x134;" horiz-adv-x="500" 
d="M426 196q0 -42 -13.5 -81t-40 -68.5t-66.5 -47t-93 -17.5q-84 0 -137.5 39t-70.5 124l118 28q6 -35 28.5 -56t55.5 -21q54 0 73.5 36.5t19.5 100.5v475h126v-512zM432 756l-69 90l-69 -90h-112l115 144h135l114 -144h-114z" />
    <glyph glyph-name="jcircumflex" unicode="&#x135;" horiz-adv-x="260" 
d="M190 480v-509q0 -45 -6 -83.5t-23.5 -67t-49.5 -44.5t-83 -16q-17 0 -33 2t-32 7l9 104q10 -2 19 -3.5t19 -1.5q22 0 34.5 9.5t18 24.5t6.5 33t1 35v510h120zM198 564l-69 90l-69 -90h-112l115 144h135l114 -144h-114z" />
    <glyph glyph-name="Kcommaaccent" unicode="&#x136;" horiz-adv-x="685" 
d="M79 708h126v-300h6l293 300h170l-331 -327l353 -381h-177l-307 348h-7v-348h-126v708zM282 -60h122l-85 -198h-107z" />
    <glyph glyph-name="kcommaaccent" unicode="&#x137;" horiz-adv-x="537" 
d="M68 756h120v-475l185 199h154l-206 -218l219 -262h-159l-191 245h-2v-245h-120v756zM212 -60h122l-85 -198h-107z" />
    <glyph glyph-name="Lacute" unicode="&#x139;" horiz-adv-x="519" 
d="M79 708h126v-594h301v-114h-427v708zM164 900h136l-141 -144h-94z" />
    <glyph glyph-name="lacute" unicode="&#x13a;" horiz-adv-x="260" 
d="M70 756h120v-756h-120v756zM153 940h136l-141 -144h-94z" />
    <glyph glyph-name="Lcommaaccent" unicode="&#x13b;" horiz-adv-x="519" 
d="M79 708h126v-594h301v-114h-427v708zM227 -60h122l-85 -198h-107z" />
    <glyph glyph-name="lcommaaccent" unicode="&#x13c;" horiz-adv-x="260" 
d="M70 756h120v-756h-120v756zM88 -60h122l-85 -198h-107z" />
    <glyph glyph-name="Lcaron" unicode="&#x13d;" horiz-adv-x="519" 
d="M79 708h126v-594h301v-114h-427v708zM318 708h122l-85 -198h-97z" />
    <glyph glyph-name="lcaron" unicode="&#x13e;" horiz-adv-x="260" 
d="M70 756h120v-756h-120v756zM307 708h122l-85 -198h-97z" />
    <glyph glyph-name="Ldot" unicode="&#x13f;" horiz-adv-x="519" 
d="M79 708h126v-594h301v-114h-427v708zM336 379q0 29 21.5 50.5t54.5 21.5t55.5 -20.5t22.5 -51.5t-22.5 -51.5t-55.5 -20.5t-54.5 21.5t-21.5 50.5z" />
    <glyph glyph-name="ldot" unicode="&#x140;" horiz-adv-x="384" 
d="M70 756h120v-756h-120v756zM242 380q0 29 21.5 50.5t54.5 21.5t55.5 -20.5t22.5 -51.5t-22.5 -51.5t-55.5 -20.5t-54.5 21.5t-21.5 50.5z" />
    <glyph glyph-name="Lslash" unicode="&#x141;" horiz-adv-x="519" 
d="M79 187l-70 -62v110l70 62v411h126v-300l206 181v-109l-206 -182v-184h301v-114h-427v187z" />
    <glyph glyph-name="lslash" unicode="&#x142;" horiz-adv-x="260" 
d="M70 273l-69 -69v109l69 69v374h120v-255l69 69v-107l-69 -68v-395h-120v273z" />
    <glyph glyph-name="Nacute" unicode="&#x143;" horiz-adv-x="796" 
d="M79 708h167l343 -526h2v526h126v-708h-160l-350 543h-2v-543h-126v708zM443 900h136l-141 -144h-94z" />
    <glyph glyph-name="nacute" unicode="&#x144;" 
d="M68 480h114v-77h2q17 36 52 62.5t95 26.5q48 0 81.5 -16t54.5 -42t30 -60t9 -71v-303h-120v243q0 20 -2 44.5t-10.5 46t-26.5 36t-49 14.5q-30 0 -50.5 -10t-34 -27t-19.5 -39t-6 -46v-262h-120v480zM309 708h136l-141 -144h-94z" />
    <glyph glyph-name="Ncommaaccent" unicode="&#x145;" horiz-adv-x="796" 
d="M79 708h167l343 -526h2v526h126v-708h-160l-350 543h-2v-543h-126v708zM331 -60h122l-85 -198h-107z" />
    <glyph glyph-name="ncommaaccent" unicode="&#x146;" 
d="M68 480h114v-77h2q17 36 52 62.5t95 26.5q48 0 81.5 -16t54.5 -42t30 -60t9 -71v-303h-120v243q0 20 -2 44.5t-10.5 46t-26.5 36t-49 14.5q-30 0 -50.5 -10t-34 -27t-19.5 -39t-6 -46v-262h-120v480zM230 -60h122l-85 -198h-107z" />
    <glyph glyph-name="Ncaron" unicode="&#x147;" horiz-adv-x="796" 
d="M79 708h167l343 -526h2v526h126v-708h-160l-350 543h-2v-543h-126v708zM330 900l69 -90l69 90h110l-115 -144h-133l-114 144h114z" />
    <glyph glyph-name="ncaron" unicode="&#x148;" 
d="M68 480h114v-77h2q17 36 52 62.5t95 26.5q48 0 81.5 -16t54.5 -42t30 -60t9 -71v-303h-120v243q0 20 -2 44.5t-10.5 46t-26.5 36t-49 14.5q-30 0 -50.5 -10t-34 -27t-19.5 -39t-6 -46v-262h-120v480zM225 708l69 -90l69 90h110l-115 -144h-133l-114 144h114z" />
    <glyph glyph-name="Omacron" unicode="&#x14c;" horiz-adv-x="833" 
d="M41 351q0 85 28 154.5t77.5 118.5t118 75.5t150.5 26.5q83 1 152 -24.5t119 -74.5t78 -118t28 -154q0 -83 -28 -151t-78 -117t-119 -76.5t-152 -28.5q-82 0 -150.5 26.5t-118 75t-77.5 116.5t-28 151zM173 359q0 -57 17.5 -105t49.5 -83t76.5 -55t99.5 -20t100 20t77 55
t49.5 83t17.5 105q0 53 -17.5 99t-49.5 80.5t-77 54t-100 19.5t-99.5 -19.5t-76.5 -54t-49.5 -80.5t-17.5 -99zM575 787h-320v78h320v-78z" />
    <glyph glyph-name="omacron" unicode="&#x14d;" horiz-adv-x="610" 
d="M44 240q0 57 20.5 103.5t55.5 79.5t83 51t102 18t102 -18t83 -51t55.5 -79.5t20.5 -103.5t-20.5 -103.5t-55.5 -79.5t-83 -51t-102 -18t-102 18t-83 51t-55.5 79.5t-20.5 103.5zM164 240q0 -28 9.5 -54t28 -46t44.5 -32t59 -12t59 12t44.5 32t28 46t9.5 54t-9.5 54
t-28 46t-44.5 32t-59 12t-59 -12t-44.5 -32t-28 -46t-9.5 -54zM465 595h-320v78h320v-78z" />
    <glyph glyph-name="Obreve" unicode="&#x14e;" horiz-adv-x="833" 
d="M41 351q0 85 28 154.5t77.5 118.5t118 75.5t150.5 26.5q83 1 152 -24.5t119 -74.5t78 -118t28 -154q0 -83 -28 -151t-78 -117t-119 -76.5t-152 -28.5q-82 0 -150.5 26.5t-118 75t-77.5 116.5t-28 151zM173 359q0 -57 17.5 -105t49.5 -83t76.5 -55t99.5 -20t100 20t77 55
t49.5 83t17.5 105q0 53 -17.5 99t-49.5 80.5t-77 54t-100 19.5t-99.5 -19.5t-76.5 -54t-49.5 -80.5t-17.5 -99zM312 900q7 -38 36 -52t67 -14q43 0 68 12t36 54h66q-8 -75 -53.5 -109.5t-117.5 -34.5t-118 34.5t-51 109.5h67z" />
    <glyph glyph-name="obreve" unicode="&#x14f;" horiz-adv-x="610" 
d="M44 240q0 57 20.5 103.5t55.5 79.5t83 51t102 18t102 -18t83 -51t55.5 -79.5t20.5 -103.5t-20.5 -103.5t-55.5 -79.5t-83 -51t-102 -18t-102 18t-83 51t-55.5 79.5t-20.5 103.5zM164 240q0 -28 9.5 -54t28 -46t44.5 -32t59 -12t59 12t44.5 32t28 46t9.5 54t-9.5 54
t-28 46t-44.5 32t-59 12t-59 -12t-44.5 -32t-28 -46t-9.5 -54zM204 708q7 -38 36 -52t67 -14q43 0 68 12t36 54h66q-8 -74 -53.5 -109t-117.5 -35t-118 34.5t-51 109.5h67z" />
    <glyph glyph-name="Ohungarumlaut" unicode="&#x150;" horiz-adv-x="833" 
d="M41 351q0 85 28 154.5t77.5 118.5t118 75.5t150.5 26.5q83 1 152 -24.5t119 -74.5t78 -118t28 -154q0 -83 -28 -151t-78 -117t-119 -76.5t-152 -28.5q-82 0 -150.5 26.5t-118 75t-77.5 116.5t-28 151zM173 359q0 -57 17.5 -105t49.5 -83t76.5 -55t99.5 -20t100 20t77 55
t49.5 83t17.5 105q0 53 -17.5 99t-49.5 80.5t-77 54t-100 19.5t-99.5 -19.5t-76.5 -54t-49.5 -80.5t-17.5 -99zM363 900h136l-141 -144h-94zM568 900h136l-141 -144h-94z" />
    <glyph glyph-name="ohungarumlaut" unicode="&#x151;" horiz-adv-x="610" 
d="M44 240q0 57 20.5 103.5t55.5 79.5t83 51t102 18t102 -18t83 -51t55.5 -79.5t20.5 -103.5t-20.5 -103.5t-55.5 -79.5t-83 -51t-102 -18t-102 18t-83 51t-55.5 79.5t-20.5 103.5zM164 240q0 -28 9.5 -54t28 -46t44.5 -32t59 -12t59 12t44.5 32t28 46t9.5 54t-9.5 54
t-28 46t-44.5 32t-59 12t-59 -12t-44.5 -32t-28 -46t-9.5 -54zM243 708h136l-141 -144h-94zM448 708h136l-141 -144h-94z" />
    <glyph glyph-name="OE" unicode="&#x152;" horiz-adv-x="1000" 
d="M645 420h270v-114h-270v-192h305v-114h-497q-96 0 -170.5 27t-126.5 75t-79 112.5t-27 139.5q0 76 27 140.5t79 112t126.5 74.5t170.5 27h480v-114h-288v-174zM519 594h-63q-23 0 -52 -4.5t-58.5 -15t-58 -28t-50.5 -44t-35.5 -63.5t-13.5 -85t13.5 -85t35.5 -63.5
t50.5 -44t58 -28t58.5 -15t52 -4.5h63v480z" />
    <glyph glyph-name="oe" unicode="&#x153;" horiz-adv-x="926" 
d="M540 204q-1 -27 10 -49t28.5 -38t38.5 -24.5t40 -8.5q45 0 75 18.5t53 46.5l83 -59q-40 -56 -92.5 -79t-118.5 -23q-60 0 -105 20t-73 57q-36 -40 -82.5 -58.5t-99.5 -18.5q-54 0 -102 18t-83 51t-55.5 79.5t-20.5 103.5t20.5 103.5t55.5 79.5t83 51t102 18t101 -19
t83 -59q32 40 78 59t100 19q58 0 101.5 -20t72.5 -54.5t43 -81t14 -99.5v-33h-350zM770 288q-1 53 -32 83.5t-79 30.5q-21 0 -43 -7.5t-39.5 -21.5t-28.5 -35.5t-12 -49.5h234zM156 240q0 -30 9.5 -57.5t28 -48t44.5 -32.5t59 -12q34 0 60.5 12t45 32.5t28 48t9.5 57.5
t-9.5 57.5t-28 48t-45 32.5t-60.5 12q-33 0 -59 -12t-44.5 -32.5t-28 -48t-9.5 -57.5z" />
    <glyph glyph-name="Racute" unicode="&#x154;" horiz-adv-x="630" 
d="M79 708h246q51 0 98.5 -9.5t84.5 -32.5t59 -62t22 -99q0 -77 -42.5 -129t-121.5 -63l188 -313h-152l-164 300h-92v-300h-126v708zM303 408q27 0 54 2.5t49.5 12t36.5 29t14 54.5q0 31 -13 50t-34 28.5t-46.5 12.5t-49.5 3h-109v-192h98zM309 900h136l-141 -144h-94z" />
    <glyph glyph-name="racute" unicode="&#x155;" horiz-adv-x="389" 
d="M68 480h120v-76h2q20 42 57 65t85 23q11 0 21.5 -2t21.5 -5v-116q-15 4 -29.5 6.5t-28.5 2.5q-42 0 -67.5 -15.5t-39 -35.5t-18 -40t-4.5 -30v-257h-120v480zM232 708h136l-141 -144h-94z" />
    <glyph glyph-name="Rcommaaccent" unicode="&#x156;" horiz-adv-x="630" 
d="M79 708h246q51 0 98.5 -9.5t84.5 -32.5t59 -62t22 -99q0 -77 -42.5 -129t-121.5 -63l188 -313h-152l-164 300h-92v-300h-126v708zM303 408q27 0 54 2.5t49.5 12t36.5 29t14 54.5q0 31 -13 50t-34 28.5t-46.5 12.5t-49.5 3h-109v-192h98zM241 -60h122l-85 -198h-107z" />
    <glyph glyph-name="rcommaaccent" unicode="&#x157;" horiz-adv-x="389" 
d="M68 480h120v-76h2q20 42 57 65t85 23q11 0 21.5 -2t21.5 -5v-116q-15 4 -29.5 6.5t-28.5 2.5q-42 0 -67.5 -15.5t-39 -35.5t-18 -40t-4.5 -30v-257h-120v480zM133 -60h122l-85 -198h-107z" />
    <glyph glyph-name="Rcaron" unicode="&#x158;" horiz-adv-x="630" 
d="M79 708h246q51 0 98.5 -9.5t84.5 -32.5t59 -62t22 -99q0 -77 -42.5 -129t-121.5 -63l188 -313h-152l-164 300h-92v-300h-126v708zM303 408q27 0 54 2.5t49.5 12t36.5 29t14 54.5q0 31 -13 50t-34 28.5t-46.5 12.5t-49.5 3h-109v-192h98zM249 900l69 -90l69 90h110
l-115 -144h-133l-114 144h114z" />
    <glyph glyph-name="rcaron" unicode="&#x159;" horiz-adv-x="389" 
d="M68 480h120v-76h2q20 42 57 65t85 23q11 0 21.5 -2t21.5 -5v-116q-15 4 -29.5 6.5t-28.5 2.5q-42 0 -67.5 -15.5t-39 -35.5t-18 -40t-4.5 -30v-257h-120v480zM141 708l69 -90l69 90h110l-115 -144h-133l-114 144h114z" />
    <glyph glyph-name="Sacute" unicode="&#x15a;" 
d="M426 556q-20 29 -53.5 42.5t-70.5 13.5q-22 0 -42.5 -5t-37 -16t-26.5 -28.5t-10 -41.5q0 -36 25 -55t62 -33t81 -27t81 -36t62 -61t25 -101q0 -57 -21 -99.5t-56.5 -70.5t-82.5 -42t-99 -14q-66 0 -127 22t-105 74l95 92q23 -35 60.5 -54.5t79.5 -19.5q22 0 44 6t40 18
t29 30.5t11 42.5q0 39 -25 60t-62 35.5t-81 27.5t-81 35.5t-62 60t-25 100.5q0 55 22.5 95t59 66.5t83.5 39.5t96 13q56 0 108.5 -17t94.5 -56zM332 900h136l-141 -144h-94z" />
    <glyph glyph-name="sacute" unicode="&#x15b;" horiz-adv-x="444" 
d="M324 347q-35 49 -94 49q-24 0 -47 -12t-23 -39q0 -22 19 -32t48 -17t62.5 -14.5t62.5 -23t48 -42.5t19 -74q0 -43 -18.5 -72.5t-48 -47.5t-66.5 -26t-74 -8q-56 0 -103 16t-84 58l80 75q23 -26 49.5 -42.5t64.5 -16.5q13 0 27 3t26 10t19.5 17.5t7.5 24.5q0 25 -19 37
t-48 19.5t-62.5 14t-62.5 21t-48 40.5t-19 72q0 40 16.5 69.5t43.5 48.5t62 28t71 9q48 0 95 -16.5t76 -56.5zM256 708h136l-141 -144h-94z" />
    <glyph glyph-name="Scircumflex" unicode="&#x15c;" 
d="M426 556q-20 29 -53.5 42.5t-70.5 13.5q-22 0 -42.5 -5t-37 -16t-26.5 -28.5t-10 -41.5q0 -36 25 -55t62 -33t81 -27t81 -36t62 -61t25 -101q0 -57 -21 -99.5t-56.5 -70.5t-82.5 -42t-99 -14q-66 0 -127 22t-105 74l95 92q23 -35 60.5 -54.5t79.5 -19.5q22 0 44 6t40 18
t29 30.5t11 42.5q0 39 -25 60t-62 35.5t-81 27.5t-81 35.5t-62 60t-25 100.5q0 55 22.5 95t59 66.5t83.5 39.5t96 13q56 0 108.5 -17t94.5 -56zM370 756l-69 90l-69 -90h-112l115 144h135l114 -144h-114z" />
    <glyph glyph-name="scircumflex" unicode="&#x15d;" horiz-adv-x="444" 
d="M324 347q-35 49 -94 49q-24 0 -47 -12t-23 -39q0 -22 19 -32t48 -17t62.5 -14.5t62.5 -23t48 -42.5t19 -74q0 -43 -18.5 -72.5t-48 -47.5t-66.5 -26t-74 -8q-56 0 -103 16t-84 58l80 75q23 -26 49.5 -42.5t64.5 -16.5q13 0 27 3t26 10t19.5 17.5t7.5 24.5q0 25 -19 37
t-48 19.5t-62.5 14t-62.5 21t-48 40.5t-19 72q0 40 16.5 69.5t43.5 48.5t62 28t71 9q48 0 95 -16.5t76 -56.5zM304 564l-69 90l-69 -90h-112l115 144h135l114 -144h-114z" />
    <glyph glyph-name="Scedilla" unicode="&#x15e;" 
d="M426 556q-20 29 -53.5 42.5t-70.5 13.5q-22 0 -42.5 -5t-37 -16t-26.5 -28.5t-10 -41.5q0 -36 25 -55t62 -33t81 -27t81 -36t62 -61t25 -101q0 -51 -17 -90.5t-46 -67t-68.5 -44t-84.5 -21.5l-31 -45q22 0 43.5 -2t39 -10.5t28 -25t10.5 -45.5q0 -27 -13.5 -46t-33.5 -30
t-45 -16t-47 -5q-57 0 -106 28l22 46q38 -20 82 -20q8 0 18 2t18.5 6.5t14.5 13t6 20.5q0 20 -17.5 28t-33.5 8q-10 0 -19 -2t-18 -5l-27 25l50 72q-63 2 -118.5 24.5t-97.5 71.5l95 92q23 -35 60.5 -54.5t79.5 -19.5q22 0 44 6t40 18t29 30.5t11 42.5q0 39 -25 60t-62 35.5
t-81 27.5t-81 35.5t-62 60t-25 100.5q0 55 22.5 95t59 66.5t83.5 39.5t96 13q57 0 109 -17t94 -56z" />
    <glyph glyph-name="scedilla" unicode="&#x15f;" horiz-adv-x="444" 
d="M324 347q-34 49 -94 49q-24 0 -47 -12t-23 -39q0 -22 19 -32t48 -17t62.5 -14.5t62.5 -23t48 -42.5t19 -74q0 -36 -13 -62t-35 -44.5t-50.5 -29t-59.5 -14.5l-36 -52q22 0 43.5 -2t39 -10.5t28 -25t10.5 -45.5q0 -27 -13.5 -46t-33.5 -30t-45 -16t-47 -5q-57 0 -106 28
l22 46q38 -20 82 -20q8 0 18 2t18.5 6.5t14.5 13t6 20.5q0 20 -17.5 28t-33.5 8q-10 0 -19 -2t-18 -5l-27 25l53 78q-52 2 -96 18.5t-79 55.5l80 75q23 -26 49.5 -42.5t64.5 -16.5q13 0 27 3t26 10t19.5 17.5t7.5 24.5q0 25 -19 37t-48 19.5t-62.5 14t-62.5 21t-48 40.5
t-19 72q0 40 16.5 69.5t43.5 48.5t62 28t71 9q48 0 95 -16.5t76 -56.5z" />
    <glyph glyph-name="Scaron" unicode="&#x160;" 
d="M426 556q-20 29 -53.5 42.5t-70.5 13.5q-22 0 -42.5 -5t-37 -16t-26.5 -28.5t-10 -41.5q0 -36 25 -55t62 -33t81 -27t81 -36t62 -61t25 -101q0 -57 -21 -99.5t-56.5 -70.5t-82.5 -42t-99 -14q-66 0 -127 22t-105 74l95 92q23 -35 60.5 -54.5t79.5 -19.5q22 0 44 6t40 18
t29 30.5t11 42.5q0 39 -25 60t-62 35.5t-81 27.5t-81 35.5t-62 60t-25 100.5q0 55 22.5 95t59 66.5t83.5 39.5t96 13q56 0 108.5 -17t94.5 -56zM220 900l69 -90l69 90h110l-115 -144h-133l-114 144h114z" />
    <glyph glyph-name="scaron" unicode="&#x161;" horiz-adv-x="444" 
d="M324 347q-35 49 -94 49q-24 0 -47 -12t-23 -39q0 -22 19 -32t48 -17t62.5 -14.5t62.5 -23t48 -42.5t19 -74q0 -43 -18.5 -72.5t-48 -47.5t-66.5 -26t-74 -8q-56 0 -103 16t-84 58l80 75q23 -26 49.5 -42.5t64.5 -16.5q13 0 27 3t26 10t19.5 17.5t7.5 24.5q0 25 -19 37
t-48 19.5t-62.5 14t-62.5 21t-48 40.5t-19 72q0 40 16.5 69.5t43.5 48.5t62 28t71 9q48 0 95 -16.5t76 -56.5zM155 708l69 -90l69 90h110l-115 -144h-133l-114 144h114z" />
    <glyph glyph-name="Tcedilla" unicode="&#x162;" 
d="M224 594h-217v114h560v-114h-217v-594h-126v594zM264 -60q22 0 43.5 -2t39 -10.5t28 -25t10.5 -45.5q0 -27 -13.5 -46t-33.5 -30t-45 -16t-47 -5q-56 0 -106 28l22 46q38 -20 82 -20q8 0 18 2t18.5 6.5t14.5 13t6 20.5q0 20 -17.5 28t-33.5 8q-10 0 -19 -2t-18 -5l-27 25
l62 90h58z" />
    <glyph glyph-name="tcedilla" unicode="&#x163;" horiz-adv-x="389" 
d="M12 378v102h99v139h120v-139h132v-102h-132v-210q0 -36 13.5 -57t53.5 -21q16 0 35 3.5t30 11.5v-101q-19 -9 -46.5 -12.5t-48.5 -3.5q-48 0 -78.5 10.5t-48 32t-24 53.5t-6.5 74v220h-99zM224 -60q22 0 43.5 -2t39 -10.5t28 -25t10.5 -45.5q0 -27 -13.5 -46t-33.5 -30
t-45 -16t-47 -5q-56 0 -106 28l22 46q38 -20 82 -20q8 0 18 2t18.5 6.5t14.5 13t6 20.5q0 20 -17.5 28t-33.5 8q-10 0 -19 -2t-18 -5l-27 25l62 90h58z" />
    <glyph glyph-name="Tcaron" unicode="&#x164;" 
d="M224 594h-217v114h560v-114h-217v-594h-126v594zM220 900l69 -90l69 90h110l-115 -144h-133l-114 144h114z" />
    <glyph glyph-name="tcaron" unicode="&#x165;" horiz-adv-x="389" 
d="M12 378v102h99v139h120v-139h132v-102h-132v-210q0 -36 13.5 -57t53.5 -21q16 0 35 3.5t30 11.5v-101q-19 -9 -46.5 -12.5t-48.5 -3.5q-48 0 -78.5 10.5t-48 32t-24 53.5t-6.5 74v220h-99zM344 748h122l-85 -198h-97z" />
    <glyph glyph-name="Tbar" unicode="&#x166;" 
d="M500 404h-150v-404h-126v404h-144v78h144v112h-217v114h560v-114h-217v-112h150v-78z" />
    <glyph glyph-name="tbar" unicode="&#x167;" horiz-adv-x="389" 
d="M336 239h-105v-71q0 -36 13.5 -57t53.5 -21q16 0 35 3.5t30 11.5v-101q-19 -9 -46.5 -12.5t-48.5 -3.5q-48 0 -78.5 10.5t-48 32t-24 53.5t-6.5 74v81h-75v78h75v61h-99v102h99v139h120v-139h132v-102h-132v-61h105v-78z" />
    <glyph glyph-name="Utilde" unicode="&#x168;" horiz-adv-x="722" 
d="M646 260q0 -64 -22 -115.5t-60 -87.5t-90 -55.5t-113 -19.5t-113 19.5t-90.5 55.5t-60 87.5t-21.5 115.5v448h126v-444q0 -26 8 -54.5t26.5 -52.5t49 -39.5t75.5 -15.5t75.5 15.5t49 39.5t26.5 52.5t8 54.5v444h126v-448zM182 760q4 24 11.5 47t20.5 40.5t32.5 28.5
t47.5 11q20 0 40.5 -6t39.5 -12.5t35.5 -12.5t28.5 -6q20 0 30.5 12.5t15.5 29.5h66q-4 -24 -11.5 -47t-20.5 -40.5t-32.5 -28.5t-47.5 -11q-20 0 -40.5 6t-39.5 13t-35.5 13t-28.5 6q-20 0 -30.5 -13t-15.5 -30h-66z" />
    <glyph glyph-name="utilde" unicode="&#x169;" 
d="M506 0h-114v77h-2q-17 -36 -52 -62.5t-95 -26.5q-48 0 -81.5 15.5t-54.5 42t-30 60.5t-9 71v303h120v-243q0 -20 2 -44.5t10.5 -46t26 -36t49.5 -14.5q30 0 50.5 10t34 27t19.5 39t6 46v262h120v-480zM106 568q4 24 11.5 47t20.5 40.5t32.5 28.5t47.5 11q20 0 40.5 -6
t39.5 -12.5t35.5 -12.5t28.5 -6q20 0 30.5 12.5t15.5 29.5h66q-4 -24 -11.5 -47t-20.5 -40.5t-32.5 -28.5t-47.5 -11q-20 0 -40.5 6t-39.5 13t-35.5 13t-28.5 6q-20 0 -30.5 -13t-15.5 -30h-66z" />
    <glyph glyph-name="Umacron" unicode="&#x16a;" horiz-adv-x="722" 
d="M646 260q0 -64 -22 -115.5t-60 -87.5t-90 -55.5t-113 -19.5t-113 19.5t-90.5 55.5t-60 87.5t-21.5 115.5v448h126v-444q0 -26 8 -54.5t26.5 -52.5t49 -39.5t75.5 -15.5t75.5 15.5t49 39.5t26.5 52.5t8 54.5v444h126v-448zM517 787h-320v78h320v-78z" />
    <glyph glyph-name="umacron" unicode="&#x16b;" 
d="M506 0h-114v77h-2q-17 -36 -52 -62.5t-95 -26.5q-48 0 -81.5 15.5t-54.5 42t-30 60.5t-9 71v303h120v-243q0 -20 2 -44.5t10.5 -46t26 -36t49.5 -14.5q30 0 50.5 10t34 27t19.5 39t6 46v262h120v-480zM446 595h-320v78h320v-78z" />
    <glyph glyph-name="Ubreve" unicode="&#x16c;" horiz-adv-x="722" 
d="M646 260q0 -64 -22 -115.5t-60 -87.5t-90 -55.5t-113 -19.5t-113 19.5t-90.5 55.5t-60 87.5t-21.5 115.5v448h126v-444q0 -26 8 -54.5t26.5 -52.5t49 -39.5t75.5 -15.5t75.5 15.5t49 39.5t26.5 52.5t8 54.5v444h126v-448zM254 900q7 -38 36 -52t67 -14q43 0 68 12t36 54
h66q-8 -75 -53.5 -109.5t-117.5 -34.5t-118 34.5t-51 109.5h67z" />
    <glyph glyph-name="ubreve" unicode="&#x16d;" 
d="M506 0h-114v77h-2q-17 -36 -52 -62.5t-95 -26.5q-48 0 -81.5 15.5t-54.5 42t-30 60.5t-9 71v303h120v-243q0 -20 2 -44.5t10.5 -46t26 -36t49.5 -14.5q30 0 50.5 10t34 27t19.5 39t6 46v262h120v-480zM186 708q7 -38 36 -52t67 -14q43 0 68 12t36 54h66
q-8 -74 -53.5 -109t-117.5 -35t-118 34.5t-51 109.5h67z" />
    <glyph glyph-name="Uring" unicode="&#x16e;" horiz-adv-x="722" 
d="M646 260q0 -64 -22 -115.5t-60 -87.5t-90 -55.5t-113 -19.5t-113 19.5t-90.5 55.5t-60 87.5t-21.5 115.5v448h126v-444q0 -26 8 -54.5t26.5 -52.5t49 -39.5t75.5 -15.5t75.5 15.5t49 39.5t26.5 52.5t8 54.5v444h126v-448zM467 837q0 -45 -30 -73.5t-75 -28.5t-75 28
t-30 73q0 22 8 41t22 32.5t33 21.5t42 8q45 0 75 -28.5t30 -73.5zM419 837q0 23 -17 38.5t-40 15.5t-40 -15.5t-17 -38.5t17 -38.5t40 -15.5t40 15t17 39z" />
    <glyph glyph-name="uring" unicode="&#x16f;" 
d="M506 0h-114v77h-2q-17 -36 -52 -62.5t-95 -26.5q-48 0 -81.5 15.5t-54.5 42t-30 60.5t-9 71v303h120v-243q0 -20 2 -44.5t10.5 -46t26 -36t49.5 -14.5q30 0 50.5 10t34 27t19.5 39t6 46v262h120v-480zM389 655q0 -45 -30 -73.5t-75 -28.5t-75 28.5t-30 72.5q0 22 8 41
t22 32.5t33 21.5t42 8q45 0 75 -28.5t30 -73.5zM341 655q0 23 -17 38.5t-40 15.5t-40 -15.5t-17 -38.5t17 -38.5t40 -15.5t40 15t17 39z" />
    <glyph glyph-name="Uhungarumlaut" unicode="&#x170;" horiz-adv-x="722" 
d="M646 260q0 -64 -22 -115.5t-60 -87.5t-90 -55.5t-113 -19.5t-113 19.5t-90.5 55.5t-60 87.5t-21.5 115.5v448h126v-444q0 -26 8 -54.5t26.5 -52.5t49 -39.5t75.5 -15.5t75.5 15.5t49 39.5t26.5 52.5t8 54.5v444h126v-448zM304 900h136l-141 -144h-94zM509 900h136
l-141 -144h-94z" />
    <glyph glyph-name="uhungarumlaut" unicode="&#x171;" 
d="M506 0h-114v77h-2q-17 -36 -52 -62.5t-95 -26.5q-48 0 -81.5 15.5t-54.5 42t-30 60.5t-9 71v303h120v-243q0 -20 2 -44.5t10.5 -46t26 -36t49.5 -14.5q30 0 50.5 10t34 27t19.5 39t6 46v262h120v-480zM224 708h136l-141 -144h-94zM429 708h136l-141 -144h-94z" />
    <glyph glyph-name="Uogonek" unicode="&#x172;" horiz-adv-x="722" 
d="M476 -196q-21 -17 -46.5 -27.5t-53.5 -10.5q-20 0 -38.5 5.5t-33 17t-23 28t-8.5 38.5q0 34 22 68t50 60q-58 3 -107 23.5t-85 56t-56.5 85.5t-20.5 112v448h126v-444q0 -26 8 -54.5t26.5 -52.5t49 -39.5t75.5 -15.5t75.5 15.5t49 39.5t26.5 52.5t8 54.5v444h126v-448
q0 -57 -17.5 -104.5t-48.5 -82.5t-74 -57.5t-94 -29.5q-11 -11 -22 -24.5t-19.5 -27.5t-14 -28.5t-5.5 -27.5q0 -19 13.5 -32.5t32.5 -13.5q14 0 28.5 6t25.5 15z" />
    <glyph glyph-name="uogonek" unicode="&#x173;" 
d="M503 -196q-21 -17 -46.5 -27.5t-53.5 -10.5q-20 0 -38.5 5.5t-33 17t-23 28t-8.5 38.5q0 20 8.5 40.5t22 39.5t29.5 35.5t32 29.5v77h-2q-17 -36 -52 -62.5t-95 -26.5q-48 0 -81.5 15.5t-54.5 42t-30 60.5t-9 71v303h120v-243q0 -20 2 -44.5t10.5 -46t26 -36t49.5 -14.5
q30 0 50.5 10t34 27t19.5 39t6 46v262h120v-480h-52q-12 -11 -25 -25.5t-24.5 -31t-19 -33.5t-7.5 -32q0 -19 13.5 -32.5t32.5 -13.5q14 0 28.5 6t25.5 15z" />
    <glyph glyph-name="Wcircumflex" unicode="&#x174;" horiz-adv-x="981" 
d="M0 708h138l133 -510h2l159 510h124l156 -510h2l139 510h128l-206 -708h-120l-164 539h-2l-164 -539h-116zM559 756l-69 90l-69 -90h-112l115 144h135l114 -144h-114z" />
    <glyph glyph-name="wcircumflex" unicode="&#x175;" horiz-adv-x="796" 
d="M3 480h130l104 -336h2l97 336h130l104 -336h2l100 336h121l-163 -480h-119l-114 328h-2l-101 -328h-124zM464 564l-69 90l-69 -90h-112l115 144h135l114 -144h-114z" />
    <glyph glyph-name="Ycircumflex" unicode="&#x176;" horiz-adv-x="630" 
d="M252 303l-266 405h158l174 -282l176 282h150l-266 -405v-303h-126v303zM386 756l-69 90l-69 -90h-112l115 144h135l114 -144h-114z" />
    <glyph glyph-name="ycircumflex" unicode="&#x177;" horiz-adv-x="519" 
d="M3 480h132l134 -333h2l120 333h125l-227 -583q-13 -34 -28.5 -59.5t-36.5 -43t-49.5 -26t-68.5 -8.5q-47 0 -92 12l15 108q14 -5 29.5 -8.5t31.5 -3.5q22 0 37 4t25.5 12.5t17.5 22t15 32.5l23 57zM337 564l-69 90l-69 -90h-112l115 144h135l114 -144h-114z" />
    <glyph glyph-name="Ydieresis" unicode="&#x178;" horiz-adv-x="630" 
d="M252 303l-266 405h158l174 -282l176 282h150l-266 -405v-303h-126v303zM135 828q0 29 21.5 50.5t54.5 21.5t55.5 -20.5t22.5 -51.5t-22.5 -51.5t-55.5 -20.5t-54.5 21.5t-21.5 50.5zM341 828q0 29 21.5 50.5t54.5 21.5t55.5 -20.5t22.5 -51.5t-22.5 -51.5t-55.5 -20.5
t-54.5 21.5t-21.5 50.5z" />
    <glyph glyph-name="Zacute" unicode="&#x179;" horiz-adv-x="611" 
d="M35 114l378 480h-372v114h529v-114l-381 -480h387v-114h-541v114zM340 900h136l-141 -144h-94z" />
    <glyph glyph-name="zacute" unicode="&#x17a;" horiz-adv-x="482" 
d="M34 111l257 271v2h-245v96h390v-109l-260 -275h272v-96h-414v111zM274 708h136l-141 -144h-94z" />
    <glyph glyph-name="Zdotaccent" unicode="&#x17b;" horiz-adv-x="611" 
d="M35 114l378 480h-372v114h529v-114l-381 -480h387v-114h-541v114zM252 828q0 29 21.5 50.5t54.5 21.5t55.5 -20.5t22.5 -51.5t-22.5 -51.5t-55.5 -20.5t-54.5 21.5t-21.5 50.5z" />
    <glyph glyph-name="zdotaccent" unicode="&#x17c;" horiz-adv-x="482" 
d="M34 111l257 271v2h-245v96h390v-109l-260 -275h272v-96h-414v111zM185 636q0 29 21.5 50.5t54.5 21.5t55.5 -20.5t22.5 -51.5t-22.5 -51.5t-55.5 -20.5t-54.5 21.5t-21.5 50.5z" />
    <glyph glyph-name="Zcaron" unicode="&#x17d;" horiz-adv-x="611" 
d="M35 114l378 480h-372v114h529v-114l-381 -480h387v-114h-541v114zM239 900l69 -90l69 90h110l-115 -144h-133l-114 144h114z" />
    <glyph glyph-name="zcaron" unicode="&#x17e;" horiz-adv-x="482" 
d="M34 111l257 271v2h-245v96h390v-109l-260 -275h272v-96h-414v111zM174 708l69 -90l69 90h110l-115 -144h-133l-114 144h114z" />
    <glyph glyph-name="florin" unicode="&#x192;" horiz-adv-x="592" 
d="M480 336h-138l-57 -288q-19 -96 -64 -141.5t-123 -45.5q-26 0 -52.5 6t-49.5 18l45 92q10 -7 22.5 -10.5t24.5 -3.5q39 0 55 29.5t25 74.5l53 269h-113v90h131l22 111q7 37 20 70.5t34 58.5t51.5 39.5t74.5 14.5q32 0 60.5 -8t56.5 -23l-46 -93q-27 16 -55 16
q-22 0 -36 -9.5t-23 -24t-13.5 -32.5t-8.5 -36l-18 -84h122v-90z" />
    <glyph glyph-name="Ohorn" unicode="&#x1a0;" horiz-adv-x="886" 
d="M41 351q0 85 28 154.5t77.5 118.5t118 75.5t150.5 26.5q83 1 152 -25q58 -21 103 -60q36 3 51.5 22.5t15.5 53.5q0 17 -5 34t-13 29l114 29q10 -19 14.5 -38t4.5 -47q0 -75 -30.5 -111t-89.5 -42q18 -29 32 -62q28 -69 28 -154q0 -83 -28 -151t-78 -117t-119 -76.5
t-152 -28.5q-82 0 -150.5 26.5t-118 75t-77.5 116.5t-28 151zM173 359q0 -57 17.5 -105t49.5 -83t76.5 -55t99.5 -20t100 20t77 55t49.5 83t17.5 105q0 53 -17.5 99t-49.5 80.5t-77 54t-100 19.5t-99.5 -19.5t-76.5 -54t-49.5 -80.5t-17.5 -99z" />
    <glyph glyph-name="ohorn" unicode="&#x1a1;" horiz-adv-x="655" 
d="M44 240q0 57 20.5 103.5t55.5 79.5t83 51t102 18t102 -18q15 -6 29 -13q41 2 58 21.5t17 54.5q0 17 -5 34t-13 29l114 29q10 -19 14.5 -38t4.5 -47q0 -71 -27.5 -107.5t-81.5 -44.5q17 -22 28 -49q21 -46 21 -103t-20.5 -103.5t-55.5 -79.5t-83 -51t-102 -18t-102 18
t-83 51t-55.5 79.5t-20.5 103.5zM164 240q0 -28 9.5 -54t28 -46t44.5 -32t59 -12t59 12t44.5 32t28 46t9.5 54t-9.5 54t-28 46t-44.5 32t-59 12t-59 -12t-44.5 -32t-28 -46t-9.5 -54z" />
    <glyph glyph-name="Uhorn" unicode="&#x1af;" horiz-adv-x="831" 
d="M646 637v-377q0 -64 -22 -115.5t-60 -87.5t-90 -55.5t-113 -19.5t-113 19.5t-90.5 55.5t-60 87.5t-21.5 115.5v448h126v-444q0 -26 8 -54.5t26.5 -52.5t49 -39.5t75.5 -15.5t75.5 15.5t49 39.5t26.5 52.5t8 54.5v444h88q45 0 63 19.5t18 56.5q0 17 -5 34t-13 29l114 29
q10 -19 14.5 -38t4.5 -47q0 -78 -33.5 -114t-97.5 -40h-27z" />
    <glyph glyph-name="uhorn" unicode="&#x1b0;" horiz-adv-x="697" 
d="M506 0h-114v77h-2q-17 -36 -52 -62.5t-95 -26.5q-48 0 -81.5 15.5t-54.5 42t-30 60.5t-9 71v303h120v-243q0 -20 2 -44.5t10.5 -46t26 -36t49.5 -14.5q30 0 50.5 10t34 27t19.5 39t6 46v262h82q45 0 63 19.5t18 56.5q0 17 -5 34t-13 29l114 29q10 -19 14.5 -38t4.5 -47
q0 -78 -33.5 -114t-97.5 -40h-27v-409z" />
    <glyph glyph-name="clickdental" unicode="&#x1c0;" horiz-adv-x="222" 
d="M162 750v-1000h-102v1000h102z" />
    <glyph glyph-name="clicklateral" unicode="&#x1c1;" horiz-adv-x="444" 
d="M162 750v-1000h-102v1000h102zM384 750v-1000h-102v1000h102z" />
    <glyph glyph-name="clickretroflex" unicode="&#x1c3;" horiz-adv-x="296" 
d="M208 222h-120v486h120v-486zM68 70q0 32 23.5 55t56.5 23q32 0 56 -22t24 -54t-23.5 -55t-56.5 -23q-16 0 -30.5 6t-25.5 16t-17.5 24t-6.5 30z" />
    <glyph glyph-name="DZcaron" unicode="&#x1c4;" horiz-adv-x="1370" 
d="M79 708h279q70 0 135 -21.5t115 -65.5t80 -110.5t30 -156.5q0 -91 -34.5 -157.5t-89 -110t-121 -65t-130.5 -21.5h-264v708zM299 114q59 0 111.5 13.5t91.5 42t61.5 74t22.5 110.5q0 64 -20 110t-55.5 74.5t-84 42t-106.5 13.5h-115v-480h94zM794 114l378 480h-372v114
h529v-114l-381 -480h387v-114h-541v114zM997 902l69 -90l69 90h110l-115 -144h-133l-114 144h114z" />
    <glyph glyph-name="Dzcaron" unicode="&#x1c5;" horiz-adv-x="1241" 
d="M79 708h279q70 0 135 -21.5t115 -65.5t80 -110.5t30 -156.5q0 -91 -34.5 -157.5t-89 -110t-121 -65t-130.5 -21.5h-264v708zM299 114q59 0 111.5 13.5t91.5 42t61.5 74t22.5 110.5q0 64 -20 110t-55.5 74.5t-84 42t-106.5 13.5h-115v-480h94zM793 111l257 271v2h-245v96
h390v-109l-260 -275h272v-96h-414v111zM933 675l69 -90l69 90h110l-115 -144h-133l-114 144h114z" />
    <glyph glyph-name="dzcaron" unicode="&#x1c6;" horiz-adv-x="1112" 
d="M448 72h-2q-26 -44 -70 -64t-95 -20q-56 0 -99.5 19.5t-74.5 53.5t-47 80t-16 99t17 99t47.5 80t73.5 53.5t94 19.5q34 0 60 -7t46 -18t34 -23.5t23 -24.5h3v337h120v-756h-114v72zM164 240q0 -28 9.5 -54t28 -46t44.5 -32t59 -12t59 12t44.5 32t28 46t9.5 54t-9.5 54
t-28 46t-44.5 32t-59 12t-59 -12t-44.5 -32t-28 -46t-9.5 -54zM664 111l257 271v2h-245v96h390v-109l-260 -275h272v-96h-414v111zM804 675l69 -90l69 90h110l-115 -144h-133l-114 144h114z" />
    <glyph glyph-name="LJ" unicode="&#x1c7;" horiz-adv-x="1019" 
d="M79 708h126v-594h301v-114h-427v708zM945 196q0 -42 -13.5 -81t-40 -68.5t-66.5 -47t-93 -17.5q-84 0 -137.5 39t-70.5 124l118 28q6 -35 28.5 -56t55.5 -21q54 0 73.5 36.5t19.5 100.5v475h126v-512z" />
    <glyph glyph-name="Lj" unicode="&#x1c8;" horiz-adv-x="779" 
d="M79 708h126v-594h301v-114h-427v708zM709 480v-509q0 -45 -6 -83.5t-23.5 -67t-49.5 -44.5t-83 -16q-17 0 -33 2t-32 7l9 104q10 -2 19 -3.5t19 -1.5q22 0 34.5 9.5t18 24.5t6.5 33t1 35v510h120zM572 643q0 29 21.5 50.5t54.5 21.5t55.5 -20.5t22.5 -51.5t-22.5 -51.5
t-55.5 -20.5t-54.5 21.5t-21.5 50.5z" />
    <glyph glyph-name="lj" unicode="&#x1c9;" horiz-adv-x="520" 
d="M70 756h120v-756h-120v756zM450 480v-509q0 -45 -6 -83.5t-23.5 -67t-49.5 -44.5t-83 -16q-17 0 -33 2t-32 7l9 104q10 -2 19 -3.5t19 -1.5q22 0 34.5 9.5t18 24.5t6.5 33t1 35v510h120zM313 643q0 29 21.5 50.5t54.5 21.5t55.5 -20.5t22.5 -51.5t-22.5 -51.5
t-55.5 -20.5t-54.5 21.5t-21.5 50.5z" />
    <glyph glyph-name="NJ" unicode="&#x1ca;" horiz-adv-x="1296" 
d="M79 708h167l343 -526h2v526h126v-708h-160l-350 543h-2v-543h-126v708zM1222 196q0 -42 -13.5 -81t-40 -68.5t-66.5 -47t-93 -17.5q-84 0 -137.5 39t-70.5 124l118 28q6 -35 28.5 -56t55.5 -21q54 0 73.5 36.5t19.5 100.5v475h126v-512z" />
    <glyph glyph-name="Nj" unicode="&#x1cb;" horiz-adv-x="1056" 
d="M79 708h167l343 -526h2v526h126v-708h-160l-350 543h-2v-543h-126v708zM986 480v-509q0 -45 -6 -83.5t-23.5 -67t-49.5 -44.5t-83 -16q-17 0 -33 2t-32 7l9 104q10 -2 19 -3.5t19 -1.5q22 0 34.5 9.5t18 24.5t6.5 33t1 35v510h120zM849 643q0 29 21.5 50.5t54.5 21.5
t55.5 -20.5t22.5 -51.5t-22.5 -51.5t-55.5 -20.5t-54.5 21.5t-21.5 50.5z" />
    <glyph glyph-name="nj" unicode="&#x1cc;" horiz-adv-x="834" 
d="M68 480h114v-77h2q17 36 52 62.5t95 26.5q48 0 81.5 -16t54.5 -42t30 -60t9 -71v-303h-120v243q0 20 -2 44.5t-10.5 46t-26.5 36t-49 14.5q-30 0 -50.5 -10t-34 -27t-19.5 -39t-6 -46v-262h-120v480zM764 480v-509q0 -45 -6 -83.5t-23.5 -67t-49.5 -44.5t-83 -16
q-17 0 -33 2t-32 7l9 104q10 -2 19 -3.5t19 -1.5q22 0 34.5 9.5t18 24.5t6.5 33t1 35v510h120zM627 643q0 29 21.5 50.5t54.5 21.5t55.5 -20.5t22.5 -51.5t-22.5 -51.5t-55.5 -20.5t-54.5 21.5t-21.5 50.5z" />
    <glyph glyph-name="Acaron" unicode="&#x1cd;" horiz-adv-x="722" 
d="M308 708h109l305 -708h-144l-66 162h-307l-64 -162h-141zM468 270l-109 288l-111 -288h220zM294 902l69 -90l69 90h110l-115 -144h-133l-114 144h114z" />
    <glyph glyph-name="acaron" unicode="&#x1ce;" horiz-adv-x="537" 
d="M368 66h-3q-26 -41 -66 -59.5t-88 -18.5q-33 0 -64.5 9t-56 27t-39.5 45t-15 63q0 39 14 66.5t37.5 46t54.5 29.5t64.5 16.5t67.5 7t64 1.5h30v13q0 45 -31 67.5t-79 22.5q-38 0 -71 -13.5t-57 -36.5l-63 63q40 41 93.5 59t110.5 18q51 0 86 -11.5t58 -29.5t35.5 -41.5
t18 -47.5t6.5 -46.5t1 -39.5v-276h-108v66zM361 215h-25q-25 0 -56 -2t-58.5 -9.5t-46.5 -22t-19 -40.5q0 -17 7.5 -28.5t19.5 -19.5t27 -11.5t30 -3.5q62 0 91.5 29.5t29.5 80.5v27zM189 687l69 -90l69 90h110l-115 -144h-133l-114 144h114z" />
    <glyph glyph-name="Icaron" unicode="&#x1cf;" horiz-adv-x="278" 
d="M76 708h126v-708h-126v708zM72 902l69 -90l69 90h110l-115 -144h-133l-114 144h114z" />
    <glyph glyph-name="icaron" unicode="&#x1d0;" horiz-adv-x="260" 
d="M70 480h120v-480h-120v480zM63 675l69 -90l69 90h110l-115 -144h-133l-114 144h114z" />
    <glyph glyph-name="Ocaron" unicode="&#x1d1;" horiz-adv-x="833" 
d="M41 351q0 85 28 154.5t77.5 118.5t118 75.5t150.5 26.5q83 1 152 -24.5t119 -74.5t78 -118t28 -154q0 -83 -28 -151t-78 -117t-119 -76.5t-152 -28.5q-82 0 -150.5 26.5t-118 75t-77.5 116.5t-28 151zM173 359q0 -57 17.5 -105t49.5 -83t76.5 -55t99.5 -20t100 20t77 55
t49.5 83t17.5 105q0 53 -17.5 99t-49.5 80.5t-77 54t-100 19.5t-99.5 -19.5t-76.5 -54t-49.5 -80.5t-17.5 -99zM349 921l69 -90l69 90h110l-115 -144h-133l-114 144h114z" />
    <glyph glyph-name="ocaron" unicode="&#x1d2;" horiz-adv-x="610" 
d="M44 240q0 57 20.5 103.5t55.5 79.5t83 51t102 18t102 -18t83 -51t55.5 -79.5t20.5 -103.5t-20.5 -103.5t-55.5 -79.5t-83 -51t-102 -18t-102 18t-83 51t-55.5 79.5t-20.5 103.5zM164 240q0 -28 9.5 -54t28 -46t44.5 -32t59 -12t59 12t44.5 32t28 46t9.5 54t-9.5 54
t-28 46t-44.5 32t-59 12t-59 -12t-44.5 -32t-28 -46t-9.5 -54zM238 687l69 -90l69 90h110l-115 -144h-133l-114 144h114z" />
    <glyph glyph-name="Ucaron" unicode="&#x1d3;" horiz-adv-x="722" 
d="M646 260q0 -64 -22 -115.5t-60 -87.5t-90 -55.5t-113 -19.5t-113 19.5t-90.5 55.5t-60 87.5t-21.5 115.5v448h126v-444q0 -26 8 -54.5t26.5 -52.5t49 -39.5t75.5 -15.5t75.5 15.5t49 39.5t26.5 52.5t8 54.5v444h126v-448zM294 902l69 -90l69 90h110l-115 -144h-133
l-114 144h114z" />
    <glyph glyph-name="ucaron" unicode="&#x1d4;" 
d="M506 0h-114v77h-2q-17 -36 -52 -62.5t-95 -26.5q-48 0 -81.5 15.5t-54.5 42t-30 60.5t-9 71v303h120v-243q0 -20 2 -44.5t10.5 -46t26 -36t49.5 -14.5q30 0 50.5 10t34 27t19.5 39t6 46v262h120v-480zM220 675l69 -90l69 90h110l-115 -144h-133l-114 144h114z" />
    <glyph glyph-name="Udieresismacron" unicode="&#x1d5;" horiz-adv-x="722" 
d="M646 260q0 -64 -22 -115.5t-60 -87.5t-90 -55.5t-113 -19.5t-113 19.5t-90.5 55.5t-60 87.5t-21.5 115.5v448h126v-444q0 -26 8 -54.5t26.5 -52.5t49 -39.5t75.5 -15.5t75.5 15.5t49 39.5t26.5 52.5t8 54.5v444h126v-448zM181 830q0 29 21.5 50.5t54.5 21.5t55.5 -20.5
t22.5 -51.5t-22.5 -51.5t-55.5 -20.5t-54.5 21.5t-21.5 50.5zM387 830q0 29 21.5 50.5t54.5 21.5t55.5 -20.5t22.5 -51.5t-22.5 -51.5t-55.5 -20.5t-54.5 21.5t-21.5 50.5zM521 952h-320v78h320v-78z" />
    <glyph glyph-name="udieresismacron" unicode="&#x1d6;" 
d="M506 0h-114v77h-2q-17 -36 -52 -62.5t-95 -26.5q-48 0 -81.5 15.5t-54.5 42t-30 60.5t-9 71v303h120v-243q0 -20 2 -44.5t10.5 -46t26 -36t49.5 -14.5q30 0 50.5 10t34 27t19.5 39t6 46v262h120v-480zM107 603q0 29 21.5 50.5t54.5 21.5t55.5 -20.5t22.5 -51.5
t-22.5 -51.5t-55.5 -20.5t-54.5 21.5t-21.5 50.5zM313 603q0 29 21.5 50.5t54.5 21.5t55.5 -20.5t22.5 -51.5t-22.5 -51.5t-55.5 -20.5t-54.5 21.5t-21.5 50.5zM447 724h-320v78h320v-78z" />
    <glyph glyph-name="Udieresisacute" unicode="&#x1d7;" horiz-adv-x="722" 
d="M646 260q0 -64 -22 -115.5t-60 -87.5t-90 -55.5t-113 -19.5t-113 19.5t-90.5 55.5t-60 87.5t-21.5 115.5v448h126v-444q0 -26 8 -54.5t26.5 -52.5t49 -39.5t75.5 -15.5t75.5 15.5t49 39.5t26.5 52.5t8 54.5v444h126v-448zM181 830q0 29 21.5 50.5t54.5 21.5t55.5 -20.5
t22.5 -51.5t-22.5 -51.5t-55.5 -20.5t-54.5 21.5t-21.5 50.5zM387 830q0 29 21.5 50.5t54.5 21.5t55.5 -20.5t22.5 -51.5t-22.5 -51.5t-55.5 -20.5t-54.5 21.5t-21.5 50.5zM406 1096h136l-141 -144h-94z" />
    <glyph glyph-name="udieresisacute" unicode="&#x1d8;" 
d="M506 0h-114v77h-2q-17 -36 -52 -62.5t-95 -26.5q-48 0 -81.5 15.5t-54.5 42t-30 60.5t-9 71v303h120v-243q0 -20 2 -44.5t10.5 -46t26 -36t49.5 -14.5q30 0 50.5 10t34 27t19.5 39t6 46v262h120v-480zM107 603q0 29 21.5 50.5t54.5 21.5t55.5 -20.5t22.5 -51.5
t-22.5 -51.5t-55.5 -20.5t-54.5 21.5t-21.5 50.5zM313 603q0 29 21.5 50.5t54.5 21.5t55.5 -20.5t22.5 -51.5t-22.5 -51.5t-55.5 -20.5t-54.5 21.5t-21.5 50.5zM342 868h136l-141 -144h-94z" />
    <glyph glyph-name="Udieresiscaron" unicode="&#x1d9;" horiz-adv-x="722" 
d="M646 260q0 -64 -22 -115.5t-60 -87.5t-90 -55.5t-113 -19.5t-113 19.5t-90.5 55.5t-60 87.5t-21.5 115.5v448h126v-444q0 -26 8 -54.5t26.5 -52.5t49 -39.5t75.5 -15.5t75.5 15.5t49 39.5t26.5 52.5t8 54.5v444h126v-448zM181 830q0 29 21.5 50.5t54.5 21.5t55.5 -20.5
t22.5 -51.5t-22.5 -51.5t-55.5 -20.5t-54.5 21.5t-21.5 50.5zM387 830q0 29 21.5 50.5t54.5 21.5t55.5 -20.5t22.5 -51.5t-22.5 -51.5t-55.5 -20.5t-54.5 21.5t-21.5 50.5zM294 1096l69 -90l69 90h110l-115 -144h-133l-114 144h114z" />
    <glyph glyph-name="udieresiscaron" unicode="&#x1da;" 
d="M506 0h-114v77h-2q-17 -36 -52 -62.5t-95 -26.5q-48 0 -81.5 15.5t-54.5 42t-30 60.5t-9 71v303h120v-243q0 -20 2 -44.5t10.5 -46t26 -36t49.5 -14.5q30 0 50.5 10t34 27t19.5 39t6 46v262h120v-480zM107 603q0 29 21.5 50.5t54.5 21.5t55.5 -20.5t22.5 -51.5
t-22.5 -51.5t-55.5 -20.5t-54.5 21.5t-21.5 50.5zM313 603q0 29 21.5 50.5t54.5 21.5t55.5 -20.5t22.5 -51.5t-22.5 -51.5t-55.5 -20.5t-54.5 21.5t-21.5 50.5zM220 868l69 -90l69 90h110l-115 -144h-133l-114 144h114z" />
    <glyph glyph-name="Udieresisgrave" unicode="&#x1db;" horiz-adv-x="722" 
d="M646 260q0 -64 -22 -115.5t-60 -87.5t-90 -55.5t-113 -19.5t-113 19.5t-90.5 55.5t-60 87.5t-21.5 115.5v448h126v-444q0 -26 8 -54.5t26.5 -52.5t49 -39.5t75.5 -15.5t75.5 15.5t49 39.5t26.5 52.5t8 54.5v444h126v-448zM181 830q0 29 21.5 50.5t54.5 21.5t55.5 -20.5
t22.5 -51.5t-22.5 -51.5t-55.5 -20.5t-54.5 21.5t-21.5 50.5zM387 830q0 29 21.5 50.5t54.5 21.5t55.5 -20.5t22.5 -51.5t-22.5 -51.5t-55.5 -20.5t-54.5 21.5t-21.5 50.5zM388 952h-94l-141 144h136z" />
    <glyph glyph-name="udieresisgrave" unicode="&#x1dc;" 
d="M506 0h-114v77h-2q-17 -36 -52 -62.5t-95 -26.5q-48 0 -81.5 15.5t-54.5 42t-30 60.5t-9 71v303h120v-243q0 -20 2 -44.5t10.5 -46t26 -36t49.5 -14.5q30 0 50.5 10t34 27t19.5 39t6 46v262h120v-480zM107 603q0 29 21.5 50.5t54.5 21.5t55.5 -20.5t22.5 -51.5
t-22.5 -51.5t-55.5 -20.5t-54.5 21.5t-21.5 50.5zM313 603q0 29 21.5 50.5t54.5 21.5t55.5 -20.5t22.5 -51.5t-22.5 -51.5t-55.5 -20.5t-54.5 21.5t-21.5 50.5zM327 724h-94l-141 144h136z" />
    <glyph glyph-name="Adieresismacron" unicode="&#x1de;" horiz-adv-x="722" 
d="M308 708h109l305 -708h-144l-66 162h-307l-64 -162h-141zM468 270l-109 288l-111 -288h220zM181 830q0 29 21.5 50.5t54.5 21.5t55.5 -20.5t22.5 -51.5t-22.5 -51.5t-55.5 -20.5t-54.5 21.5t-21.5 50.5zM387 830q0 29 21.5 50.5t54.5 21.5t55.5 -20.5t22.5 -51.5
t-22.5 -51.5t-55.5 -20.5t-54.5 21.5t-21.5 50.5zM521 952h-320v78h320v-78z" />
    <glyph glyph-name="adieresismacron" unicode="&#x1df;" horiz-adv-x="537" 
d="M368 66h-3q-26 -41 -66 -59.5t-88 -18.5q-33 0 -64.5 9t-56 27t-39.5 45t-15 63q0 39 14 66.5t37.5 46t54.5 29.5t64.5 16.5t67.5 7t64 1.5h30v13q0 45 -31 67.5t-79 22.5q-38 0 -71 -13.5t-57 -36.5l-63 63q40 41 93.5 59t110.5 18q51 0 86 -11.5t58 -29.5t35.5 -41.5
t18 -47.5t6.5 -46.5t1 -39.5v-276h-108v66zM361 215h-25q-25 0 -56 -2t-58.5 -9.5t-46.5 -22t-19 -40.5q0 -17 7.5 -28.5t19.5 -19.5t27 -11.5t30 -3.5q62 0 91.5 29.5t29.5 80.5v27zM76 615q0 29 21.5 50.5t54.5 21.5t55.5 -20.5t22.5 -51.5t-22.5 -51.5t-55.5 -20.5
t-54.5 21.5t-21.5 50.5zM282 615q0 29 21.5 50.5t54.5 21.5t55.5 -20.5t22.5 -51.5t-22.5 -51.5t-55.5 -20.5t-54.5 21.5t-21.5 50.5zM416 736h-320v78h320v-78z" />
    <glyph glyph-name="Adotmacron" unicode="&#x1e0;" horiz-adv-x="722" 
d="M308 708h109l305 -708h-144l-66 162h-307l-64 -162h-141zM468 270l-109 288l-111 -288h220zM284 830q0 29 21.5 50.5t54.5 21.5t55.5 -20.5t22.5 -51.5t-22.5 -51.5t-55.5 -20.5t-54.5 21.5t-21.5 50.5zM521 952h-320v78h320v-78z" />
    <glyph glyph-name="adotmacron" unicode="&#x1e1;" horiz-adv-x="537" 
d="M368 66h-3q-26 -41 -66 -59.5t-88 -18.5q-33 0 -64.5 9t-56 27t-39.5 45t-15 63q0 39 14 66.5t37.5 46t54.5 29.5t64.5 16.5t67.5 7t64 1.5h30v13q0 45 -31 67.5t-79 22.5q-38 0 -71 -13.5t-57 -36.5l-63 63q40 41 93.5 59t110.5 18q51 0 86 -11.5t58 -29.5t35.5 -41.5
t18 -47.5t6.5 -46.5t1 -39.5v-276h-108v66zM361 215h-25q-25 0 -56 -2t-58.5 -9.5t-46.5 -22t-19 -40.5q0 -17 7.5 -28.5t19.5 -19.5t27 -11.5t30 -3.5q62 0 91.5 29.5t29.5 80.5v27zM179 615q0 29 21.5 50.5t54.5 21.5t55.5 -20.5t22.5 -51.5t-22.5 -51.5t-55.5 -20.5
t-54.5 21.5t-21.5 50.5zM416 736h-320v78h320v-78z" />
    <glyph glyph-name="AEmacron" unicode="&#x1e2;" horiz-adv-x="1000" 
d="M529 186h-268l-114 -186h-153l453 708h496v-114h-288v-174h270v-114h-270v-192h300v-114h-426v186zM529 294v300h-15l-187 -300h202zM835 758h-320v78h320v-78z" />
    <glyph glyph-name="aemacron" unicode="&#x1e3;" horiz-adv-x="852" 
d="M816 204h-350q-1 -29 10 -52.5t28.5 -40t38.5 -25t40 -8.5q45 0 75 18.5t53 46.5l83 -59q-40 -51 -92.5 -73.5t-118.5 -22.5q-61 0 -107 25t-72 61q-32 -49 -82.5 -67t-110.5 -18q-32 0 -63.5 8.5t-56 26t-40 44.5t-15.5 65q0 85 60.5 120t171.5 35h98q0 53 -27 84
t-81 31q-38 0 -71 -13.5t-57 -36.5l-63 63q40 41 93.5 59t110.5 18q42 2 86 -15.5t73 -55.5q29 32 66 51.5t89 18.5q58 0 101.5 -20t72.5 -54.5t43 -81t14 -99.5v-33zM239 79q30 0 54 10t40 25.5t24.5 36t8.5 41.5v12h-60q-25 0 -51.5 -2.5t-48.5 -9t-36 -19t-14 -32.5
q0 -17 8.5 -29t21 -19.5t27 -10.5t26.5 -3zM700 288q-3 51 -33 82.5t-83 31.5q-50 0 -81.5 -32t-34.5 -82h232zM586 546h-320v78h320v-78z" />
    <glyph glyph-name="Gcaron" unicode="&#x1e6;" horiz-adv-x="778" 
d="M708 52q-131 -70 -293 -70q-82 0 -150.5 26.5t-118 75t-77.5 116.5t-28 151q0 85 28 154.5t77.5 118.5t118 75.5t150.5 26.5q81 0 152 -19.5t127 -69.5l-93 -94q-34 33 -82.5 51t-102.5 18q-55 0 -99.5 -19.5t-76.5 -54t-49.5 -80.5t-17.5 -99q0 -57 17.5 -105t49.5 -83
t76.5 -55t99.5 -20q48 0 90.5 9t75.5 28v167h-145v114h271v-362zM367 920l69 -90l69 90h110l-115 -144h-133l-114 144h114z" />
    <glyph glyph-name="gcaron" unicode="&#x1e7;" horiz-adv-x="630" 
d="M562 480v-437q0 -65 -16 -117.5t-49.5 -89t-84.5 -56.5t-121 -20q-67 0 -127 17t-111 62l72 98q36 -33 75 -51t90 -18q43 0 72.5 12t47 33t25 50.5t7.5 65.5v35h-2q-26 -35 -69 -52.5t-88 -17.5q-54 0 -98 19.5t-75.5 52.5t-48.5 78t-17 96q0 53 16 99t47 80t74.5 53.5
t99.5 19.5q51 0 95 -20t70 -64h2v72h114zM306 384q-32 0 -58 -10.5t-44.5 -29t-29 -45t-10.5 -58.5q0 -29 10.5 -54t29.5 -44t45 -30t56 -11q33 0 59.5 11t45 29.5t28.5 44.5t10 56q0 63 -38 102t-104 39zM236 687l69 -90l69 90h110l-115 -144h-133l-114 144h114z" />
    <glyph glyph-name="Kcaron" unicode="&#x1e8;" horiz-adv-x="685" 
d="M79 708h126v-300h6l293 300h170l-331 -327l353 -381h-177l-307 348h-7v-348h-126v708zM260 902l69 -90l69 90h110l-115 -144h-133l-114 144h114z" />
    <glyph glyph-name="kcaron" unicode="&#x1e9;" horiz-adv-x="537" 
d="M68 756h120v-475l185 199h154l-206 -218l219 -262h-159l-191 245h-2v-245h-120v756zM237 950l69 -90l69 90h110l-115 -144h-133l-114 144h114z" />
    <glyph glyph-name="Oogonek" unicode="&#x1ea;" horiz-adv-x="833" 
d="M41 351q0 85 28 154.5t77.5 118.5t118 75.5t150.5 26.5q83 1 152 -24.5t119 -74.5t78 -118t28 -154q0 -83 -28 -151t-78 -117t-119 -76.5t-152 -28.5q-82 0 -150.5 26.5t-118 75t-77.5 116.5t-28 151zM173 359q0 -57 17.5 -105t49.5 -83t76.5 -55t99.5 -20t100 20t77 55
t49.5 83t17.5 105q0 53 -17.5 99t-49.5 80.5t-77 54t-100 19.5t-99.5 -19.5t-76.5 -54t-49.5 -80.5t-17.5 -99zM518 -219q-21 -17 -46.5 -27.5t-53.5 -10.5q-20 0 -38.5 5.5t-33 17t-23 28t-8.5 38.5q0 21 9.5 43t24.5 41.5t32.5 37t33.5 29.5h61q-12 -10 -26 -25t-27 -32.5
t-21.5 -36t-8.5 -34.5q0 -19 13.5 -32.5t32.5 -13.5q14 0 28.5 6t25.5 15z" />
    <glyph glyph-name="oogonek" unicode="&#x1eb;" horiz-adv-x="610" 
d="M44 240q0 57 20.5 103.5t55.5 79.5t83 51t102 18t102 -18t83 -51t55.5 -79.5t20.5 -103.5t-20.5 -103.5t-55.5 -79.5t-83 -51t-102 -18t-102 18t-83 51t-55.5 79.5t-20.5 103.5zM164 240q0 -28 9.5 -54t28 -46t44.5 -32t59 -12t59 12t44.5 32t28 46t9.5 54t-9.5 54
t-28 46t-44.5 32t-59 12t-59 -12t-44.5 -32t-28 -46t-9.5 -54zM407 -213q-21 -17 -46.5 -27.5t-53.5 -10.5q-20 0 -38.5 5.5t-33 17t-23 28t-8.5 38.5q0 21 9.5 43t24.5 41.5t32.5 37t33.5 29.5h61q-12 -10 -26 -25t-27 -32.5t-21.5 -36t-8.5 -34.5q0 -19 13.5 -32.5
t32.5 -13.5q14 0 28.5 6t25.5 15z" />
    <glyph glyph-name="Oogonekmacron" unicode="&#x1ec;" horiz-adv-x="833" 
d="M41 351q0 85 28 154.5t77.5 118.5t118 75.5t150.5 26.5q83 1 152 -24.5t119 -74.5t78 -118t28 -154q0 -83 -28 -151t-78 -117t-119 -76.5t-152 -28.5q-82 0 -150.5 26.5t-118 75t-77.5 116.5t-28 151zM173 359q0 -57 17.5 -105t49.5 -83t76.5 -55t99.5 -20t100 20t77 55
t49.5 83t17.5 105q0 53 -17.5 99t-49.5 80.5t-77 54t-100 19.5t-99.5 -19.5t-76.5 -54t-49.5 -80.5t-17.5 -99zM518 -219q-21 -17 -46.5 -27.5t-53.5 -10.5q-20 0 -38.5 5.5t-33 17t-23 28t-8.5 38.5q0 21 9.5 43t24.5 41.5t32.5 37t33.5 29.5h61q-12 -10 -26 -25t-27 -32.5
t-21.5 -36t-8.5 -34.5q0 -19 13.5 -32.5t32.5 -13.5q14 0 28.5 6t25.5 15zM576 777h-320v78h320v-78z" />
    <glyph glyph-name="oogonekmacron" unicode="&#x1ed;" horiz-adv-x="610" 
d="M44 240q0 57 20.5 103.5t55.5 79.5t83 51t102 18t102 -18t83 -51t55.5 -79.5t20.5 -103.5t-20.5 -103.5t-55.5 -79.5t-83 -51t-102 -18t-102 18t-83 51t-55.5 79.5t-20.5 103.5zM164 240q0 -28 9.5 -54t28 -46t44.5 -32t59 -12t59 12t44.5 32t28 46t9.5 54t-9.5 54
t-28 46t-44.5 32t-59 12t-59 -12t-44.5 -32t-28 -46t-9.5 -54zM407 -213q-21 -17 -46.5 -27.5t-53.5 -10.5q-20 0 -38.5 5.5t-33 17t-23 28t-8.5 38.5q0 21 9.5 43t24.5 41.5t32.5 37t33.5 29.5h61q-12 -10 -26 -25t-27 -32.5t-21.5 -36t-8.5 -34.5q0 -19 13.5 -32.5
t32.5 -13.5q14 0 28.5 6t25.5 15zM465 543h-320v78h320v-78z" />
    <glyph glyph-name="jcaron" unicode="&#x1f0;" horiz-adv-x="260" 
d="M190 480v-509q0 -45 -6 -83.5t-23.5 -67t-49.5 -44.5t-83 -16q-17 0 -33 2t-32 7l9 104q10 -2 19 -3.5t19 -1.5q22 0 34.5 9.5t18 24.5t6.5 33t1 35v510h120zM69 675l69 -90l69 90h110l-115 -144h-133l-114 144h114z" />
    <glyph glyph-name="DZ" unicode="&#x1f1;" horiz-adv-x="1370" 
d="M79 708h279q70 0 135 -21.5t115 -65.5t80 -110.5t30 -156.5q0 -91 -34.5 -157.5t-89 -110t-121 -65t-130.5 -21.5h-264v708zM299 114q59 0 111.5 13.5t91.5 42t61.5 74t22.5 110.5q0 64 -20 110t-55.5 74.5t-84 42t-106.5 13.5h-115v-480h94zM794 114l378 480h-372v114
h529v-114l-381 -480h387v-114h-541v114z" />
    <glyph glyph-name="Dz" unicode="&#x1f2;" horiz-adv-x="1241" 
d="M79 708h279q70 0 135 -21.5t115 -65.5t80 -110.5t30 -156.5q0 -91 -34.5 -157.5t-89 -110t-121 -65t-130.5 -21.5h-264v708zM299 114q59 0 111.5 13.5t91.5 42t61.5 74t22.5 110.5q0 64 -20 110t-55.5 74.5t-84 42t-106.5 13.5h-115v-480h94zM793 111l257 271v2h-245v96
h390v-109l-260 -275h272v-96h-414v111z" />
    <glyph glyph-name="dz" unicode="&#x1f3;" horiz-adv-x="1112" 
d="M448 72h-2q-26 -44 -70 -64t-95 -20q-56 0 -99.5 19.5t-74.5 53.5t-47 80t-16 99t17 99t47.5 80t73.5 53.5t94 19.5q34 0 60 -7t46 -18t34 -23.5t23 -24.5h3v337h120v-756h-114v72zM164 240q0 -28 9.5 -54t28 -46t44.5 -32t59 -12t59 12t44.5 32t28 46t9.5 54t-9.5 54
t-28 46t-44.5 32t-59 12t-59 -12t-44.5 -32t-28 -46t-9.5 -54zM664 111l257 271v2h-245v96h390v-109l-260 -275h272v-96h-414v111z" />
    <glyph glyph-name="Gacute" unicode="&#x1f4;" horiz-adv-x="778" 
d="M708 52q-131 -70 -293 -70q-82 0 -150.5 26.5t-118 75t-77.5 116.5t-28 151q0 85 28 154.5t77.5 118.5t118 75.5t150.5 26.5q81 0 152 -19.5t127 -69.5l-93 -94q-34 33 -82.5 51t-102.5 18q-55 0 -99.5 -19.5t-76.5 -54t-49.5 -80.5t-17.5 -99q0 -57 17.5 -105t49.5 -83
t76.5 -55t99.5 -20q48 0 90.5 9t75.5 28v167h-145v114h271v-362zM449 920h136l-141 -144h-94z" />
    <glyph glyph-name="gacute" unicode="&#x1f5;" horiz-adv-x="630" 
d="M562 480v-437q0 -65 -16 -117.5t-49.5 -89t-84.5 -56.5t-121 -20q-67 0 -127 17t-111 62l72 98q36 -33 75 -51t90 -18q43 0 72.5 12t47 33t25 50.5t7.5 65.5v35h-2q-26 -35 -69 -52.5t-88 -17.5q-54 0 -98 19.5t-75.5 52.5t-48.5 78t-17 96q0 53 16 99t47 80t74.5 53.5
t99.5 19.5q51 0 95 -20t70 -64h2v72h114zM306 384q-32 0 -58 -10.5t-44.5 -29t-29 -45t-10.5 -58.5q0 -29 10.5 -54t29.5 -44t45 -30t56 -11q33 0 59.5 11t45 29.5t28.5 44.5t10 56q0 63 -38 102t-104 39zM346 687h136l-141 -144h-94z" />
    <glyph glyph-name="Ngrave" unicode="&#x1f8;" horiz-adv-x="796" 
d="M79 708h167l343 -526h2v526h126v-708h-160l-350 543h-2v-543h-126v708zM516 758h-94l-141 144h136z" />
    <glyph glyph-name="ngrave" unicode="&#x1f9;" 
d="M68 480h114v-77h2q17 36 52 62.5t95 26.5q48 0 81.5 -16t54.5 -42t30 -60t9 -71v-303h-120v243q0 20 -2 44.5t-10.5 46t-26.5 36t-49 14.5q-30 0 -50.5 -10t-34 -27t-19.5 -39t-6 -46v-262h-120v480zM371 543h-94l-141 144h136z" />
    <glyph glyph-name="Aringacute" unicode="&#x1fa;" horiz-adv-x="722" 
d="M308 708h109l305 -708h-144l-66 162h-307l-64 -162h-141zM468 270l-109 288l-111 -288h220zM466 840q0 -45 -30 -73.5t-75 -28.5t-75 28.5t-30 72.5q0 22 8 41t22 32.5t33 21.5t42 8q45 0 75 -28.5t30 -73.5zM418 840q0 23 -17 38.5t-40 15.5t-40 -15.5t-17 -38.5
t17 -38.5t40 -15.5t40 15t17 39zM401 1126h136l-141 -144h-94z" />
    <glyph glyph-name="aringacute" unicode="&#x1fb;" horiz-adv-x="537" 
d="M368 66h-3q-26 -41 -66 -59.5t-88 -18.5q-33 0 -64.5 9t-56 27t-39.5 45t-15 63q0 39 14 66.5t37.5 46t54.5 29.5t64.5 16.5t67.5 7t64 1.5h30v13q0 45 -31 67.5t-79 22.5q-38 0 -71 -13.5t-57 -36.5l-63 63q40 41 93.5 59t110.5 18q51 0 86 -11.5t58 -29.5t35.5 -41.5
t18 -47.5t6.5 -46.5t1 -39.5v-276h-108v66zM361 215h-25q-25 0 -56 -2t-58.5 -9.5t-46.5 -22t-19 -40.5q0 -17 7.5 -28.5t19.5 -19.5t27 -11.5t30 -3.5q62 0 91.5 29.5t29.5 80.5v27zM361 645q0 -45 -30 -73.5t-75 -28.5t-75 28.5t-30 72.5q0 22 8 41t22 32.5t33 21.5t42 8
q45 0 75 -28.5t30 -73.5zM313 645q0 23 -17 38.5t-40 15.5t-40 -15.5t-17 -38.5t17 -38.5t40 -15.5t40 15t17 39zM288 940h136l-141 -144h-94z" />
    <glyph glyph-name="AEacute" unicode="&#x1fc;" horiz-adv-x="1000" 
d="M529 186h-268l-114 -186h-153l453 708h496v-114h-288v-174h270v-114h-270v-192h300v-114h-426v186zM529 294v300h-15l-187 -300h202zM680 902h136l-141 -144h-94z" />
    <glyph glyph-name="aeacute" unicode="&#x1fd;" horiz-adv-x="852" 
d="M816 204h-350q-1 -29 10 -52.5t28.5 -40t38.5 -25t40 -8.5q45 0 75 18.5t53 46.5l83 -59q-40 -51 -92.5 -73.5t-118.5 -22.5q-61 0 -107 25t-72 61q-32 -49 -82.5 -67t-110.5 -18q-32 0 -63.5 8.5t-56 26t-40 44.5t-15.5 65q0 85 60.5 120t171.5 35h98q0 53 -27 84
t-81 31q-38 0 -71 -13.5t-57 -36.5l-63 63q40 41 93.5 59t110.5 18q42 2 86 -15.5t73 -55.5q29 32 66 51.5t89 18.5q58 0 101.5 -20t72.5 -54.5t43 -81t14 -99.5v-33zM239 79q30 0 54 10t40 25.5t24.5 36t8.5 41.5v12h-60q-25 0 -51.5 -2.5t-48.5 -9t-36 -19t-14 -32.5
q0 -17 8.5 -29t21 -19.5t27 -10.5t26.5 -3zM700 288q-3 51 -33 82.5t-83 31.5q-50 0 -81.5 -32t-34.5 -82h232zM455 690h136l-141 -144h-94z" />
    <glyph glyph-name="Oslashacute" unicode="&#x1fe;" horiz-adv-x="833" 
d="M559 567q-62 45 -143 45q-55 0 -99.5 -19.5t-76.5 -54t-49.5 -80.5t-17.5 -99q0 -47 12 -88t34 -74zM264 148q31 -25 69 -38.5t83 -13.5q55 0 100 20t77 55t49.5 83t17.5 105q0 97 -54 162zM781 712l-86 -94q47 -49 72 -115.5t25 -147.5q0 -83 -28 -151t-78 -117
t-119 -76.5t-152 -28.5q-69 0 -129 19.5t-107 54.5l-85 -92l-50 43l87 94q-43 48 -66.5 111t-23.5 139q0 85 28 154.5t77.5 118.5t118 75.5t150.5 26.5q67 2 124.5 -15.5t105.5 -49.5l87 94zM444 949h136l-141 -144h-94z" />
    <glyph glyph-name="oslashacute" unicode="&#x1ff;" horiz-adv-x="610" 
d="M384 360q-16 11 -36 17.5t-43 6.5q-33 0 -59 -12t-44.5 -32t-28 -46t-9.5 -54q0 -45 23 -80zM227 119q32 -23 78 -23q33 0 59 12t44.5 32t28 46t9.5 54q0 43 -21 78zM579 474l-70 -71q26 -32 41.5 -73t15.5 -90q0 -57 -20.5 -103.5t-55.5 -79.5t-83 -51t-102 -18
q-46 0 -86.5 13t-72.5 36l-70 -71l-40 41l67 68q-28 32 -43.5 73.5t-15.5 91.5q0 57 20.5 103.5t55.5 79.5t83 51t102 18q46 0 87 -13t74 -37l71 72zM336 708h136l-141 -144h-94z" />
    <glyph glyph-name="Adblgrave" unicode="&#x200;" horiz-adv-x="722" 
d="M308 708h109l305 -708h-144l-66 162h-307l-64 -162h-141zM468 270l-109 288l-111 -288h220zM526 758h-94l-141 144h136zM336 758h-94l-141 144h136z" />
    <glyph glyph-name="adblgrave" unicode="&#x201;" horiz-adv-x="537" 
d="M368 66h-3q-26 -41 -66 -59.5t-88 -18.5q-33 0 -64.5 9t-56 27t-39.5 45t-15 63q0 39 14 66.5t37.5 46t54.5 29.5t64.5 16.5t67.5 7t64 1.5h30v13q0 45 -31 67.5t-79 22.5q-38 0 -71 -13.5t-57 -36.5l-63 63q40 41 93.5 59t110.5 18q51 0 86 -11.5t58 -29.5t35.5 -41.5
t18 -47.5t6.5 -46.5t1 -39.5v-276h-108v66zM361 215h-25q-25 0 -56 -2t-58.5 -9.5t-46.5 -22t-19 -40.5q0 -17 7.5 -28.5t19.5 -19.5t27 -11.5t30 -3.5q62 0 91.5 29.5t29.5 80.5v27zM448 543h-94l-141 144h136zM258 543h-94l-141 144h136z" />
    <glyph glyph-name="Ainvertedbreve" unicode="&#x202;" horiz-adv-x="722" 
d="M308 708h109l305 -708h-144l-66 162h-307l-64 -162h-141zM468 270l-109 288l-111 -288h220zM258 902q7 -38 36 -52t67 -14q43 0 68 12t36 54h66q-8 -74 -53.5 -109t-117.5 -35t-118 34.5t-51 109.5h67z" />
    <glyph glyph-name="ainvertedbreve" unicode="&#x203;" horiz-adv-x="537" 
d="M368 66h-3q-26 -41 -66 -59.5t-88 -18.5q-33 0 -64.5 9t-56 27t-39.5 45t-15 63q0 39 14 66.5t37.5 46t54.5 29.5t64.5 16.5t67.5 7t64 1.5h30v13q0 45 -31 67.5t-79 22.5q-38 0 -71 -13.5t-57 -36.5l-63 63q40 41 93.5 59t110.5 18q51 0 86 -11.5t58 -29.5t35.5 -41.5
t18 -47.5t6.5 -46.5t1 -39.5v-276h-108v66zM361 215h-25q-25 0 -56 -2t-58.5 -9.5t-46.5 -22t-19 -40.5q0 -17 7.5 -28.5t19.5 -19.5t27 -11.5t30 -3.5q62 0 91.5 29.5t29.5 80.5v27zM153 687q7 -38 36 -52t67 -14q43 0 68 12t36 54h66q-8 -74 -53.5 -109t-117.5 -35
t-118 34.5t-51 109.5h67z" />
    <glyph glyph-name="Edblgrave" unicode="&#x204;" horiz-adv-x="611" 
d="M79 708h469v-114h-343v-174h325v-114h-325v-192h361v-114h-487v708zM484 758h-94l-141 144h136zM294 758h-94l-141 144h136z" />
    <glyph glyph-name="edblgrave" unicode="&#x205;" 
d="M164 198q6 -54 42 -84t87 -30q45 0 75.5 18.5t53.5 46.5l86 -65q-42 -52 -94 -74t-109 -22q-54 0 -102 18t-83 51t-55.5 79.5t-20.5 103.5t20.5 103.5t55.5 79.5t83 51t102 18q50 0 91.5 -17.5t71 -50.5t46 -81.5t16.5 -111.5v-33h-366zM410 288q-1 53 -33 83.5t-89 30.5
q-54 0 -85.5 -31t-38.5 -83h246zM472 543h-94l-141 144h136zM282 543h-94l-141 144h136z" />
    <glyph glyph-name="Einvertedbreve" unicode="&#x206;" horiz-adv-x="611" 
d="M79 708h469v-114h-343v-174h325v-114h-325v-192h361v-114h-487v708zM219 902q7 -38 36 -52t67 -14q43 0 68 12t36 54h66q-8 -74 -53.5 -109t-117.5 -35t-118 34.5t-51 109.5h67z" />
    <glyph glyph-name="einvertedbreve" unicode="&#x207;" 
d="M164 198q6 -54 42 -84t87 -30q45 0 75.5 18.5t53.5 46.5l86 -65q-42 -52 -94 -74t-109 -22q-54 0 -102 18t-83 51t-55.5 79.5t-20.5 103.5t20.5 103.5t55.5 79.5t83 51t102 18q50 0 91.5 -17.5t71 -50.5t46 -81.5t16.5 -111.5v-33h-366zM410 288q-1 53 -33 83.5t-89 30.5
q-54 0 -85.5 -31t-38.5 -83h246zM184 687q7 -38 36 -52t67 -14q43 0 68 12t36 54h66q-8 -74 -53.5 -109t-117.5 -35t-118 34.5t-51 109.5h67z" />
    <glyph glyph-name="Idblgrave" unicode="&#x208;" horiz-adv-x="278" 
d="M76 708h126v-708h-126v708zM311 758h-94l-141 144h136zM121 758h-94l-141 144h136z" />
    <glyph glyph-name="idblgrave" unicode="&#x209;" horiz-adv-x="260" 
d="M70 480h120v-480h-120v480zM292 531h-94l-141 144h136zM102 531h-94l-141 144h136z" />
    <glyph glyph-name="Iinvertedbreve" unicode="&#x20a;" horiz-adv-x="278" 
d="M76 708h126v-708h-126v708zM36 902q7 -38 36 -52t67 -14q43 0 68 12t36 54h66q-8 -74 -53.5 -109t-117.5 -35t-118 34.5t-51 109.5h67z" />
    <glyph glyph-name="iinvertedbreve" unicode="&#x20b;" horiz-adv-x="260" 
d="M70 480h120v-480h-120v480zM27 675q7 -38 36 -52t67 -14q43 0 68 12t36 54h66q-8 -74 -53.5 -109t-117.5 -35t-118 34.5t-51 109.5h67z" />
    <glyph glyph-name="Odblgrave" unicode="&#x20c;" horiz-adv-x="833" 
d="M41 351q0 85 28 154.5t77.5 118.5t118 75.5t150.5 26.5q83 1 152 -24.5t119 -74.5t78 -118t28 -154q0 -83 -28 -151t-78 -117t-119 -76.5t-152 -28.5q-82 0 -150.5 26.5t-118 75t-77.5 116.5t-28 151zM173 359q0 -57 17.5 -105t49.5 -83t76.5 -55t99.5 -20t100 20t77 55
t49.5 83t17.5 105q0 53 -17.5 99t-49.5 80.5t-77 54t-100 19.5t-99.5 -19.5t-76.5 -54t-49.5 -80.5t-17.5 -99zM576 777h-94l-141 144h136zM386 777h-94l-141 144h136z" />
    <glyph glyph-name="odblgrave" unicode="&#x20d;" horiz-adv-x="610" 
d="M44 240q0 57 20.5 103.5t55.5 79.5t83 51t102 18t102 -18t83 -51t55.5 -79.5t20.5 -103.5t-20.5 -103.5t-55.5 -79.5t-83 -51t-102 -18t-102 18t-83 51t-55.5 79.5t-20.5 103.5zM164 240q0 -28 9.5 -54t28 -46t44.5 -32t59 -12t59 12t44.5 32t28 46t9.5 54t-9.5 54
t-28 46t-44.5 32t-59 12t-59 -12t-44.5 -32t-28 -46t-9.5 -54zM477 543h-94l-141 144h136zM287 543h-94l-141 144h136z" />
    <glyph glyph-name="Oinvertedbreve" unicode="&#x20e;" horiz-adv-x="833" 
d="M41 351q0 85 28 154.5t77.5 118.5t118 75.5t150.5 26.5q83 1 152 -24.5t119 -74.5t78 -118t28 -154q0 -83 -28 -151t-78 -117t-119 -76.5t-152 -28.5q-82 0 -150.5 26.5t-118 75t-77.5 116.5t-28 151zM173 359q0 -57 17.5 -105t49.5 -83t76.5 -55t99.5 -20t100 20t77 55
t49.5 83t17.5 105q0 53 -17.5 99t-49.5 80.5t-77 54t-100 19.5t-99.5 -19.5t-76.5 -54t-49.5 -80.5t-17.5 -99zM313 921q7 -38 36 -52t67 -14q43 0 68 12t36 54h66q-8 -74 -53.5 -109t-117.5 -35t-118 34.5t-51 109.5h67z" />
    <glyph glyph-name="oinvertedbreve" unicode="&#x20f;" horiz-adv-x="610" 
d="M44 240q0 57 20.5 103.5t55.5 79.5t83 51t102 18t102 -18t83 -51t55.5 -79.5t20.5 -103.5t-20.5 -103.5t-55.5 -79.5t-83 -51t-102 -18t-102 18t-83 51t-55.5 79.5t-20.5 103.5zM164 240q0 -28 9.5 -54t28 -46t44.5 -32t59 -12t59 12t44.5 32t28 46t9.5 54t-9.5 54
t-28 46t-44.5 32t-59 12t-59 -12t-44.5 -32t-28 -46t-9.5 -54zM202 687q7 -38 36 -52t67 -14q43 0 68 12t36 54h66q-8 -74 -53.5 -109t-117.5 -35t-118 34.5t-51 109.5h67z" />
    <glyph glyph-name="Rdblgrave" unicode="&#x210;" horiz-adv-x="630" 
d="M79 708h246q51 0 98.5 -9.5t84.5 -32.5t59 -62t22 -99q0 -77 -42.5 -129t-121.5 -63l188 -313h-152l-164 300h-92v-300h-126v708zM303 408q27 0 54 2.5t49.5 12t36.5 29t14 54.5q0 31 -13 50t-34 28.5t-46.5 12.5t-49.5 3h-109v-192h98zM481 758h-94l-141 144h136z
M291 758h-94l-141 144h136z" />
    <glyph glyph-name="rdblgrave" unicode="&#x211;" horiz-adv-x="389" 
d="M68 480h120v-76h2q20 42 57 65t85 23q11 0 21.5 -2t21.5 -5v-116q-15 4 -29.5 6.5t-28.5 2.5q-42 0 -67.5 -15.5t-39 -35.5t-18 -40t-4.5 -30v-257h-120v480zM376 543h-94l-141 144h136zM186 543h-94l-141 144h136z" />
    <glyph glyph-name="Rinvertedbreve" unicode="&#x212;" horiz-adv-x="630" 
d="M79 708h246q51 0 98.5 -9.5t84.5 -32.5t59 -62t22 -99q0 -77 -42.5 -129t-121.5 -63l188 -313h-152l-164 300h-92v-300h-126v708zM303 408q27 0 54 2.5t49.5 12t36.5 29t14 54.5q0 31 -13 50t-34 28.5t-46.5 12.5t-49.5 3h-109v-192h98zM203 902q7 -38 36 -52t67 -14
q43 0 68 12t36 54h66q-8 -74 -53.5 -109t-117.5 -35t-118 34.5t-51 109.5h67z" />
    <glyph glyph-name="rinvertedbreve" unicode="&#x213;" horiz-adv-x="389" 
d="M68 480h120v-76h2q20 42 57 65t85 23q11 0 21.5 -2t21.5 -5v-116q-15 4 -29.5 6.5t-28.5 2.5q-42 0 -67.5 -15.5t-39 -35.5t-18 -40t-4.5 -30v-257h-120v480zM118 687q7 -38 36 -52t67 -14q43 0 68 12t36 54h66q-8 -74 -53.5 -109t-117.5 -35t-118 34.5t-51 109.5h67z
" />
    <glyph glyph-name="Udblgrave" unicode="&#x214;" horiz-adv-x="722" 
d="M646 260q0 -64 -22 -115.5t-60 -87.5t-90 -55.5t-113 -19.5t-113 19.5t-90.5 55.5t-60 87.5t-21.5 115.5v448h126v-444q0 -26 8 -54.5t26.5 -52.5t49 -39.5t75.5 -15.5t75.5 15.5t49 39.5t26.5 52.5t8 54.5v444h126v-448zM537 758h-94l-141 144h136zM347 758h-94
l-141 144h136z" />
    <glyph glyph-name="udblgrave" unicode="&#x215;" 
d="M506 0h-114v77h-2q-17 -36 -52 -62.5t-95 -26.5q-48 0 -81.5 15.5t-54.5 42t-30 60.5t-9 71v303h120v-243q0 -20 2 -44.5t10.5 -46t26 -36t49.5 -14.5q30 0 50.5 10t34 27t19.5 39t6 46v262h120v-480zM456 531h-94l-141 144h136zM266 531h-94l-141 144h136z" />
    <glyph glyph-name="Uinvertedbreve" unicode="&#x216;" horiz-adv-x="722" 
d="M646 260q0 -64 -22 -115.5t-60 -87.5t-90 -55.5t-113 -19.5t-113 19.5t-90.5 55.5t-60 87.5t-21.5 115.5v448h126v-444q0 -26 8 -54.5t26.5 -52.5t49 -39.5t75.5 -15.5t75.5 15.5t49 39.5t26.5 52.5t8 54.5v444h126v-448zM258 902q7 -38 36 -52t67 -14q43 0 68 12t36 54
h66q-8 -74 -53.5 -109t-117.5 -35t-118 34.5t-51 109.5h67z" />
    <glyph glyph-name="uinvertedbreve" unicode="&#x217;" 
d="M506 0h-114v77h-2q-17 -36 -52 -62.5t-95 -26.5q-48 0 -81.5 15.5t-54.5 42t-30 60.5t-9 71v303h120v-243q0 -20 2 -44.5t10.5 -46t26 -36t49.5 -14.5q30 0 50.5 10t34 27t19.5 39t6 46v262h120v-480zM184 675q7 -38 36 -52t67 -14q43 0 68 12t36 54h66
q-8 -74 -53.5 -109t-117.5 -35t-118 34.5t-51 109.5h67z" />
    <glyph glyph-name="Scommaaccent" unicode="&#x218;" 
d="M426 556q-20 29 -53.5 42.5t-70.5 13.5q-22 0 -42.5 -5t-37 -16t-26.5 -28.5t-10 -41.5q0 -36 25 -55t62 -33t81 -27t81 -36t62 -61t25 -101q0 -57 -21 -99.5t-56.5 -70.5t-82.5 -42t-99 -14q-66 0 -127 22t-105 74l95 92q23 -35 60.5 -54.5t79.5 -19.5q22 0 44 6t40 18
t29 30.5t11 42.5q0 39 -25 60t-62 35.5t-81 27.5t-81 35.5t-62 60t-25 100.5q0 55 22.5 95t59 66.5t83.5 39.5t96 13q56 0 108.5 -17t94.5 -56zM220 -60h122l-85 -198h-107z" />
    <glyph glyph-name="scommaaccent" unicode="&#x219;" horiz-adv-x="444" 
d="M324 347q-35 49 -94 49q-24 0 -47 -12t-23 -39q0 -22 19 -32t48 -17t62.5 -14.5t62.5 -23t48 -42.5t19 -74q0 -43 -18.5 -72.5t-48 -47.5t-66.5 -26t-74 -8q-56 0 -103 16t-84 58l80 75q23 -26 49.5 -42.5t64.5 -16.5q13 0 27 3t26 10t19.5 17.5t7.5 24.5q0 25 -19 37
t-48 19.5t-62.5 14t-62.5 21t-48 40.5t-19 72q0 40 16.5 69.5t43.5 48.5t62 28t71 9q48 0 95 -16.5t76 -56.5zM163 -60h122l-85 -198h-107z" />
    <glyph glyph-name="uni021A" unicode="&#x21a;" 
d="M224 594h-217v114h560v-114h-217v-594h-126v594zM249 -60h122l-85 -198h-107z" />
    <glyph glyph-name="uni021B" unicode="&#x21b;" horiz-adv-x="389" 
d="M12 378v102h99v139h120v-139h132v-102h-132v-210q0 -36 13.5 -57t53.5 -21q16 0 35 3.5t30 11.5v-101q-19 -9 -46.5 -12.5t-48.5 -3.5q-48 0 -78.5 10.5t-48 32t-24 53.5t-6.5 74v220h-99zM157 -60h122l-85 -198h-107z" />
    <glyph glyph-name="Hcaron" unicode="&#x21e;" horiz-adv-x="741" 
d="M79 708h126v-282h331v282h126v-708h-126v312h-331v-312h-126v708zM303 902l69 -90l69 90h110l-115 -144h-133l-114 144h114z" />
    <glyph glyph-name="hcaron" unicode="&#x21f;" 
d="M188 413h2q14 30 49.5 54.5t91.5 24.5q48 0 81.5 -16t54.5 -42t30 -60t9 -71v-303h-120v243q0 20 -2 44.5t-10.5 46t-26.5 36t-49 14.5q-30 0 -50.5 -10t-34 -27t-19.5 -39t-6 -46v-262h-120v756h120v-343zM220 950l69 -90l69 90h110l-115 -144h-133l-114 144h114z" />
    <glyph glyph-name="Adotaccent" unicode="&#x226;" horiz-adv-x="722" 
d="M308 708h109l305 -708h-144l-66 162h-307l-64 -162h-141zM468 270l-109 288l-111 -288h220zM284 830q0 29 21.5 50.5t54.5 21.5t55.5 -20.5t22.5 -51.5t-22.5 -51.5t-55.5 -20.5t-54.5 21.5t-21.5 50.5z" />
    <glyph glyph-name="adotaccent" unicode="&#x227;" horiz-adv-x="537" 
d="M368 66h-3q-26 -41 -66 -59.5t-88 -18.5q-33 0 -64.5 9t-56 27t-39.5 45t-15 63q0 39 14 66.5t37.5 46t54.5 29.5t64.5 16.5t67.5 7t64 1.5h30v13q0 45 -31 67.5t-79 22.5q-38 0 -71 -13.5t-57 -36.5l-63 63q40 41 93.5 59t110.5 18q51 0 86 -11.5t58 -29.5t35.5 -41.5
t18 -47.5t6.5 -46.5t1 -39.5v-276h-108v66zM361 215h-25q-25 0 -56 -2t-58.5 -9.5t-46.5 -22t-19 -40.5q0 -17 7.5 -28.5t19.5 -19.5t27 -11.5t30 -3.5q62 0 91.5 29.5t29.5 80.5v27zM179 615q0 29 21.5 50.5t54.5 21.5t55.5 -20.5t22.5 -51.5t-22.5 -51.5t-55.5 -20.5
t-54.5 21.5t-21.5 50.5z" />
    <glyph glyph-name="Ecedilla" unicode="&#x228;" horiz-adv-x="611" 
d="M79 708h469v-114h-343v-174h325v-114h-325v-192h361v-114h-487v708zM324 -60q22 0 43.5 -2t39 -10.5t28 -25t10.5 -45.5q0 -27 -13.5 -46t-33.5 -30t-45 -16t-47 -5q-56 0 -106 28l22 46q38 -20 82 -20q8 0 18 2t18.5 6.5t14.5 13t6 20.5q0 20 -17.5 28t-33.5 8
q-10 0 -19 -2t-18 -5l-27 25l62 90h58z" />
    <glyph glyph-name="ecedilla" unicode="&#x229;" 
d="M164 198q6 -54 42 -84t87 -30q45 0 75.5 18.5t53.5 46.5l86 -65q-42 -52 -94 -74t-109 -22q-54 0 -102 18t-83 51t-55.5 79.5t-20.5 103.5t20.5 103.5t55.5 79.5t83 51t102 18q50 0 91.5 -17.5t71 -50.5t46 -81.5t16.5 -111.5v-33h-366zM410 288q-1 53 -33 83.5t-89 30.5
q-54 0 -85.5 -31t-38.5 -83h246zM289 -71q22 0 43.5 -2t39 -10.5t28 -25t10.5 -45.5q0 -27 -13.5 -46t-33.5 -30t-45 -16t-47 -5q-56 0 -106 28l22 46q38 -20 82 -20q8 0 18 2t18.5 6.5t14.5 13t6 20.5q0 20 -17.5 28t-33.5 8q-10 0 -19 -2t-18 -5l-27 25l62 90h58z" />
    <glyph glyph-name="Odieresismacron" unicode="&#x22a;" horiz-adv-x="833" 
d="M41 351q0 85 28 154.5t77.5 118.5t118 75.5t150.5 26.5q83 1 152 -24.5t119 -74.5t78 -118t28 -154q0 -83 -28 -151t-78 -117t-119 -76.5t-152 -28.5q-82 0 -150.5 26.5t-118 75t-77.5 116.5t-28 151zM173 359q0 -57 17.5 -105t49.5 -83t76.5 -55t99.5 -20t100 20t77 55
t49.5 83t17.5 105q0 53 -17.5 99t-49.5 80.5t-77 54t-100 19.5t-99.5 -19.5t-76.5 -54t-49.5 -80.5t-17.5 -99zM236 849q0 29 21.5 50.5t54.5 21.5t55.5 -20.5t22.5 -51.5t-22.5 -51.5t-55.5 -20.5t-54.5 21.5t-21.5 50.5zM442 849q0 29 21.5 50.5t54.5 21.5t55.5 -20.5
t22.5 -51.5t-22.5 -51.5t-55.5 -20.5t-54.5 21.5t-21.5 50.5zM576 971h-320v78h320v-78z" />
    <glyph glyph-name="odieresismacron" unicode="&#x22b;" horiz-adv-x="610" 
d="M44 240q0 57 20.5 103.5t55.5 79.5t83 51t102 18t102 -18t83 -51t55.5 -79.5t20.5 -103.5t-20.5 -103.5t-55.5 -79.5t-83 -51t-102 -18t-102 18t-83 51t-55.5 79.5t-20.5 103.5zM164 240q0 -28 9.5 -54t28 -46t44.5 -32t59 -12t59 12t44.5 32t28 46t9.5 54t-9.5 54
t-28 46t-44.5 32t-59 12t-59 -12t-44.5 -32t-28 -46t-9.5 -54zM125 615q0 29 21.5 50.5t54.5 21.5t55.5 -20.5t22.5 -51.5t-22.5 -51.5t-55.5 -20.5t-54.5 21.5t-21.5 50.5zM331 615q0 29 21.5 50.5t54.5 21.5t55.5 -20.5t22.5 -51.5t-22.5 -51.5t-55.5 -20.5t-54.5 21.5
t-21.5 50.5zM465 736h-320v78h320v-78z" />
    <glyph glyph-name="Otildemacron" unicode="&#x22c;" horiz-adv-x="833" 
d="M41 351q0 85 28 154.5t77.5 118.5t118 75.5t150.5 26.5q83 1 152 -24.5t119 -74.5t78 -118t28 -154q0 -83 -28 -151t-78 -117t-119 -76.5t-152 -28.5q-82 0 -150.5 26.5t-118 75t-77.5 116.5t-28 151zM173 359q0 -57 17.5 -105t49.5 -83t76.5 -55t99.5 -20t100 20t77 55
t49.5 83t17.5 105q0 53 -17.5 99t-49.5 80.5t-77 54t-100 19.5t-99.5 -19.5t-76.5 -54t-49.5 -80.5t-17.5 -99zM232 777q4 24 11.5 47t20.5 40.5t32.5 28.5t47.5 11q20 0 40.5 -6t39.5 -12.5t35.5 -12.5t28.5 -6q20 0 30.5 12.5t15.5 29.5h66q-4 -24 -11.5 -47t-20.5 -40.5
t-32.5 -28.5t-47.5 -11q-20 0 -40.5 6t-39.5 13t-35.5 13t-28.5 6q-20 0 -30.5 -13t-15.5 -30h-66zM576 959h-320v78h320v-78z" />
    <glyph glyph-name="otildemacron" unicode="&#x22d;" horiz-adv-x="610" 
d="M44 240q0 57 20.5 103.5t55.5 79.5t83 51t102 18t102 -18t83 -51t55.5 -79.5t20.5 -103.5t-20.5 -103.5t-55.5 -79.5t-83 -51t-102 -18t-102 18t-83 51t-55.5 79.5t-20.5 103.5zM164 240q0 -28 9.5 -54t28 -46t44.5 -32t59 -12t59 12t44.5 32t28 46t9.5 54t-9.5 54
t-28 46t-44.5 32t-59 12t-59 -12t-44.5 -32t-28 -46t-9.5 -54zM121 543q4 24 11.5 47t20.5 40.5t32.5 28.5t47.5 11q20 0 40.5 -6t39.5 -12.5t35.5 -12.5t28.5 -6q20 0 30.5 12.5t15.5 29.5h66q-4 -24 -11.5 -47t-20.5 -40.5t-32.5 -28.5t-47.5 -11q-20 0 -40.5 6t-39.5 13
t-35.5 13t-28.5 6q-20 0 -30.5 -13t-15.5 -30h-66zM465 724h-320v78h320v-78z" />
    <glyph glyph-name="Odotaccent" unicode="&#x22e;" horiz-adv-x="833" 
d="M41 351q0 85 28 154.5t77.5 118.5t118 75.5t150.5 26.5q83 1 152 -24.5t119 -74.5t78 -118t28 -154q0 -83 -28 -151t-78 -117t-119 -76.5t-152 -28.5q-82 0 -150.5 26.5t-118 75t-77.5 116.5t-28 151zM173 359q0 -57 17.5 -105t49.5 -83t76.5 -55t99.5 -20t100 20t77 55
t49.5 83t17.5 105q0 53 -17.5 99t-49.5 80.5t-77 54t-100 19.5t-99.5 -19.5t-76.5 -54t-49.5 -80.5t-17.5 -99zM339 849q0 29 21.5 50.5t54.5 21.5t55.5 -20.5t22.5 -51.5t-22.5 -51.5t-55.5 -20.5t-54.5 21.5t-21.5 50.5z" />
    <glyph glyph-name="odotaccent" unicode="&#x22f;" horiz-adv-x="610" 
d="M44 240q0 57 20.5 103.5t55.5 79.5t83 51t102 18t102 -18t83 -51t55.5 -79.5t20.5 -103.5t-20.5 -103.5t-55.5 -79.5t-83 -51t-102 -18t-102 18t-83 51t-55.5 79.5t-20.5 103.5zM164 240q0 -28 9.5 -54t28 -46t44.5 -32t59 -12t59 12t44.5 32t28 46t9.5 54t-9.5 54
t-28 46t-44.5 32t-59 12t-59 -12t-44.5 -32t-28 -46t-9.5 -54zM228 615q0 29 21.5 50.5t54.5 21.5t55.5 -20.5t22.5 -51.5t-22.5 -51.5t-55.5 -20.5t-54.5 21.5t-21.5 50.5z" />
    <glyph glyph-name="Odotaccentmacron" unicode="&#x230;" horiz-adv-x="833" 
d="M41 351q0 85 28 154.5t77.5 118.5t118 75.5t150.5 26.5q83 1 152 -24.5t119 -74.5t78 -118t28 -154q0 -83 -28 -151t-78 -117t-119 -76.5t-152 -28.5q-82 0 -150.5 26.5t-118 75t-77.5 116.5t-28 151zM173 359q0 -57 17.5 -105t49.5 -83t76.5 -55t99.5 -20t100 20t77 55
t49.5 83t17.5 105q0 53 -17.5 99t-49.5 80.5t-77 54t-100 19.5t-99.5 -19.5t-76.5 -54t-49.5 -80.5t-17.5 -99zM339 849q0 29 21.5 50.5t54.5 21.5t55.5 -20.5t22.5 -51.5t-22.5 -51.5t-55.5 -20.5t-54.5 21.5t-21.5 50.5zM576 971h-320v78h320v-78z" />
    <glyph glyph-name="odotaccentmacron" unicode="&#x231;" horiz-adv-x="610" 
d="M44 240q0 57 20.5 103.5t55.5 79.5t83 51t102 18t102 -18t83 -51t55.5 -79.5t20.5 -103.5t-20.5 -103.5t-55.5 -79.5t-83 -51t-102 -18t-102 18t-83 51t-55.5 79.5t-20.5 103.5zM164 240q0 -28 9.5 -54t28 -46t44.5 -32t59 -12t59 12t44.5 32t28 46t9.5 54t-9.5 54
t-28 46t-44.5 32t-59 12t-59 -12t-44.5 -32t-28 -46t-9.5 -54zM228 615q0 29 21.5 50.5t54.5 21.5t55.5 -20.5t22.5 -51.5t-22.5 -51.5t-55.5 -20.5t-54.5 21.5t-21.5 50.5zM465 736h-320v78h320v-78z" />
    <glyph glyph-name="Ymacron" unicode="&#x232;" horiz-adv-x="630" 
d="M252 303l-266 405h158l174 -282l176 282h150l-266 -405v-303h-126v303zM475 758h-320v78h320v-78z" />
    <glyph glyph-name="ymacron" unicode="&#x233;" horiz-adv-x="519" 
d="M3 480h132l134 -333h2l120 333h125l-227 -583q-13 -34 -28.5 -59.5t-36.5 -43t-49.5 -26t-68.5 -8.5q-47 0 -92 12l15 108q14 -5 29.5 -8.5t31.5 -3.5q22 0 37 4t25.5 12.5t17.5 22t15 32.5l23 57zM419 531h-320v78h320v-78z" />
    <glyph glyph-name="dotlessj" unicode="&#x237;" horiz-adv-x="260" 
d="M190 480v-509q0 -45 -6 -83.5t-23.5 -67t-49.5 -44.5t-83 -16q-17 0 -33 2t-32 7l9 104q10 -2 19 -3.5t19 -1.5q22 0 34.5 9.5t18 24.5t6.5 33t1 35v510h120z" />
    <glyph glyph-name="commaturnedmod" unicode="&#x2bb;" horiz-adv-x="296" 
d="M174 444h-122l85 264h107z" />
    <glyph glyph-name="afii57929" unicode="&#x2bc;" horiz-adv-x="296" 
d="M122 708h122l-85 -264h-107z" />
    <glyph glyph-name="circumflex" unicode="&#x2c6;" horiz-adv-x="260" 
d="M198 564l-69 90l-69 -90h-112l115 144h135l114 -144h-114z" />
    <glyph glyph-name="caron" unicode="&#x2c7;" horiz-adv-x="260" 
d="M63 708l69 -90l69 90h110l-115 -144h-133l-114 144h114z" />
    <glyph glyph-name="uni02C9" unicode="&#x2c9;" horiz-adv-x="260" 
d="M290 595h-320v78h320v-78z" />
    <glyph glyph-name="breve" unicode="&#x2d8;" horiz-adv-x="260" 
d="M27 708q7 -38 36 -52t67 -14q43 0 68 12t36 54h66q-8 -74 -53.5 -109t-117.5 -35t-118 34.5t-51 109.5h67z" />
    <glyph glyph-name="dotaccent" unicode="&#x2d9;" horiz-adv-x="260" 
d="M53 636q0 29 21.5 50.5t54.5 21.5t55.5 -20.5t22.5 -51.5t-22.5 -51.5t-55.5 -20.5t-54.5 21.5t-21.5 50.5z" />
    <glyph glyph-name="ring" unicode="&#x2da;" horiz-adv-x="260" 
d="M235 655q0 -45 -30 -73.5t-75 -28.5t-75 28.5t-30 72.5q0 22 8 41t22 32.5t33 21.5t42 8q45 0 75 -28.5t30 -73.5zM187 655q0 23 -17 38.5t-40 15.5t-40 -15.5t-17 -38.5t17 -38.5t40 -15.5t40 15t17 39z" />
    <glyph glyph-name="ogonek" unicode="&#x2db;" horiz-adv-x="260" 
d="M202 -196q-21 -17 -46.5 -27.5t-53.5 -10.5q-20 0 -38.5 5.5t-33 17t-23 28t-8.5 38.5q0 21 9.5 43t24.5 41.5t32.5 37t33.5 29.5h61q-12 -10 -26 -25t-27 -32.5t-21.5 -36t-8.5 -34.5q0 -19 13.5 -32.5t32.5 -13.5q14 0 28.5 6t25.5 15z" />
    <glyph glyph-name="tilde" unicode="&#x2dc;" horiz-adv-x="260" 
d="M-54 568q4 24 11.5 47t20.5 40.5t32.5 28.5t47.5 11q20 0 40.5 -6t39.5 -12.5t35.5 -12.5t28.5 -6q20 0 30.5 12.5t15.5 29.5h66q-4 -24 -11.5 -47t-20.5 -40.5t-32.5 -28.5t-47.5 -11q-20 0 -40.5 6t-39.5 13t-35.5 13t-28.5 6q-20 0 -30.5 -13t-15.5 -30h-66z" />
    <glyph glyph-name="hungarumlaut" unicode="&#x2dd;" horiz-adv-x="260" 
d="M79 708h136l-141 -144h-94zM284 708h136l-141 -144h-94z" />
    <glyph glyph-name="uni02EE" unicode="&#x2ee;" horiz-adv-x="519" 
d="M339 708h122l-85 -264h-107zM128 708h122l-85 -264h-107z" />
    <glyph glyph-name="gravecmb" unicode="&#x300;" horiz-adv-x="0" 
d="M-25 564h-94l-141 144h136z" />
    <glyph glyph-name="acutecmb" unicode="&#x301;" horiz-adv-x="0" 
d="M-161 708h136l-141 -144h-94z" />
    <glyph glyph-name="circumflexcmb" unicode="&#x302;" horiz-adv-x="0" 
d="M-10 564l-69 90l-69 -90h-112l115 144h135l114 -144h-114z" />
    <glyph glyph-name="tildecmb" unicode="&#x303;" horiz-adv-x="0" 
d="M-260 568q4 24 11.5 47t20.5 40.5t32.5 28.5t47.5 11q20 0 40.5 -6t39.5 -12.5t35.5 -12.5t28.5 -6q20 0 30.5 12.5t15.5 29.5h66q-4 -24 -11.5 -47t-20.5 -40.5t-32.5 -28.5t-47.5 -11q-20 0 -40.5 6t-39.5 13t-35.5 13t-28.5 6q-20 0 -30.5 -13t-15.5 -30h-66z" />
    <glyph glyph-name="macroncmb" unicode="&#x304;" horiz-adv-x="0" 
d="M60 595h-320v78h320v-78z" />
    <glyph glyph-name="brevecmb" unicode="&#x306;" horiz-adv-x="0" 
d="M-193 708q7 -38 36 -52t67 -14q43 0 68 12t36 54h66q-8 -74 -53.5 -109t-117.5 -35t-118 34.5t-51 109.5h67z" />
    <glyph glyph-name="dotaccentcmb" unicode="&#x307;" horiz-adv-x="0" 
d="M-260 636q0 29 21.5 50.5t54.5 21.5t55.5 -20.5t22.5 -51.5t-22.5 -51.5t-55.5 -20.5t-54.5 21.5t-21.5 50.5z" />
    <glyph glyph-name="dieresiscmb" unicode="&#x308;" horiz-adv-x="0" 
d="M-260 636q0 29 21.5 50.5t54.5 21.5t55.5 -20.5t22.5 -51.5t-22.5 -51.5t-55.5 -20.5t-54.5 21.5t-21.5 50.5zM-54 636q0 29 21.5 50.5t54.5 21.5t55.5 -20.5t22.5 -51.5t-22.5 -51.5t-55.5 -20.5t-54.5 21.5t-21.5 50.5z" />
    <glyph glyph-name="hookabovecmb" unicode="&#x309;" horiz-adv-x="0" 
d="M-292 600q0 21 7.5 33.5t30.5 26.5q21 13 21 28q0 20 -23 20q-26 0 -32 -37l-76 9q5 42 34 63.5t76 21.5q49 0 76 -21.5t27 -51.5q0 -26 -11 -41t-37 -26q-14 -6 -19.5 -12t-5.5 -13h-68z" />
    <glyph glyph-name="ringcmb" unicode="&#x30a;" horiz-adv-x="0" 
d="M-50 655q0 -45 -30 -73.5t-75 -28.5t-75 28.5t-30 72.5q0 22 8 41t22 32.5t33 21.5t42 8q45 0 75 -28.5t30 -73.5zM-98 655q0 23 -17 38.5t-40 15.5t-40 -15.5t-17 -38.5t17 -38.5t40 -15.5t40 15t17 39z" />
    <glyph glyph-name="hungarumlautcmb" unicode="&#x30b;" horiz-adv-x="0" 
d="M-161 708h136l-141 -144h-94zM44 708h136l-141 -144h-94z" />
    <glyph glyph-name="caroncmb" unicode="&#x30c;" horiz-adv-x="0" 
d="M-146 708l69 -90l69 90h110l-115 -144h-133l-114 144h114z" />
    <glyph glyph-name="doublegravecmb" unicode="&#x30f;" horiz-adv-x="0" 
d="M-25 564h-94l-141 144h136zM-215 564h-94l-141 144h136z" />
    <glyph glyph-name="invertedbrevecmb" unicode="&#x311;" horiz-adv-x="0" 
d="M-273 708q7 -38 36 -52t67 -14q43 0 68 12t36 54h66q-8 -74 -53.5 -109t-117.5 -35t-118 34.5t-51 109.5h67z" />
    <glyph glyph-name="horncmb" unicode="&#x31b;" horiz-adv-x="0" 
d="M-226 688h122l-85 -264h-107z" />
    <glyph glyph-name="dotbelowcmb" unicode="&#x323;" horiz-adv-x="0" 
d="M-296 -148q0 32 23.5 55t56.5 23q32 0 56 -22t24 -54t-23.5 -55t-56.5 -23q-16 0 -30.5 6t-25.5 16t-17.5 24t-6.5 30z" />
    <glyph glyph-name="dieresisbelowcmb" unicode="&#x324;" horiz-adv-x="0" 
d="M-260 -142q0 29 21.5 50.5t54.5 21.5t55.5 -20.5t22.5 -51.5t-22.5 -51.5t-55.5 -20.5t-54.5 21.5t-21.5 50.5zM-54 -142q0 29 21.5 50.5t54.5 21.5t55.5 -20.5t22.5 -51.5t-22.5 -51.5t-55.5 -20.5t-54.5 21.5t-21.5 50.5z" />
    <glyph glyph-name="ringbelowcmb" unicode="&#x325;" horiz-adv-x="0" 
d="M-50 -172q0 -45 -30 -73.5t-75 -28.5t-75 28.5t-30 72.5q0 22 8 41t22 32.5t33 21.5t42 8q45 0 75 -28.5t30 -73.5zM-98 -172q0 23 -17 38.5t-40 15.5t-40 -15.5t-17 -38.5t17 -38.5t40 -15.5t40 15t17 39z" />
    <glyph glyph-name="commabelowcmb" unicode="&#x326;" horiz-adv-x="0" 
d="M-226 -70h122l-85 -264h-107z" />
    <glyph glyph-name="cedillacmb" unicode="&#x327;" horiz-adv-x="0" 
d="M-136 -60q22 0 43.5 -2t39 -10.5t28 -25t10.5 -45.5q0 -27 -13.5 -46t-33.5 -30t-45 -16t-47 -5q-56 0 -106 28l22 46q38 -20 82 -20q8 0 18 2t18.5 6.5t14.5 13t6 20.5q0 20 -17.5 28t-33.5 8q-10 0 -19 -2t-18 -5l-27 25l62 90h58z" />
    <glyph glyph-name="ogonekcmb" unicode="&#x328;" horiz-adv-x="0" 
d="M-57 -196q-21 -17 -46.5 -27.5t-53.5 -10.5q-20 0 -38.5 5.5t-33 17t-23 28t-8.5 38.5q0 21 9.5 43t24.5 41.5t32.5 37t33.5 29.5h61q-12 -10 -26 -25t-27 -32.5t-21.5 -36t-8.5 -34.5q0 -19 13.5 -32.5t32.5 -13.5q14 0 28.5 6t25.5 15z" />
    <glyph glyph-name="circumflexbelowcmb" unicode="&#x32d;" horiz-adv-x="0" 
d="M-10 -214l-69 90l-69 -90h-112l115 144h135l114 -144h-114z" />
    <glyph glyph-name="brevebelowcmb" unicode="&#x32e;" horiz-adv-x="0" 
d="M-193 -70q7 -38 36 -52t67 -14q43 0 68 12t36 54h66q-8 -74 -53.5 -109t-117.5 -35t-118 34.5t-51 109.5h67z" />
    <glyph glyph-name="tildebelowcmb" unicode="&#x330;" horiz-adv-x="0" 
d="M-260 -202q4 24 11.5 47t20.5 40.5t32.5 28.5t47.5 11q20 0 40.5 -6t39.5 -12.5t35.5 -12.5t28.5 -6q20 0 30.5 12.5t15.5 29.5h66q-4 -24 -11.5 -47t-20.5 -40.5t-32.5 -28.5t-47.5 -11q-20 0 -40.5 6t-39.5 13t-35.5 13t-28.5 6q-20 0 -30.5 -13t-15.5 -30h-66z" />
    <glyph glyph-name="macronbelowcmb" unicode="&#x331;" horiz-adv-x="0" 
d="M60 -148h-320v78h320v-78z" />
    <glyph glyph-name="gravetonecmb" unicode="&#x340;" horiz-adv-x="0" 
d="M-25 564h-94l-141 144h136z" />
    <glyph glyph-name="acutetonecmb" unicode="&#x341;" horiz-adv-x="0" 
d="M-161 708h136l-141 -144h-94z" />
    <glyph glyph-name="dialytikatonoscmb" unicode="&#x344;" horiz-adv-x="0" 
d="M-260 636q0 29 21.5 50.5t54.5 21.5t55.5 -20.5t22.5 -51.5t-22.5 -51.5t-55.5 -20.5t-54.5 21.5t-21.5 50.5zM-54 636q0 29 21.5 50.5t54.5 21.5t55.5 -20.5t22.5 -51.5t-22.5 -51.5t-55.5 -20.5t-54.5 21.5t-21.5 50.5zM-99 902h136l-141 -144h-94z" />
    <glyph glyph-name="questiongreek" unicode="&#x37e;" horiz-adv-x="296" 
d="M108 138h122l-85 -264h-107zM68 409q0 32 23.5 55t56.5 23q32 0 56 -22t24 -54t-23.5 -55t-56.5 -23q-16 0 -30.5 6t-25.5 16t-17.5 24t-6.5 30z" />
    <glyph glyph-name="u0384" unicode="&#x384;" horiz-adv-x="260" 
d="M78 748h103l-10 -203h-82z" />
    <glyph glyph-name="u0385" unicode="&#x385;" horiz-adv-x="240" 
d="M-90 596q0 22 16 39t40 17t40 -17t16 -39q0 -21 -16 -38.5t-40 -17.5t-40 17.5t-16 38.5zM212 596q0 22 16 39t40 17t40 -17t16 -39q0 -21 -16 -38.5t-40 -17.5t-40 17.5t-16 38.5zM73 759h91l-10 -215h-70z" />
    <glyph glyph-name="u0386" unicode="&#x386;" horiz-adv-x="732" 
d="M58 764h103l-10 -203h-82zM153 0h-143l301 708h127l298 -708h-146l-64 158h-311zM256 266h231l-115 296z" />
    <glyph glyph-name="anoteleia" unicode="&#x387;" horiz-adv-x="296" 
d="M68 291q0 32 23.5 55t56.5 23q32 0 56 -22t24 -54t-23.5 -55t-56.5 -23q-16 0 -30.5 6t-25.5 16t-17.5 24t-6.5 30z" />
    <glyph glyph-name="u0388" unicode="&#x388;" horiz-adv-x="689" 
d="M0 764h103l-10 -203h-82zM297 113h349v-113h-477v708h461v-113h-333v-177h314v-107h-314v-198z" />
    <glyph glyph-name="u0389" unicode="&#x389;" horiz-adv-x="828" 
d="M0 764h103l-10 -203h-82zM164 708h132v-284h319v284h132v-708h-132v312h-319v-312h-132v708z" />
    <glyph glyph-name="u038A" unicode="&#x38a;" horiz-adv-x="382" 
d="M0 764h103l-10 -203h-82zM300 0h-132v708h132v-708z" />
    <glyph glyph-name="u038C" unicode="&#x38c;" horiz-adv-x="920" 
d="M0 764h103l-10 -203h-82zM873 356q0 -83 -28.5 -152t-79 -118.5t-120 -77t-151.5 -27.5q-81 0 -150.5 27.5t-120 77t-79 118.5t-28.5 152t28.5 151.5t79 117t120 75.5t150.5 27q82 0 151.5 -27t120 -75.5t79 -117t28.5 -151.5zM733 356q0 52 -17 98.5t-48 80.5t-75.5 54
t-98.5 20t-98 -20t-75 -54t-48 -80.5t-17 -98.5q0 -54 17 -100.5t48 -81t75 -54t98 -19.5t98 19.5t75.5 54t48.5 81t17 100.5z" />
    <glyph glyph-name="u038E" unicode="&#x38e;" horiz-adv-x="804" 
d="M0 764h103l-10 -203h-82zM547 0h-132v302l-265 406h160l176 -294l176 294h154l-269 -406v-302z" />
    <glyph glyph-name="u038F" unicode="&#x38f;" horiz-adv-x="869" 
d="M-1 723h103l-10 -203h-82zM525 0v194q79 20 123.5 70.5t44.5 136.5q0 100 -58.5 154t-155.5 54q-48 0 -89 -14t-70 -40.5t-45.5 -65t-16.5 -88.5q0 -44 13 -80t36.5 -62t55.5 -42.5t70 -22.5v-194h-295v101h188v35q-40 7 -77.5 30t-67 58.5t-47 81.5t-17.5 100
q0 74 28.5 133.5t78 101t116 63.5t141.5 22q74 0 138.5 -23t112 -65t75 -100.5t27.5 -130.5q0 -53 -19 -99t-49 -82t-67.5 -59.5t-74.5 -30.5v-35h195v-101h-294z" />
    <glyph glyph-name="u0390" unicode="&#x390;" horiz-adv-x="398" 
d="M-7 608q0 22 16 39t40 17t40 -17t16 -39q0 -21 -16 -38.5t-40 -17.5t-40 17.5t-16 38.5zM295 608q0 22 16 39t40 17t40 -17t16 -39q0 -21 -16 -38.5t-40 -17.5t-40 17.5t-16 38.5zM156 771h91l-10 -215h-70zM261 0h-126v486h126v-486z" />
    <glyph glyph-name="u0391" unicode="&#x391;" horiz-adv-x="717" 
d="M139 0h-143l300 708h128l298 -708h-146l-64 158h-311zM241 266h232l-116 296z" />
    <glyph glyph-name="u0392" unicode="&#x392;" horiz-adv-x="653" 
d="M81 708h254q41 0 83 -8.5t76 -29t55.5 -55.5t21.5 -89q0 -57 -33 -97t-87 -55v-2q32 -5 59.5 -18.5t48 -35t32 -51t11.5 -65.5q0 -53 -21 -91t-57.5 -62.5t-85 -36.5t-103.5 -12h-254v708zM209 415h113q25 0 47 5.5t38.5 17t26 29.5t9.5 44q0 48 -36.5 69.5t-96.5 21.5
h-101v-187zM209 108h111q28 0 55 5t48 17t34 32.5t13 50.5q0 55 -38.5 79t-106.5 24h-116v-208z" />
    <glyph glyph-name="u0393" unicode="&#x393;" horiz-adv-x="518" 
d="M213 0h-132v708h429v-115h-297v-593z" />
    <glyph glyph-name="u0394" unicode="&#x394;" horiz-adv-x="747" 
d="M41 0v109l267 599h130l268 -598v-110h-665zM370 567l-195 -455h389z" />
    <glyph glyph-name="u0395" unicode="&#x395;" horiz-adv-x="601" 
d="M209 113h349v-113h-477v708h462v-113h-334v-177h314v-107h-314v-198z" />
    <glyph glyph-name="u0396" unicode="&#x396;" horiz-adv-x="610" 
d="M568 602l-372 -488h379v-114h-539v113l368 482h-359v113h523v-106z" />
    <glyph glyph-name="u0397" unicode="&#x397;" horiz-adv-x="746" 
d="M81 708h132v-284h320v284h131v-708h-131v312h-320v-312h-132v708z" />
    <glyph glyph-name="u0398" unicode="&#x398;" horiz-adv-x="851" 
d="M804 356q0 -83 -28.5 -152t-79 -118.5t-120 -77t-151.5 -27.5q-81 0 -150.5 27.5t-120.5 77t-79.5 118.5t-28.5 152t28.5 151.5t79.5 117t120.5 75.5t150.5 27q82 0 151.5 -27t120 -75.5t79 -117t28.5 -151.5zM425 101q48 0 88 16t70.5 44t50 66.5t26.5 83.5h-470
q7 -45 26.5 -83.5t49.5 -66.5t70.5 -44t88.5 -16zM425 609q-48 0 -87.5 -15t-69.5 -42t-50 -64t-27 -80h468q-8 43 -27.5 80t-49.5 64t-70 42t-87 15z" />
    <glyph glyph-name="u0399" unicode="&#x399;" horiz-adv-x="295" 
d="M213 0h-132v708h132v-708z" />
    <glyph glyph-name="u039A" unicode="&#x39a;" horiz-adv-x="678" 
d="M211 408h2l287 300h170l-326 -324l344 -384h-176l-299 346h-2v-346h-130v708h130v-300z" />
    <glyph glyph-name="u039B" unicode="&#x39b;" horiz-adv-x="717" 
d="M145 0h-142l288 708h133l290 -708h-144l-213 530z" />
    <glyph glyph-name="u039C" unicode="&#x39c;" horiz-adv-x="927" 
d="M464 201h3l187 507h192v-708h-129l2 546h-2l-213 -546h-87l-210 546h-3l3 -546h-126v708h190z" />
    <glyph glyph-name="u039D" unicode="&#x39d;" horiz-adv-x="780" 
d="M570 190h2l-2 518h128v-708h-152l-336 521h-3l3 -521h-129v708h153z" />
    <glyph glyph-name="u039E" unicode="&#x39e;" horiz-adv-x="592" 
d="M543 708v-113h-500v113h500zM504 415v-105h-425v105h425zM549 113v-113h-506v113h506z" />
    <glyph glyph-name="u039F" unicode="&#x39f;" horiz-adv-x="851" 
d="M804 356q0 -83 -28.5 -152t-79 -118.5t-120 -77t-151.5 -27.5q-81 0 -150.5 27.5t-120.5 77t-79.5 118.5t-28.5 152t28.5 151.5t79.5 117t120.5 75.5t150.5 27q82 0 151.5 -27t120 -75.5t79 -117t28.5 -151.5zM664 356q0 52 -17 98.5t-48 80.5t-75.5 54t-98.5 20t-98 -20
t-75 -54t-48 -80.5t-17 -98.5q0 -54 17 -100.5t48 -81t75 -54t98 -19.5t98 19.5t75.5 54t48.5 81t17 100.5z" />
    <glyph glyph-name="u03A0" unicode="&#x3a0;" horiz-adv-x="727" 
d="M645 708v-708h-130v595h-303v-595h-131v708h564z" />
    <glyph glyph-name="u03A1" unicode="&#x3a1;" horiz-adv-x="616" 
d="M81 708h236q57 0 105 -11.5t83 -36t54.5 -64t19.5 -94.5q0 -56 -20.5 -96t-56.5 -65.5t-84.5 -37t-103.5 -11.5h-101v-292h-132v708zM213 398h92q62 0 102.5 23.5t40.5 79.5q0 28 -11 47.5t-29.5 30.5t-44.5 16t-56 5h-94v-202z" />
    <glyph glyph-name="u03A3" unicode="&#x3a3;" horiz-adv-x="610" 
d="M58 0v90l265 263v6l-265 258v91h502v-109h-330l254 -237v-11l-239 -242h323v-109h-510z" />
    <glyph glyph-name="u03A4" unicode="&#x3a4;" horiz-adv-x="577" 
d="M354 0h-131v595h-215v113h561v-113h-215v-595z" />
    <glyph glyph-name="u03A5" unicode="&#x3a5;" horiz-adv-x="642" 
d="M385 0h-131v302l-266 406h160l176 -294l177 294h153l-269 -406v-302z" />
    <glyph glyph-name="u03A6" unicode="&#x3a6;" horiz-adv-x="905" 
d="M516 696q75 -9 138.5 -37t109.5 -72t71.5 -103t25.5 -130t-25.5 -130.5t-71.5 -104t-109.5 -72.5t-138.5 -36v-74h-125v74q-75 8 -139 36t-110 72.5t-72 104t-26 130.5t26 130.5t72 103.5t110 72t139 36v68h125v-68zM184 354q0 -43 13.5 -80.5t39.5 -66.5t65 -49t89 -27
v446q-50 -8 -89 -27.5t-65 -49t-39.5 -67t-13.5 -79.5zM721 354q0 85 -53 146t-152 77v-445q49 7 87.5 27t64.5 49t39.5 66.5t13.5 79.5z" />
    <glyph glyph-name="u03A7" unicode="&#x3a7;" horiz-adv-x="681" 
d="M340 462l156 246h153l-228 -335l258 -373h-163l-179 278l-176 -278h-158l253 373l-232 335h160z" />
    <glyph glyph-name="u03A8" unicode="&#x3a8;" horiz-adv-x="872" 
d="M501 249h19q71 0 112 41.5t41 119.5v298h131v-320q0 -64 -22.5 -112t-61 -80t-90 -48t-109.5 -16h-20v-132h-131v132h-24q-58 0 -108.5 16t-88 48t-59.5 80t-22 112v320h131v-298q0 -78 40.5 -119.5t111.5 -41.5h19v459h131v-459z" />
    <glyph glyph-name="u03A9" unicode="&#x3a9;" horiz-adv-x="787" 
d="M443 0v194q79 20 123.5 70.5t44.5 136.5q0 100 -58.5 154t-155.5 54q-48 0 -89 -14t-70 -40.5t-45.5 -65t-16.5 -88.5q0 -44 13 -80t36.5 -62t55.5 -42.5t70 -22.5v-194h-294v101h187v35q-40 7 -77.5 30t-66.5 58.5t-46.5 81.5t-17.5 100q0 74 28.5 133.5t78 101
t115.5 63.5t141 22q74 0 138.5 -23t112 -65t75 -100.5t27.5 -130.5q0 -53 -19 -99t-49 -82t-67.5 -59.5t-74.5 -30.5v-35h195v-101h-294z" />
    <glyph glyph-name="u03AA" unicode="&#x3aa;" horiz-adv-x="295" 
d="M213 0h-132v708h132v-708zM-27 849q0 27 20.5 48t50.5 21q29 0 49.5 -20.5t20.5 -48.5q0 -29 -20.5 -49.5t-49.5 -20.5q-30 0 -50.5 20.5t-20.5 49.5zM181 849q0 27 20 48t50 21q29 0 49.5 -20.5t20.5 -48.5q0 -29 -20.5 -49.5t-49.5 -20.5q-30 0 -50 20.5t-20 49.5z" />
    <glyph glyph-name="u03AB" unicode="&#x3ab;" horiz-adv-x="642" 
d="M385 0h-131v302l-266 406h160l176 -294l177 294h153l-269 -406v-302zM150 849q0 27 20.5 48t49.5 21q30 0 50.5 -20.5t20.5 -48.5q0 -29 -20.5 -49.5t-50.5 -20.5q-29 0 -49.5 20.5t-20.5 49.5zM358 849q0 27 20 48t50 21q29 0 49.5 -20.5t20.5 -48.5q0 -29 -20.5 -49.5
t-49.5 -20.5q-30 0 -50 20.5t-20 49.5z" />
    <glyph glyph-name="u03AC" unicode="&#x3ac;" horiz-adv-x="638" 
d="M278 758h103l-10 -203h-82zM449 71q-26 -41 -72 -62.5t-96 -21.5q-56 0 -100.5 20.5t-75 56t-47 82t-16.5 98.5t16.5 98.5t47.5 81t75 55t99 20.5q53 0 95 -22t67 -55h2v65h125v-487h-118v71h-2zM165 244q0 -30 9 -57.5t27 -48.5t44.5 -33.5t61.5 -12.5q32 0 58.5 12
t45.5 33t29.5 48.5t10.5 58.5q0 30 -10.5 57.5t-29.5 48.5t-45.5 33.5t-58.5 12.5q-35 0 -61.5 -12.5t-44.5 -33.5t-27 -48.5t-9 -57.5z" />
    <glyph glyph-name="u03AD" unicode="&#x3ad;" horiz-adv-x="535" 
d="M317 758l-10 -203h-82l-11 203h103zM422 347q-13 15 -32 26q-17 10 -43 18t-62 8q-22 0 -42 -3.5t-35.5 -10t-24.5 -17t-9 -24.5q0 -15 10.5 -26t28 -17.5t40.5 -9.5t48 -3h85v-89h-77q-71 0 -107.5 -12t-36.5 -43q0 -15 10.5 -25.5t27.5 -16.5t38 -8.5t42 -2.5
q44 0 73.5 7.5t49.5 17.5q22 11 37 26l64 -74q-5 -6 -21 -19.5t-44.5 -27.5t-70 -24.5t-97.5 -10.5q-47 0 -90 8.5t-75.5 26t-51.5 44t-19 62.5q0 31 12.5 52.5t30.5 36t38.5 21.5t36.5 9v3q-16 4 -34 12.5t-33.5 22t-25.5 32.5t-10 44q0 33 18 59t49 44.5t73 28t90 9.5
q51 0 87.5 -10t62 -24t40.5 -28.5t21 -24.5z" />
    <glyph glyph-name="u03AE" unicode="&#x3ae;" horiz-adv-x="610" 
d="M252 758h103l-10 -203h-82zM194 486q1 -18 1.5 -37.5t0.5 -35.5h2q9 18 25 33.5t37 27.5t45.5 18.5t49.5 6.5q48 0 83 -16t58 -43.5t34 -63.5t11 -76v-540h-125v507q0 27 -5 50.5t-17 40.5t-31.5 27t-48.5 10q-51 0 -82 -37t-31 -100v-258h-127v360v62t-1 64h121z" />
    <glyph glyph-name="u03AF" unicode="&#x3af;" horiz-adv-x="259" 
d="M190 0h-125v486h125v-486zM77 799h103l-10 -203h-82z" />
    <glyph glyph-name="u03B0" unicode="&#x3b0;" horiz-adv-x="601" 
d="M299 -13q-64 0 -107.5 18t-70.5 48t-39 68t-12 78v287h126v-263q0 -26 5 -49.5t17 -41.5t32 -28.5t50 -10.5t50.5 10.5t32.5 28.5t17.5 41.5t5.5 49.5v263h126v-287q0 -40 -12.5 -78t-40.5 -68t-72 -48t-108 -18zM92 608q0 22 16 39t40 17t40 -17t16 -39q0 -21 -16 -38.5
t-40 -17.5t-40 17.5t-16 38.5zM394 608q0 22 16 39t40 17t40 -17t16 -39q0 -21 -16 -38.5t-40 -17.5t-40 17.5t-16 38.5zM255 771h91l-10 -215h-70z" />
    <glyph glyph-name="u03B1" unicode="&#x3b1;" horiz-adv-x="638" 
d="M449 71q-26 -41 -72 -62.5t-96 -21.5q-56 0 -100.5 20.5t-75 56t-47 82t-16.5 98.5t16.5 98.5t47.5 81t75 55t99 20.5q53 0 95 -22t67 -55h2v65h125v-487h-118v71h-2zM165 244q0 -30 9 -57.5t27 -48.5t44.5 -33.5t61.5 -12.5q32 0 58.5 12t45.5 33t29.5 48.5t10.5 58.5
q0 30 -10.5 57.5t-29.5 48.5t-45.5 33.5t-58.5 12.5q-35 0 -61.5 -12.5t-44.5 -33.5t-27 -48.5t-9 -57.5z" />
    <glyph glyph-name="u03B2" unicode="&#x3b2;" horiz-adv-x="649" 
d="M199 265q0 -83 36 -125.5t101 -42.5q27 0 51 8t42 23.5t28.5 38.5t10.5 53q0 57 -38.5 91.5t-110.5 34.5h-51v102h41q42 0 71 25.5t29 73.5q0 51 -31 78.5t-75 27.5t-74 -30.5t-30 -99.5v-258zM199 -240h-125v776q0 54 17.5 95.5t48 70t73 43t93.5 14.5q46 0 88 -13
t73.5 -37.5t50 -60t18.5 -80.5q0 -34 -10.5 -62.5t-27 -49.5t-37.5 -34.5t-42 -16.5v-3q24 -1 55.5 -11.5t59.5 -33t47.5 -58.5t19.5 -88q0 -50 -18 -91t-49 -70t-73 -45t-90 -16q-51 0 -83.5 15t-52.5 33q-23 21 -36 48v-325z" />
    <glyph glyph-name="u03B3" unicode="&#x3b3;" horiz-adv-x="583" 
d="M360 -240h-126v270l-228 456h142l150 -343l142 343h137l-217 -456v-270z" />
    <glyph glyph-name="u03B4" unicode="&#x3b4;" horiz-adv-x="624" 
d="M80 624q0 31 18.5 55.5t52 41.5t80 26.5t102.5 9.5q51 0 91 -6.5t69 -14.5q33 -9 59 -20l-28 -106q-25 11 -55 21q-26 8 -61 14.5t-76 6.5q-47 0 -75 -10.5t-28 -31.5q0 -22 26 -36.5t85 -36.5q39 -14 81 -38.5t77 -61t57.5 -85t22.5 -110.5q0 -53 -18.5 -100t-53 -81.5
t-84 -54.5t-110.5 -20q-59 0 -107.5 19t-83.5 53.5t-54.5 81t-19.5 102.5q0 51 17.5 92.5t46 71.5t64 48t70.5 23q13 4 26 4l3 6q-7 1 -18 5q-10 3 -25 8.5t-37 13.5q-16 6 -35.5 14t-37 20.5t-29.5 31t-12 44.5zM454 243q0 32 -10 59t-28.5 47t-44.5 31.5t-59 11.5
t-59 -11.5t-44.5 -31.5t-28 -47.5t-9.5 -59.5t10 -59.5t28 -47.5t44 -31.5t59 -11.5t59.5 11.5t44.5 31.5t28 48t10 60z" />
    <glyph glyph-name="u03B5" unicode="&#x3b5;" horiz-adv-x="535" 
d="M422 347q-13 15 -32 26q-17 10 -43 18t-62 8q-22 0 -42 -3.5t-35.5 -10t-24.5 -17t-9 -24.5q0 -15 10.5 -26t28 -17.5t40.5 -9.5t48 -3h85v-89h-77q-71 0 -107.5 -12t-36.5 -43q0 -15 10.5 -25.5t27.5 -16.5t38 -8.5t42 -2.5q44 0 73.5 7.5t49.5 17.5q22 11 37 26l64 -74
q-5 -6 -21 -19.5t-44.5 -27.5t-70 -24.5t-97.5 -10.5q-47 0 -90 8.5t-75.5 26t-51.5 44t-19 62.5q0 31 12.5 52.5t30.5 36t38.5 21.5t36.5 9v3q-16 4 -34 12.5t-33.5 22t-25.5 32.5t-10 44q0 33 18 59t49 44.5t73 28t90 9.5q51 0 87.5 -10t62 -24t40.5 -28.5t21 -24.5z" />
    <glyph glyph-name="u03B6" unicode="&#x3b6;" horiz-adv-x="528" 
d="M284 1q-41 11 -83 29.5t-76.5 50t-56 77.5t-21.5 112q0 75 24.5 135t63 106.5t84.5 80.5t88 59h-238v104h433v-85q-72 -45 -132.5 -88t-104.5 -89.5t-69 -99t-25 -115.5q0 -43 12.5 -73t39 -51.5t66.5 -38.5t94 -35q57 -17 92 -52t35 -91q0 -42 -17 -74t-42 -55
t-53 -37.5t-49 -21.5l-89 63q22 9 45 19.5t41 23.5t29.5 29.5t11.5 36.5q0 19 -8.5 32t-23 21.5t-33 14.5t-38.5 12z" />
    <glyph glyph-name="u03B7" unicode="&#x3b7;" horiz-adv-x="609" 
d="M194 486q1 -18 1.5 -37.5t0.5 -35.5h2q9 18 25 33.5t37 27.5t45.5 18.5t49.5 6.5q48 0 83 -16t58 -43.5t34 -63.5t11 -76v-540h-125v507q0 27 -5 50.5t-17 40.5t-31.5 27t-48.5 10q-51 0 -82 -37t-31 -100v-258h-127v360v62t-1 64h121z" />
    <glyph glyph-name="u03B8" unicode="&#x3b8;" horiz-adv-x="640" 
d="M322 761q67 0 117.5 -29.5t84 -82t50.5 -124t17 -154.5t-15.5 -154t-48.5 -123t-84 -81.5t-121 -29.5q-71 0 -121.5 29.5t-83 81.5t-48 123t-15.5 154t16.5 154.5t50 124t84 82t117.5 29.5zM322 658q-36 0 -61.5 -18t-43 -49.5t-26.5 -75t-11 -94.5h283q-2 50 -11 93
t-26 75t-42.5 50.5t-61.5 18.5zM180 324q2 -52 11 -95.5t26 -75t43 -49t62 -17.5t62 18t43 50t25.5 75t11.5 93z" />
    <glyph glyph-name="u03B9" unicode="&#x3b9;" horiz-adv-x="266" 
d="M196 0h-126v486h126v-486z" />
    <glyph glyph-name="u03BA" unicode="&#x3ba;" horiz-adv-x="580" 
d="M199 280h3l182 206h153l-210 -221l224 -265h-156l-193 242h-3v-242h-125v486h125v-206z" />
    <glyph glyph-name="u03BB" unicode="&#x3bb;" horiz-adv-x="564" 
d="M147 0h-133l207 520l-13 35q-8 20 -15 36.5t-16.5 28t-23.5 17.5t-36 6q-23 0 -41 -7.5t-27 -15.5l-17 101q16 10 44 21t72 11q43 0 71 -11t47.5 -31.5t33.5 -50t29 -67.5l229 -593h-133l-139 376h-2z" />
    <glyph glyph-name="u03BC" unicode="&#x3bc;" horiz-adv-x="623" 
d="M73 486h125v-246q0 -78 25 -111t84 -33q54 0 84 37t30 115v238h125v-383q0 -26 1.5 -51.5t3.5 -51.5h-127l-3 70h-2q-17 -38 -45.5 -60t-69.5 -22q-45 0 -70.5 20t-36.5 58h-2v-306h-122v726z" />
    <glyph glyph-name="u03BD" unicode="&#x3bd;" horiz-adv-x="535" 
d="M336 0h-136l-194 486h139l124 -352h2l124 352h135z" />
    <glyph glyph-name="u03BE" unicode="&#x3be;" horiz-adv-x="521" 
d="M46 179q0 45 18.5 78t49 56t70.5 36t82 18q-38 4 -75.5 13t-67.5 26.5t-48.5 44t-18.5 67.5q0 34 13 57.5t35 39t51 25.5t61 16v4h-19t-28.5 -0.5t-44 -0.5h-65.5v95h401v-93q-70 -4 -121 -11t-84 -21.5t-49 -37t-16 -57.5q0 -58 46 -83t118 -25h100v-121h-127
q-69 0 -109.5 -28.5t-40.5 -75.5q0 -35 13.5 -54t39.5 -31.5t64.5 -21.5t88.5 -23q34 -10 57 -24t36.5 -31t19 -36.5t5.5 -39.5q0 -41 -17.5 -72t-43 -53.5t-55 -37t-52.5 -21.5l-96 52q16 4 38.5 13t42.5 22.5t34.5 30.5t14.5 38q0 12 -4 24.5t-17 24.5t-37.5 22t-66.5 17
q-30 5 -64.5 15t-63.5 30t-48.5 52t-19.5 82z" />
    <glyph glyph-name="u03BF" unicode="&#x3bf;" horiz-adv-x="624" 
d="M578 244q0 -58 -20.5 -105.5t-56.5 -81.5t-84.5 -52.5t-104.5 -18.5t-104.5 18.5t-84.5 52.5t-56.5 81.5t-20.5 105.5t20.5 105t56.5 80.5t84.5 52t104.5 18.5t104.5 -18.5t84.5 -52t56.5 -80.5t20.5 -105zM454 244q0 30 -9.5 57.5t-28 48.5t-45 33.5t-59.5 12.5
q-34 0 -60 -12.5t-44 -33.5t-27.5 -48.5t-9.5 -57.5t9.5 -57.5t27.5 -48.5t44.5 -33.5t59.5 -12.5q34 0 60.5 12.5t44.5 33.5t27.5 48.5t9.5 57.5z" />
    <glyph glyph-name="u03C0" unicode="&#x3c0;" horiz-adv-x="601" 
d="M198 0h-125v486h455v-486h-126v387h-204v-387z" />
    <glyph glyph-name="u03C1" unicode="&#x3c1;" horiz-adv-x="647" 
d="M196 -240h-122v474q0 63 20.5 112t56.5 83.5t85 52.5t106 18q55 0 102 -19t82 -53.5t55 -82t20 -104.5t-20 -103.5t-55 -80t-82 -52t-102 -18.5q-46 0 -83.5 16t-59.5 39h-3v-282zM479 243q0 66 -36.5 109t-105.5 43q-32 0 -58.5 -11.5t-45.5 -32t-29 -48t-10 -60.5
q0 -35 10.5 -63t29.5 -48t45.5 -31t57.5 -11q34 0 60.5 12t44.5 32.5t27.5 48.5t9.5 60z" />
    <glyph glyph-name="u03C2" unicode="&#x3c2;" horiz-adv-x="528" 
d="M323 94q27 -6 56 -17t53 -29t40 -45t16 -66q0 -42 -17.5 -74t-42 -55t-52.5 -37.5t-49 -21.5l-89 63q22 9 45 19.5t41 23.5t29.5 29.5t11.5 36.5q0 21 -9 34.5t-22.5 22t-29 12.5t-29.5 7q-17 3 -40 9t-48.5 16.5t-50.5 28t-45 43t-32.5 61.5t-12.5 84q0 62 21.5 110.5
t57.5 82t83.5 51t100.5 17.5q28 0 56.5 -5t54.5 -15t48 -25t37 -35l-77 -81q-15 23 -44 40t-72 17q-30 0 -56 -10t-45 -29t-30 -47t-11 -64q0 -41 13 -67.5t34.5 -43t49 -25.5t56.5 -16z" />
    <glyph glyph-name="u03C3" unicode="&#x3c3;" horiz-adv-x="648" 
d="M522 386v-4q7 -6 15 -19.5t15.5 -32t12.5 -41.5t5 -50q0 -54 -19.5 -100.5t-54.5 -80.5t-83 -53.5t-106 -19.5q-57 0 -105 19.5t-82.5 54t-54 81.5t-19.5 103q0 55 19.5 102.5t54 82.5t82.5 54.5t105 19.5q27 0 46 -2t38 -5t40 -5t53 -2h159v-102h-121zM451 243
q0 32 -10 60t-29 48.5t-45.5 32.5t-59.5 12t-59 -12t-45 -32.5t-29 -48.5t-10 -60t10 -59.5t29 -48t45 -32.5t59 -12t59.5 12t45.5 32.5t29 48t10 59.5z" />
    <glyph glyph-name="u03C4" unicode="&#x3c4;" horiz-adv-x="471" 
d="M5 486h461v-99h-168v-387h-126v387h-167v99z" />
    <glyph glyph-name="u03C5" unicode="&#x3c5;" horiz-adv-x="601" 
d="M299 -13q-64 0 -107.5 18t-70.5 48t-39 68t-12 78v287h125v-263q0 -26 5 -49.5t17 -41.5t32.5 -28.5t50.5 -10.5t50.5 10.5t32.5 28.5t17.5 41.5t5.5 49.5v263h125v-287q0 -40 -12.5 -78t-40 -68t-72 -48t-107.5 -18z" />
    <glyph glyph-name="u03C6" unicode="&#x3c6;" horiz-adv-x="832" 
d="M661 246q0 40 -15 67t-37.5 43t-48.5 22.5t-49 6.5h-30v-291q85 1 132.5 40t47.5 112zM46 246q0 55 17.5 97t45.5 72.5t63.5 50t70.5 30.5l54 -90q-24 -7 -46.5 -20t-40.5 -32.5t-29 -45t-11 -58.5q0 -40 14.5 -69t40.5 -48t61.5 -28.5t78.5 -10.5v395h152
q55 0 103.5 -16t85.5 -47t58.5 -76t21.5 -103q0 -66 -26.5 -115t-69.5 -80.5t-98 -47.5t-111 -16v-228h-116v228q-66 1 -124 16t-101.5 46.5t-68.5 79.5t-25 116z" />
    <glyph glyph-name="u03C7" unicode="&#x3c7;" horiz-adv-x="586" 
d="M160 486l135 -250l133 250h133l-189 -343l209 -382h-136l-152 291l-152 -291h-136l208 384l-188 341h135z" />
    <glyph glyph-name="u03C8" unicode="&#x3c8;" horiz-adv-x="832" 
d="M479 93q80 5 121.5 51t41.5 144v198h126v-232q0 -69 -23 -120.5t-63 -85t-92.5 -50.5t-110.5 -18v-220h-126v220q-59 1 -111 18t-92 50.5t-63 85t-23 120.5v232h126v-198q0 -98 41 -144t122 -51v393h126v-393z" />
    <glyph glyph-name="u03C9" unicode="&#x3c9;" horiz-adv-x="813" 
d="M303 419q-35 -14 -61 -30t-43 -37.5t-25 -49.5t-8 -65q0 -67 24.5 -104t66.5 -37q38 0 62.5 33t24.5 111v87h125v-87q0 -77 23.5 -110t62.5 -33q44 0 68 36.5t24 103.5q0 37 -8 64.5t-24.5 49t-42 38t-61.5 30.5l74 77q37 -14 71 -37.5t59.5 -57t40.5 -77.5t15 -101
q0 -107 -52 -170t-150 -63q-63 0 -105 32.5t-55 94.5h-4q-16 -67 -60 -97t-102 -30q-95 0 -148 61.5t-53 171.5q0 60 15.5 105t41 77.5t59 54.5t70.5 36z" />
    <glyph glyph-name="u03CA" unicode="&#x3ca;" horiz-adv-x="278" 
d="M202 0h-126v486h126v-486zM-34 654q0 27 20.5 48t50.5 21q29 0 49.5 -20.5t20.5 -48.5q0 -29 -20.5 -49.5t-49.5 -20.5q-30 0 -50.5 20.5t-20.5 49.5zM174 654q0 27 20 48t50 21q29 0 49.5 -20.5t20.5 -48.5q0 -29 -20.5 -49.5t-49.5 -20.5q-30 0 -50 20.5t-20 49.5z" />
    <glyph glyph-name="u03CB" unicode="&#x3cb;" horiz-adv-x="602" 
d="M155 654q0 27 20.5 48t49.5 21q30 0 50.5 -20.5t20.5 -48.5q0 -29 -20.5 -49.5t-50.5 -20.5q-29 0 -49.5 20.5t-20.5 49.5zM363 654q0 27 20 48t50 21q29 0 49.5 -20.5t20.5 -48.5q0 -29 -20.5 -49.5t-49.5 -20.5q-30 0 -50 20.5t-20 49.5zM331 -13q-64 0 -107.5 18
t-70.5 48t-39 68t-12 78v287h126v-263q0 -26 5 -49.5t17 -41.5t32 -28.5t50 -10.5t50.5 10.5t32.5 28.5t17.5 41.5t5.5 49.5v263h126v-287q0 -40 -12.5 -78t-40.5 -68t-72 -48t-108 -18z" />
    <glyph glyph-name="u03CC" unicode="&#x3cc;" horiz-adv-x="624" 
d="M578 244q0 -58 -20.5 -105.5t-56.5 -81.5t-84.5 -52.5t-104.5 -18.5t-104.5 18.5t-84.5 52.5t-56.5 81.5t-20.5 105.5t20.5 105t56.5 80.5t84.5 52t104.5 18.5t104.5 -18.5t84.5 -52t56.5 -80.5t20.5 -105zM454 244q0 30 -9.5 57.5t-28 48.5t-45 33.5t-59.5 12.5
q-34 0 -60 -12.5t-44 -33.5t-27.5 -48.5t-9.5 -57.5t9.5 -57.5t27.5 -48.5t44.5 -33.5t59.5 -12.5q34 0 60.5 12.5t44.5 33.5t27.5 48.5t9.5 57.5zM260 752h103l-10 -203h-82z" />
    <glyph glyph-name="u03CD" unicode="&#x3cd;" horiz-adv-x="602" 
d="M250 748h103l-10 -203h-82zM299 -13q-64 0 -107.5 18t-70.5 48t-39 68t-12 78v287h126v-263q0 -26 5 -49.5t17 -41.5t32 -28.5t50 -10.5t50.5 10.5t32.5 28.5t17.5 41.5t5.5 49.5v263h126v-287q0 -40 -12.5 -78t-40.5 -68t-72 -48t-108 -18z" />
    <glyph glyph-name="u03CE" unicode="&#x3ce;" horiz-adv-x="813" 
d="M457 748l-10 -203h-82l-11 203h103zM303 419q-35 -14 -61 -30t-43 -37.5t-25 -49.5t-8 -65q0 -67 24.5 -104t66.5 -37q38 0 62.5 33t24.5 111v87h125v-87q0 -77 23.5 -110t62.5 -33q44 0 68 36.5t24 103.5q0 37 -8 64.5t-24.5 49t-42 38t-61.5 30.5l74 77
q37 -14 71 -37.5t59.5 -57t40.5 -77.5t15 -101q0 -107 -52 -170t-150 -63q-63 0 -105 32.5t-55 94.5h-4q-16 -67 -60 -97t-102 -30q-95 0 -148 61.5t-53 171.5q0 60 15.5 105t41 77.5t59 54.5t70.5 36z" />
    <glyph glyph-name="u0401" unicode="&#x401;" horiz-adv-x="601" 
d="M209 113h349v-113h-477v708h462v-113h-334v-177h314v-107h-314v-198zM141 849q0 27 20.5 48t50.5 21q29 0 49.5 -20.5t20.5 -48.5q0 -29 -20.5 -49.5t-49.5 -20.5q-30 0 -50.5 20.5t-20.5 49.5zM349 849q0 27 20 48t50 21q29 0 49.5 -20.5t20.5 -48.5q0 -29 -20.5 -49.5
t-49.5 -20.5q-30 0 -50 20.5t-20 49.5z" />
    <glyph glyph-name="u0402" unicode="&#x402;" horiz-adv-x="723" 
d="M8 595v113h535v-113h-227v-132h106q130 0 195.5 -63.5t65.5 -171.5q0 -48 -16.5 -89.5t-49 -72.5t-80.5 -48.5t-112 -17.5h-31v110h35q25 0 47 8t38.5 23t26 36.5t9.5 49.5q0 60 -33.5 91t-108.5 31h-92v-349h-131v595h-177z" />
    <glyph glyph-name="u0403" unicode="&#x403;" horiz-adv-x="536" 
d="M463 908l-140 -144h-98l102 144h136zM213 0h-132v708h429v-115h-297v-593z" />
    <glyph glyph-name="u0404" unicode="&#x404;" horiz-adv-x="712" 
d="M694 109q-19 -27 -45.5 -50t-60.5 -40t-74.5 -27t-88.5 -10q-84 0 -153.5 28t-119.5 77.5t-78 117.5t-28 149t28 149t78.5 117.5t120 77.5t152.5 28q87 0 153.5 -27t105.5 -80l-89 -92q-23 35 -65.5 58t-103.5 23q-44 0 -82.5 -13.5t-69 -39t-51 -61.5t-29.5 -81h365
v-105h-367q7 -49 28 -87.5t52.5 -65t70.5 -40.5t83 -14q111 0 181 86z" />
    <glyph glyph-name="u0405" unicode="&#x405;" horiz-adv-x="580" 
d="M443 552q-22 29 -58 47t-76 18q-20 0 -41.5 -5t-39 -16.5t-28.5 -30t-11 -44.5q0 -24 9.5 -40t27 -27.5t40.5 -20t50 -17.5q37 -12 75 -26.5t69.5 -38t51.5 -58.5t20 -88q0 -58 -21.5 -100t-57.5 -69.5t-82 -40.5t-94 -13q-72 0 -138 26t-110 77l92 87q25 -35 67 -58
t90 -23q22 0 44 6t39 18.5t27.5 31.5t10.5 45q0 27 -11.5 45.5t-32.5 32t-50 23.5t-63 21q-35 11 -68 25.5t-59 37.5t-42 56.5t-16 81.5q0 56 23 96t59.5 65.5t82 37.5t90.5 12q65 0 123 -23.5t96 -63.5z" />
    <glyph glyph-name="u0406" unicode="&#x406;" horiz-adv-x="295" 
d="M213 0h-132v708h132v-708z" />
    <glyph glyph-name="u0407" unicode="&#x407;" horiz-adv-x="307" 
d="M223 0h-132v708h132v-708zM-17 849q0 27 20.5 48t49.5 21q30 0 50.5 -20.5t20.5 -48.5q0 -29 -20.5 -49.5t-50.5 -20.5q-29 0 -49.5 20.5t-20.5 49.5zM191 849q0 27 20 48t50 21q29 0 49.5 -20.5t20.5 -48.5q0 -29 -20.5 -49.5t-49.5 -20.5q-30 0 -50 20.5t-20 49.5z" />
    <glyph glyph-name="u0408" unicode="&#x408;" horiz-adv-x="514" 
d="M126 176q7 -33 30 -54.5t58 -21.5q27 0 45 10t28.5 27.5t14.5 40.5t4 50v480h132v-481q0 -39 -8.5 -82.5t-32.5 -79.5t-66 -60t-109 -24q-42 0 -77.5 11.5t-63 32.5t-46 50t-27.5 64z" />
    <glyph glyph-name="u0409" unicode="&#x409;" horiz-adv-x="975" 
d="M141 0h-139l286 708h128l114 -278h118q66 0 121.5 -12t95.5 -38t62 -68t22 -102q0 -50 -20 -89t-58 -66t-92 -41t-123 -14h-98l-208 558zM573 320l85 -210q30 0 58 4.5t50.5 16t36 31.5t13.5 52q0 33 -14 54t-37 32.5t-54.5 15.5t-65.5 4h-72z" />
    <glyph glyph-name="u040A" unicode="&#x40a;" horiz-adv-x="1023" 
d="M212 708v-278h274v278h131v-278h98q55 0 103 -13t84 -39.5t56.5 -67.5t20.5 -98q0 -55 -20 -95t-55 -66t-83 -38.5t-104 -12.5h-231v318h-274v-318h-131v708h131zM617 319v-206h90q63 0 101.5 24t38.5 78q0 56 -40 80t-102 24h-88z" />
    <glyph glyph-name="u040B" unicode="&#x40b;" horiz-adv-x="731" 
d="M316 349v-349h-131v595h-177v113h535v-113h-227v-133h128q65 0 110.5 -19.5t73.5 -54.5t40.5 -84t12.5 -108v-196h-132v155q0 48 -5.5 84t-21.5 60.5t-46 37t-78 12.5h-82z" />
    <glyph glyph-name="u040C" unicode="&#x40c;" horiz-adv-x="704" 
d="M81 0v708h131v-275q20 0 38.5 -1t35.5 -3l238 279h143l-251 -309q105 -42 169 -139t92 -260h-143q-15 85 -40.5 146.5t-64 101t-92 57.5t-125.5 16v-321h-131zM397 764h-98l103 144h136z" />
    <glyph glyph-name="u040E" unicode="&#x40e;" horiz-adv-x="650" 
d="M212 916q14 -33 46 -54.5t70 -21.5q39 0 70.5 21.5t45.5 54.5l74 -38q-9 -23 -26.5 -44t-42.5 -36.5t-55.5 -24.5t-65.5 -9t-65.5 9t-55.5 24.5t-42.5 36.5t-26.5 44zM9 708l257 -549q-18 -32 -38.5 -48t-47.5 -16q-26 0 -44.5 11t-30.5 22l-77 -96q8 -7 19 -15.5
t27.5 -16t40 -12.5t57.5 -5q46 0 81 13t62 36t47 54t37 68l253 554h-143l-174 -397l-180 397h-146z" />
    <glyph glyph-name="u040F" unicode="&#x40f;" horiz-adv-x="733" 
d="M521 113v595h130v-708h-220v-139h-113v139h-237v708h131v-595h309z" />
    <glyph glyph-name="u0410" unicode="&#x410;" horiz-adv-x="717" 
d="M139 0h-143l300 708h128l298 -708h-146l-64 158h-311zM241 266h232l-116 296z" />
    <glyph glyph-name="u0411" unicode="&#x411;" horiz-adv-x="647" 
d="M315 113q63 0 103.5 25.5t40.5 77.5q0 27 -11 46t-30 31.5t-45 18t-56 5.5h-105v-204h103zM81 0v708h465v-113h-334v-165h116q57 0 105 -12.5t83 -39t54.5 -66.5t19.5 -95q0 -56 -21 -97t-57 -67.5t-84 -39.5t-103 -13h-244z" />
    <glyph glyph-name="u0412" unicode="&#x412;" horiz-adv-x="653" 
d="M81 708h254q41 0 83 -8.5t76 -29t55.5 -55.5t21.5 -89q0 -57 -33 -97t-87 -55v-2q32 -5 59.5 -18.5t48 -35t32 -51t11.5 -65.5q0 -53 -21 -91t-57.5 -62.5t-85 -36.5t-103.5 -12h-254v708zM209 415h113q25 0 47 5.5t38.5 17t26 29.5t9.5 44q0 48 -36.5 69.5t-96.5 21.5
h-101v-187zM209 108h111q28 0 55 5t48 17t34 32.5t13 50.5q0 55 -38.5 79t-106.5 24h-116v-208z" />
    <glyph glyph-name="u0413" unicode="&#x413;" horiz-adv-x="536" 
d="M213 0h-132v708h429v-115h-297v-593z" />
    <glyph glyph-name="u0414" unicode="&#x414;" horiz-adv-x="789" 
d="M110 0v-139h-113v252h108l225 595h128l223 -595h111v-252h-113v139h-569zM240 113h302l-151 448z" />
    <glyph glyph-name="u0415" unicode="&#x415;" horiz-adv-x="601" 
d="M209 113h349v-113h-477v708h462v-113h-334v-177h314v-107h-314v-198z" />
    <glyph glyph-name="u0416" unicode="&#x416;" horiz-adv-x="998" 
d="M434 318q-58 1 -103 -22.5t-77.5 -66t-53 -101t-29.5 -128.5h-143q17 147 70.5 242t140.5 141l-211 325h143l191 -283q17 3 34.5 4t37.5 1v278h130v-278q19 0 36.5 -1t34.5 -4l192 283h143l-212 -325q177 -96 212 -383h-143q-9 70 -29.5 129t-53 101t-77.5 65.5
t-103 22.5v-318h-130v318z" />
    <glyph glyph-name="u0417" unicode="&#x417;" horiz-adv-x="622" 
d="M184 415h76q69 0 107 25.5t38 76.5q0 47 -31.5 73t-82.5 26q-45 0 -74.5 -23.5t-43.5 -65.5l-113 46q29 72 90.5 112.5t149.5 40.5q51 0 95.5 -12.5t77 -36.5t51.5 -60.5t19 -84.5q0 -34 -13 -61t-33.5 -46.5t-45 -32.5t-48.5 -18v-2q27 -3 56.5 -13t54.5 -30.5t41 -51.5
t16 -76q0 -51 -21.5 -91.5t-58.5 -69t-87 -43.5t-107 -15q-52 0 -93 13t-72.5 35.5t-53.5 54t-35 68.5l116 43q19 -50 53.5 -77t91.5 -27q63 0 98 29t35 80q0 117 -182 117h-71v97z" />
    <glyph glyph-name="u0418" unicode="&#x418;" horiz-adv-x="789" 
d="M215 184l341 524h152v-708h-131v523h-3l-341 -523h-152v708h131v-524h3z" />
    <glyph glyph-name="u0419" unicode="&#x419;" horiz-adv-x="788" 
d="M549 708h158v-708h-131v521h-2l-336 -521h-157v708h131v-518h2zM278 916q14 -33 46 -54.5t70 -21.5q39 0 70.5 21.5t45.5 54.5l74 -38q-9 -23 -26.5 -44t-42.5 -36.5t-55.5 -24.5t-65.5 -9t-65.5 9t-55.5 24.5t-42.5 36.5t-26.5 44z" />
    <glyph glyph-name="u041A" unicode="&#x41a;" horiz-adv-x="704" 
d="M81 0v708h131v-275q20 0 38.5 -1t35.5 -3l238 279h143l-251 -309q105 -42 169 -139t92 -260h-143q-15 85 -40.5 146.5t-64 101t-92 57.5t-125.5 16v-321h-131z" />
    <glyph glyph-name="u041B" unicode="&#x41b;" horiz-adv-x="694" 
d="M137 0h-141l287 708h133l290 -708h-144l-212 530z" />
    <glyph glyph-name="u041C" unicode="&#x41c;" horiz-adv-x="927" 
d="M464 201h3l187 507h192v-708h-129l2 546h-2l-213 -546h-87l-210 546h-3l3 -546h-126v708h190z" />
    <glyph glyph-name="u041D" unicode="&#x41d;" horiz-adv-x="746" 
d="M81 708h132v-284h320v284h131v-708h-131v312h-320v-312h-132v708z" />
    <glyph glyph-name="u041E" unicode="&#x41e;" horiz-adv-x="851" 
d="M804 356q0 -83 -28.5 -152t-79 -118.5t-120 -77t-151.5 -27.5q-81 0 -150.5 27.5t-120.5 77t-79.5 118.5t-28.5 152t28.5 151.5t79.5 117t120.5 75.5t150.5 27q82 0 151.5 -27t120 -75.5t79 -117t28.5 -151.5zM664 356q0 52 -17 98.5t-48 80.5t-75.5 54t-98.5 20t-98 -20
t-75 -54t-48 -80.5t-17 -98.5q0 -54 17 -100.5t48 -81t75 -54t98 -19.5t98 19.5t75.5 54t48.5 81t17 100.5z" />
    <glyph glyph-name="u041F" unicode="&#x41f;" horiz-adv-x="727" 
d="M645 708v-708h-130v595h-303v-595h-131v708h564z" />
    <glyph glyph-name="u0420" unicode="&#x420;" horiz-adv-x="616" 
d="M81 708h236q57 0 105 -11.5t83 -36t54.5 -64t19.5 -94.5q0 -56 -20.5 -96t-56.5 -65.5t-84.5 -37t-103.5 -11.5h-101v-292h-132v708zM213 398h92q62 0 102.5 23.5t40.5 79.5q0 28 -11 47.5t-29.5 30.5t-44.5 16t-56 5h-94v-202z" />
    <glyph glyph-name="u0421" unicode="&#x421;" horiz-adv-x="706" 
d="M694 104q-42 -54 -110.5 -88.5t-160.5 -34.5q-81 0 -150.5 27.5t-119.5 77t-78.5 118t-28.5 151.5t29 151.5t80 117.5t120 76t149 27q38 0 75.5 -7t71.5 -21t63 -34t50 -46l-93 -87q-24 34 -67.5 55t-95.5 21q-54 0 -98.5 -19.5t-76 -54t-48.5 -80.5t-17 -99
q0 -54 17 -100.5t48.5 -80.5t75.5 -53.5t98 -19.5t99 22t74 63z" />
    <glyph glyph-name="u0422" unicode="&#x422;" horiz-adv-x="577" 
d="M354 0h-131v595h-215v113h561v-113h-215v-595z" />
    <glyph glyph-name="u0423" unicode="&#x423;" horiz-adv-x="650" 
d="M155 708l180 -397l174 397h143l-253 -554q-17 -37 -37 -68t-47 -54t-62 -36t-81 -13q-34 0 -57.5 5t-40 12.5t-27.5 16t-19 15.5l77 96q12 -11 30.5 -22t44.5 -11q27 0 47.5 16t38.5 48l-257 549h146z" />
    <glyph glyph-name="u0424" unicode="&#x424;" horiz-adv-x="905" 
d="M516 696q75 -9 138.5 -37t109.5 -72t71.5 -103t25.5 -130t-25.5 -130.5t-71.5 -104t-109.5 -72.5t-138.5 -36v-74h-125v74q-75 8 -139 36t-110 72.5t-72 104t-26 130.5t26 130.5t72 103.5t110 72t139 36v68h125v-68zM184 354q0 -43 13.5 -80.5t39.5 -66.5t65 -49t89 -27
v446q-50 -8 -89 -27.5t-65 -49t-39.5 -67t-13.5 -79.5zM721 354q0 85 -53 146t-152 77v-445q49 7 87.5 27t64.5 49t39.5 66.5t13.5 79.5z" />
    <glyph glyph-name="u0425" unicode="&#x425;" horiz-adv-x="681" 
d="M340 462l156 246h153l-228 -335l258 -373h-163l-179 278l-176 -278h-158l253 373l-232 335h160z" />
    <glyph glyph-name="u0426" unicode="&#x426;" horiz-adv-x="759" 
d="M81 0v708h131v-595h309v595h130v-595h81v-252h-113v139h-538z" />
    <glyph glyph-name="u0427" unicode="&#x427;" horiz-adv-x="652" 
d="M441 708h130v-708h-129v286h-147q-63 0 -109 18t-75.5 51t-44 80.5t-14.5 107.5v165h131v-129q0 -45 5.5 -79t20 -56.5t40 -33.5t66.5 -11h126v309z" />
    <glyph glyph-name="u0428" unicode="&#x428;" horiz-adv-x="1000" 
d="M438 113v595h131v-595h219v595h130v-708h-837v708h131v-595h226z" />
    <glyph glyph-name="u0429" unicode="&#x429;" horiz-adv-x="1052" 
d="M81 0v708h131v-595h226v595h131v-595h221v595h130v-595h105v-252h-113v139h-831z" />
    <glyph glyph-name="u042A" unicode="&#x42a;" horiz-adv-x="707" 
d="M314 708v-270h75q58 0 108.5 -12t87 -38t57.5 -66t21 -95q0 -56 -22.5 -98.5t-62 -71t-93 -43t-115.5 -14.5h-187v595h-175v113h306zM314 112h81q72 0 104 31t32 79q0 47 -32.5 75.5t-103.5 28.5h-81v-214z" />
    <glyph glyph-name="u042B" unicode="&#x42b;" horiz-adv-x="830" 
d="M212 708v-270h76q58 0 108.5 -12.5t87 -39t57.5 -67t21 -96.5t-21 -97.5t-58.5 -69.5t-88 -42t-108.5 -14h-205v708h131zM212 112h82q72 0 103.5 27.5t31.5 81.5q0 47 -32 76t-103 29h-82v-214zM749 708v-708h-131v708h131z" />
    <glyph glyph-name="u042C" unicode="&#x42c;" horiz-adv-x="618" 
d="M81 708h131v-270h89q58 0 108 -12.5t87 -38.5t57.5 -65.5t20.5 -94.5q0 -56 -21 -98.5t-58 -71t-87.5 -43t-109.5 -14.5h-217v708zM212 326v-214h94q72 0 104 30.5t32 78.5t-32 76.5t-104 28.5h-94z" />
    <glyph glyph-name="u042D" unicode="&#x42d;" horiz-adv-x="713" 
d="M18 103l87 79q35 -45 85.5 -63t105.5 -18q44 0 83 14t69.5 40.5t50.5 65t27 87.5h-371v105h370q-9 46 -29.5 82t-51 61t-69 38.5t-82.5 13.5q-69 0 -115 -26.5t-66 -60.5l-81 86q38 53 109.5 86t163.5 33q85 0 152.5 -28t114 -77.5t71.5 -117.5t25 -149t-27 -149
t-76.5 -117.5t-118 -77.5t-152.5 -28q-96 0 -166.5 33.5t-108.5 87.5z" />
    <glyph glyph-name="u042E" unicode="&#x42e;" horiz-adv-x="1132" 
d="M212 708v-296h119q8 70 39.5 128.5t81 99.5t114.5 64t140 23q82 0 151.5 -27t120.5 -75.5t79.5 -117t28.5 -151.5t-28.5 -152t-79.5 -118.5t-120.5 -77t-151.5 -27.5q-75 0 -139.5 23.5t-114 65.5t-81 100.5t-40.5 128.5h-119v-299h-131v708h131zM468 356
q0 -54 17 -100.5t48 -81t75 -54t98 -19.5t98.5 19.5t75.5 54t48 81t17 100.5q0 52 -17 98.5t-48 80.5t-75.5 54t-98.5 20t-98 -20t-75 -54t-48 -80.5t-17 -98.5z" />
    <glyph glyph-name="u042F" unicode="&#x42f;" horiz-adv-x="671" 
d="M458 595h-96q-86 0 -127 -24t-41 -75q0 -43 39.5 -70t128.5 -27h96v196zM213 335q-72 12 -115.5 53.5t-43.5 112.5q-1 101 76 154t220 53h239v-708h-131v286h-69q-92 0 -151 -68.5t-75 -217.5h-144q4 63 21 116.5t42.5 95.5t59 72.5t71.5 48.5v2z" />
    <glyph glyph-name="u0430" unicode="&#x430;" horiz-adv-x="553" 
d="M366 313q0 47 -28 69t-76 22q-38 0 -72 -14.5t-58 -37.5l-65 71q38 36 92.5 56.5t114.5 20.5q97 0 149.5 -45.5t59.5 -142.5q1 -14 1 -28v-30v-152q0 -26 1 -52.5t3 -49.5h-115q-1 15 -2 30.5t-1 31.5h-2q-24 -37 -63.5 -55.5t-89.5 -18.5q-29 0 -59.5 8t-55.5 25.5
t-41.5 46t-16.5 70.5q0 54 28.5 86.5t75 49.5t104 22.5t116.5 5.5v11zM348 224q-33 0 -66.5 -2.5t-60.5 -11t-44 -24.5t-17 -43q0 -19 8 -31.5t20.5 -20.5t28 -11.5t30.5 -3.5q59 0 90.5 35t31.5 89v24h-21z" />
    <glyph glyph-name="u0431" unicode="&#x431;" horiz-adv-x="616" 
d="M328 483q52 0 96 -17t76.5 -49t51 -77.5t18.5 -102.5t-20 -103.5t-54.5 -79.5t-82.5 -50.5t-103 -17.5q-50 0 -93 15t-76 44.5t-54 73t-28 100.5q-3 19 -4.5 38.5t-0.5 41.5q2 108 23.5 185t63.5 126.5t106.5 73t152.5 23.5h151v-97h-153q-51 0 -88.5 -12t-63 -35.5
t-40 -56.5t-20.5 -75q26 26 64.5 39t77.5 13zM449 235q0 31 -9.5 57.5t-27.5 46t-42.5 30.5t-54.5 11q-29 0 -54 -8.5t-44 -26t-30 -44t-11 -62.5q0 -67 38 -108t101 -41q31 0 56 11.5t42 31t26.5 46t9.5 56.5z" />
    <glyph glyph-name="u0432" unicode="&#x432;" horiz-adv-x="566" 
d="M290 284q39 0 65 10.5t26 45.5q0 20 -10 31.5t-26.5 17t-39 7t-47.5 1.5h-60v-113h92zM198 89h72q27 0 51 1t42.5 6.5t29 17t10.5 33.5t-10.5 34t-29 18t-42.5 7t-51 1h-72v-118zM73 0v486h246q92 0 140 -35.5t48 -95.5q0 -27 -8.5 -45t-23.5 -30t-34.5 -19.5
t-41.5 -13.5q27 -2 51 -9t42.5 -21t29 -35.5t10.5 -51.5q0 -59 -52.5 -94.5t-148.5 -35.5h-258z" />
    <glyph glyph-name="u0433" unicode="&#x433;" horiz-adv-x="416" 
d="M198 0h-125v486h326v-98h-201v-388z" />
    <glyph glyph-name="u0434" unicode="&#x434;" horiz-adv-x="608" 
d="M110 -139h-107v239h79l153 386h144l143 -386h83v-239h-107v139h-388v-139zM288 311l-76 -211h184l-83 243z" />
    <glyph glyph-name="u0435" unicode="&#x435;" horiz-adv-x="586" 
d="M423 292q-2 50 -32 84t-89 34q-28 0 -51.5 -9.5t-41 -26t-28 -38t-12.5 -44.5h254zM541 245v-17.5t-1 -18.5h-372q1 -27 13 -49.5t31 -39.5t43.5 -26.5t52.5 -9.5q45 0 77 19t49 45l89 -59q-38 -52 -92.5 -77.5t-123.5 -25.5q-55 0 -102.5 18t-83 51t-55.5 80.5
t-20 106.5q0 58 19.5 105.5t54 81.5t81.5 52.5t101 18.5q55 0 99.5 -18.5t75.5 -52t47.5 -80.5t16.5 -104z" />
    <glyph glyph-name="u0436" unicode="&#x436;" horiz-adv-x="863" 
d="M369 205q-37 -3 -67.5 -15t-55 -35.5t-42.5 -61.5t-30 -93h-139q23 93 65.5 156t110.5 99l-157 231h139l123 -189q12 2 25.5 3.5t27.5 3.5v182h125v-182q14 -2 27 -3.5t25 -3.5l124 189h139l-157 -231q67 -36 110 -99t66 -156h-139q-12 55 -30.5 93t-43 61.5t-55 35.5
t-66.5 15v-205h-125v205z" />
    <glyph glyph-name="u0437" unicode="&#x437;" horiz-adv-x="483" 
d="M100 347l-77 55q6 10 19 27.5t36.5 34t59.5 28.5t87 12q50 0 88 -10.5t63.5 -29t38.5 -44t13 -54.5q0 -26 -9 -45.5t-23 -34t-32 -24t-37 -13.5v-3q20 -2 41.5 -9.5t39.5 -21.5t29.5 -35.5t11.5 -50.5q0 -38 -17 -65.5t-47 -45.5t-71 -26.5t-90 -8.5q-50 0 -85.5 11
t-60 25t-38.5 27.5t-21 18.5l65 72q5 -4 16.5 -13.5t28.5 -19.5t39.5 -17.5t51.5 -7.5q48 0 76.5 16.5t28.5 48.5q0 30 -31.5 45.5t-81.5 15.5h-73v82h69q44 0 73.5 12t29.5 44q0 27 -24.5 48.5t-75.5 21.5q-32 0 -53 -10.5t-34 -22.5q-15 -15 -24 -33z" />
    <glyph glyph-name="u0438" unicode="&#x438;" horiz-adv-x="645" 
d="M445 325l-246 -325h-126v486h126v-318l246 318h127v-486h-127v325z" />
    <glyph glyph-name="u0439" unicode="&#x439;" horiz-adv-x="645" 
d="M233 715q13 -29 41 -48.5t63 -19.5q36 0 64 19.5t41 48.5l66 -34q-8 -21 -24 -39.5t-38 -32.5t-50 -22.5t-59 -8.5q-32 0 -59.5 8.5t-49.5 22.5t-37.5 32.5t-23.5 39.5zM445 0h127v486h-127l-246 -318v318h-126v-486h126l246 325v-325z" />
    <glyph glyph-name="u043A" unicode="&#x43a;" horiz-adv-x="573" 
d="M198 301q31 -2 56 -6l136 191h139l-167 -229q71 -36 111.5 -100t64.5 -157h-139q-12 56 -29.5 93.5t-42.5 60.5t-57 34t-72 14v-202h-125v486h125v-185z" />
    <glyph glyph-name="u043B" unicode="&#x43b;" horiz-adv-x="553" 
d="M406 0l-125 336l-132 -336h-135l198 486h142l186 -486h-134z" />
    <glyph glyph-name="u043C" unicode="&#x43c;" horiz-adv-x="724" 
d="M182 486l181 -217l178 217h110v-486h-126v310l-149 -195h-28l-150 192v-307h-125v486h109z" />
    <glyph glyph-name="u043D" unicode="&#x43d;" horiz-adv-x="604" 
d="M198 0h-125v486h125v-186h207v186h126v-486h-126v202h-207v-202z" />
    <glyph glyph-name="u043E" unicode="&#x43e;" horiz-adv-x="624" 
d="M578 244q0 -58 -20.5 -105.5t-56.5 -81.5t-84.5 -52.5t-104.5 -18.5t-104.5 18.5t-84.5 52.5t-56.5 81.5t-20.5 105.5t20.5 105t56.5 80.5t84.5 52t104.5 18.5t104.5 -18.5t84.5 -52t56.5 -80.5t20.5 -105zM454 244q0 30 -9.5 57.5t-28 48.5t-45 33.5t-59.5 12.5
q-34 0 -60 -12.5t-44 -33.5t-27.5 -48.5t-9.5 -57.5t9.5 -57.5t27.5 -48.5t44.5 -33.5t59.5 -12.5q34 0 60.5 12.5t44.5 33.5t27.5 48.5t9.5 57.5z" />
    <glyph glyph-name="u043F" unicode="&#x43f;" horiz-adv-x="596" 
d="M198 0h-125v486h450v-486h-126v387h-199v-387z" />
    <glyph glyph-name="u0440" unicode="&#x440;" horiz-adv-x="648" 
d="M200 -240h-126v726h121v-69h3q26 36 69 59t97 23t98 -20.5t75 -55t48 -81t17 -98.5t-16.5 -98.5t-47 -82t-75 -56t-100.5 -20.5q-47 0 -91 20t-70 58h-2v-305zM478 244q0 30 -9 57.5t-27 48.5t-44.5 33.5t-60.5 12.5q-32 0 -58.5 -12.5t-45.5 -33.5t-29.5 -48.5
t-10.5 -57.5q0 -31 10.5 -58.5t29.5 -48.5t45.5 -33t58.5 -12q34 0 60.5 12.5t44.5 33.5t27 48.5t9 57.5z" />
    <glyph glyph-name="u0441" unicode="&#x441;" horiz-adv-x="502" 
d="M415 347q-15 21 -42.5 34.5t-57.5 13.5q-32 0 -58 -12t-44.5 -32.5t-28.5 -48.5t-10 -59q0 -32 10 -59.5t28.5 -47.5t44.5 -32t59 -12q32 0 59.5 12t44.5 34l75 -82q-31 -32 -78 -51t-104 -19q-58 0 -107 18.5t-84.5 52t-55.5 81t-20 105.5t20 105t55.5 81t84.5 52.5
t107 18.5q25 0 51 -5t49.5 -14t44 -22.5t35.5 -30.5z" />
    <glyph glyph-name="u0442" unicode="&#x442;" horiz-adv-x="461" 
d="M16 486h429v-99h-154v-387h-126v387h-149v99z" />
    <glyph glyph-name="u0443" unicode="&#x443;" horiz-adv-x="535" 
d="M276 136h2l118 350h134l-216 -550q-15 -40 -32 -72.5t-40 -55.5t-54 -35.5t-76 -12.5q-20 0 -40.5 2.5t-37.5 6.5l14 108q11 -4 25 -6.5t26 -2.5q37 0 55 19t32 54l25 64l-205 481h139z" />
    <glyph glyph-name="u0444" unicode="&#x444;" horiz-adv-x="716" 
d="M416 497q55 -1 101.5 -20.5t80.5 -53.5t52.5 -80.5t18.5 -100.5t-18.5 -100t-52 -80t-80 -53.5t-102.5 -20.5v-230h-118v230q-54 1 -100 20.5t-79.5 53.5t-53 80t-19.5 100t18.5 100t52 80t80 54t101.5 21v259h118v-259zM549 242q0 32 -8.5 59.5t-25 48.5t-41.5 33.5
t-58 14.5v-311q67 3 100 46.5t33 108.5zM166 242q0 -65 33.5 -108.5t98.5 -46.5v311q-33 -1 -58 -13.5t-41.5 -33.5t-24.5 -49t-8 -60z" />
    <glyph glyph-name="u0445" unicode="&#x445;" horiz-adv-x="550" 
d="M198 253l-178 233h150l107 -151l107 151h144l-175 -231l193 -255h-152l-119 170l-124 -170h-146z" />
    <glyph glyph-name="u0446" unicode="&#x446;" horiz-adv-x="610" 
d="M73 0v486h125v-385h197v385h126v-385h78v-240h-108v139h-418z" />
    <glyph glyph-name="u0447" unicode="&#x447;" horiz-adv-x="569" 
d="M45 486h125v-67q0 -44 3 -75.5t13.5 -51.5t32 -29.5t59.5 -9.5h93v233h126v-486h-126v142l-108 1q-65 0 -107.5 15t-67 43t-34 69t-9.5 93v123z" />
    <glyph glyph-name="u0448" unicode="&#x448;" horiz-adv-x="850" 
d="M73 0v486h125v-387h164v387h125v-387h164v387h126v-486h-704z" />
    <glyph glyph-name="u0449" unicode="&#x449;" horiz-adv-x="844" 
d="M73 0v486h125v-387h153v387h125v-387h153v387h125v-387h79v-238h-107v139h-653z" />
    <glyph glyph-name="u044A" unicode="&#x44a;" horiz-adv-x="604" 
d="M269 486v-155h103q54 0 92 -12.5t61 -35t33.5 -52.5t10.5 -64q0 -35 -12.5 -65.5t-36.5 -53t-60 -35.5t-84 -13h-233v387h-127v99h253zM269 91h79q44 0 71 15.5t27 59.5q0 43 -28.5 58.5t-71.5 15.5h-77v-149z" />
    <glyph glyph-name="u044B" unicode="&#x44b;" horiz-adv-x="750" 
d="M198 486v-155h72q64 0 108 -10.5t71.5 -31.5t39.5 -51.5t12 -70.5q0 -86 -59.5 -126.5t-176.5 -40.5h-192v486h125zM198 91h82q43 0 70 15.5t27 59.5q0 43 -28 58.5t-71 15.5h-80v-149zM677 486v-486h-126v486h126z" />
    <glyph glyph-name="u044C" unicode="&#x44c;" horiz-adv-x="545" 
d="M198 486v-155h113q54 0 92 -12.5t62 -35t34.5 -52.5t10.5 -64q0 -35 -12.5 -65.5t-37 -53t-61 -35.5t-84.5 -13h-242v486h125zM198 91h90q43 0 70.5 15.5t27.5 59.5q0 43 -28.5 58.5t-71.5 15.5h-88v-149z" />
    <glyph glyph-name="u044D" unicode="&#x44d;" horiz-adv-x="554" 
d="M122 328l-82 71q29 42 79.5 72t131.5 30q61 0 109 -19.5t81 -54t50 -82t17 -102.5q0 -56 -19.5 -103t-54 -81t-82 -53.5t-104.5 -19.5q-63 0 -116.5 24t-96.5 79l85 69q17 -27 49.5 -48t77.5 -21q59 0 95 32t43 87h-221v81h221q-9 48 -43.5 79t-92.5 31q-49 0 -79.5 -21
t-47.5 -50z" />
    <glyph glyph-name="u044E" unicode="&#x44e;" horiz-adv-x="848" 
d="M801 244q0 -58 -20.5 -105.5t-56.5 -81.5t-84.5 -52.5t-104.5 -18.5q-51 0 -96 16t-80 45t-58 70t-29 91h-74v-208h-125v486h125v-179h79q10 44 34 79.5t57.5 61t76 39t90.5 13.5q56 0 104.5 -18.5t84.5 -52t56.5 -80.5t20.5 -105zM678 244q0 30 -9.5 57.5t-28 48.5
t-45 33.5t-60.5 12.5q-33 0 -59.5 -12.5t-44.5 -33.5t-27.5 -48.5t-9.5 -57.5t9.5 -57.5t27.5 -48.5t44.5 -33.5t60.5 -12.5t60.5 12.5t44.5 33.5t27.5 48.5t9.5 57.5z" />
    <glyph glyph-name="u044F" unicode="&#x44f;" horiz-adv-x="534" 
d="M300 170q-29 0 -51.5 -8t-39.5 -27.5t-28.5 -52.5t-17.5 -82h-139q7 48 21.5 85t34 64t43 44t47.5 24v3q-25 3 -46.5 11t-37 23.5t-24.5 39t-9 57.5q0 39 16.5 65t43.5 41.5t62.5 22t73.5 6.5h229v-486h-126v170h-52zM176 324q0 -35 26 -44.5t77 -9.5h73v110h-74
q-54 0 -78 -10t-24 -46z" />
    <glyph glyph-name="u0451" unicode="&#x451;" horiz-adv-x="572" 
d="M433 292q-1 50 -31.5 84t-89.5 34q-28 0 -51.5 -9.5t-41 -26t-28 -38t-12.5 -44.5h254zM551 245v-17.5t-1 -18.5h-371q1 -27 12.5 -49.5t30.5 -39.5t44 -26.5t52 -9.5q45 0 77 19t49 45l89 -59q-38 -52 -92.5 -77.5t-123.5 -25.5q-54 0 -102 18t-83 51t-55.5 80.5
t-20.5 106.5q0 58 19.5 105.5t54 81.5t81.5 52.5t101 18.5q55 0 99.5 -18.5t75.5 -52t47.5 -80.5t16.5 -104zM144 654q0 27 20 48t50 21q29 0 50 -20.5t21 -48.5q0 -29 -21 -49.5t-50 -20.5q-30 0 -50 20.5t-20 49.5zM351 654q0 27 20 48t50 21q29 0 50 -20.5t21 -48.5
q0 -29 -21 -49.5t-50 -20.5q-30 0 -50 20.5t-20 49.5z" />
    <glyph glyph-name="u0452" unicode="&#x452;" horiz-adv-x="609" 
d="M254 -92q4 -2 22 -10.5t41 -8.5q49 0 71 33t22 102v235q0 74 -23.5 104.5t-71.5 30.5q-50 0 -80 -36.5t-30 -106.5v-251h-126v572h-83v74h83v110h126v-110h164v-74h-164v-156h2q20 41 61 62t91 21q46 0 79 -16t55 -43.5t32.5 -65.5t10.5 -81v-261q0 -13 -0.5 -25.5
t-1.5 -24.5q-3 -40 -16.5 -75t-39 -61t-63 -41t-88.5 -15q-34 0 -67.5 11t-59.5 29z" />
    <glyph glyph-name="u0453" unicode="&#x453;" horiz-adv-x="428" 
d="M199 0h-126v486h327v-98h-201v-388zM271 557h-98l102 144h136z" />
    <glyph glyph-name="u0454" unicode="&#x454;" horiz-adv-x="563" 
d="M518 399l-83 -71q-16 29 -47 50t-80 21q-57 0 -91.5 -31t-43.5 -79h220v-81h-221q8 -55 45.5 -87t96.5 -32q45 0 76 21t47 48l86 -69q-43 -55 -97 -79t-119 -24q-58 0 -105.5 19.5t-81 53.5t-52 81t-18.5 103q0 55 17 102.5t50 82t80.5 54t108.5 19.5q81 0 132 -30
t80 -72z" />
    <glyph glyph-name="u0455" unicode="&#x455;" horiz-adv-x="487" 
d="M366 353q-18 23 -46.5 38.5t-61.5 15.5q-29 0 -53 -12t-24 -41q0 -26 23.5 -38.5t75.5 -23.5q34 -8 63 -19.5t50.5 -28.5t34 -41t12.5 -57q0 -45 -17.5 -75.5t-45.5 -49t-63.5 -27t-71.5 -8.5q-58 0 -113 20t-91 62l77 74q20 -26 53.5 -44t71.5 -18q15 0 29 3t25 10
t18 18t7 27q0 29 -28.5 42.5t-85.5 27.5q-24 6 -49 15t-45.5 25t-33.5 39.5t-13 58.5q0 41 17 70t44.5 48t61.5 27.5t68 8.5q54 0 104 -19t82 -56z" />
    <glyph glyph-name="u0456" unicode="&#x456;" horiz-adv-x="278" 
d="M202 0h-126v486h126v-486zM214 653q0 -31 -22 -52t-53 -21q-32 0 -54 21.5t-22 51.5t22 52t54 22q31 0 53 -21t22 -53z" />
    <glyph glyph-name="u0457" unicode="&#x457;" horiz-adv-x="278" 
d="M202 0h-126v486h126v-486zM-34 654q0 27 20.5 48t50.5 21q29 0 49.5 -20.5t20.5 -48.5q0 -29 -20.5 -49.5t-49.5 -20.5q-30 0 -50.5 20.5t-20.5 49.5zM174 654q0 27 20 48t50 21q29 0 49.5 -20.5t20.5 -48.5q0 -29 -20.5 -49.5t-49.5 -20.5q-30 0 -50 20.5t-20 49.5z" />
    <glyph glyph-name="u0458" unicode="&#x458;" horiz-adv-x="280" 
d="M-22 -127q9 -3 19.5 -4.5t18.5 -1.5q22 0 34.5 9.5t18.5 25.5t7.5 38t1.5 47v499h126v-503q0 -41 -5 -81t-23 -71.5t-52.5 -51t-92.5 -19.5q-14 0 -32 2t-32 6zM217 653q0 -31 -22.5 -52t-53.5 -21t-53.5 21.5t-22.5 51.5t22.5 52t53.5 22t53.5 -21t22.5 -53z" />
    <glyph glyph-name="u0459" unicode="&#x459;" horiz-adv-x="747" 
d="M380 0l-112 336l-119 -336h-127l179 486h137l53 -155h133q57 0 95 -13.5t61.5 -36t33 -52.5t9.5 -62q0 -80 -54 -123.5t-148 -43.5h-141zM421 240l52 -149h23q55 0 79 18t24 56q0 41 -24 58t-80 17h-74z" />
    <glyph glyph-name="u045A" unicode="&#x45a;" horiz-adv-x="872" 
d="M198 486v-172h212v172h126v-172h102q54 0 92 -12.5t62 -34t34.5 -50t10.5 -60.5t-12.5 -60.5t-37 -50t-61 -34t-84.5 -12.5h-232v215h-212v-215h-125v486h125zM536 91h79q43 0 70.5 14t27.5 52t-28.5 52t-71.5 14h-77v-132z" />
    <glyph glyph-name="u045B" unicode="&#x45b;" horiz-adv-x="606" 
d="M207 417q17 35 57.5 58.5t91.5 23.5q48 0 82 -16t56 -43.5t32 -63.5t10 -76v-300h-126v266q0 27 -4.5 50.5t-15 40.5t-29 27t-46.5 10q-48 0 -79 -36t-31 -101v-257h-126v572h-83v74h83v110h126v-110h164v-74h-164v-155h2z" />
    <glyph glyph-name="u045C" unicode="&#x45c;" horiz-adv-x="573" 
d="M198 301q31 -2 56 -6l136 191h139l-167 -229q71 -36 111.5 -100t64.5 -157h-139q-12 56 -29.5 93.5t-42.5 60.5t-57 34t-72 14v-202h-125v486h125v-185zM327 557h-98l103 144h136z" />
    </font>
</defs>
</svg>
