<?xml version="1.0" standalone="no"?>
<!DOCTYPE svg PUBLIC "-//W3C//DTD SVG 1.1//EN" "http://www.w3.org/Graphics/SVG/1.1/DTD/svg11.dtd" >
<svg xmlns="http://www.w3.org/2000/svg" xmlns:xlink="http://www.w3.org/1999/xlink" version="1.1">
<metadata>
Created by FontForge 20200427 at Thu Mar 20 17:42:30 2014
 By www
Copyright (c) 2011 Rod McDonald. Published by Canada Type. All rights reserved.
</metadata>
<defs>
<font id="Gibson-LightItalic" horiz-adv-x="543" >
  <font-face 
    font-family="Gibson"
    font-weight="300"
    font-style="italic"
    font-stretch="normal"
    units-per-em="1000"
    panose-1="2 0 0 0 0 0 0 0 0 0"
    ascent="778"
    descent="-222"
    x-height="462"
    cap-height="690"
    bbox="-186 -236 1400 949"
    underline-thickness="20"
    underline-position="-153"
    slope="-9"
    unicode-range="U+000D-FB04"
  />
<missing-glyph horiz-adv-x="194" 
 />
    <glyph glyph-name="ff" unicode="ff" horiz-adv-x="466" 
d="M312 -182l-4 -8h-52q15 27 23 72l85 532h-181l-83 -526q-6 -38 -20 -70l-5 -8h-52q15 27 23 72l85 532h-67l8 49h67q16 109 35 151q38 86 123 86q49 0 62 -10l-12 -47q-41 14 -69.5 6.5t-46.5 -30.5t-29 -76l-6 -43l-5 -37h181q16 109 35 151q38 86 123 86q49 0 62 -10
l-12 -47q-41 14 -69.5 6.5t-46.5 -30.5t-29 -76l-6 -43l-5 -37h113l-8 -49h-113l-83 -526q-8 -48 -21 -70z" />
    <glyph glyph-name="fi" unicode="fi" horiz-adv-x="446" 
d="M80 -182l-5 -8h-52q15 27 23 72l85 532h-67l8 49h67q16 109 35 151q38 86 123 86q49 0 62 -10l-12 -47q-41 14 -69.5 6.5t-46.5 -30.5t-29 -76l-6 -43l-5 -37h113l-8 -49h-113l-83 -526q-6 -38 -20 -70zM463 636q0 -20 -15 -35.5t-35 -15.5q-16 0 -26 10.5t-10 25.5
q0 20 15.5 36t34.5 16q15 0 25.5 -11t10.5 -26zM408 387l-50 -317q-2 -18 -2 -37l3 -33h-53q-3 10 -3 32q0 25 4 45l50 317q3 22 3 38l-3 33h52q3 -11 3 -32q0 -25 -4 -46z" />
    <glyph glyph-name="fl" unicode="fl" horiz-adv-x="446" 
d="M80 -182l-5 -8h-52q15 27 23 72l85 532h-67l8 49h67q16 109 35 151q38 86 123 86q49 0 62 -10l-12 -47q-41 14 -69.5 6.5t-46.5 -30.5t-29 -76l-6 -43l-5 -37h113l-8 -49h-113l-83 -526q-6 -38 -20 -70zM443 612l-86 -542q-2 -18 -2 -37l3 -33h-53q-3 10 -3 32q0 25 4 45
l86 542q3 23 3 38l-3 33h52q3 -10 3 -32q0 -25 -4 -46z" />
    <glyph glyph-name="ffi" unicode="ffi" horiz-adv-x="672" 
d="M312 -182l-4 -8h-52q15 27 23 72l85 532h-181l-83 -526q-6 -38 -20 -70l-5 -8h-52q15 27 23 72l85 532h-67l8 49h67q16 109 35 151q38 86 123 86q49 0 62 -10l-12 -47q-41 14 -69.5 6.5t-46.5 -30.5t-29 -76l-6 -43l-5 -37h181q16 109 35 151q38 86 123 86q49 0 62 -10
l-12 -47q-41 14 -69.5 6.5t-46.5 -30.5t-29 -76l-6 -43l-5 -37h113l-8 -49h-113l-83 -526q-8 -48 -21 -70zM635 387l-50 -317q-2 -18 -2 -37l3 -33h-53q-3 10 -3 32q0 25 4 45l50 317q3 22 3 38l-3 33h52q3 -11 3 -32q0 -25 -4 -46zM690 636q0 -20 -15 -35.5t-35 -15.5
q-16 0 -26 10.5t-10 25.5q0 20 15.5 36t34.5 16q15 0 25.5 -11t10.5 -26z" />
    <glyph glyph-name="ffl" unicode="ffl" horiz-adv-x="672" 
d="M312 -182l-4 -8h-52q15 27 23 72l85 532h-181l-83 -526q-6 -38 -20 -70l-5 -8h-52q15 27 23 72l85 532h-67l8 49h67q16 109 35 151q38 86 123 86q49 0 62 -10l-12 -47q-41 14 -69.5 6.5t-46.5 -30.5t-29 -76l-6 -43l-5 -37h181q16 109 35 151q38 86 123 86q49 0 62 -10
l-12 -47q-41 14 -69.5 6.5t-46.5 -30.5t-29 -76l-6 -43l-5 -37h113l-8 -49h-113l-83 -526q-8 -48 -21 -70zM671 612l-86 -542q-2 -18 -2 -37l3 -33h-53q-3 10 -3 32q0 25 4 45l86 542q3 23 3 38l-3 33h52q3 -10 3 -32q0 -25 -4 -46z" />
    <glyph glyph-name="f_j" unicode="fj" horiz-adv-x="439" 
d="M80 -182l-5 -8h-52q15 27 23 72l85 532h-67l8 49h67q16 109 35 151q38 86 123 86q49 0 62 -10l-12 -47q-41 14 -69.5 6.5t-46.5 -30.5t-29 -76l-6 -43l-5 -37h113l-8 -49h-113l-83 -526q-6 -38 -20 -70zM370 456l5 9h52q-15 -27 -23 -72l-64 -402q-12 -76 -41 -127
q-36 -64 -115 -64q-29 0 -43 8l7 47q18 -8 43 -8q39 0 64 33q8 10 16 36q9 29 10 36l6 39l63 396q7 40 20 69zM457 636q0 -20 -15 -35.5t-35 -15.5q-16 0 -26 10t-10 26q0 20 15 35.5t35 15.5q16 0 26 -10.5t10 -25.5z" />
    <glyph glyph-name="f_t" unicode="ft" horiz-adv-x="504" 
d="M435 532l-11 -69h113l-8 -49h-113l-37 -239q-9 -54 -9 -73q0 -63 51 -63q28 0 51 13l-3 -47q-25 -15 -70 -15q-41 0 -62.5 24t-21.5 67q0 41 9 103q8 53 23 136l17 94h-181l-83 -526q-6 -38 -20 -70l-5 -8h-52q15 27 23 72l85 532h-67l8 49h67q16 109 35 151
q38 86 123 86q49 0 62 -10l-12 -47q-41 14 -69.5 6.5t-46.5 -30.5t-29 -76l-6 -43l-5 -37h181l12 76q3 23 3 38l-3 33h52q3 -10 3 -32q0 -25 -4 -46z" />
    <glyph glyph-name=".notdef" horiz-adv-x="194" 
 />
    <glyph glyph-name=".null" horiz-adv-x="0" 
 />
    <glyph glyph-name="nonmarkingreturn" horiz-adv-x="333" 
 />
    <glyph glyph-name="CR" unicode="&#xd;" horiz-adv-x="194" 
 />
    <glyph glyph-name="space" unicode=" " horiz-adv-x="194" 
 />
    <glyph glyph-name="exclam" unicode="!" horiz-adv-x="276" 
d="M120 165l79 525h54l-88 -525h-45zM170 47q0 -23 -16 -40t-39 -17q-17 0 -28 11t-11 28q0 24 16 41t39 17q17 0 28 -11t11 -29z" />
    <glyph glyph-name="quotedbl" unicode="&#x22;" horiz-adv-x="388" 
d="M290 500l25 190h54l-36 -190h-43zM169 500l25 190h54l-35 -190h-44z" />
    <glyph glyph-name="numbersign" unicode="#" 
d="M515 700l-62 -209h110l-8 -50h-117l-46 -155h109l-7 -49h-116l-62 -210h-45l62 210h-132l-62 -210h-45l62 210h-106l8 49h112l46 155h-105l8 50h111l63 209h45l-63 -209h132l63 209h45zM215 286h132l46 155h-132z" />
    <glyph glyph-name="dollar" unicode="$" 
d="M530 599l-45 -31q-26 77 -99 85l-44 -277q78 -41 100 -62q44 -44 44 -107q0 -85 -59 -147q-59 -63 -146 -70l-14 -85h-46l13 84q-65 0 -111 37.5t-61 101.5l51 26q10 -52 44.5 -83t84.5 -32l47 298q-37 20 -43 22q-3 2 -8 5t-12.5 8.5t-14.5 9.5q-25 18 -33 31
q-27 38 -27 85q0 83 55 138q57 57 141 64l12 78h47l-13 -78q101 -9 137 -101zM299 396l40 257q-58 -6 -96 -46.5t-38 -97.5q0 -29 16 -51q4 -6 8 -11t7 -8.5t8.5 -7.5t8 -6.5t9.5 -7t10 -6t13 -7.5t14 -8zM430 196q0 50 -31 76q-10 9 -28 22q-8 6 -39 22l-43 -277
q59 5 99 51q42 46 42 106z" />
    <glyph glyph-name="percent" unicode="%" horiz-adv-x="701" 
d="M404 565q0 -77 -49 -133q-50 -56 -126 -56q-57 0 -91 35.5t-34 92.5q0 77 49 132q49 57 126 57q57 0 91 -35.5t34 -92.5zM104 1l520 704l34 -23l-520 -705zM657 178q0 -77 -49 -132q-50 -56 -126 -56q-56 0 -90 35.5t-34 92.5q0 77 49 132q50 56 125 56q57 0 91 -35.5
t34 -92.5zM356 558q0 40 -22.5 65t-61.5 25q-52 0 -87 -42q-33 -42 -33 -96q0 -40 23 -64.5t61 -24.5q53 0 86 41q34 41 34 96zM609 172q0 40 -22.5 65t-61.5 25q-51 0 -86 -42q-33 -42 -33 -96q0 -40 22.5 -65t60.5 -25q53 0 86 42q34 41 34 96z" />
    <glyph glyph-name="ampersand" unicode="&#x26;" horiz-adv-x="630" 
d="M571 341l47 -15q-50 -92 -125 -170l103 -150l-1 -6h-66l-75 114q-65 -65 -122 -95.5t-128 -30.5q-72 0 -117 41t-45 110q0 102 70 163q35 31 67 51.5t84 46.5l-13 21q-22 40 -24 43q-18 36 -18 73q0 72 48 117q47 46 123 46q56 0 90.5 -29.5t34.5 -82.5q0 -107 -166 -198
l129 -196q27 27 56 70q34 50 48 77zM449 583q0 34 -21 52t-57 18q-47 0 -78 -32t-31 -80q0 -15 12 -53q6 -17 17 -31q19 -26 21 -31q55 28 90 61q47 41 47 96zM428 153l-139 211q-97 -52 -128 -82q-60 -56 -60 -128q0 -53 33.5 -85t88.5 -32q52 0 108 33t97 83z" />
    <glyph glyph-name="quotesingle" unicode="'" horiz-adv-x="266" 
d="M169 500l25 190h54l-35 -190h-44z" />
    <glyph glyph-name="parenleft" unicode="(" horiz-adv-x="242" 
d="M283 760l31 -21q-84 -105 -139 -259q-53 -153 -53 -286q0 -76 15 -160q15 -86 43 -143l-39 -21q-74 156 -74 322q0 300 216 568z" />
    <glyph glyph-name="parenright" unicode=")" horiz-adv-x="242" 
d="M233 438q0 -300 -216 -568l-32 21q86 107 138 257q54 152 54 288q0 183 -57 303l38 21q75 -153 75 -322z" />
    <glyph glyph-name="asterisk" unicode="*" horiz-adv-x="509" 
d="M338 559l146 57l10 -47l-151 -47l73 -129l-45 -28l-60 136l-103 -136l-35 28l114 129l-137 47l25 47l128 -57l16 146h50z" />
    <glyph glyph-name="plus" unicode="+" horiz-adv-x="645" 
d="M325 367h230v-45h-230v-230h-45v230h-230v45h230v230h45v-230z" />
    <glyph glyph-name="comma" unicode="," horiz-adv-x="276" 
d="M33 -140l93 220h60l-112 -220h-41z" />
    <glyph glyph-name="hyphen" unicode="-" horiz-adv-x="254" 
d="M40 253l8 50h211l-7 -50h-212z" />
    <glyph glyph-name="period" unicode="." horiz-adv-x="276" 
d="M170 46q0 -23 -16.5 -39.5t-38.5 -16.5q-17 0 -28.5 11t-11.5 28q0 23 16.5 39.5t38.5 16.5q17 0 28.5 -11t11.5 -28z" />
    <glyph glyph-name="slash" unicode="/" horiz-adv-x="490" 
d="M-11 -70l539 855l40 -19l-537 -855z" />
    <glyph glyph-name="zero" unicode="0" 
d="M552 441q0 -150 -70 -291q-37 -73 -98.5 -117t-136.5 -44q-53 0 -91.5 22.5t-60 61t-31 82t-9.5 93.5q0 151 70 290q36 74 98 118t137 44q53 0 91.5 -22.5t60 -61t31 -82t9.5 -93.5zM496 444q0 39 -7 73t-22 65.5t-44.5 50t-70.5 18.5q-61 0 -110.5 -41.5t-77.5 -109.5
q-53 -132 -53 -252q0 -39 7 -73t22 -65.5t44.5 -50t70.5 -18.5q51 0 93.5 29t69 73t45 99.5t26 106.5t7.5 95z" />
    <glyph glyph-name="one" unicode="1" horiz-adv-x="402" 
d="M139 643l7 47h189l-109 -690h-53l102 643h-136z" />
    <glyph glyph-name="two" unicode="2" 
d="M531 534q0 -89 -61 -165q-32 -37 -57 -63q-25 -25 -67 -61l-221 -193h359l-9 -52h-424l-3 41l279 245q73 64 110.5 120t37.5 118q0 59 -36.5 93t-96.5 34q-54 0 -101 -33.5t-81 -89.5l-36 26q87 146 226 146q80 0 130.5 -44.5t50.5 -121.5z" />
    <glyph glyph-name="three" unicode="3" 
d="M522 554q0 -68 -40 -121q-39 -53 -103 -69v-1q49 -7 80 -49q30 -40 30 -92q0 -103 -77 -168q-76 -64 -184 -64q-57 0 -107.5 33.5t-71.5 87.5l45 34q19 -45 59 -75t85 -30q83 0 139 47t56 129q0 60 -38 89q-16 11 -43 19q-39 10 -99 10l8 54h45q68 0 114 43t46 112
q0 50 -35.5 79t-88.5 29q-48 0 -87.5 -21.5t-84.5 -66.5l-30 31q50 56 99.5 81t115.5 25q70 0 118 -39q49 -39 49 -107z" />
    <glyph glyph-name="four" unicode="4" 
d="M508 695l-77 -484h102l-8 -51h-102l-25 -160h-53l25 160h-342l7 46l424 489h49zM97 211h281l64 400z" />
    <glyph glyph-name="five" unicode="5" 
d="M139 374l113 316h299l-8 -49h-259l-80 -219q41 19 100 19q84 0 136 -51q54 -51 54 -133q0 -113 -78 -191t-193 -78q-65 0 -115.5 31t-68.5 87l45 31q15 -46 56.5 -72t95.5 -26q87 0 144 61q58 61 58 150q0 65 -40 103t-106 38q-80 0 -121 -37z" />
    <glyph glyph-name="six" unicode="6" 
d="M558 627l-36 -39q-57 65 -136 65q-92 0 -155 -84q-27 -35 -48 -84q-35 -81 -50 -177q75 126 206 126q75 0 125 -50q49 -49 49 -126q0 -106 -72 -189q-72 -81 -180 -81q-186 0 -186 227q0 49 7.5 101t23 107.5t42 104.5t60.5 88t82.5 61.5t105.5 22.5q48 0 94.5 -19.5
t67.5 -53.5zM457 247q0 64 -35.5 101t-97.5 37q-83 0 -137 -62q-53 -62 -53 -146q0 -64 36 -101.5t99 -37.5q82 0 135 62t53 147z" />
    <glyph glyph-name="seven" unicode="7" 
d="M146 690h438l10 -31l-441 -659h-55l428 641h-388z" />
    <glyph glyph-name="eight" unicode="8" 
d="M525 556q0 -135 -133 -189v-1q48 -17 74.5 -55t26.5 -90q0 -104 -70 -168q-68 -64 -176 -64q-83 0 -133.5 42t-50.5 119q0 76 43 134.5t116 81.5v1q-83 38 -83 124q0 91 63 150q64 59 158 59q69 0 117 -39q48 -37 48 -105zM469 546q0 49 -32.5 77t-84.5 28
q-67 0 -114 -44q-45 -43 -45 -112q0 -49 32.5 -76.5t85.5 -27.5q69 0 113 43q45 44 45 112zM439 219q0 58 -37.5 90.5t-98.5 32.5q-77 0 -131 -51q-53 -51 -53 -128q0 -57 38 -91t98 -34q77 0 130 52q54 52 54 129z" />
    <glyph glyph-name="nine" unicode="9" 
d="M532 473q0 -58 -10 -120.5t-34.5 -128.5t-59.5 -118t-90 -85t-122 -33q-118 0 -172 73l36 39q54 -63 143 -63q57 0 104 33.5t75 90.5q52 100 72 219q-75 -126 -207 -126q-76 0 -125 49t-49 127q0 107 72 188q72 82 180 82q187 0 187 -227zM473 512q0 64 -36 101.5
t-99 37.5q-83 0 -136 -62q-52 -61 -52 -147q0 -64 35.5 -101t97.5 -37q83 0 136 62q54 62 54 146z" />
    <glyph glyph-name="colon" unicode=":" horiz-adv-x="276" 
d="M231 431q0 -24 -16 -41t-39 -17q-17 0 -28.5 11t-11.5 29q0 23 16.5 40t38.5 17q18 0 29 -11t11 -28zM170 47q0 -23 -16 -40t-39 -17q-17 0 -28 11t-11 28q0 24 16 41t39 17q17 0 28 -11t11 -29z" />
    <glyph glyph-name="semicolon" unicode=";" horiz-adv-x="276" 
d="M231 431q0 -24 -16 -41t-39 -17q-17 0 -28.5 11t-11.5 29q0 23 16.5 40t38.5 17q18 0 29 -11t11 -28zM33 -140l94 221h59l-112 -221h-41z" />
    <glyph glyph-name="less" unicode="&#x3c;" horiz-adv-x="645" 
d="M100 345l455 -210v-50l-505 235v50l505 235v-50z" />
    <glyph glyph-name="equal" unicode="=" horiz-adv-x="645" 
d="M50 445h505v-45h-505v45zM50 290h505v-45h-505v45z" />
    <glyph glyph-name="greater" unicode="&#x3e;" horiz-adv-x="645" 
d="M50 605l505 -235v-50l-505 -235v50l455 210l-455 210v50z" />
    <glyph glyph-name="question" unicode="?" horiz-adv-x="451" 
d="M463 569q0 -84 -60 -140l-58 -52q-36 -33 -54 -55q-22 -28 -32 -74q-4 -20 -8 -45l-6 -38h-45l3 31l9 61q11 51 37 86q16 23 62 61q49 39 72.5 74.5t23.5 81.5q0 42 -28 66.5t-73 24.5q-42 0 -77 -22t-55 -61l-36 26q61 106 181 106q63 0 103.5 -35.5t40.5 -95.5zM249 47
q0 -23 -16 -40t-39 -17q-17 0 -28 11t-11 28q0 24 16 41t39 17q17 0 28 -11t11 -29z" />
    <glyph glyph-name="at" unicode="@" horiz-adv-x="776" 
d="M758 338q0 -69 -35 -148q-35 -78 -100 -134t-139 -56q-64 0 -62 63q-64 -63 -144 -63q-43 0 -66 31t-23 78q0 68 36 143q35 74 101 131q64 55 136 55q76 0 99 -54l17 34h58l-26 -49l-42 -82q-95 -189 -92 -213q0 -25 30 -25q53 0 103 50q49 49 75 114q26 66 26 117
q0 100 -69 156q-69 57 -172 57t-189 -58q-86 -57 -134 -149t-48 -192q0 -112 64 -182t175 -70q72 0 156 25q85 24 132 65l15 -34q-57 -51 -142 -76q-86 -27 -168 -27q-130 0 -207 81q-76 79 -76 210q0 117 55 220q56 105 156 169q101 65 219 65t200 -68q81 -68 81 -184z
M514 286l22 49q-6 27 -30 41.5t-56 14.5q-52 0 -102 -47q-47 -44 -77 -109q-28 -60 -28 -113q0 -73 62 -73q84 5 147 114q21 34 34 61z" />
    <glyph glyph-name="A" unicode="A" horiz-adv-x="611" 
d="M377 692h30l174 -692h-62l-49 207h-315l-114 -207h-58zM376 607l-192 -348h274z" />
    <glyph glyph-name="B" unicode="B" horiz-adv-x="545" 
d="M510 555q0 -63 -36 -117q-35 -54 -94 -71v-1q61 -12 95 -47.5t34 -91.5q0 -110 -96 -182q-61 -45 -174 -45h-178l109 690h147q80 0 131 -24q62 -26 62 -111zM454 542q0 61 -45 80q-38 17 -95 17h-98l-41 -256h89q88 0 139 39.5t51 119.5zM451 220q0 114 -176 114h-108
l-45 -283h115q95 0 154 40q60 41 60 129z" />
    <glyph glyph-name="C" unicode="C" horiz-adv-x="654" 
d="M688 597l-39 -39q-26 46 -81 68q-54 24 -111 24q-142 0 -237 -110q-93 -110 -93 -255q0 -109 63 -177q63 -67 171 -67q133 0 225 91l30 -36q-111 -108 -263 -108q-129 0 -207 79q-77 80 -77 209q0 112 49 209t142 156q92 59 205 59q141 0 223 -103z" />
    <glyph glyph-name="D" unicode="D" horiz-adv-x="654" 
d="M648 404q0 -169 -118 -287q-117 -117 -286 -117h-183l109 690h183q130 0 212 -79q83 -78 83 -207zM591 398q0 112 -69 176q-70 65 -182 65h-124l-94 -588h125q143 0 244 101q100 101 100 246z" />
    <glyph glyph-name="E" unicode="E" horiz-adv-x="499" 
d="M61 0l109 690h362l-8 -51h-308l-39 -247h291l-8 -50h-292l-46 -291h316l-8 -51h-369z" />
    <glyph glyph-name="F" unicode="F" horiz-adv-x="461" 
d="M61 0l109 690h338l-8 -51h-284l-43 -268h268l-9 -51h-267l-51 -320h-53z" />
    <glyph glyph-name="G" unicode="G" horiz-adv-x="727" 
d="M707 577l-42 -39q-70 112 -210 112q-143 0 -236 -110q-92 -110 -92 -257q0 -109 64 -176q65 -66 175 -66q62 0 127 18q66 20 102 56l29 187h-204l8 50h257l-42 -262q-47 -51 -127 -77q-78 -25 -163 -25q-128 0 -206 81t-78 210q0 172 112 296q113 125 282 125
q155 0 244 -123z" />
    <glyph glyph-name="H" unicode="H" horiz-adv-x="684" 
d="M585 395l47 295h53l-109 -690h-54l55 344h-408l-55 -344h-53l109 690h54l-47 -295h408z" />
    <glyph glyph-name="I" unicode="I" horiz-adv-x="217" 
d="M61 0l109 690h54l-110 -690h-53z" />
    <glyph glyph-name="J" unicode="J" horiz-adv-x="217" 
d="M59 -9l111 699h54l-110 -694q-12 -75 -41 -131q-33 -70 -111 -70q-36 0 -55 10l8 47q18 -8 50 -8q41 -6 71 52q7 12 11 34l6 30z" />
    <glyph glyph-name="K" unicode="K" horiz-adv-x="528" 
d="M173 370l362 320h70l-310 -270l220 -420h-67l-196 383l-89 -78l-49 -305h-53l109 690h54z" />
    <glyph glyph-name="L" unicode="L" horiz-adv-x="383" 
d="M224 690l-102 -639h237l-8 -51h-290l109 690h54z" />
    <glyph glyph-name="M" unicode="M" horiz-adv-x="814" 
d="M401 107l319 583h61l-42 -690h-53l38 593l-340 -605h-6l-147 605h-1l-149 -593h-54l177 690h61l134 -583h2z" />
    <glyph glyph-name="N" unicode="N" horiz-adv-x="711" 
d="M565 99l94 591h53l-109 -690h-48l-345 601l-96 -601h-53l109 690h53z" />
    <glyph glyph-name="O" unicode="O" horiz-adv-x="761" 
d="M754 412q0 -174 -114 -299t-285 -125q-127 0 -207 80q-79 79 -79 208q0 174 113 299q114 125 286 125q126 0 206 -80t80 -208zM697 406q0 108 -65 176t-172 68q-96 0 -173 -52q-77 -51 -119 -134.5t-42 -178.5q0 -109 64 -176q65 -68 173 -68q96 0 173 52
q77 51 119 134.5t42 178.5z" />
    <glyph glyph-name="P" unicode="P" horiz-adv-x="485" 
d="M510 540q0 -105 -70 -162q-70 -56 -176 -56h-99l-51 -322h-53l109 690h153q81 0 133 -37q54 -36 54 -113zM453 531q0 55 -37 81.5t-100 26.5h-100l-43 -267h101q76 0 128 41q51 42 51 118z" />
    <glyph glyph-name="Q" unicode="Q" horiz-adv-x="761" 
d="M754 412q0 -98 -39 -184.5t-111 -147.5l59 -92l-44 -32l-61 90q-91 -58 -203 -58q-127 0 -207 80q-79 79 -79 208q0 112 50 209q49 97 142 156q94 59 207 59q126 0 206 -80t80 -208zM697 406q0 108 -65 176t-172 68q-96 0 -173 -52q-77 -51 -119 -134.5t-42 -178.5
q0 -109 64 -176q65 -68 173 -68q89 0 166 48l-51 77l45 32l52 -75q57 51 89.5 126.5t32.5 156.5z" />
    <glyph glyph-name="R" unicode="R" horiz-adv-x="485" 
d="M505 539q0 -88 -53 -146t-141 -71l151 -322h-69l-145 319h-83l-51 -319h-53l109 690h154q82 0 131.5 -39t49.5 -112zM449 533q0 68 -50 88q-44 18 -103 18h-80l-43 -269h79q93 0 145 40t52 123z" />
    <glyph glyph-name="S" unicode="S" horiz-adv-x="507" 
d="M519 609l-40 -31q-46 73 -132 73q-65 0 -112 -39q-45 -39 -45 -104q0 -74 99 -117q90 -38 123 -65q59 -47 58 -118q0 -97 -74 -159q-73 -61 -173 -61q-65 0 -112.5 32.5t-70.5 92.5l43 29q18 -48 59.5 -76.5t93.5 -28.5q72 0 125 46q54 47 54 117q0 75 -99 118
q-37 16 -50.5 22t-45.5 24.5t-46 34t-26.5 42t-12.5 57.5q0 93 65 147q64 55 160 55q107 0 159 -91z" />
    <glyph glyph-name="T" unicode="T" horiz-adv-x="469" 
d="M90 639l8 51h447l-8 -51h-197l-101 -639h-54l102 639h-197z" />
    <glyph glyph-name="U" unicode="U" horiz-adv-x="630" 
d="M521 293l63 397h53l-65 -412q-19 -128 -79 -206q-66 -84 -203 -84q-91 0 -146 50t-55 138q0 38 11 102l65 412h54l-63 -397q-11 -79 -11 -103q0 -71 40.5 -110.5t112.5 -39.5q114 0 163 78q43 66 60 175z" />
    <glyph glyph-name="V" unicode="V" horiz-adv-x="538" 
d="M263 94l300 596h56l-352 -691h-42l-132 691h58z" />
    <glyph glyph-name="W" unicode="W" horiz-adv-x="875" 
d="M635 97l259 593h57l-304 -691h-49l-87 609l-279 -609h-49l-85 691h57l71 -593l270 593h57z" />
    <glyph glyph-name="X" unicode="X" horiz-adv-x="516" 
d="M298 394l220 296h63l-256 -335l163 -355h-65l-138 316l-237 -316h-65l275 355l-149 335h62z" />
    <glyph glyph-name="Y" unicode="Y" horiz-adv-x="528" 
d="M297 347l250 343h62l-294 -395l-47 -295h-53l46 295l-169 395h63z" />
    <glyph glyph-name="Z" unicode="Z" horiz-adv-x="519" 
d="M120 639l8 51h447l-6 -37l-488 -602h398l-8 -51h-463l7 46l480 593h-375z" />
    <glyph glyph-name="bracketleft" unicode="[" horiz-adv-x="242" 
d="M6 -133l141 893h156l-7 -44h-103l-128 -804h104l-7 -45h-156z" />
    <glyph glyph-name="backslash" unicode="\" horiz-adv-x="485" 
d="M121 775l45 20l278 -785l-46 -20z" />
    <glyph glyph-name="bracketright" unicode="]" horiz-adv-x="242" 
d="M140 716l7 44h156l-141 -893h-156l7 45h103l128 804h-104z" />
    <glyph glyph-name="asciicircum" unicode="^" horiz-adv-x="645" 
d="M277 690h50l180 -390h-50l-155 340l-155 -340h-50z" />
    <glyph glyph-name="underscore" unicode="_" horiz-adv-x="500" 
d="M500 24v-49h-500v49h500z" />
    <glyph glyph-name="grave" unicode="`" horiz-adv-x="271" 
d="M145 690h65l69 -145h-45z" />
    <glyph glyph-name="a" unicode="a" horiz-adv-x="553" 
d="M464 380l13 84h53l-62 -388q-3 -18 -3 -43l3 -33h-53q-3 10 -3 32q0 18 3 39l2 11h-1q-72 -93 -178 -93q-89 0 -138.5 52.5t-49.5 142.5q0 118 74 203q73 85 188 85q104 0 151 -92h1zM446 274q0 68 -37 109.5t-102 41.5q-90 0 -146 -71q-55 -70 -55 -164q0 -68 37 -109.5
t102 -41.5q89 0 145 71t56 164z" />
    <glyph glyph-name="b" unicode="b" horiz-adv-x="558" 
d="M100 8l-4 -8h-52q15 27 23 72l86 540q8 48 21 70l4 8h51q-15 -26 -23 -71l-38 -238h1q77 92 181 92q86 0 135.5 -52.5t49.5 -139.5q0 -121 -73 -206t-191 -85q-107 0 -149 92h-1l-1 -6q-6 -35 -20 -68zM480 275q0 69 -37 110t-103 41q-90 0 -146 -71q-55 -70 -55 -164
q0 -68 37.5 -110t102.5 -42q89 0 145 71q56 73 56 165z" />
    <glyph glyph-name="c" unicode="c" horiz-adv-x="456" 
d="M480 392l-38 -34q-47 68 -135 68q-85 0 -144 -72q-57 -72 -57 -160q0 -69 38 -112t104 -43q43 0 88.5 17t74.5 44l19 -39q-76 -71 -195 -71q-83 0 -134 57q-50 58 -50 141q0 115 75 199q76 85 190 85q51 0 97.5 -21.5t66.5 -58.5z" />
    <glyph glyph-name="d" unicode="d" horiz-adv-x="558" 
d="M411 31q0 22 7 54q-72 -95 -180 -95q-89 0 -138.5 52.5t-49.5 142.5q0 117 74 203q73 85 188 85q104 0 151 -92h1l38 238q3 23 3 38l-3 33h52q3 -10 3 -32q0 -25 -4 -46l-86 -542q-2 -18 -2 -37l3 -33h-53q-4 9 -4 31zM447 275q0 68 -37.5 109.5t-102.5 41.5
q-90 0 -146 -71q-55 -70 -55 -164q0 -69 37 -110.5t102 -41.5q90 0 146 71q56 73 56 165z" />
    <glyph glyph-name="e" unicode="e" horiz-adv-x="486" 
d="M110 220q-3 -20 -3 -38q0 -68 35 -106.5t99 -38.5q54 0 99 20t62 37l4 3l18 -37q-10 -10 -32 -24q-68 -46 -164 -46q-81 0 -128.5 53.5t-47.5 143.5q0 122 78 203q79 82 182 82q66 0 105.5 -33t39.5 -82q0 -62 -66 -102.5t-186 -40.5q-43 0 -95 6zM119 265q45 -5 89 -5
q85 0 139 25q57 25 57 74q0 28 -29.5 48t-73.5 20q-73 0 -122 -52q-48 -51 -60 -110z" />
    <glyph glyph-name="f" unicode="f" horiz-adv-x="233" 
d="M80 -182l-5 -8h-52q15 27 23 72l85 532h-67l8 49h67q16 109 35 151q38 86 123 86q49 0 62 -10l-12 -47q-41 14 -69.5 6.5t-46.5 -30.5t-29 -76l-6 -43l-5 -37h113l-8 -49h-113l-83 -526q-6 -38 -20 -70z" />
    <glyph glyph-name="g" unicode="g" horiz-adv-x="553" 
d="M485 456l5 8h52q-15 -27 -23 -72l-47 -292q-22 -135 -75 -211q-60 -89 -201 -89q-50 0 -100 19t-78 52l37 41q22 -28 68 -45q45 -18 85 -18q84 0 134 50q58 61 77 195h-1q-69 -95 -181 -95q-84 0 -135 53q-51 54 -51 138q0 117 73 199q74 83 188 83q51 0 92 -24t59 -68h1
l1 9q4 40 20 67zM447 278q0 67 -37.5 107t-103.5 40q-90 0 -145 -69q-55 -67 -55 -160q0 -69 37.5 -108t103.5 -39q91 0 145 68q55 67 55 161z" />
    <glyph glyph-name="h" unicode="h" horiz-adv-x="505" 
d="M205 612l-36 -226h1q27 39 69 63t87 24q133 0 133 -131q0 -22 -6 -65l-33 -207q-2 -18 -2 -37l3 -33h-53q-3 10 -3 32q0 25 4 45l31 198q6 37 6 56q0 95 -90 95q-73 0 -116 -58t-55 -138l-37 -230h-52l98 619q3 23 3 38l-3 33h52q3 -10 3 -32q0 -25 -4 -46z" />
    <glyph glyph-name="i" unicode="i" horiz-adv-x="206" 
d="M224 636q0 -20 -15 -35.5t-35 -15.5q-16 0 -26 10.5t-10 25.5q0 20 15.5 36t34.5 16q15 0 25.5 -11t10.5 -26zM169 387l-50 -317q-2 -18 -2 -37l3 -33h-53q-3 10 -3 32q0 25 4 45l50 317q3 22 3 38l-3 33h52q3 -11 3 -32q0 -25 -4 -46z" />
    <glyph glyph-name="j" unicode="j" horiz-adv-x="206" 
d="M138 456l4 9h52q-15 -27 -23 -72l-64 -402q-12 -76 -41 -127q-36 -64 -115 -64q-29 0 -43 8l7 47q18 -8 43 -8q39 0 64 33q8 10 16 36q9 29 10 36l6 39l63 396q9 49 21 69zM224 636q0 -20 -15 -35.5t-35 -15.5q-16 0 -26 10t-10 26q0 20 15 35.5t35 15.5q16 0 26 -10.5
t10 -25.5z" />
    <glyph glyph-name="k" unicode="k" horiz-adv-x="431" 
d="M205 612l-56 -354l245 207h65l-211 -177l166 -288h-65l-142 254l-68 -57l-31 -197h-52l98 619q3 23 3 38l-3 33h52q3 -10 3 -32q0 -25 -4 -46z" />
    <glyph glyph-name="l" unicode="l" horiz-adv-x="206" 
d="M205 612l-86 -542q-2 -18 -2 -37l3 -33h-53q-3 10 -3 32q0 25 4 45l86 542q3 23 3 38l-3 33h52q3 -10 3 -32q0 -25 -4 -46z" />
    <glyph glyph-name="m" unicode="m" horiz-adv-x="754" 
d="M164 385h1q22 37 63.5 62t83.5 25q100 0 117 -95q28 43 69 69t87 26q125 0 125 -132q0 -23 -5 -58l-34 -212q-2 -18 -2 -37l3 -33h-53q-3 10 -3 32q0 25 4 45l33 205q4 20 4 51q0 92 -77 92q-65 0 -107 -56t-53 -127l-38 -242h-53l45 282q5 32 5 51q0 92 -77 92
q-65 0 -107 -56t-53 -127l-39 -242h-52l65 407q1 6 1 24l-3 33h52q3 -10 3 -32q0 -14 -5 -47z" />
    <glyph glyph-name="n" unicode="n" horiz-adv-x="494" 
d="M164 385h1q27 39 69 63t87 24q132 0 132 -133q0 -22 -6 -64l-33 -205q-2 -18 -2 -37l3 -33h-53q-3 10 -3 32q0 25 4 45l31 193q6 40 6 61q0 48 -22 71t-69 23q-73 0 -115 -56q-41 -57 -53 -134l-38 -235h-52l63 393q3 23 3 38l-3 33h52q3 -10 3 -32q0 -12 -5 -47z" />
    <glyph glyph-name="o" unicode="o" horiz-adv-x="538" 
d="M515 273q0 -116 -78 -200q-77 -83 -192 -83q-87 0 -141 55t-54 142q0 116 78 200q78 85 193 85q86 0 140 -56t54 -143zM461 271q0 69 -39.5 111.5t-107.5 42.5q-91 0 -149 -70q-59 -71 -59 -161q0 -69 40 -112t107 -43q90 0 148 70q60 71 60 162z" />
    <glyph glyph-name="p" unicode="p" horiz-adv-x="558" 
d="M169 386l-1 -6h1q77 92 181 92q86 0 135.5 -52t49.5 -140q0 -121 -73 -206t-191 -85q-107 0 -149 93h-1l-32 -202q-2 -18 -2 -37l3 -33h-53q-3 10 -3 32q0 25 4 45l80 507q3 22 3 37l-3 33h52q3 -10 3 -32q0 -25 -4 -46zM480 274q0 69 -37 110t-103 41q-90 0 -146 -71
q-55 -70 -55 -164q0 -69 37 -110t103 -41q89 0 145 71t56 164z" />
    <glyph glyph-name="q" unicode="q" horiz-adv-x="553" 
d="M418 -182l-4 -8h-52q15 27 23 72l32 200h-1q-72 -93 -178 -93q-89 0 -138.5 52.5t-49.5 142.5q0 118 74 203q73 85 188 85q104 0 151 -92h1l1 6q8 48 21 70l4 8h52q-17 -33 -23 -72l-80 -504q-8 -48 -21 -70zM446 274q0 68 -37 109.5t-102 41.5q-90 0 -146 -71
q-55 -70 -55 -164q0 -68 37 -109.5t102 -41.5q89 0 145 71t56 164z" />
    <glyph glyph-name="r" unicode="r" horiz-adv-x="291" 
d="M165 386l-1 -5q41 92 126 92q24 0 48 -8l-13 -52h-4q-14 8 -44 8q-58 0 -90 -51.5t-44 -119.5l-40 -250h-52l63 394q3 22 3 37l-3 33h52q3 -10 3 -32q0 -25 -4 -46z" />
    <glyph glyph-name="s" unicode="s" horiz-adv-x="378" 
d="M372 404l-38 -31q-32 54 -99 54q-41 0 -69.5 -23.5t-28.5 -61.5q0 -47 105 -79q43 -13 74 -42.5t31 -69.5q0 -73 -53 -117t-126 -44q-52 0 -93 23.5t-59 67.5l40 31q16 -35 48 -54t72 -19q49 0 83 27.5t34 72.5q0 27 -21.5 45.5t-52 30.5t-61 25t-52 35t-21.5 54
q0 65 46 104q47 39 111 39q83 0 130 -68z" />
    <glyph glyph-name="t" unicode="t" horiz-adv-x="271" 
d="M202 532l-11 -69h113l-8 -49h-113l-37 -239q-9 -54 -9 -73q0 -63 51 -63q28 0 51 13l-3 -47q-26 -15 -70 -15q-41 0 -62.5 24t-21.5 67q0 41 9 103q8 53 23 136l17 94h-67l7 49h68l12 76q3 23 3 38l-3 33h52q3 -10 3 -32q0 -25 -4 -46z" />
    <glyph glyph-name="u" unicode="u" horiz-adv-x="492" 
d="M160 389l-33 -209q-5 -32 -5 -52q0 -91 92 -91q70 0 110 52q42 53 54 126l39 250h53l-63 -395q-2 -18 -2 -37l3 -33h-53q-3 10 -3 32q0 25 3 40q-58 -82 -156 -82q-129 0 -129 131q0 23 6 67l33 206q3 22 3 38l-3 33h52q3 -11 3 -32q0 -23 -4 -44z" />
    <glyph glyph-name="v" unicode="v" horiz-adv-x="427" 
d="M204 78l214 386h55l-262 -464h-40l-114 464h55z" />
    <glyph glyph-name="w" unicode="w" horiz-adv-x="698" 
d="M496 79l181 385h55l-223 -464h-45l-77 386l-200 -386h-44l-76 464h54l59 -385l199 386h40z" />
    <glyph glyph-name="x" unicode="x" horiz-adv-x="436" 
d="M240 279l163 185h58l-196 -219l144 -245h-60l-120 211l-186 -211h-60l222 245l-127 219h58z" />
    <glyph glyph-name="y" unicode="y" horiz-adv-x="422" 
d="M201 63l217 401h55l-316 -574q-45 -85 -112 -85q-39 0 -58 15l18 50q19 -10 45 -10q45 0 70 55l45 92l-108 457h55z" />
    <glyph glyph-name="z" unicode="z" horiz-adv-x="417" 
d="M83 413l8 49h338l-7 -38l-343 -375h299l-8 -49h-367l6 39l344 374h-270z" />
    <glyph glyph-name="braceleft" unicode="{" horiz-adv-x="242" 
d="M308 760l-7 -44q-47 0 -65 -12.5t-25 -54.5l-33 -209q-10 -57 -27 -84.5t-58 -41.5v-1q27 -10 38.5 -27t11.5 -47q0 -46 -20 -143t-20 -141q0 -21 13 -34q6 -6 17 -7q11 -2 40 -2l-7 -45h-15q-51 0 -74.5 20.5t-23.5 68.5q0 46 18 137q19 89 19 136q0 58 -51 58l8 54
q63 0 76 84l29 184q13 84 44 118q30 33 112 33z" />
    <glyph glyph-name="bar" unicode="|" horiz-adv-x="250" 
d="M82 800h45v-900h-45v900z" />
    <glyph glyph-name="braceright" unicode="}" horiz-adv-x="242" 
d="M261 341l-9 -54q-62 0 -76 -84l-29 -185q-13 -84 -44 -118q-30 -33 -111 -33l7 45q47 0 65 12.5t24 53.5l34 210q9 57 26 84t58 41v1q-27 10 -38 27t-11 48q0 45 20 142t20 141q0 20 -12 31q-3 3 -6 5t-5.5 3.5t-6 2.5t-5.5 1.5t-7.5 0.5h-8h-10h-10.5l7 44h15
q52 0 75.5 -20.5t23.5 -68.5q0 -47 -19 -136t-19 -137q0 -57 52 -57z" />
    <glyph glyph-name="asciitilde" unicode="~" horiz-adv-x="645" 
d="M507 340l38 -25q-55 -100 -135 -100q-40 0 -115 37q-74 38 -103 38q-52 0 -95 -75l-37 25q54 100 135 100q41 0 115 -38q2 -1 17 -9l35 -16q33 -12 50 -12q54 0 95 75z" />
    <glyph glyph-name="nbspace" unicode="&#xa0;" horiz-adv-x="194" 
 />
    <glyph glyph-name="exclamdown" unicode="&#xa1;" horiz-adv-x="276" 
d="M231 435q0 -23 -16 -40.5t-38 -17.5q-18 0 -29 11t-11 29q0 23 16 40t39 17q17 0 28 -11t11 -28zM54 -226l88 525h45l-79 -525h-54z" />
    <glyph glyph-name="cent" unicode="&#xa2;" 
d="M525 477l-34 -39q-18 26 -51.5 43t-69.5 19l-61 -386q35 2 77 18q43 18 68 43l19 -40q-26 -26 -80 -49q-53 -21 -92 -21l-15 -95h-45l15 97q-75 10 -120 63.5t-45 131.5q0 104 68 187q67 82 173 96l15 95h45l-15 -93q41 -1 84 -21q45 -19 64 -49zM264 117l60 381
q-76 -12 -129 -80q-51 -68 -51 -148q0 -61 32 -102.5t88 -50.5z" />
    <glyph glyph-name="sterling" unicode="&#xa3;" 
d="M548 609l-42 -29q-22 73 -111 73q-68 0 -104.5 -46t-36.5 -121q0 -34 26 -155h147l-7 -47h-135l1 -22q3 -112 -70 -210h263l-8 -52h-430l9 52h110q75 98 71 209v23h-116l8 47h102l-9 37l-9 43q-8 45 -8 77q0 88 56 150q57 62 148 62q114 0 145 -91z" />
    <glyph glyph-name="currency" unicode="&#xa4;" 
d="M572 609l-38 -34q-43 76 -132 76q-52 0 -96 -36q-75 -61 -109 -179h275l-7 -49h-280q-7 -36 -12 -76h280l-8 -48h-276v-19q-1 -46 10 -93q12 -46 46 -77.5t83 -31.5q94 0 157 80l30 -31q-30 -47 -83.5 -75t-111.5 -28q-54 0 -93.5 24.5t-59.5 66t-28.5 87.5t-6.5 97h-67
l7 48h64q5 40 12 76h-64l8 49h67q32 107 101 185q70 79 170 79q61 0 98.5 -20.5t63.5 -70.5z" />
    <glyph glyph-name="yen" unicode="&#xa5;" 
d="M305 352l237 338h63l-216 -299h120l-8 -48h-145l-32 -45l-6 -37h170l-8 -48h-169l-34 -213h-57l34 213h-169l7 48h170l6 37l-18 45h-145l8 48h119l-120 299h62z" />
    <glyph glyph-name="brokenbar" unicode="&#xa6;" horiz-adv-x="250" 
d="M82 800h45v-310h-45v310zM82 310h45v-310h-45v310z" />
    <glyph glyph-name="section" unicode="&#xa7;" 
d="M526 589l-42 -24q-21 91 -117 91q-52 0 -87 -34t-35 -85q0 -59 77 -100q75 -37 100 -61q42 -41 42 -98q0 -55 -34.5 -100.5t-89.5 -69.5q71 -47 71 -124q0 -78 -59 -131t-140 -53q-138 0 -158 126l45 19q9 -48 42 -73t84 -25q58 0 95.5 35.5t37.5 92.5q0 65 -84 106
q-4 2 -20.5 10t-22 10.5t-20.5 10.5t-21 12.5l-18 13.5t-17.5 16t-13.5 17.5t-11.5 21t-6.5 23.5t-3 27q0 57 37 104q36 48 93 68q-27 19 -43 49t-16 62q0 75 52 124q53 50 131 50q128 0 152 -111zM412 270q0 24 -11 40q-14 23 -27 32q-23 17 -36 24l-18 10l-20 9l-18 9
q-48 -16 -78.5 -55t-30.5 -87q0 -16 12 -45q4 -7 33 -32q7 -6 42 -26l23 -11q19 -8 20 -9q49 16 79 54.5t30 86.5z" />
    <glyph glyph-name="dieresis" unicode="&#xa8;" horiz-adv-x="271" 
d="M319 626q0 -21 -14.5 -37.5t-34.5 -16.5q-16 0 -25.5 10.5t-9.5 26.5q0 21 14.5 37t34.5 16q16 0 25.5 -10t9.5 -26zM190 626q0 -21 -15 -37.5t-35 -16.5q-16 0 -25.5 10.5t-9.5 26.5q0 21 14.5 37t35.5 16q16 0 25.5 -10t9.5 -26z" />
    <glyph glyph-name="copyright" unicode="&#xa9;" horiz-adv-x="800" 
d="M632 597q104 -104 104 -252q0 -149 -104 -253q-103 -103 -252 -103q-150 0 -253 103t-103 253q0 149 103 252q104 104 253 104q148 0 252 -104zM600 124q93 93 93 221q0 129 -93 220q-92 93 -220 93t-221 -93q-92 -92 -92 -220q0 -127 92 -221q94 -92 221 -92
q128 0 220 92zM522 229l29 -31q-52 -64 -157 -64q-86 0 -145 60q-59 61 -59 151t59 151q59 60 145 60q101 0 152 -59l-28 -36q-44 53 -121 53q-65 0 -110 -45t-45 -122t43 -122.5t112 -45.5q75 0 125 50z" />
    <glyph glyph-name="ordfeminine" unicode="&#xaa;" horiz-adv-x="325" 
d="M303 384q0 -26 -5 -64q-5 -39 -13 -76l-11 -62h-47l5 36q-44 -41 -99 -41q-35 0 -59.5 20.5t-24.5 53.5q0 37 21 62q12 17 52 30q26 8 68 8q7 1 34 1q16 1 30 1q2 18 2 22q0 28 -18 43t-48 15q-20 0 -45.5 -7t-37.5 -18l-15 31q49 34 107 34q49 0 76.5 -22.5t27.5 -66.5z
M238 256l10 63h-26q-37 0 -64 -4q-57 -9 -57 -57q0 -41 55 -41q48 0 82 39z" />
    <glyph glyph-name="guillemotleft" unicode="&#xab;" horiz-adv-x="422" 
d="M200 232l166 186l31 -29l-139 -157l90 -158l-41 -28zM63 232l166 186l31 -29l-139 -157l90 -158l-41 -28z" />
    <glyph glyph-name="logicalnot" unicode="&#xac;" horiz-adv-x="647" 
d="M50 445h505v-275h-45v230h-460v45z" />
    <glyph glyph-name="uni00AD" unicode="&#xad;" horiz-adv-x="254" 
d="M40 253l8 50h211l-7 -50h-212z" />
    <glyph glyph-name="registered" unicode="&#xae;" horiz-adv-x="800" 
d="M632 597q104 -104 104 -252q0 -149 -104 -253q-103 -103 -252 -103q-150 0 -253 103t-103 253q0 149 103 252q104 104 253 104q148 0 252 -104zM600 124q93 93 93 221q0 129 -93 220q-92 93 -220 93t-221 -93q-92 -92 -92 -220q0 -127 92 -221q94 -92 221 -92
q128 0 220 92zM416 321l116 -180h-62l-107 175h-57v-175h-49v408h116q64 0 101 -30.5t37 -85.5q0 -48 -26.5 -75.5t-68.5 -36.5zM458 433q0 73 -92 73h-60v-147h60q92 0 92 74z" />
    <glyph glyph-name="overscore" unicode="&#xaf;" horiz-adv-x="271" 
d="M124 570l6 40h213l-6 -40h-213z" />
    <glyph glyph-name="degree" unicode="&#xb0;" horiz-adv-x="400" 
d="M284 694q43 -40 43 -104t-43 -104q-44 -41 -104 -41q-61 0 -105 41q-43 40 -43 104t43 104q44 41 105 41q60 0 104 -41zM253 517q29 31 29 73t-29 72t-73 30t-74 -30q-29 -30 -29 -72t29 -73q30 -30 74 -30t73 30z" />
    <glyph glyph-name="plusminus" unicode="&#xb1;" horiz-adv-x="645" 
d="M325 452h230v-45h-230v-210h-45v210h-230v45h230v210h45v-210zM50 152h505v-45h-505v45z" />
    <glyph glyph-name="twosuperior" unicode="&#xb2;" horiz-adv-x="344" 
d="M383 636q0 -34 -19 -68q-20 -34 -38 -53q-18 -17 -52 -49l-10 -9l-135 -122h212l-7 -43h-270l6 39l185 170q17 15 39 37q16 17 29.5 43t13.5 48q0 31 -23 49t-58 18q-79 0 -104 -85l-42 3q16 57 57.5 90.5t97.5 33.5q50 0 84 -27.5t34 -74.5z" />
    <glyph glyph-name="threesuperior" unicode="&#xb3;" horiz-adv-x="344" 
d="M382 642q0 -39 -26 -71t-66 -47q31 -9 49.5 -34t18.5 -57q0 -63 -49 -105q-50 -41 -113 -41q-52 0 -84 27.5t-33 76.5l43 9q2 -34 24 -52.5t57 -18.5q45 0 77 28q33 29 33 71q0 72 -102 74l7 41q54 2 86.5 24.5t32.5 67.5q0 27 -20.5 44t-50.5 17q-70 0 -96 -66l-35 13
q18 42 55.5 68t82.5 26q46 0 77.5 -26t31.5 -69z" />
    <glyph glyph-name="acute" unicode="&#xb4;" horiz-adv-x="271" 
d="M122 545l116 145h64l-134 -145h-46z" />
    <glyph glyph-name="mu" unicode="&#xb5;" horiz-adv-x="498" 
d="M382 200l41 262h53l-74 -463h-52l11 68q-25 -33 -67 -56t-80 -23q-35 0 -65.5 12.5t-39.5 35.5l-36 -226h-52l103 652h53l-43 -267q-5 -35 -5 -57q0 -100 94 -100q66 0 106.5 44t52.5 118z" />
    <glyph glyph-name="paragraph" unicode="&#xb6;" 
d="M353 690h217l-7 -47h-53l-132 -833h-50l132 833h-84l-132 -833h-50l77 489q-74 0 -117 40.5t-43 112.5q0 111 64.5 174.5t177.5 63.5z" />
    <glyph glyph-name="middot" unicode="&#xb7;" horiz-adv-x="276" 
d="M210 296q0 -23 -16.5 -39.5t-38.5 -16.5q-17 0 -28.5 11t-11.5 28q0 23 16.5 39.5t38.5 16.5q17 0 28.5 -11t11.5 -28z" />
    <glyph glyph-name="cedilla" unicode="&#xb8;" horiz-adv-x="291" 
d="M27 -145l125 145h46l-106 -145h-65z" />
    <glyph glyph-name="onesuperior" unicode="&#xb9;" horiz-adv-x="344" 
d="M191 688l6 39h128l-69 -435h-44l62 396h-83z" />
    <glyph glyph-name="ordmasculine" unicode="&#xba;" horiz-adv-x="364" 
d="M356 351q0 -69 -48 -122q-48 -52 -120 -52q-53 0 -87 34.5t-34 87.5q0 69 48 122q48 52 120 52q53 0 87 -34.5t34 -87.5zM307 349q0 36 -21.5 58t-57.5 22q-50 0 -81 -37q-31 -35 -31 -86q0 -37 21.5 -60t57.5 -23q48 0 80 38q32 40 32 88z" />
    <glyph glyph-name="guillemotright" unicode="&#xbb;" horiz-adv-x="422" 
d="M240 390l41 28l108 -186l-167 -186l-31 29l139 157zM103 390l41 28l107 -186l-166 -186l-31 29l139 157z" />
    <glyph glyph-name="onequarter" unicode="&#xbc;" horiz-adv-x="828" 
d="M725 446l-50 -311h63l-7 -43h-63l-14 -92h-44l14 92h-218l5 26l280 328h34zM108 1l521 704l34 -23l-521 -705zM149 651l7 39h127l-62 -396h-45l57 357h-84zM471 135h160l37 232z" />
    <glyph glyph-name="onehalf" unicode="&#xbd;" horiz-adv-x="829" 
d="M776 329q0 -66 -65 -134q-35 -36 -57 -56q-42 -37 -65 -55l-50 -40h207l-7 -44h-265l-3 31l165 145q31 27 43 41q19 19 34.5 47.5t15.5 53.5q0 33 -21 52t-54 19q-62 0 -105 -75l-32 21q61 96 150 96q46 0 77.5 -29t31.5 -73zM108 1l521 704l34 -23l-521 -705zM149 651
l7 39h127l-66 -416h-44l60 377h-84z" />
    <glyph glyph-name="threequarters" unicode="&#xbe;" horiz-adv-x="828" 
d="M725 446l-50 -311h63l-7 -43h-63l-14 -92h-44l14 92h-218l5 26l280 328h34zM147 1l520 704l34 -23l-520 -705zM382 642q0 -39 -25.5 -71.5t-66.5 -47.5q31 -8 49.5 -33t18.5 -58q0 -62 -49 -104q-50 -41 -113 -41q-52 0 -84 27.5t-33 75.5l43 10q5 -71 80 -71
q46 0 78.5 28.5t32.5 70.5q0 72 -102 73l7 42q54 2 86.5 24.5t32.5 67.5q0 27 -20.5 44t-50.5 17q-70 0 -96 -66l-35 13q18 42 55.5 68t82.5 26q46 0 77.5 -26t31.5 -69zM471 135h160l37 232z" />
    <glyph glyph-name="questiondown" unicode="&#xbf;" horiz-adv-x="451" 
d="M330 435q0 -24 -16 -41t-39 -17q-17 0 -28.5 11t-11.5 29q0 23 16.5 40t38.5 17q18 0 29 -11t11 -28zM311 -104l36 -26q-61 -106 -181 -106q-63 0 -103.5 35.5t-40.5 95.5q0 42 17.5 79t42.5 60l58 52q33 30 54 56t32 73q4 18 8 46l6 38h45l-4 -31q-4 -35 -9 -62
q-8 -49 -36 -85q-17 -24 -63 -61q-48 -39 -71.5 -74.5t-23.5 -81.5q0 -42 27.5 -66.5t72.5 -24.5q42 0 77.5 22.5t55.5 60.5z" />
    <glyph glyph-name="Agrave" unicode="&#xc0;" horiz-adv-x="611" 
d="M290 895h65l69 -147h-45zM377 693h30l174 -693h-62l-49 207h-314l-115 -207h-58zM376 607l-192 -348h274z" />
    <glyph glyph-name="Aacute" unicode="&#xc1;" horiz-adv-x="611" 
d="M378 748l115 147h65l-135 -147h-45zM377 693h30l174 -693h-62l-49 207h-314l-115 -207h-58zM376 607l-192 -348h274z" />
    <glyph glyph-name="Acircumflex" unicode="&#xc2;" horiz-adv-x="611" 
d="M409 895h30l69 -147h-45l-46 104l-78 -104h-45zM377 693h30l174 -693h-62l-49 207h-314l-115 -207h-58zM376 607l-192 -348h274z" />
    <glyph glyph-name="Atilde" unicode="&#xc3;" horiz-adv-x="611" 
d="M521 863l32 -11q-8 -33 -33 -56t-55 -23q-29 0 -64 24t-51 24q-15 0 -28.5 -12.5t-18.5 -30.5l-31 10q8 33 33 56t55 23q28 0 63 -24q35 -23 52 -23q16 0 29 12.5t17 30.5zM377 693h30l174 -693h-62l-49 207h-314l-115 -207h-58zM376 607l-192 -348h274z" />
    <glyph glyph-name="Adieresis" unicode="&#xc4;" horiz-adv-x="611" 
d="M519 825q0 -21 -14.5 -37.5t-35.5 -16.5q-16 0 -25.5 10.5t-9.5 26.5q0 21 14.5 37.5t35.5 16.5q16 0 25.5 -10.5t9.5 -26.5zM389 825q0 -21 -14.5 -37.5t-34.5 -16.5q-16 0 -26 10.5t-10 26.5q0 21 15 37.5t35 16.5q16 0 25.5 -10.5t9.5 -26.5zM377 693h30l174 -693h-62
l-49 207h-314l-115 -207h-58zM376 607l-192 -348h274z" />
    <glyph glyph-name="Aring" unicode="&#xc5;" horiz-adv-x="611" 
d="M502 842q0 -43 -31 -74q-32 -32 -72 -32q-32 0 -53 22t-21 54q0 42 31 73q32 32 72 32q32 0 53 -21.5t21 -53.5zM377 693h30l174 -693h-62l-49 207h-314l-115 -207h-58zM464 836q0 19 -12 32t-30 13q-24 0 -41.5 -19.5t-17.5 -44.5q0 -18 12 -31t30 -13q24 0 41.5 19.5
t17.5 43.5zM376 607l-192 -348h274z" />
    <glyph glyph-name="AE" unicode="&#xc6;" horiz-adv-x="793" 
d="M-46 0l509 690h360l-8 -51h-283l-38 -242h265l-8 -51h-265l-47 -295h289l-8 -51h-343l34 209h-246l-151 -209h-60zM203 261h216l60 380h-1z" />
    <glyph glyph-name="Ccedilla" unicode="&#xc7;" horiz-adv-x="654" 
d="M688 597l-39 -39q-26 46 -81 68q-54 24 -111 24q-142 0 -237 -110q-93 -110 -93 -255q0 -109 63 -177q63 -67 171 -67q133 0 225 91l30 -36q-111 -106 -260 -108l-85 -138h-64l103 140q-112 14 -176 91q-65 79 -65 195q0 114 49 209q49 97 142 156q92 59 205 59
q141 0 223 -103z" />
    <glyph glyph-name="Egrave" unicode="&#xc8;" horiz-adv-x="499" 
d="M263 895h65l69 -147h-45zM61 0l109 690h362l-8 -50h-308l-39 -247h291l-8 -51h-291l-47 -291h316l-8 -51h-369z" />
    <glyph glyph-name="Eacute" unicode="&#xc9;" horiz-adv-x="499" 
d="M307 748l116 147h65l-135 -147h-46zM61 0l109 690h362l-8 -50h-308l-39 -247h291l-8 -51h-291l-47 -291h316l-8 -51h-369z" />
    <glyph glyph-name="Ecircumflex" unicode="&#xca;" horiz-adv-x="499" 
d="M368 895h30l70 -147h-46l-45 104l-79 -104h-45zM61 0l109 690h362l-8 -50h-308l-39 -247h291l-8 -51h-291l-47 -291h316l-8 -51h-369z" />
    <glyph glyph-name="Edieresis" unicode="&#xcb;" horiz-adv-x="499" 
d="M478 825q0 -21 -14.5 -37.5t-35.5 -16.5q-16 0 -25.5 10.5t-9.5 26.5q0 21 14.5 37.5t35.5 16.5q16 0 25.5 -10.5t9.5 -26.5zM349 825q0 -21 -14.5 -37.5t-35.5 -16.5q-16 0 -25.5 10.5t-9.5 26.5q0 21 14.5 37.5t34.5 16.5q16 0 26 -10.5t10 -26.5zM61 0l109 690h362
l-8 -50h-308l-39 -247h291l-8 -51h-291l-47 -291h316l-8 -51h-369z" />
    <glyph glyph-name="Igrave" unicode="&#xcc;" horiz-adv-x="217" 
d="M100 895h65l69 -147h-46zM61 0l109 690h54l-110 -690h-53z" />
    <glyph glyph-name="Iacute" unicode="&#xcd;" horiz-adv-x="217" 
d="M178 748l116 147h65l-135 -147h-46zM61 0l109 690h54l-110 -690h-53z" />
    <glyph glyph-name="Icircumflex" unicode="&#xce;" horiz-adv-x="217" 
d="M214 895h30l69 -147h-45l-46 104l-78 -104h-45zM61 0l109 690h54l-110 -690h-53z" />
    <glyph glyph-name="Idieresis" unicode="&#xcf;" horiz-adv-x="217" 
d="M325 830q0 -21 -14.5 -37.5t-35.5 -16.5q-16 0 -25.5 10.5t-9.5 26.5q0 21 14.5 37.5t35.5 16.5q16 0 25.5 -10.5t9.5 -26.5zM195 830q0 -21 -14.5 -37.5t-34.5 -16.5q-16 0 -26 10.5t-10 26.5q0 21 14.5 37.5t35.5 16.5q16 0 25.5 -10.5t9.5 -26.5zM61 0l109 690h54
l-110 -690h-53z" />
    <glyph glyph-name="Eth" unicode="&#xd0;" horiz-adv-x="654" 
d="M648 404q0 -169 -118 -287q-117 -117 -286 -117h-183l53 339h-67l8 51h67l48 300h183q130 0 212 -79q83 -78 83 -207zM591 398q0 112 -69 176q-70 65 -182 65h-124l-40 -249h193l-8 -51h-193l-46 -288h125q143 0 244 101q100 101 100 246z" />
    <glyph glyph-name="Ntilde" unicode="&#xd1;" horiz-adv-x="711" 
d="M571 863l31 -11q-8 -33 -33 -56t-55 -23q-28 0 -63 24t-52 24q-16 0 -29 -12.5t-17 -30.5l-32 10q8 33 33 56t55 23q29 0 63 -24q35 -23 52 -23q34 0 47 43zM565 99l94 591h53l-109 -690h-48l-345 602l-96 -602h-53l109 690h53z" />
    <glyph glyph-name="Ograve" unicode="&#xd2;" horiz-adv-x="761" 
d="M365 895h64l70 -147h-46zM754 412q0 -174 -114 -299t-285 -125q-127 0 -207 80q-79 79 -79 208q0 174 113 299q114 125 286 125q126 0 206 -80t80 -208zM697 406q0 108 -65 176t-172 68q-96 0 -173 -52q-77 -51 -119 -134.5t-42 -178.5q0 -109 64 -176q65 -68 173 -68
q96 0 173 52q77 51 119 134.5t42 178.5z" />
    <glyph glyph-name="Oacute" unicode="&#xd3;" horiz-adv-x="761" 
d="M452 748l116 147h65l-136 -147h-45zM754 412q0 -174 -114 -299t-285 -125q-127 0 -207 80q-79 79 -79 208q0 174 113 299q114 125 286 125q126 0 206 -80t80 -208zM697 406q0 108 -65 176t-172 68q-96 0 -173 -52q-77 -51 -119 -134.5t-42 -178.5q0 -109 64 -176
q65 -68 173 -68q96 0 173 52q77 51 119 134.5t42 178.5z" />
    <glyph glyph-name="Ocircumflex" unicode="&#xd4;" horiz-adv-x="761" 
d="M484 895h29l70 -147h-46l-45 104l-79 -104h-45zM754 412q0 -174 -114 -299t-285 -125q-127 0 -207 80q-79 79 -79 208q0 174 113 299q114 125 286 125q126 0 206 -80t80 -208zM697 406q0 108 -65 176t-172 68q-96 0 -173 -52q-77 -51 -119 -134.5t-42 -178.5
q0 -109 64 -176q65 -68 173 -68q96 0 173 52q77 51 119 134.5t42 178.5z" />
    <glyph glyph-name="Otilde" unicode="&#xd5;" horiz-adv-x="761" 
d="M596 863l31 -11q-8 -33 -33 -56t-55 -23q-29 0 -63 24t-52 24q-16 0 -29 -12.5t-17 -30.5l-32 10q8 33 33 56t55 23q28 0 63 -24q35 -23 52 -23q34 0 47 43zM754 412q0 -174 -114 -299t-285 -125q-127 0 -207 80q-79 79 -79 208q0 174 113 299q114 125 286 125
q126 0 206 -80t80 -208zM697 406q0 108 -65 176t-172 68q-96 0 -173 -52q-77 -51 -119 -134.5t-42 -178.5q0 -109 64 -176q65 -68 173 -68q96 0 173 52q77 51 119 134.5t42 178.5z" />
    <glyph glyph-name="Odieresis" unicode="&#xd6;" horiz-adv-x="761" 
d="M593 825q0 -21 -14.5 -37.5t-34.5 -16.5q-16 0 -26 10.5t-10 26.5q0 21 15 37.5t35 16.5q16 0 25.5 -10.5t9.5 -26.5zM464 825q0 -21 -14.5 -37.5t-35.5 -16.5q-16 0 -25.5 10.5t-9.5 26.5q0 21 14.5 37.5t35.5 16.5q16 0 25.5 -10.5t9.5 -26.5zM754 412
q0 -174 -114 -299t-285 -125q-127 0 -207 80q-79 79 -79 208q0 174 113 299q114 125 286 125q126 0 206 -80t80 -208zM697 406q0 108 -65 176t-172 68q-96 0 -173 -52q-77 -51 -119 -134.5t-42 -178.5q0 -109 64 -176q65 -68 173 -68q96 0 173 52q77 51 119 134.5t42 178.5z
" />
    <glyph glyph-name="multiply" unicode="&#xd7;" horiz-adv-x="645" 
d="M545 555l-210 -211l210 -212l-30 -32l-213 212l-212 -212l-30 32l210 212l-210 211l30 32l212 -212l213 212z" />
    <glyph glyph-name="Oslash" unicode="&#xd8;" horiz-adv-x="761" 
d="M679 615l94 85l27 -33l-94 -85q48 -74 48 -170q0 -174 -114 -299t-285 -125q-130 0 -211 84l-91 -82l-27 33l91 83q-48 70 -48 170q0 174 113 299q114 125 286 125q130 0 211 -85zM162 147l475 431q-66 72 -177 72q-96 0 -173 -52q-77 -51 -119 -134.5t-42 -178.5
q0 -81 36 -138zM697 406q0 79 -34 137l-475 -431q68 -71 175 -71q96 0 173 52q77 51 119 134.5t42 178.5z" />
    <glyph glyph-name="Ugrave" unicode="&#xd9;" horiz-adv-x="630" 
d="M322 895h65l69 -147h-45zM521 293l63 397h53l-65 -412q-19 -128 -79 -206q-66 -84 -203 -84q-91 0 -146 50t-55 138q0 38 11 102l65 412h54l-63 -397q-11 -79 -11 -103q0 -71 40.5 -110.5t112.5 -39.5q114 0 163 78q43 66 60 175z" />
    <glyph glyph-name="Uacute" unicode="&#xda;" horiz-adv-x="630" 
d="M365 748l115 147h65l-135 -147h-45zM521 293l63 397h53l-65 -412q-19 -128 -79 -206q-66 -84 -203 -84q-91 0 -146 50t-55 138q0 38 11 102l65 412h54l-63 -397q-11 -79 -11 -103q0 -71 40.5 -110.5t112.5 -39.5q114 0 163 78q43 66 60 175z" />
    <glyph glyph-name="Ucircumflex" unicode="&#xdb;" horiz-adv-x="630" 
d="M419 895h30l69 -147h-46l-45 104l-78 -104h-46zM521 293l63 397h53l-65 -412q-19 -128 -79 -206q-66 -84 -203 -84q-91 0 -146 50t-55 138q0 38 11 102l65 412h54l-63 -397q-11 -79 -11 -103q0 -71 40.5 -110.5t112.5 -39.5q114 0 163 78q43 66 60 175z" />
    <glyph glyph-name="Udieresis" unicode="&#xdc;" horiz-adv-x="630" 
d="M529 825q0 -21 -14.5 -37.5t-35.5 -16.5q-16 0 -25.5 10.5t-9.5 26.5q0 21 14.5 37.5t34.5 16.5q16 0 26 -10.5t10 -26.5zM399 825q0 -21 -14.5 -37.5t-35.5 -16.5q-16 0 -25.5 10.5t-9.5 26.5q0 21 14.5 37.5t35.5 16.5q16 0 25.5 -10.5t9.5 -26.5zM521 293l63 397h53
l-65 -412q-19 -128 -79 -206q-66 -84 -203 -84q-91 0 -146 50t-55 138q0 38 11 102l65 412h54l-63 -397q-11 -79 -11 -103q0 -71 40.5 -110.5t112.5 -39.5q114 0 163 78q43 66 60 175z" />
    <glyph glyph-name="Yacute" unicode="&#xdd;" horiz-adv-x="528" 
d="M315 748l116 147h65l-135 -147h-46zM297 347l250 343h62l-294 -395l-47 -295h-53l46 295l-169 395h63z" />
    <glyph glyph-name="Thorn" unicode="&#xde;" horiz-adv-x="480" 
d="M478 398q0 -103 -70 -161t-176 -58h-89l-29 -179h-53l109 690h54l-23 -142q120 0 161 -10q116 -26 116 -140zM421 389q0 55 -37 82t-100 27h-91l-42 -268h91q76 0 128 41q51 42 51 118z" />
    <glyph glyph-name="germandbls" unicode="&#xdf;" horiz-adv-x="509" 
d="M37 -118l91 573q9 57 13 75q9 33 22 65q21 52 61 76.5t112 28.5q56 0 93.5 -34t37.5 -88q0 -61 -31 -105.5t-87 -58.5v-1q62 -8 97 -56q37 -47 37 -111q0 -111 -76 -181q-76 -71 -188 -71q-18 0 -48 5l13 51q24 -6 48 -6q84 0 140 57q56 59 56 144t-58 112
q-47 24 -129 24l8 50q164 0 164 137q0 38 -27 61.5t-67 23.5q-67 0 -98 -48q-23 -38 -34 -105l-97 -612q-6 -38 -20 -70l-5 -8h-51q15 27 23 72z" />
    <glyph glyph-name="agrave" unicode="&#xe0;" horiz-adv-x="553" 
d="M464 380l13 84h53l-62 -388q-3 -18 -3 -43l3 -33h-53q-3 10 -3 32q0 18 3 39l2 11h-1q-72 -93 -178 -93q-89 0 -138.5 52.5t-49.5 142.5q0 118 74 203q73 85 188 85q104 0 151 -92h1zM446 274q0 68 -37 109.5t-102 41.5q-90 0 -146 -71q-55 -70 -55 -164q0 -68 37 -109.5
t102 -41.5q89 0 145 71t56 164zM225 690h65l69 -145h-45z" />
    <glyph glyph-name="aacute" unicode="&#xe1;" horiz-adv-x="553" 
d="M464 380l13 84h53l-62 -388q-3 -18 -3 -43l3 -33h-53q-3 10 -3 32q0 18 3 39l2 11h-1q-72 -93 -178 -93q-89 0 -138.5 52.5t-49.5 142.5q0 118 74 203q73 85 188 85q104 0 151 -92h1zM446 274q0 68 -37 109.5t-102 41.5q-90 0 -146 -71q-55 -70 -55 -164q0 -68 37 -109.5
t102 -41.5q89 0 145 71t56 164zM251 545l116 145h64l-134 -145h-46z" />
    <glyph glyph-name="acircumflex" unicode="&#xe2;" horiz-adv-x="553" 
d="M464 380l13 84h53l-62 -388q-3 -18 -3 -43l3 -33h-53q-3 10 -3 32q0 18 3 39l2 11h-1q-72 -93 -178 -93q-89 0 -138.5 52.5t-49.5 142.5q0 118 74 203q73 85 188 85q104 0 151 -92h1zM446 274q0 68 -37 109.5t-102 41.5q-90 0 -146 -71q-55 -70 -55 -164q0 -68 37 -109.5
t102 -41.5q89 0 145 71t56 164zM310 690h30l69 -145h-45l-46 103l-78 -103h-46z" />
    <glyph glyph-name="atilde" unicode="&#xe3;" horiz-adv-x="553" 
d="M464 380l13 84h53l-62 -388q-3 -18 -3 -43l3 -33h-53q-3 10 -3 32q0 18 3 39l2 11h-1q-72 -93 -178 -93q-89 0 -138.5 52.5t-49.5 142.5q0 118 74 203q73 85 188 85q104 0 151 -92h1zM446 274q0 68 -37 109.5t-102 41.5q-90 0 -146 -71q-55 -70 -55 -164q0 -68 37 -109.5
t102 -41.5q89 0 145 71t56 164zM421 663l31 -10q-9 -33 -33 -55.5t-55 -22.5q-28 0 -63 23t-52 23q-15 0 -28 -11.5t-18 -29.5l-32 10q9 33 33.5 55t54.5 22q28 0 63 -23t52 -23q15 0 28.5 12t18.5 30z" />
    <glyph glyph-name="adieresis" unicode="&#xe4;" horiz-adv-x="553" 
d="M464 380l13 84h53l-62 -388q-3 -18 -3 -43l3 -33h-53q-3 10 -3 32q0 18 3 39l2 11h-1q-72 -93 -178 -93q-89 0 -138.5 52.5t-49.5 142.5q0 118 74 203q73 85 188 85q104 0 151 -92h1zM446 274q0 68 -37 109.5t-102 41.5q-90 0 -146 -71q-55 -70 -55 -164q0 -68 37 -109.5
t102 -41.5q89 0 145 71t56 164zM420 626q0 -21 -14.5 -37.5t-34.5 -16.5q-16 0 -25.5 10.5t-9.5 26.5q0 21 14.5 37t34.5 16q16 0 25.5 -10t9.5 -26zM291 626q0 -21 -14.5 -37.5t-35.5 -16.5q-16 0 -25.5 10.5t-9.5 26.5q0 21 14.5 37t35.5 16q16 0 25.5 -10t9.5 -26z" />
    <glyph glyph-name="aring" unicode="&#xe5;" horiz-adv-x="553" 
d="M464 380l13 84h53l-62 -388q-3 -18 -3 -43l3 -33h-53q-3 10 -3 32q0 18 3 39l2 11h-1q-72 -93 -178 -93q-89 0 -138.5 52.5t-49.5 142.5q0 118 74 203q73 85 188 85q104 0 151 -92h1zM446 274q0 68 -37 109.5t-102 41.5q-90 0 -146 -71q-55 -70 -55 -164q0 -68 37 -109.5
t102 -41.5q89 0 145 71t56 164zM390 647q0 -42 -31 -73q-32 -32 -72 -32q-32 0 -53 22t-21 54q0 42 31 73q32 32 72 32q32 0 53 -22t21 -54zM352 642q0 18 -12 31t-30 13q-24 0 -41.5 -19.5t-17.5 -43.5q0 -18 12 -31t30 -13q24 0 41.5 19t17.5 44z" />
    <glyph glyph-name="ae" unicode="&#xe6;" horiz-adv-x="775" 
d="M399 220q-3 -20 -3 -38q0 -68 35 -106.5t99 -38.5q54 0 99 20t62 37l4 3l18 -37q-10 -10 -32 -24q-68 -46 -164 -46q-119 0 -161 107q-48 -56 -95 -81.5t-105 -25.5q-56 0 -92.5 32t-36.5 85q0 98 81 136q70 33 164 33q38 0 80 -5q6 35 6 55q0 47 -29 73.5t-78 26.5
q-33 0 -72.5 -11.5t-65.5 -29.5l-14 40q77 47 157 47q49 0 96 -26q48 -26 52 -73q37 47 88.5 73t108.5 26q66 0 105.5 -33t39.5 -82q0 -62 -66 -102.5t-186 -40.5q-42 0 -95 6zM173 37q47 0 96 28q51 29 76 75q-4 17 -4 47q0 7 2 41q-47 6 -82 6q-181 0 -181 -119
q0 -37 26 -57.5t67 -20.5zM408 265q45 -5 89 -5q85 0 139 25q57 25 57 74q0 28 -29.5 48t-73.5 20q-73 0 -122 -52q-48 -51 -60 -110z" />
    <glyph glyph-name="ccedilla" unicode="&#xe7;" horiz-adv-x="456" 
d="M480 392l-38 -34q-47 68 -135 68q-85 0 -144 -72q-57 -72 -57 -160q0 -69 38 -112t104 -43q43 0 88.5 16.5t74.5 43.5l19 -39q-66 -60 -170 -70l-98 -135h-65l115 136q-75 8 -118 63q-43 56 -43 133q0 113 76 198q77 87 189 87q48 0 96 -21t68 -59z" />
    <glyph glyph-name="egrave" unicode="&#xe8;" horiz-adv-x="486" 
d="M110 220q-3 -20 -3 -38q0 -68 35 -106.5t99 -38.5q54 0 99 20t62 37l4 3l18 -37q-10 -10 -32 -24q-68 -46 -164 -46q-81 0 -128.5 53.5t-47.5 143.5q0 122 78 203q79 82 182 82q66 0 105.5 -33t39.5 -82q0 -62 -66 -102.5t-186 -40.5q-43 0 -95 6zM119 265q45 -5 89 -5
q85 0 139 25q57 25 57 74q0 28 -29.5 48t-73.5 20q-73 0 -122 -52q-48 -51 -60 -110zM186 690h65l69 -145h-45z" />
    <glyph glyph-name="eacute" unicode="&#xe9;" horiz-adv-x="486" 
d="M110 220q-3 -20 -3 -38q0 -68 35 -106.5t99 -38.5q54 0 99 20t62 37l4 3l18 -37q-10 -10 -32 -24q-68 -46 -164 -46q-81 0 -128.5 53.5t-47.5 143.5q0 122 78 203q79 82 182 82q66 0 105.5 -33t39.5 -82q0 -62 -66 -102.5t-186 -40.5q-43 0 -95 6zM119 265q45 -5 89 -5
q85 0 139 25q57 25 57 74q0 28 -29.5 48t-73.5 20q-73 0 -122 -52q-48 -51 -60 -110zM213 545l116 145h64l-134 -145h-46z" />
    <glyph glyph-name="ecircumflex" unicode="&#xea;" horiz-adv-x="486" 
d="M110 220q-3 -20 -3 -38q0 -68 35 -106.5t99 -38.5q54 0 99 20t62 37l4 3l18 -37q-10 -10 -32 -24q-68 -46 -164 -46q-81 0 -128.5 53.5t-47.5 143.5q0 122 78 203q79 82 182 82q66 0 105.5 -33t39.5 -82q0 -62 -66 -102.5t-186 -40.5q-43 0 -95 6zM119 265q45 -5 89 -5
q85 0 139 25q57 25 57 74q0 28 -29.5 48t-73.5 20q-73 0 -122 -52q-48 -51 -60 -110zM292 690h30l69 -145h-45l-46 103l-78 -103h-46z" />
    <glyph glyph-name="edieresis" unicode="&#xeb;" horiz-adv-x="486" 
d="M110 220q-3 -20 -3 -38q0 -68 35 -106.5t99 -38.5q54 0 99 20t62 37l4 3l18 -37q-10 -10 -32 -24q-68 -46 -164 -46q-81 0 -128.5 53.5t-47.5 143.5q0 122 78 203q79 82 182 82q66 0 105.5 -33t39.5 -82q0 -62 -66 -102.5t-186 -40.5q-43 0 -95 6zM119 265q45 -5 89 -5
q85 0 139 25q57 25 57 74q0 28 -29.5 48t-73.5 20q-73 0 -122 -52q-48 -51 -60 -110zM400 626q0 -21 -14.5 -37.5t-34.5 -16.5q-16 0 -25.5 10.5t-9.5 26.5q0 21 14.5 37t34.5 16q16 0 25.5 -10t9.5 -26zM271 626q0 -21 -14.5 -37.5t-35.5 -16.5q-16 0 -25.5 10.5t-9.5 26.5
q0 21 14.5 37t35.5 16q16 0 25.5 -10t9.5 -26z" />
    <glyph glyph-name="igrave" unicode="&#xec;" horiz-adv-x="206" 
d="M61 690h65l69 -147h-45zM169 387l-50 -317q-2 -18 -2 -37l3 -33h-53q-3 10 -3 32q0 25 4 45l50 317q3 22 3 38l-3 33h52q3 -11 3 -32q0 -25 -4 -46z" />
    <glyph glyph-name="iacute" unicode="&#xed;" horiz-adv-x="206" 
d="M141 543l116 147h65l-135 -147h-46zM169 387l-50 -317q-2 -18 -2 -37l3 -33h-53q-3 10 -3 32q0 25 4 45l50 317q3 22 3 38l-3 33h52q3 -11 3 -32q0 -25 -4 -46z" />
    <glyph glyph-name="icircumflex" unicode="&#xee;" horiz-adv-x="206" 
d="M177 690h29l70 -147h-46l-45 104l-79 -104h-45zM169 387l-50 -317q-2 -18 -2 -37l3 -33h-53q-3 10 -3 32q0 25 4 45l50 317q3 22 3 38l-3 33h52q3 -11 3 -32q0 -25 -4 -46z" />
    <glyph glyph-name="idieresis" unicode="&#xef;" horiz-adv-x="206" 
d="M287 625q0 -21 -14.5 -37.5t-35.5 -16.5q-16 0 -25.5 10.5t-9.5 26.5q0 21 14.5 38t35.5 17q15 0 25 -11t10 -27zM158 625q0 -21 -15 -37.5t-35 -16.5q-16 0 -25.5 10.5t-9.5 26.5q0 21 14.5 38t34.5 17q16 0 26 -11t10 -27zM169 387l-50 -317q-2 -18 -2 -37l3 -33h-53
q-3 10 -3 32q0 25 4 45l50 317q3 22 3 38l-3 33h52q3 -11 3 -32q0 -25 -4 -46z" />
    <glyph glyph-name="eth" unicode="&#xf0;" horiz-adv-x="538" 
d="M517 303q0 -127 -74 -221q-74 -92 -201 -92q-84 0 -138 55t-54 140q0 108 79 193t188 85q84 0 137 -56q-34 106 -117 196l-125 -77l-17 34l116 72q-41 40 -86 74l35 32q64 -47 95 -80l131 80l17 -34l-122 -75q64 -67 100 -152t36 -174zM460 263q0 68 -40.5 110.5
t-107.5 42.5q-87 0 -147 -68t-60 -156q0 -67 41 -110t107 -43q87 0 147 68q60 67 60 156z" />
    <glyph glyph-name="ntilde" unicode="&#xf1;" horiz-adv-x="494" 
d="M164 385h1q27 39 69 63t87 24q132 0 132 -133q0 -22 -6 -64l-33 -205q-2 -18 -2 -37l3 -33h-53q-3 10 -3 32q0 25 4 45l31 193q6 40 6 61q0 48 -22 71t-69 23q-73 0 -115 -56q-41 -57 -53 -134l-38 -235h-52l63 393q3 23 3 38l-3 33h52q3 -10 3 -32q0 -12 -5 -47z
M430 663l31 -11q-8 -33 -33 -56t-55 -23q-29 0 -63 24t-52 24q-16 0 -29 -12.5t-17 -30.5l-32 11q9 32 33.5 55t54.5 23q28 0 63 -24q35 -23 52 -23q15 0 28.5 12.5t18.5 30.5z" />
    <glyph glyph-name="ograve" unicode="&#xf2;" horiz-adv-x="538" 
d="M243 690h65l69 -147h-45zM515 273q0 -116 -78 -200q-77 -83 -192 -83q-87 0 -141 55t-54 142q0 116 78 200q78 85 193 85q86 0 140 -56t54 -143zM461 271q0 69 -39.5 111.5t-107.5 42.5q-91 0 -149 -70q-59 -71 -59 -161q0 -69 40 -112t107 -43q90 0 148 70q60 71 60 162
z" />
    <glyph glyph-name="oacute" unicode="&#xf3;" horiz-adv-x="538" 
d="M287 543l116 147h65l-135 -147h-46zM515 273q0 -116 -78 -200q-77 -83 -192 -83q-87 0 -141 55t-54 142q0 116 78 200q78 85 193 85q86 0 140 -56t54 -143zM461 271q0 69 -39.5 111.5t-107.5 42.5q-91 0 -149 -70q-59 -71 -59 -161q0 -69 40 -112t107 -43q90 0 148 70
q60 71 60 162z" />
    <glyph glyph-name="ocircumflex" unicode="&#xf4;" horiz-adv-x="538" 
d="M341 690h30l69 -147h-46l-45 104l-78 -104h-46zM515 273q0 -116 -78 -200q-77 -83 -192 -83q-87 0 -141 55t-54 142q0 116 78 200q78 85 193 85q86 0 140 -56t54 -143zM461 271q0 69 -39.5 111.5t-107.5 42.5q-91 0 -149 -70q-59 -71 -59 -161q0 -69 40 -112t107 -43
q90 0 148 70q60 71 60 162z" />
    <glyph glyph-name="otilde" unicode="&#xf5;" horiz-adv-x="538" 
d="M454 663l31 -11q-8 -33 -33 -56t-55 -23q-29 0 -63 24t-52 24q-16 0 -29 -12.5t-17 -30.5l-32 11q9 32 33.5 55t54.5 23q28 0 63 -24q35 -23 52 -23q15 0 28.5 12.5t18.5 30.5zM515 273q0 -116 -78 -200q-77 -83 -192 -83q-87 0 -141 55t-54 142q0 116 78 200
q78 85 193 85q86 0 140 -56t54 -143zM461 271q0 69 -39.5 111.5t-107.5 42.5q-91 0 -149 -70q-59 -71 -59 -161q0 -69 40 -112t107 -43q90 0 148 70q60 71 60 162z" />
    <glyph glyph-name="odieresis" unicode="&#xf6;" horiz-adv-x="538" 
d="M451 625q0 -21 -14.5 -37.5t-34.5 -16.5q-16 0 -26 10.5t-10 26.5q0 21 15 38t35 17q15 0 25 -11t10 -27zM322 625q0 -21 -14.5 -37.5t-35.5 -16.5q-16 0 -25.5 10.5t-9.5 26.5q0 21 14.5 38t35.5 17q15 0 25 -11t10 -27zM515 273q0 -116 -78 -200q-77 -83 -192 -83
q-87 0 -141 55t-54 142q0 116 78 200q78 85 193 85q86 0 140 -56t54 -143zM461 271q0 69 -39.5 111.5t-107.5 42.5q-91 0 -149 -70q-59 -71 -59 -161q0 -69 40 -112t107 -43q90 0 148 70q60 71 60 162z" />
    <glyph glyph-name="divide" unicode="&#xf7;" horiz-adv-x="645" 
d="M302 445q-19 0 -32.5 13.5t-13.5 32.5t13.5 32.5t32.5 13.5t32.5 -13.5t13.5 -32.5t-13 -32.5t-33 -13.5zM50 367h505v-45h-505v45zM302 153q-19 0 -32.5 13.5t-13.5 32.5t13.5 32.5t32.5 13.5t32.5 -13.5t13.5 -32.5t-13 -32.5t-33 -13.5z" />
    <glyph glyph-name="oslash" unicode="&#xf8;" horiz-adv-x="538" 
d="M461 417l70 63l25 -31l-71 -64q30 -47 30 -112q0 -116 -78 -200q-77 -83 -192 -83q-88 0 -140 55l-70 -63l-25 31l70 63q-30 46 -30 111q0 116 78 200q78 85 193 85q85 0 140 -55zM123 115l298 267q-39 43 -107 43q-91 0 -149 -70q-59 -71 -59 -161q0 -43 17 -79z
M461 271q0 42 -17 78l-298 -267q39 -43 107 -43q90 0 148 70q60 71 60 162z" />
    <glyph glyph-name="ugrave" unicode="&#xf9;" horiz-adv-x="492" 
d="M210 690h65l69 -147h-46zM160 389l-33 -209q-5 -32 -5 -52q0 -91 92 -91q70 0 110 52q42 53 54 126l39 250h53l-63 -395q-2 -18 -2 -37l3 -33h-53q-3 10 -3 32q0 25 3 40q-58 -82 -156 -82q-129 0 -129 131q0 23 6 67l33 206q3 22 3 38l-3 33h52q3 -11 3 -32
q0 -23 -4 -44z" />
    <glyph glyph-name="uacute" unicode="&#xfa;" horiz-adv-x="492" 
d="M271 543l115 147h65l-135 -147h-45zM160 389l-33 -209q-5 -32 -5 -52q0 -91 92 -91q70 0 110 52q42 53 54 126l39 250h53l-63 -395q-2 -18 -2 -37l3 -33h-53q-3 10 -3 32q0 25 3 40q-58 -82 -156 -82q-129 0 -129 131q0 23 6 67l33 206q3 22 3 38l-3 33h52q3 -11 3 -32
q0 -23 -4 -44z" />
    <glyph glyph-name="ucircumflex" unicode="&#xfb;" horiz-adv-x="492" 
d="M316 690h30l69 -147h-46l-45 104l-78 -104h-46zM160 389l-33 -209q-5 -32 -5 -52q0 -91 92 -91q70 0 110 52q42 53 54 126l39 250h53l-63 -395q-2 -18 -2 -37l3 -33h-53q-3 10 -3 32q0 25 3 40q-58 -82 -156 -82q-129 0 -129 131q0 23 6 67l33 206q3 22 3 38l-3 33h52
q3 -11 3 -32q0 -23 -4 -44z" />
    <glyph glyph-name="udieresis" unicode="&#xfc;" horiz-adv-x="492" 
d="M426 625q0 -21 -14.5 -37.5t-34.5 -16.5q-16 0 -26 10.5t-10 26.5q0 21 15 38t35 17q15 0 25 -11t10 -27zM297 625q0 -21 -14.5 -37.5t-35.5 -16.5q-16 0 -25.5 10.5t-9.5 26.5q0 21 14.5 38t35.5 17q15 0 25 -11t10 -27zM160 389l-33 -209q-5 -32 -5 -52q0 -91 92 -91
q70 0 110 52q42 53 54 126l39 250h53l-63 -395q-2 -18 -2 -37l3 -33h-53q-3 10 -3 32q0 25 3 40q-58 -82 -156 -82q-129 0 -129 131q0 23 6 67l33 206q3 22 3 38l-3 33h52q3 -11 3 -32q0 -23 -4 -44z" />
    <glyph glyph-name="yacute" unicode="&#xfd;" horiz-adv-x="422" 
d="M232 543l116 147h65l-135 -147h-46zM201 63l217 401h55l-316 -574q-45 -85 -112 -85q-39 0 -58 15l18 50q19 -10 45 -10q45 0 70 55l45 92l-108 457h55z" />
    <glyph glyph-name="thorn" unicode="&#xfe;" horiz-adv-x="558" 
d="M205 613l-37 -232h1q76 91 181 91q86 0 135.5 -52t49.5 -139q0 -119 -73 -205q-74 -86 -191 -86q-107 0 -149 92h-1l-32 -202q-2 -18 -2 -37l3 -33h-53q-3 10 -3 32q0 25 4 45l116 732q3 23 3 38l-3 33h52q7 -26 -1 -77zM480 274q0 69 -37 110.5t-103 41.5
q-90 0 -146 -71q-55 -70 -55 -164q0 -69 37 -110.5t103 -41.5q89 0 145 71q56 73 56 164z" />
    <glyph glyph-name="ydieresis" unicode="&#xff;" horiz-adv-x="422" 
d="M397 630q0 -21 -14.5 -37.5t-35.5 -16.5q-16 0 -25.5 10.5t-9.5 26.5q0 21 14.5 37.5t35.5 16.5q16 0 25.5 -10.5t9.5 -26.5zM267 630q0 -21 -14.5 -37.5t-34.5 -16.5q-16 0 -26 10.5t-10 26.5q0 21 14.5 37.5t35.5 16.5q16 0 25.5 -10.5t9.5 -26.5zM201 63l217 401h55
l-316 -574q-45 -85 -112 -85q-39 0 -58 15l18 50q19 -10 45 -10q45 0 70 55l45 92l-108 457h55z" />
    <glyph glyph-name="Amacron" unicode="&#x100;" horiz-adv-x="611" 
d="M377 692h30l174 -692h-62l-49 207h-315l-114 -207h-58zM376 607l-192 -348h274zM287 796l6 40h213l-6 -40h-213z" />
    <glyph glyph-name="amacron" unicode="&#x101;" horiz-adv-x="553" 
d="M464 380l13 84h53l-62 -388q-3 -18 -3 -43l3 -33h-53q-3 10 -3 32q0 18 3 39l2 11h-1q-72 -93 -178 -93q-89 0 -138.5 52.5t-49.5 142.5q0 118 74 203q73 85 188 85q104 0 151 -92h1zM446 274q0 68 -37 109.5t-102 41.5q-90 0 -146 -71q-55 -70 -55 -164q0 -68 37 -109.5
t102 -41.5q89 0 145 71t56 164zM210 570l6 40h213l-6 -40h-213z" />
    <glyph glyph-name="Abreve" unicode="&#x102;" horiz-adv-x="611" 
d="M377 692h30l174 -692h-62l-49 207h-315l-114 -207h-58zM376 607l-192 -348h274zM498 901h35q-16 -55 -54.5 -85t-94.5 -30q-55 0 -84.5 30t-27.5 85h35q3 -69 84 -69q83 0 107 69z" />
    <glyph glyph-name="abreve" unicode="&#x103;" horiz-adv-x="553" 
d="M464 380l13 84h53l-62 -388q-3 -18 -3 -43l3 -33h-53q-3 10 -3 32q0 18 3 39l2 11h-1q-72 -93 -178 -93q-89 0 -138.5 52.5t-49.5 142.5q0 118 74 203q73 85 188 85q104 0 151 -92h1zM446 274q0 68 -37 109.5t-102 41.5q-90 0 -146 -71q-55 -70 -55 -164q0 -68 37 -109.5
t102 -41.5q89 0 145 71t56 164zM425 675h35q-16 -55 -54.5 -85t-94.5 -30q-55 0 -84.5 30t-27.5 85h35q3 -69 84 -69q83 0 107 69z" />
    <glyph glyph-name="Aogonek" unicode="&#x104;" horiz-adv-x="611" 
d="M590 -141l9 -27q-44 -40 -99 -40q-36 0 -57.5 20t-21.5 53q0 74 97 138l-48 204h-315l-114 -207h-58l394 692h30l174 -692q-43 -12 -77 -49t-34 -72q0 -20 13.5 -31.5t35.5 -11.5q33 0 71 23zM376 607l-192 -348h274z" />
    <glyph glyph-name="aogonek" unicode="&#x105;" horiz-adv-x="553" 
d="M489 -141l9 -27q-44 -40 -99 -40q-36 0 -57.5 20t-21.5 53q0 72 94 136v4q-2 10 -2 27q0 18 3 39l2 11h-1q-72 -93 -178 -93q-89 0 -138.5 52.5t-49.5 142.5q0 118 74 203q73 85 188 85q104 0 151 -92h1l13 84h53l-62 -388q-3 -18 -3 -43l3 -33q-36 -18 -68 -53
q-31 -34 -31 -68q0 -20 13.5 -31.5t35.5 -11.5q33 0 71 23zM446 274q0 68 -37 109.5t-102 41.5q-90 0 -146 -71q-55 -70 -55 -164q0 -68 37 -109.5t102 -41.5q89 0 145 71t56 164z" />
    <glyph glyph-name="Cacute" unicode="&#x106;" horiz-adv-x="654" 
d="M688 597l-39 -39q-26 46 -81 68q-54 24 -111 24q-142 0 -237 -110q-93 -110 -93 -255q0 -109 63 -177q63 -67 171 -67q133 0 225 91l30 -36q-111 -108 -263 -108q-129 0 -207 79q-77 80 -77 209q0 112 49 209t142 156q92 59 205 59q141 0 223 -103zM368 771l116 145h64
l-134 -145h-46z" />
    <glyph glyph-name="cacute" unicode="&#x107;" horiz-adv-x="456" 
d="M480 392l-38 -34q-47 68 -135 68q-85 0 -144 -72q-57 -72 -57 -160q0 -69 38 -112t104 -43q43 0 88.5 17t74.5 44l19 -39q-76 -71 -195 -71q-83 0 -134 57q-50 58 -50 141q0 115 75 199q76 85 190 85q51 0 97.5 -21.5t66.5 -58.5zM220 545l116 145h64l-134 -145h-46z" />
    <glyph glyph-name="Ccircumflex" unicode="&#x108;" horiz-adv-x="654" 
d="M443 916h30l69 -145h-45l-46 103l-78 -103h-46zM688 597l-39 -39q-26 46 -81 68q-54 24 -111 24q-142 0 -237 -110q-93 -110 -93 -255q0 -109 63 -177q63 -67 171 -67q133 0 225 91l30 -36q-111 -108 -263 -108q-129 0 -207 79q-77 80 -77 209q0 112 49 209t142 156
q92 59 205 59q141 0 223 -103z" />
    <glyph glyph-name="ccircumflex" unicode="&#x109;" horiz-adv-x="456" 
d="M297 690h30l69 -145h-45l-46 103l-78 -103h-46zM480 392l-38 -34q-47 68 -135 68q-85 0 -144 -72q-57 -72 -57 -160q0 -69 38 -112t104 -43q43 0 88.5 17t74.5 44l19 -39q-76 -71 -195 -71q-83 0 -134 57q-50 58 -50 141q0 115 75 199q76 85 190 85q51 0 97.5 -21.5
t66.5 -58.5z" />
    <glyph glyph-name="Cdotaccent" unicode="&#x10a;" horiz-adv-x="654" 
d="M688 597l-39 -39q-26 46 -81 68q-54 24 -111 24q-142 0 -237 -110q-93 -110 -93 -255q0 -109 63 -177q63 -67 171 -67q133 0 225 91l30 -36q-111 -108 -263 -108q-129 0 -207 79q-77 80 -77 209q0 112 49 209t142 156q92 59 205 59q141 0 223 -103zM477 852
q0 -21 -15 -36.5t-36 -15.5q-16 0 -26.5 10t-10.5 26q0 21 15.5 36.5t35.5 15.5q16 0 26.5 -10t10.5 -26z" />
    <glyph glyph-name="cdotaccent" unicode="&#x10b;" horiz-adv-x="456" 
d="M480 392l-38 -34q-47 68 -135 68q-85 0 -144 -72q-57 -72 -57 -160q0 -69 38 -112t104 -43q43 0 88.5 17t74.5 44l19 -39q-76 -71 -195 -71q-83 0 -134 57q-50 58 -50 141q0 115 75 199q76 85 190 85q51 0 97.5 -21.5t66.5 -58.5zM335 626q0 -21 -15 -36.5t-36 -15.5
q-16 0 -26.5 10t-10.5 26q0 21 15.5 36.5t35.5 15.5q16 0 26.5 -10t10.5 -26z" />
    <glyph glyph-name="Ccaron" unicode="&#x10c;" horiz-adv-x="654" 
d="M437 813l79 103h45l-115 -145h-30l-70 145h46zM688 597l-39 -39q-26 46 -81 68q-54 24 -111 24q-142 0 -237 -110q-93 -110 -93 -255q0 -109 63 -177q63 -67 171 -67q133 0 225 91l30 -36q-111 -108 -263 -108q-129 0 -207 79q-77 80 -77 209q0 112 49 209t142 156
q92 59 205 59q141 0 223 -103z" />
    <glyph glyph-name="ccaron" unicode="&#x10d;" horiz-adv-x="456" 
d="M295 587l79 103h45l-115 -145h-30l-70 145h46zM480 392l-38 -34q-47 68 -135 68q-85 0 -144 -72q-57 -72 -57 -160q0 -69 38 -112t104 -43q43 0 88.5 17t74.5 44l19 -39q-76 -71 -195 -71q-83 0 -134 57q-50 58 -50 141q0 115 75 199q76 85 190 85q51 0 97.5 -21.5
t66.5 -58.5z" />
    <glyph glyph-name="Dcaron" unicode="&#x10e;" horiz-adv-x="654" 
d="M648 404q0 -169 -118 -287q-117 -117 -286 -117h-183l109 690h183q130 0 212 -79q83 -78 83 -207zM591 398q0 112 -69 176q-70 65 -182 65h-124l-94 -588h125q143 0 244 101q100 101 100 246zM380 813l79 103h45l-115 -145h-30l-70 145h46z" />
    <glyph glyph-name="dcaron" unicode="&#x10f;" horiz-adv-x="639" 
d="M411 31q0 22 7 54q-72 -95 -180 -95q-89 0 -138.5 52.5t-49.5 142.5q0 117 74 203q73 85 188 85q104 0 151 -92h1l38 238q3 23 3 38l-3 33h52q3 -10 3 -32q0 -25 -4 -46l-86 -542q-2 -18 -2 -37l3 -33h-53q-4 9 -4 31zM447 275q0 68 -37.5 109.5t-102.5 41.5
q-90 0 -146 -71q-55 -70 -55 -164q0 -69 37 -110.5t102 -41.5q90 0 146 71q56 73 56 165zM591 500l88 190h60l-108 -190h-40z" />
    <glyph glyph-name="Dcroat" unicode="&#x110;" horiz-adv-x="654" 
d="M648 404q0 -169 -118 -287q-117 -117 -286 -117h-183l53 339h-67l8 51h67l48 300h183q130 0 212 -79q83 -78 83 -207zM591 398q0 112 -69 176q-70 65 -182 65h-124l-40 -249h193l-8 -51h-193l-46 -288h125q143 0 244 101q100 101 100 246z" />
    <glyph glyph-name="dslash" unicode="&#x111;" horiz-adv-x="558" 
d="M411 31q0 22 7 54q-72 -95 -180 -95q-89 0 -138.5 52.5t-49.5 142.5q0 117 74 203q73 85 188 85q104 0 151 -92h1l30 192h-192l8 50h192q3 19 3 34l-3 33h52q3 -10 3 -32q0 -16 -3 -35h71l-8 -50h-70l-80 -503q-2 -18 -2 -37l3 -33h-53q-4 9 -4 31zM447 275
q0 68 -37.5 109.5t-102.5 41.5q-90 0 -146 -71q-55 -70 -55 -164q0 -69 37 -110.5t102 -41.5q90 0 146 71q56 73 56 165z" />
    <glyph glyph-name="Emacron" unicode="&#x112;" horiz-adv-x="499" 
d="M61 0l109 690h362l-8 -51h-308l-39 -247h291l-8 -50h-292l-46 -291h316l-8 -51h-369zM247 796l6 40h213l-6 -40h-213z" />
    <glyph glyph-name="emacron" unicode="&#x113;" horiz-adv-x="486" 
d="M110 220q-3 -20 -3 -38q0 -68 35 -106.5t99 -38.5q54 0 99 20t62 37l4 3l18 -37q-10 -10 -32 -24q-68 -46 -164 -46q-81 0 -128.5 53.5t-47.5 143.5q0 122 78 203q79 82 182 82q66 0 105.5 -33t39.5 -82q0 -62 -66 -102.5t-186 -40.5q-43 0 -95 6zM119 265q45 -5 89 -5
q85 0 139 25q57 25 57 74q0 28 -29.5 48t-73.5 20q-73 0 -122 -52q-48 -51 -60 -110zM188 570l6 40h213l-6 -40h-213z" />
    <glyph glyph-name="Ebreve" unicode="&#x114;" horiz-adv-x="499" 
d="M61 0l109 690h362l-8 -51h-308l-39 -247h291l-8 -50h-292l-46 -291h316l-8 -51h-369zM463 901h35q-16 -55 -54.5 -85t-94.5 -30q-55 0 -84.5 30t-27.5 85h35q3 -69 84 -69q83 0 107 69z" />
    <glyph glyph-name="ebreve" unicode="&#x115;" horiz-adv-x="486" 
d="M110 220q-3 -20 -3 -38q0 -68 35 -106.5t99 -38.5q54 0 99 20t62 37l4 3l18 -37q-10 -10 -32 -24q-68 -46 -164 -46q-81 0 -128.5 53.5t-47.5 143.5q0 122 78 203q79 82 182 82q66 0 105.5 -33t39.5 -82q0 -62 -66 -102.5t-186 -40.5q-43 0 -95 6zM119 265q45 -5 89 -5
q85 0 139 25q57 25 57 74q0 28 -29.5 48t-73.5 20q-73 0 -122 -52q-48 -51 -60 -110zM400 675h35q-16 -55 -54.5 -85t-94.5 -30q-55 0 -84.5 30t-27.5 85h35q3 -69 84 -69q83 0 107 69z" />
    <glyph glyph-name="Edotaccent" unicode="&#x116;" horiz-adv-x="499" 
d="M61 0l109 690h362l-8 -51h-308l-39 -247h291l-8 -50h-292l-46 -291h316l-8 -51h-369zM405 852q0 -21 -15 -36.5t-36 -15.5q-16 0 -26.5 10t-10.5 26q0 21 15.5 36.5t35.5 15.5q16 0 26.5 -10t10.5 -26z" />
    <glyph glyph-name="edotaccent" unicode="&#x117;" horiz-adv-x="486" 
d="M110 220q-3 -20 -3 -38q0 -68 35 -106.5t99 -38.5q54 0 99 20t62 37l4 3l18 -37q-10 -10 -32 -24q-68 -46 -164 -46q-81 0 -128.5 53.5t-47.5 143.5q0 122 78 203q79 82 182 82q66 0 105.5 -33t39.5 -82q0 -62 -66 -102.5t-186 -40.5q-43 0 -95 6zM119 265q45 -5 89 -5
q85 0 139 25q57 25 57 74q0 28 -29.5 48t-73.5 20q-73 0 -122 -52q-48 -51 -60 -110zM342 626q0 -21 -15 -36.5t-36 -15.5q-16 0 -26.5 10t-10.5 26q0 21 15.5 36.5t35.5 15.5q16 0 26.5 -10t10.5 -26z" />
    <glyph glyph-name="Eogonek" unicode="&#x118;" horiz-adv-x="499" 
d="M414 -142l9 -27q-44 -40 -99 -40q-36 0 -57.5 20t-21.5 53q0 72 94 136h-278l109 690h362l-8 -51h-308l-39 -247h291l-8 -50h-292l-46 -291h316l-8 -51q-47 0 -92 -42q-44 -44 -44 -80q0 -20 13.5 -31.5t35.5 -11.5q33 0 71 23z" />
    <glyph glyph-name="eogonek" unicode="&#x119;" horiz-adv-x="486" 
d="M385 -123l9 -27q-44 -40 -99 -40q-36 0 -57.5 20t-21.5 53q0 57 61 111q-19 -4 -49 -4q-81 0 -128.5 53.5t-47.5 143.5q0 122 78 203q79 82 182 82q66 0 105.5 -33t39.5 -82q0 -62 -66 -102.5t-186 -40.5q-43 0 -95 6q-3 -20 -3 -38q0 -68 35 -106.5t99 -38.5q54 0 99 20
t62 37l4 3l18 -37q-24 -24 -68 -44q-36 -21 -62 -53q-29 -35 -29 -66q0 -20 13.5 -31.5t35.5 -11.5q33 0 71 23zM119 265q45 -5 89 -5q85 0 139 25q57 25 57 74q0 28 -29.5 48t-73.5 20q-73 0 -122 -52q-48 -51 -60 -110z" />
    <glyph glyph-name="Ecaron" unicode="&#x11a;" horiz-adv-x="499" 
d="M61 0l109 690h362l-8 -51h-308l-39 -247h291l-8 -50h-292l-46 -291h316l-8 -51h-369zM346 813l79 103h45l-115 -145h-30l-70 145h46z" />
    <glyph glyph-name="ecaron" unicode="&#x11b;" horiz-adv-x="486" 
d="M110 220q-3 -20 -3 -38q0 -68 35 -106.5t99 -38.5q54 0 99 20t62 37l4 3l18 -37q-10 -10 -32 -24q-68 -46 -164 -46q-81 0 -128.5 53.5t-47.5 143.5q0 122 78 203q79 82 182 82q66 0 105.5 -33t39.5 -82q0 -62 -66 -102.5t-186 -40.5q-43 0 -95 6zM119 265q45 -5 89 -5
q85 0 139 25q57 25 57 74q0 28 -29.5 48t-73.5 20q-73 0 -122 -52q-48 -51 -60 -110zM288 587l79 103h45l-115 -145h-30l-70 145h46z" />
    <glyph glyph-name="Gcircumflex" unicode="&#x11c;" horiz-adv-x="727" 
d="M707 577l-42 -39q-70 112 -210 112q-143 0 -236 -110q-92 -110 -92 -257q0 -109 64 -176q65 -66 175 -66q62 0 127 18q66 20 102 56l29 187h-204l8 50h257l-42 -262q-47 -51 -127 -77q-78 -25 -163 -25q-128 0 -206 81t-78 210q0 172 112 296q113 125 282 125
q155 0 244 -123zM442 916h30l69 -145h-45l-46 103l-78 -103h-46z" />
    <glyph glyph-name="gcircumflex" unicode="&#x11d;" horiz-adv-x="553" 
d="M485 456l5 8h52q-15 -27 -23 -72l-47 -292q-22 -135 -75 -211q-60 -89 -201 -89q-50 0 -100 19t-78 52l37 41q22 -28 68 -45q45 -18 85 -18q84 0 134 50q58 61 77 195h-1q-69 -95 -181 -95q-84 0 -135 53q-51 54 -51 138q0 117 73 199q74 83 188 83q51 0 92 -24t59 -68h1
l1 9q4 40 20 67zM447 278q0 67 -37.5 107t-103.5 40q-90 0 -145 -69q-55 -67 -55 -160q0 -69 37.5 -108t103.5 -39q91 0 145 68q55 67 55 161zM310 690h30l69 -145h-45l-46 103l-78 -103h-46z" />
    <glyph glyph-name="Gbreve" unicode="&#x11e;" horiz-adv-x="727" 
d="M707 577l-42 -39q-70 112 -210 112q-143 0 -236 -110q-92 -110 -92 -257q0 -109 64 -176q65 -66 175 -66q62 0 127 18q66 20 102 56l29 187h-204l8 50h257l-42 -262q-47 -51 -127 -77q-78 -25 -163 -25q-128 0 -206 81t-78 210q0 172 112 296q113 125 282 125
q155 0 244 -123zM551 901h35q-16 -55 -54.5 -85t-94.5 -30q-55 0 -84.5 30t-27.5 85h35q3 -69 84 -69q83 0 107 69z" />
    <glyph glyph-name="gbreve" unicode="&#x11f;" horiz-adv-x="553" 
d="M485 456l5 8h52q-15 -27 -23 -72l-47 -292q-22 -135 -75 -211q-60 -89 -201 -89q-50 0 -100 19t-78 52l37 41q22 -28 68 -45q45 -18 85 -18q84 0 134 50q58 61 77 195h-1q-69 -95 -181 -95q-84 0 -135 53q-51 54 -51 138q0 117 73 199q74 83 188 83q51 0 92 -24t59 -68h1
l1 9q4 40 20 67zM447 278q0 67 -37.5 107t-103.5 40q-90 0 -145 -69q-55 -67 -55 -160q0 -69 37.5 -108t103.5 -39q91 0 145 68q55 67 55 161zM420 675h35q-16 -55 -54.5 -85t-94.5 -30q-55 0 -84.5 30t-27.5 85h35q3 -69 84 -69q83 0 107 69z" />
    <glyph glyph-name="Gdotaccent" unicode="&#x120;" horiz-adv-x="727" 
d="M707 577l-42 -39q-70 112 -210 112q-143 0 -236 -110q-92 -110 -92 -257q0 -109 64 -176q65 -66 175 -66q62 0 127 18q66 20 102 56l29 187h-204l8 50h257l-42 -262q-47 -51 -127 -77q-78 -25 -163 -25q-128 0 -206 81t-78 210q0 172 112 296q113 125 282 125
q155 0 244 -123zM486 852q0 -21 -15 -36.5t-36 -15.5q-16 0 -26.5 10t-10.5 26q0 21 15.5 36.5t35.5 15.5q16 0 26.5 -10t10.5 -26z" />
    <glyph glyph-name="gdotaccent" unicode="&#x121;" horiz-adv-x="553" 
d="M485 456l5 8h52q-15 -27 -23 -72l-47 -292q-22 -135 -75 -211q-60 -89 -201 -89q-50 0 -100 19t-78 52l37 41q22 -28 68 -45q45 -18 85 -18q84 0 134 50q58 61 77 195h-1q-69 -95 -181 -95q-84 0 -135 53q-51 54 -51 138q0 117 73 199q74 83 188 83q51 0 92 -24t59 -68h1
l1 9q4 40 20 67zM447 278q0 67 -37.5 107t-103.5 40q-90 0 -145 -69q-55 -67 -55 -160q0 -69 37.5 -108t103.5 -39q91 0 145 68q55 67 55 161zM360 626q0 -21 -15 -36.5t-36 -15.5q-16 0 -26.5 10t-10.5 26q0 21 15.5 36.5t35.5 15.5q16 0 26.5 -10t10.5 -26z" />
    <glyph glyph-name="Gcommaaccent" unicode="&#x122;" horiz-adv-x="727" 
d="M707 577l-42 -39q-70 112 -210 112q-143 0 -236 -110q-92 -110 -92 -257q0 -109 64 -176q65 -66 175 -66q62 0 127 18q66 20 102 56l29 187h-204l8 50h257l-42 -262q-47 -51 -127 -77q-78 -25 -163 -25q-128 0 -206 81t-78 210q0 172 112 296q113 125 282 125
q155 0 244 -123zM402 -50l-78 -140h-40l58 140h60z" />
    <glyph glyph-name="gcommaaccent" unicode="&#x123;" horiz-adv-x="553" 
d="M485 456l5 8h52q-15 -27 -23 -72l-47 -292q-22 -135 -75 -211q-60 -89 -201 -89q-50 0 -100 19t-78 52l37 41q22 -28 68 -45q45 -18 85 -18q84 0 134 50q58 61 77 195h-1q-69 -95 -181 -95q-84 0 -135 53q-51 54 -51 138q0 117 73 199q74 83 188 83q51 0 92 -24t59 -68h1
l1 9q4 40 20 67zM447 278q0 67 -37.5 107t-103.5 40q-90 0 -145 -69q-55 -67 -55 -160q0 -69 37.5 -108t103.5 -39q91 0 145 68q55 67 55 161zM279 564l78 140h40l-58 -140h-60z" />
    <glyph glyph-name="Hcircumflex" unicode="&#x124;" horiz-adv-x="684" 
d="M585 395l47 295h53l-109 -690h-54l55 344h-408l-55 -344h-53l109 690h54l-47 -295h408zM435 916h30l69 -145h-45l-46 103l-78 -103h-46z" />
    <glyph glyph-name="hcircumflex" unicode="&#x125;" horiz-adv-x="505" 
d="M205 612l-36 -226h1q27 39 69 63t87 24q133 0 133 -131q0 -22 -6 -65l-33 -207q-2 -18 -2 -37l3 -33h-53q-3 10 -3 32q0 25 4 45l31 198q6 37 6 56q0 95 -90 95q-73 0 -116 -58t-55 -138l-37 -230h-52l98 619q3 23 3 38l-3 33h52q3 -10 3 -32q0 -25 -4 -46zM195 901h30
l69 -145h-45l-46 103l-78 -103h-46z" />
    <glyph glyph-name="Hbar" unicode="&#x126;" horiz-adv-x="684" 
d="M65 520l8 45h77l20 125h54l-20 -125h408l20 125h53l-20 -125h77l-7 -45h-77l-82 -520h-54l55 344h-408l-55 -344h-53l82 520h-78zM197 520l-20 -125h408l20 125h-408z" />
    <glyph glyph-name="hbar" unicode="&#x127;" horiz-adv-x="505" 
d="M76 573l8 50h70q3 19 3 34l-3 33h52q3 -10 3 -32q0 -16 -3 -35h193l-8 -50h-192l-30 -187h1q27 39 69 63t87 24q133 0 133 -131q0 -22 -6 -65l-33 -207q-2 -18 -2 -37l3 -33h-53q-3 10 -3 32q0 25 4 45l31 198q6 37 6 56q0 95 -90 95q-73 0 -116 -58t-55 -138l-37 -230
h-52l90 573h-70z" />
    <glyph glyph-name="Itilde" unicode="&#x128;" horiz-adv-x="217" 
d="M318 889l31 -10q-9 -33 -33 -55.5t-55 -22.5q-28 0 -63 23t-52 23q-15 0 -28 -11.5t-18 -29.5l-32 10q9 33 33.5 55t54.5 22q28 0 63 -23t52 -23q15 0 28.5 12t18.5 30zM61 0l109 690h54l-110 -690h-53z" />
    <glyph glyph-name="itilde" unicode="&#x129;" horiz-adv-x="206" 
d="M169 387l-50 -317q-2 -18 -2 -37l3 -33h-53q-3 10 -3 32q0 25 4 45l50 317q3 22 3 38l-3 33h52q3 -11 3 -32q0 -25 -4 -46zM265 663l31 -10q-9 -33 -33 -55.5t-55 -22.5q-28 0 -63 23t-52 23q-15 0 -28 -11.5t-18 -29.5l-32 10q9 33 33.5 55t54.5 22q28 0 63 -23t52 -23
q15 0 28.5 12t18.5 30z" />
    <glyph glyph-name="Imacron" unicode="&#x12a;" horiz-adv-x="217" 
d="M61 0l109 690h54l-110 -690h-53zM101 796l6 40h213l-6 -40h-213z" />
    <glyph glyph-name="imacron" unicode="&#x12b;" horiz-adv-x="206" 
d="M169 387l-50 -317q-2 -18 -2 -37l3 -33h-53q-3 10 -3 32q0 25 4 45l50 317q3 22 3 38l-3 33h52q3 -11 3 -32q0 -25 -4 -46zM49 570l6 40h213l-6 -40h-213z" />
    <glyph glyph-name="Ibreve" unicode="&#x12c;" horiz-adv-x="217" 
d="M61 0l109 690h54l-110 -690h-53zM312 901h35q-16 -55 -54.5 -85t-94.5 -30q-55 0 -84.5 30t-27.5 85h35q3 -69 84 -69q83 0 107 69z" />
    <glyph glyph-name="ibreve" unicode="&#x12d;" horiz-adv-x="206" 
d="M171 387l-50 -317q-2 -18 -2 -37l3 -33h-53q-3 10 -3 32q0 25 4 45l50 317q3 22 3 38l-3 33h52q3 -11 3 -32q0 -25 -4 -46zM268 675h35q-16 -55 -54.5 -85t-94.5 -30q-55 0 -84.5 30t-27.5 85h35q3 -69 84 -69q83 0 107 69z" />
    <glyph glyph-name="Iogonek" unicode="&#x12e;" horiz-adv-x="217" 
d="M135 -141l9 -27q-44 -40 -99 -40q-36 0 -57.5 20t-21.5 53q0 73 95 136l109 689h54l-110 -690q-36 -18 -68 -53q-31 -34 -31 -68q0 -20 13.5 -31.5t35.5 -11.5q33 0 71 23z" />
    <glyph glyph-name="iogonek" unicode="&#x12f;" horiz-adv-x="206" 
d="M139 -141l9 -27q-44 -40 -99 -40q-36 0 -57.5 20t-21.5 53q0 74 96 137q-6 23 2 75l50 317q3 22 3 38l-3 33h52q3 -11 3 -32q0 -25 -4 -46l-50 -317q-2 -18 -2 -37l3 -33q-37 -18 -69 -53t-32 -68q0 -20 13.5 -31.5t35.5 -11.5q33 0 71 23zM224 636q0 -20 -15 -35.5
t-35 -15.5q-16 0 -26 10.5t-10 25.5q0 20 15.5 36t34.5 16q15 0 25.5 -11t10.5 -26z" />
    <glyph glyph-name="Idot" unicode="&#x130;" horiz-adv-x="217" 
d="M61 0l109 690h54l-110 -690h-53zM259 852q0 -21 -15 -36.5t-36 -15.5q-16 0 -26.5 10t-10.5 26q0 21 15.5 36.5t35.5 15.5q16 0 26.5 -10t10.5 -26z" />
    <glyph glyph-name="dotlessi" unicode="&#x131;" horiz-adv-x="206" 
d="M169 387l-50 -317q-2 -18 -2 -37l3 -33h-53q-3 10 -3 32q0 25 4 45l50 317q3 22 3 38l-3 33h52q3 -11 3 -32q0 -25 -4 -46z" />
    <glyph glyph-name="IJ" unicode="&#x132;" horiz-adv-x="434" 
d="M61 0l109 690h54l-110 -690h-53zM276 -9l111 699h54l-110 -694q-33 -201 -152 -201q-36 0 -55 10l8 47q18 -8 50 -8q41 -6 71 52q7 12 11 34l6 30z" />
    <glyph glyph-name="ij" unicode="&#x133;" horiz-adv-x="412" 
d="M344 456l4 9h52q-15 -27 -23 -72l-64 -402q-12 -76 -41 -127q-36 -64 -115 -64q-29 0 -43 8l7 47q18 -8 43 -8q39 0 64 33q8 10 16 36q9 29 10 36l6 39l63 396q9 49 21 69zM430 636q0 -20 -15 -35.5t-35 -15.5q-16 0 -26 10t-10 26q0 20 15 35.5t35 15.5q16 0 26 -10.5
t10 -25.5zM224 636q0 -20 -15 -35.5t-35 -15.5q-16 0 -26 10.5t-10 25.5q0 20 15.5 36t34.5 16q15 0 25.5 -11t10.5 -26zM169 387l-50 -317q-2 -18 -2 -37l3 -33h-53q-3 10 -3 32q0 25 4 45l50 317q3 22 3 38l-3 33h52q3 -11 3 -32q0 -25 -4 -46z" />
    <glyph glyph-name="Jcircumflex" unicode="&#x134;" horiz-adv-x="217" 
d="M59 -9l111 699h54l-110 -694q-12 -75 -41 -131q-33 -70 -111 -70q-36 0 -55 10l8 47q18 -8 50 -8q41 -6 71 52q7 12 11 34l6 30zM223 916h30l69 -145h-45l-46 103l-78 -103h-46z" />
    <glyph glyph-name="jcircumflex" unicode="&#x135;" horiz-adv-x="206" 
d="M138 456l4 9h52q-15 -27 -23 -72l-64 -402q-12 -76 -41 -127q-36 -64 -115 -64q-29 0 -43 8l7 47q18 -8 43 -8q39 0 64 33q8 10 16 36q9 29 10 36l6 39l63 396q9 49 21 69zM177 690h30l69 -145h-45l-46 103l-78 -103h-46z" />
    <glyph glyph-name="Kcommaaccent" unicode="&#x136;" horiz-adv-x="528" 
d="M173 370l362 320h70l-310 -270l220 -420h-67l-196 383l-89 -78l-49 -305h-53l109 690h54zM303 -50l-78 -140h-40l58 140h60z" />
    <glyph glyph-name="kcommaaccent" unicode="&#x137;" horiz-adv-x="431" 
d="M205 612l-56 -354l245 207h65l-211 -177l166 -288h-65l-142 254l-68 -57l-31 -197h-52l98 619q3 23 3 38l-3 33h52q3 -10 3 -32q0 -25 -4 -46zM254 -50l-78 -140h-40l58 140h60z" />
    <glyph glyph-name="kgreenlandic" unicode="&#x138;" horiz-adv-x="426" 
d="M164 387l-20 -129l245 207h65l-211 -177l166 -288h-65l-142 254l-68 -57l-31 -197h-52l62 394q3 22 3 38l-3 33h52q3 -11 3 -32q0 -25 -4 -46z" />
    <glyph glyph-name="Lacute" unicode="&#x139;" horiz-adv-x="383" 
d="M224 690l-102 -639h237l-8 -51h-290l109 690h54zM157 771l116 145h64l-134 -145h-46z" />
    <glyph glyph-name="lacute" unicode="&#x13a;" horiz-adv-x="206" 
d="M205 612l-86 -542q-2 -18 -2 -37l3 -33h-53q-3 10 -3 32q0 25 4 45l86 542q3 23 3 38l-3 33h52q3 -10 3 -32q0 -25 -4 -46zM148 766l116 145h64l-134 -145h-46z" />
    <glyph glyph-name="Lcommaaccent" unicode="&#x13b;" horiz-adv-x="383" 
d="M224 690l-102 -639h237l-8 -51h-290l109 690h54zM250 -50l-78 -140h-40l58 140h60z" />
    <glyph glyph-name="lcommaaccent" unicode="&#x13c;" horiz-adv-x="206" 
d="M205 612l-86 -542q-2 -18 -2 -37l3 -33h-53q-3 10 -3 32q0 25 4 45l86 542q3 23 3 38l-3 33h52q3 -10 3 -32q0 -25 -4 -46zM142 -50l-78 -140h-40l58 140h60z" />
    <glyph glyph-name="Lcaron" unicode="&#x13d;" horiz-adv-x="383" 
d="M224 690l-102 -639h237l-8 -51h-290l109 690h54zM302 500l88 190h60l-108 -190h-40z" />
    <glyph glyph-name="lcaron" unicode="&#x13e;" horiz-adv-x="291" 
d="M205 612l-86 -542q-2 -18 -2 -37l3 -33h-53q-3 10 -3 32q0 25 4 45l86 542q3 23 3 38l-3 33h52q3 -10 3 -32q0 -25 -4 -46zM243 500l88 190h60l-108 -190h-40z" />
    <glyph glyph-name="Ldot" unicode="&#x13f;" horiz-adv-x="383" 
d="M224 690l-102 -639h237l-8 -51h-290l109 690h54zM385 303q0 -23 -16.5 -39.5t-38.5 -16.5q-17 0 -28.5 11t-11.5 28q0 23 16.5 39.5t38.5 16.5q17 0 28.5 -11t11.5 -28z" />
    <glyph glyph-name="ldot" unicode="&#x140;" horiz-adv-x="332" 
d="M205 612l-86 -542q-2 -18 -2 -37l3 -33h-53q-3 10 -3 32q0 25 4 45l86 542q3 23 3 38l-3 33h52q3 -10 3 -32q0 -25 -4 -46zM328 296q0 -23 -16.5 -39.5t-38.5 -16.5q-17 0 -28.5 11t-11.5 28q0 23 16.5 39.5t38.5 16.5q17 0 28.5 -11t11.5 -28z" />
    <glyph glyph-name="Lslash" unicode="&#x141;" horiz-adv-x="383" 
d="M165 320l-43 -269h237l-8 -51h-290l44 278l-76 -55l9 58l76 55l56 354h54l-50 -313l131 95l-9 -58z" />
    <glyph glyph-name="lslash" unicode="&#x142;" horiz-adv-x="206" 
d="M166 369l-47 -299q-2 -18 -2 -37l3 -33h-53q-3 10 -3 32q0 25 4 45l38 240l-73 -64l10 63l73 63l38 240q3 23 3 38l-3 33h52q3 -10 3 -32q0 -25 -4 -46l-29 -181l73 66l-10 -63z" />
    <glyph glyph-name="Nacute" unicode="&#x143;" horiz-adv-x="711" 
d="M565 99l94 591h53l-109 -690h-48l-345 601l-96 -601h-53l109 690h53zM391 771l116 145h64l-134 -145h-46z" />
    <glyph glyph-name="nacute" unicode="&#x144;" horiz-adv-x="494" 
d="M164 385h1q27 39 69 63t87 24q132 0 132 -133q0 -22 -6 -64l-33 -205q-2 -18 -2 -37l3 -33h-53q-3 10 -3 32q0 25 4 45l31 193q6 40 6 61q0 48 -22 71t-69 23q-73 0 -115 -56q-41 -57 -53 -134l-38 -235h-52l63 393q3 23 3 38l-3 33h52q3 -10 3 -32q0 -12 -5 -47z
M244 545l116 145h64l-134 -145h-46z" />
    <glyph glyph-name="Ncommaaccent" unicode="&#x145;" horiz-adv-x="711" 
d="M565 99l94 591h53l-109 -690h-48l-345 601l-96 -601h-53l109 690h53zM378 -50l-78 -140h-40l58 140h60z" />
    <glyph glyph-name="ncommaaccent" unicode="&#x146;" horiz-adv-x="494" 
d="M164 385h1q27 39 69 63t87 24q132 0 132 -133q0 -22 -6 -64l-33 -205q-2 -18 -2 -37l3 -33h-53q-3 10 -3 32q0 25 4 45l31 193q6 40 6 61q0 48 -22 71t-69 23q-73 0 -115 -56q-41 -57 -53 -134l-38 -235h-52l63 393q3 23 3 38l-3 33h52q3 -10 3 -32q0 -12 -5 -47z
M275 -50l-78 -140h-40l58 140h60z" />
    <glyph glyph-name="Ncaron" unicode="&#x147;" horiz-adv-x="711" 
d="M565 99l94 591h53l-109 -690h-48l-345 601l-96 -601h-53l109 690h53zM452 813l79 103h45l-115 -145h-30l-70 145h46z" />
    <glyph glyph-name="ncaron" unicode="&#x148;" horiz-adv-x="494" 
d="M164 385h1q27 39 69 63t87 24q132 0 132 -133q0 -22 -6 -64l-33 -205q-2 -18 -2 -37l3 -33h-53q-3 10 -3 32q0 25 4 45l31 193q6 40 6 61q0 48 -22 71t-69 23q-73 0 -115 -56q-41 -57 -53 -134l-38 -235h-52l63 393q3 23 3 38l-3 33h52q3 -10 3 -32q0 -12 -5 -47z
M303 587l79 103h45l-115 -145h-30l-70 145h46z" />
    <glyph glyph-name="Eng" unicode="&#x14a;" horiz-adv-x="711" 
d="M564 100l94 590h54l-110 -694q-32 -201 -152 -201q-36 0 -55 10l8 47q18 -8 50 -8q43 0 70 52q7 12 12 33q7 28 12 62l3 18l-340 592l-96 -601h-53l109 690h53z" />
    <glyph glyph-name="eng" unicode="&#x14b;" horiz-adv-x="494" 
d="M349 -9l45 279q6 40 6 61q0 48 -22 71t-69 23q-73 0 -115 -56q-41 -57 -53 -134l-38 -235h-52l63 393q3 23 3 38l-3 33h52q3 -10 3 -32q0 -12 -5 -47h1q27 39 69 63t87 24q132 0 132 -133q0 -22 -6 -64l-45 -284q-12 -76 -41 -127q-36 -64 -115 -64q-29 0 -43 8l7 47
q18 -8 43 -8q45 0 71 49q7 10 12 32q7 28 13 63z" />
    <glyph glyph-name="Omacron" unicode="&#x14c;" horiz-adv-x="761" 
d="M754 412q0 -174 -114 -299t-285 -125q-127 0 -207 80q-79 79 -79 208q0 174 113 299q114 125 286 125q126 0 206 -80t80 -208zM697 406q0 108 -65 176t-172 68q-96 0 -173 -52q-77 -51 -119 -134.5t-42 -178.5q0 -109 64 -176q65 -68 173 -68q96 0 173 52
q77 51 119 134.5t42 178.5zM356 796l6 40h213l-6 -40h-213z" />
    <glyph glyph-name="omacron" unicode="&#x14d;" horiz-adv-x="538" 
d="M515 273q0 -116 -78 -200q-77 -83 -192 -83q-87 0 -141 55t-54 142q0 116 78 200q78 85 193 85q86 0 140 -56t54 -143zM461 271q0 69 -39.5 111.5t-107.5 42.5q-91 0 -149 -70q-59 -71 -59 -161q0 -69 40 -112t107 -43q90 0 148 70q60 71 60 162zM219 570l6 40h213
l-6 -40h-213z" />
    <glyph glyph-name="Obreve" unicode="&#x14e;" horiz-adv-x="761" 
d="M754 412q0 -174 -114 -299t-285 -125q-127 0 -207 80q-79 79 -79 208q0 174 113 299q114 125 286 125q126 0 206 -80t80 -208zM697 406q0 108 -65 176t-172 68q-96 0 -173 -52q-77 -51 -119 -134.5t-42 -178.5q0 -109 64 -176q65 -68 173 -68q96 0 173 52
q77 51 119 134.5t42 178.5zM575 901h35q-16 -55 -54.5 -85t-94.5 -30q-55 0 -84.5 30t-27.5 85h35q3 -69 84 -69q83 0 107 69z" />
    <glyph glyph-name="obreve" unicode="&#x14f;" horiz-adv-x="538" 
d="M515 273q0 -116 -78 -200q-77 -83 -192 -83q-87 0 -141 55t-54 142q0 116 78 200q78 85 193 85q86 0 140 -56t54 -143zM461 271q0 69 -39.5 111.5t-107.5 42.5q-91 0 -149 -70q-59 -71 -59 -161q0 -69 40 -112t107 -43q90 0 148 70q60 71 60 162zM429 675h35
q-16 -55 -54.5 -85t-94.5 -30q-55 0 -84.5 30t-27.5 85h35q3 -69 84 -69q83 0 107 69z" />
    <glyph glyph-name="Ohungarumlaut" unicode="&#x150;" horiz-adv-x="761" 
d="M754 412q0 -174 -114 -299t-285 -125q-127 0 -207 80q-79 79 -79 208q0 174 113 299q114 125 286 125q126 0 206 -80t80 -208zM697 406q0 108 -65 176t-172 68q-96 0 -173 -52q-77 -51 -119 -134.5t-42 -178.5q0 -109 64 -176q65 -68 173 -68q96 0 173 52
q77 51 119 134.5t42 178.5zM449 771l115 145h65l-135 -145h-45zM343 771l116 145h65l-135 -145h-46z" />
    <glyph glyph-name="ohungarumlaut" unicode="&#x151;" horiz-adv-x="538" 
d="M515 273q0 -116 -78 -200q-77 -83 -192 -83q-87 0 -141 55t-54 142q0 116 78 200q78 85 193 85q86 0 140 -56t54 -143zM461 271q0 69 -39.5 111.5t-107.5 42.5q-91 0 -149 -70q-59 -71 -59 -161q0 -69 40 -112t107 -43q90 0 148 70q60 71 60 162zM307 545l115 145h65
l-135 -145h-45zM201 545l116 145h65l-135 -145h-46z" />
    <glyph glyph-name="OE" unicode="&#x152;" horiz-adv-x="965" 
d="M652 641l8 49h333l-8 -51h-280l-39 -247h263l-8 -50h-263l-46 -291h287l-8 -51h-341l8 49q-94 -61 -208 -61q-125 0 -203 81t-78 207q0 113 49 208q50 98 141 156q91 60 204 60q109 0 189 -59zM569 116l72 458q-69 76 -186 76q-141 0 -235 -111q-94 -109 -94 -254
q0 -107 63 -176q63 -68 169 -68q116 0 211 75z" />
    <glyph glyph-name="oe" unicode="&#x153;" horiz-adv-x="887" 
d="M629 -10q-62 0 -104.5 31t-60.5 86q-37 -55 -94.5 -86t-124.5 -31q-87 0 -141 55t-54 142q0 116 78 200q78 85 193 85q63 0 111 -32t69 -87q37 56 93 87.5t119 31.5q66 0 105.5 -33t39.5 -82q0 -62 -66 -102.5t-186 -40.5q-42 0 -95 6q-3 -20 -3 -38q0 -68 35 -106.5
t99 -38.5q54 0 99 20t62 37l4 3l18 -37q-10 -10 -32 -24q-68 -46 -164 -46zM461 271q0 69 -39.5 111.5t-107.5 42.5q-91 0 -149 -70q-59 -71 -59 -161q0 -69 40 -112t107 -43q90 0 148 70q60 71 60 162zM520 265q45 -5 89 -5q85 0 139 25q57 25 57 74q0 28 -29.5 48
t-73.5 20q-73 0 -122 -52q-48 -51 -60 -110z" />
    <glyph glyph-name="Racute" unicode="&#x154;" horiz-adv-x="485" 
d="M505 539q0 -88 -53 -146t-141 -71l151 -322h-69l-145 319h-83l-51 -319h-53l109 690h154q82 0 131.5 -39t49.5 -112zM449 533q0 68 -50 88q-44 18 -103 18h-80l-43 -269h79q93 0 145 40t52 123zM273 771l116 145h64l-134 -145h-46z" />
    <glyph glyph-name="racute" unicode="&#x155;" horiz-adv-x="291" 
d="M165 386l-1 -5q41 92 126 92q24 0 48 -8l-13 -52h-4q-14 8 -44 8q-58 0 -90 -51.5t-44 -119.5l-40 -250h-52l63 394q3 22 3 37l-3 33h52q3 -10 3 -32q0 -25 -4 -46zM183 545l116 145h64l-134 -145h-46z" />
    <glyph glyph-name="Rcommaaccent" unicode="&#x156;" horiz-adv-x="485" 
d="M505 539q0 -88 -53 -146t-141 -71l151 -322h-69l-145 319h-83l-51 -319h-53l109 690h154q82 0 131.5 -39t49.5 -112zM449 533q0 68 -50 88q-44 18 -103 18h-80l-43 -269h79q93 0 145 40t52 123zM281 -50l-78 -140h-40l58 140h60z" />
    <glyph glyph-name="rcommaaccent" unicode="&#x157;" horiz-adv-x="291" 
d="M165 386l-1 -5q41 92 126 92q24 0 48 -8l-13 -52h-4q-14 8 -44 8q-58 0 -90 -51.5t-44 -119.5l-40 -250h-52l63 394q3 22 3 37l-3 33h52q3 -10 3 -32q0 -25 -4 -46zM135 -50l-78 -140h-40l58 140h60z" />
    <glyph glyph-name="Rcaron" unicode="&#x158;" horiz-adv-x="485" 
d="M505 539q0 -88 -53 -146t-141 -71l151 -322h-69l-145 319h-83l-51 -319h-53l109 690h154q82 0 131.5 -39t49.5 -112zM449 533q0 68 -50 88q-44 18 -103 18h-80l-43 -269h79q93 0 145 40t52 123zM316 813l79 103h45l-115 -145h-30l-70 145h46z" />
    <glyph glyph-name="rcaron" unicode="&#x159;" horiz-adv-x="291" 
d="M165 386l-1 -5q41 92 126 92q24 0 48 -8l-13 -52h-4q-14 8 -44 8q-58 0 -90 -51.5t-44 -119.5l-40 -250h-52l63 394q3 22 3 37l-3 33h52q3 -10 3 -32q0 -25 -4 -46zM225 587l79 103h45l-115 -145h-30l-70 145h46z" />
    <glyph glyph-name="Sacute" unicode="&#x15a;" horiz-adv-x="507" 
d="M519 609l-40 -31q-46 73 -132 73q-65 0 -112 -39q-45 -39 -45 -104q0 -74 99 -117q90 -38 123 -65q59 -47 58 -118q0 -97 -74 -159q-73 -61 -173 -61q-65 0 -112.5 32.5t-70.5 92.5l43 29q18 -48 59.5 -76.5t93.5 -28.5q72 0 125 46q54 47 54 117q0 75 -99 118
q-37 16 -50.5 22t-45.5 24.5t-46 34t-26.5 42t-12.5 57.5q0 93 65 147q64 55 160 55q107 0 159 -91zM280 771l116 145h64l-134 -145h-46z" />
    <glyph glyph-name="sacute" unicode="&#x15b;" horiz-adv-x="378" 
d="M372 404l-38 -31q-32 54 -99 54q-41 0 -69.5 -23.5t-28.5 -61.5q0 -47 105 -79q43 -13 74 -42.5t31 -69.5q0 -73 -53 -117t-126 -44q-52 0 -93 23.5t-59 67.5l40 31q16 -35 48 -54t72 -19q49 0 83 27.5t34 72.5q0 27 -21.5 45.5t-52 30.5t-61 25t-52 35t-21.5 54
q0 65 46 104q47 39 111 39q83 0 130 -68zM178 545l116 145h64l-134 -145h-46z" />
    <glyph glyph-name="Scircumflex" unicode="&#x15c;" horiz-adv-x="507" 
d="M519 609l-40 -31q-46 73 -132 73q-65 0 -112 -39q-45 -39 -45 -104q0 -74 99 -117q90 -38 123 -65q59 -47 58 -118q0 -97 -74 -159q-73 -61 -173 -61q-65 0 -112.5 32.5t-70.5 92.5l43 29q18 -48 59.5 -76.5t93.5 -28.5q72 0 125 46q54 47 54 117q0 75 -99 118
q-37 16 -50.5 22t-45.5 24.5t-46 34t-26.5 42t-12.5 57.5q0 93 65 147q64 55 160 55q107 0 159 -91zM344 916h30l69 -145h-45l-46 103l-78 -103h-46z" />
    <glyph glyph-name="scircumflex" unicode="&#x15d;" horiz-adv-x="378" 
d="M372 404l-38 -31q-32 54 -99 54q-41 0 -69.5 -23.5t-28.5 -61.5q0 -47 105 -79q43 -13 74 -42.5t31 -69.5q0 -73 -53 -117t-126 -44q-52 0 -93 23.5t-59 67.5l40 31q16 -35 48 -54t72 -19q49 0 83 27.5t34 72.5q0 27 -21.5 45.5t-52 30.5t-61 25t-52 35t-21.5 54
q0 65 46 104q47 39 111 39q83 0 130 -68zM248 690h30l69 -145h-45l-46 103l-78 -103h-46z" />
    <glyph glyph-name="Scedilla" unicode="&#x15e;" horiz-adv-x="507" 
d="M519 609l-40 -31q-46 73 -132 73q-65 0 -112 -39q-45 -39 -45 -104q0 -74 99 -117q90 -38 123 -65q59 -47 58 -118q0 -78 -48 -133q-46 -55 -120 -75l-98 -135h-65l107 124q-3 0 -12 -0.5t-11 -0.5q-65 0 -112.5 32.5t-70.5 92.5l43 29q18 -48 59.5 -76.5t93.5 -28.5
q72 0 125 46q54 47 54 117q0 75 -99 118q-37 16 -50.5 22t-45.5 24.5t-46 34t-26.5 42t-12.5 57.5q0 93 65 147q64 55 160 55q107 0 159 -91z" />
    <glyph glyph-name="scedilla" unicode="&#x15f;" horiz-adv-x="378" 
d="M372 404l-38 -31q-32 54 -99 54q-41 0 -69.5 -23.5t-28.5 -61.5q0 -47 105 -79q43 -13 74 -42.5t31 -69.5q0 -53 -29.5 -92t-79.5 -57l-100 -137h-65l108 126q-3 -1 -13 -1q-52 0 -93 23.5t-59 67.5l40 31q16 -35 48 -54t72 -19q49 0 83 27.5t34 72.5q0 27 -21.5 45.5
t-52 30.5t-61 25t-52 35t-21.5 54q0 65 46 104q47 39 111 39q83 0 130 -68z" />
    <glyph glyph-name="Scaron" unicode="&#x160;" horiz-adv-x="507" 
d="M372 791l78 104h46l-116 -147h-30l-69 147h45zM519 609l-40 -31q-46 73 -132 73q-65 0 -112 -39q-45 -39 -45 -104q0 -74 99 -117q90 -38 123 -65q59 -47 58 -118q0 -97 -74 -159q-73 -61 -173 -61q-65 0 -112.5 32.5t-70.5 92.5l43 29q18 -48 59.5 -76.5t93.5 -28.5
q72 0 125 46q54 47 54 117q0 75 -99 118q-37 16 -50.5 22t-45.5 24.5t-46 34t-26.5 42t-12.5 57.5q0 93 65 147q64 55 160 55q107 0 159 -91z" />
    <glyph glyph-name="scaron" unicode="&#x161;" horiz-adv-x="378" 
d="M260 586l78 104h46l-116 -147h-30l-69 147h46zM372 404l-38 -31q-32 54 -99 54q-41 0 -69.5 -23.5t-28.5 -61.5q0 -47 105 -79q43 -13 74 -42.5t31 -69.5q0 -73 -53 -117t-126 -44q-52 0 -93 23.5t-59 67.5l40 31q16 -35 48 -54t72 -19q49 0 83 27.5t34 72.5
q0 27 -21.5 45.5t-52 30.5t-61 25t-52 35t-21.5 54q0 65 46 104q47 39 111 39q83 0 130 -68z" />
    <glyph glyph-name="Tcommaaccent" unicode="&#x162;" horiz-adv-x="469" 
d="M90 639l8 51h447l-8 -51h-197l-101 -639h-54l102 639h-197zM253 -50l-78 -140h-40l58 140h60z" />
    <glyph glyph-name="tcommaaccent" unicode="&#x163;" horiz-adv-x="271" 
d="M202 532l-11 -69h113l-8 -49h-113l-37 -239q-9 -54 -9 -73q0 -63 51 -63q28 0 51 13l-3 -47q-26 -15 -70 -15q-41 0 -62.5 24t-21.5 67q0 41 9 103q8 53 23 136l17 94h-67l7 49h68l12 76q3 23 3 38l-3 33h52q3 -10 3 -32q0 -25 -4 -46zM194 -50l-78 -140h-40l58 140h60z
" />
    <glyph glyph-name="Tcaron" unicode="&#x164;" horiz-adv-x="469" 
d="M333 813l79 103h45l-115 -145h-30l-70 145h46zM90 639l8 51h447l-8 -51h-197l-101 -639h-54l102 639h-197z" />
    <glyph glyph-name="tcaron" unicode="&#x165;" horiz-adv-x="271" 
d="M202 532l-11 -69h113l-8 -49h-113l-37 -239q-9 -54 -9 -73q0 -63 51 -63q28 0 51 13l-3 -47q-26 -15 -70 -15q-41 0 -62.5 24t-21.5 67q0 41 9 103q8 53 23 136l17 94h-67l7 49h68l12 76q3 23 3 38l-3 33h52q3 -10 3 -32q0 -25 -4 -46zM270 499l88 190h60l-108 -190h-40z
" />
    <glyph glyph-name="Tbar" unicode="&#x166;" horiz-adv-x="469" 
d="M90 639l8 51h447l-8 -51h-197l-28 -175h114l-6 -40h-114l-67 -424h-54l67 424h-112l6 40h113l28 175h-197z" />
    <glyph glyph-name="tbar" unicode="&#x167;" horiz-adv-x="271" 
d="M202 532l-11 -69h113l-8 -49h-113l-15 -94h107l-6 -40h-107l-16 -103q-9 -59 -9 -75q0 -63 51 -63q28 0 51 13l-3 -47q-26 -15 -70 -15q-41 0 -62.5 24t-21.5 67q0 59 24 199h-57l6 40h59q15 81 17 94h-67l7 49h68l12 76q3 23 3 38l-3 33h52q3 -10 3 -32q0 -25 -4 -46z
" />
    <glyph glyph-name="Utilde" unicode="&#x168;" horiz-adv-x="630" 
d="M521 293l63 397h53l-65 -412q-19 -128 -79 -206q-66 -84 -203 -84q-91 0 -146 50t-55 138q0 38 11 102l65 412h54l-63 -397q-11 -79 -11 -103q0 -71 40.5 -110.5t112.5 -39.5q114 0 163 78q43 66 60 175zM519 889l31 -10q-9 -33 -33 -55.5t-55 -22.5q-28 0 -63 23t-52 23
q-15 0 -28 -11.5t-18 -29.5l-32 10q9 33 33.5 55t54.5 22q28 0 63 -23t52 -23q15 0 28.5 12t18.5 30z" />
    <glyph glyph-name="utilde" unicode="&#x169;" horiz-adv-x="492" 
d="M160 389l-33 -209q-5 -32 -5 -52q0 -91 92 -91q70 0 110 52q42 53 54 126l39 250h53l-63 -395q-2 -18 -2 -37l3 -33h-53q-3 10 -3 32q0 25 3 40q-58 -82 -156 -82q-129 0 -129 131q0 23 6 67l33 206q3 22 3 38l-3 33h52q3 -11 3 -32q0 -23 -4 -44zM408 663l31 -10
q-9 -33 -33 -55.5t-55 -22.5q-28 0 -63 23t-52 23q-15 0 -28 -11.5t-18 -29.5l-32 10q9 33 33.5 55t54.5 22q28 0 63 -23t52 -23q15 0 28.5 12t18.5 30z" />
    <glyph glyph-name="Umacron" unicode="&#x16a;" horiz-adv-x="630" 
d="M521 293l63 397h53l-65 -412q-19 -128 -79 -206q-66 -84 -203 -84q-91 0 -146 50t-55 138q0 38 11 102l65 412h54l-63 -397q-11 -79 -11 -103q0 -71 40.5 -110.5t112.5 -39.5q114 0 163 78q43 66 60 175zM297 796l6 40h213l-6 -40h-213z" />
    <glyph glyph-name="umacron" unicode="&#x16b;" horiz-adv-x="492" 
d="M160 389l-33 -209q-5 -32 -5 -52q0 -91 92 -91q70 0 110 52q42 53 54 126l39 250h53l-63 -395q-2 -18 -2 -37l3 -33h-53q-3 10 -3 32q0 25 3 40q-58 -82 -156 -82q-129 0 -129 131q0 23 6 67l33 206q3 22 3 38l-3 33h52q3 -11 3 -32q0 -23 -4 -44zM188 570l6 40h213
l-6 -40h-213z" />
    <glyph glyph-name="Ubreve" unicode="&#x16c;" horiz-adv-x="630" 
d="M521 293l63 397h53l-65 -412q-19 -128 -79 -206q-66 -84 -203 -84q-91 0 -146 50t-55 138q0 38 11 102l65 412h54l-63 -397q-11 -79 -11 -103q0 -71 40.5 -110.5t112.5 -39.5q114 0 163 78q43 66 60 175zM516 901h35q-16 -55 -54.5 -85t-94.5 -30q-55 0 -84.5 30
t-27.5 85h35q3 -69 84 -69q83 0 107 69z" />
    <glyph glyph-name="ubreve" unicode="&#x16d;" horiz-adv-x="492" 
d="M160 389l-33 -209q-5 -32 -5 -52q0 -91 92 -91q70 0 110 52q42 53 54 126l39 250h53l-63 -395q-2 -18 -2 -37l3 -33h-53q-3 10 -3 32q0 25 3 40q-58 -82 -156 -82q-129 0 -129 131q0 23 6 67l33 206q3 22 3 38l-3 33h52q3 -11 3 -32q0 -23 -4 -44zM395 675h35
q-16 -55 -54.5 -85t-94.5 -30q-55 0 -84.5 30t-27.5 85h35q3 -69 84 -69q83 0 107 69z" />
    <glyph glyph-name="Uring" unicode="&#x16e;" horiz-adv-x="630" 
d="M521 293l63 397h53l-65 -412q-19 -128 -79 -206q-66 -84 -203 -84q-91 0 -146 50t-55 138q0 38 11 102l65 412h54l-63 -397q-11 -79 -11 -103q0 -71 40.5 -110.5t112.5 -39.5q114 0 163 78q43 66 60 175zM501 873q0 -42 -31 -73q-32 -32 -72 -32q-32 0 -53 22t-21 54
q0 42 31 73q32 32 72 32q32 0 53 -22t21 -54zM463 868q0 18 -12 31t-30 13q-24 0 -41.5 -19.5t-17.5 -43.5q0 -18 12 -31t30 -13q24 0 41.5 19t17.5 44z" />
    <glyph glyph-name="uring" unicode="&#x16f;" horiz-adv-x="492" 
d="M160 389l-33 -209q-5 -32 -5 -52q0 -91 92 -91q70 0 110 52q42 53 54 126l39 250h53l-63 -395q-2 -18 -2 -37l3 -33h-53q-3 10 -3 32q0 25 3 40q-58 -82 -156 -82q-129 0 -129 131q0 23 6 67l33 206q3 22 3 38l-3 33h52q3 -11 3 -32q0 -23 -4 -44zM391 647q0 -42 -31 -73
q-32 -32 -72 -32q-32 0 -53 22t-21 54q0 42 31 73q32 32 72 32q32 0 53 -22t21 -54zM353 642q0 18 -12 31t-30 13q-24 0 -41.5 -19.5t-17.5 -43.5q0 -18 12 -31t30 -13q24 0 41.5 19t17.5 44z" />
    <glyph glyph-name="Uhungarumlaut" unicode="&#x170;" horiz-adv-x="630" 
d="M521 293l63 397h53l-65 -412q-19 -128 -79 -206q-66 -84 -203 -84q-91 0 -146 50t-55 138q0 38 11 102l65 412h54l-63 -397q-11 -79 -11 -103q0 -71 40.5 -110.5t112.5 -39.5q114 0 163 78q43 66 60 175zM403 771l115 145h65l-135 -145h-45zM297 771l116 145h65
l-135 -145h-46z" />
    <glyph glyph-name="uhungarumlaut" unicode="&#x171;" horiz-adv-x="492" 
d="M160 389l-33 -209q-5 -32 -5 -52q0 -91 92 -91q70 0 110 52q42 53 54 126l39 250h53l-63 -395q-2 -18 -2 -37l3 -33h-53q-3 10 -3 32q0 25 3 40q-58 -82 -156 -82q-129 0 -129 131q0 23 6 67l33 206q3 22 3 38l-3 33h52q3 -11 3 -32q0 -23 -4 -44zM300 545l115 145h65
l-135 -145h-45zM194 545l116 145h65l-135 -145h-46z" />
    <glyph glyph-name="Uogonek" unicode="&#x172;" horiz-adv-x="630" 
d="M370 -139l9 -27q-44 -40 -99 -40q-36 0 -57.5 20t-21.5 53q0 63 74 122q-85 4 -135.5 53t-50.5 134q0 38 11 102l65 412h54l-63 -397q-11 -79 -11 -103q0 -71 40.5 -110.5t112.5 -39.5q114 0 163 78q43 66 60 175l63 397h53l-65 -412q-21 -127 -77 -203q-55 -74 -170 -85
q-75 -56 -75 -109q0 -20 13.5 -31.5t35.5 -11.5q33 0 71 23z" />
    <glyph glyph-name="uogonek" unicode="&#x173;" horiz-adv-x="492" 
d="M427 -140l9 -27q-44 -40 -99 -40q-36 0 -57.5 20t-21.5 53q0 72 96 137q-2 10 -2 29q0 25 3 40q-58 -82 -156 -82q-129 0 -129 131q0 23 6 67l33 206q3 22 3 38l-3 33h52q3 -11 3 -32q0 -23 -4 -44l-33 -209q-5 -32 -5 -52q0 -91 92 -91q70 0 110 52q42 53 54 126l39 250
h53l-63 -395q-2 -18 -2 -37l3 -33q-37 -13 -69 -50q-32 -38 -32 -70q0 -20 13.5 -31.5t35.5 -11.5q33 0 71 23z" />
    <glyph glyph-name="Wcircumflex" unicode="&#x174;" horiz-adv-x="875" 
d="M635 97l259 593h57l-304 -691h-49l-87 609l-279 -609h-49l-85 691h57l71 -593l270 593h57zM538 916h30l69 -145h-45l-46 103l-78 -103h-46z" />
    <glyph glyph-name="wcircumflex" unicode="&#x175;" horiz-adv-x="698" 
d="M496 79l181 385h55l-223 -464h-45l-77 386l-200 -386h-44l-76 464h54l59 -385l199 386h40zM414 690h30l69 -145h-45l-46 103l-78 -103h-46z" />
    <glyph glyph-name="Ycircumflex" unicode="&#x176;" horiz-adv-x="528" 
d="M297 347l250 343h62l-294 -395l-47 -295h-53l46 295l-169 395h63zM359 916h30l69 -145h-45l-46 103l-78 -103h-46z" />
    <glyph glyph-name="ycircumflex" unicode="&#x177;" horiz-adv-x="422" 
d="M201 63l217 401h55l-316 -574q-45 -85 -112 -85q-39 0 -58 15l18 50q19 -10 45 -10q45 0 70 55l45 92l-108 457h55zM270 690h30l69 -145h-45l-46 103l-78 -103h-46z" />
    <glyph glyph-name="Ydieresis" unicode="&#x178;" horiz-adv-x="528" 
d="M480 835q0 -21 -14.5 -37.5t-35.5 -16.5q-16 0 -25.5 10.5t-9.5 26.5q0 21 14.5 37.5t35.5 16.5q16 0 25.5 -10.5t9.5 -26.5zM350 835q0 -21 -14.5 -37.5t-35.5 -16.5q-16 0 -25.5 10.5t-9.5 26.5q0 21 14.5 37.5t35.5 16.5q16 0 25.5 -10.5t9.5 -26.5zM297 347l250 343
h62l-294 -395l-47 -295h-53l46 295l-169 395h63z" />
    <glyph glyph-name="Zacute" unicode="&#x179;" horiz-adv-x="519" 
d="M120 639l8 51h447l-6 -37l-488 -602h398l-8 -51h-463l7 46l480 593h-375zM291 771l116 145h64l-134 -145h-46z" />
    <glyph glyph-name="zacute" unicode="&#x17a;" horiz-adv-x="417" 
d="M83 413l8 49h338l-7 -38l-343 -375h299l-8 -49h-367l6 39l344 374h-270zM208 545l116 145h64l-134 -145h-46z" />
    <glyph glyph-name="Zdotaccent" unicode="&#x17b;" horiz-adv-x="519" 
d="M120 639l8 51h447l-6 -37l-488 -602h398l-8 -51h-463l7 46l480 593h-375zM406 852q0 -21 -15 -36.5t-36 -15.5q-16 0 -26.5 10t-10.5 26q0 21 15.5 36.5t35.5 15.5q16 0 26.5 -10t10.5 -26z" />
    <glyph glyph-name="zdotaccent" unicode="&#x17c;" horiz-adv-x="417" 
d="M83 413l8 49h338l-7 -38l-343 -375h299l-8 -49h-367l6 39l344 374h-270zM323 626q0 -21 -15 -36.5t-36 -15.5q-16 0 -26.5 10t-10.5 26q0 21 15.5 36.5t35.5 15.5q16 0 26.5 -10t10.5 -26z" />
    <glyph glyph-name="Zcaron" unicode="&#x17d;" horiz-adv-x="519" 
d="M367 791l79 104h45l-115 -147h-30l-70 147h46zM120 640l8 50h447l-6 -37l-488 -602h398l-8 -51h-463l7 46l480 594h-375z" />
    <glyph glyph-name="zcaron" unicode="&#x17e;" horiz-adv-x="417" 
d="M279 586l79 104h45l-116 -147h-29l-70 147h46zM83 414l8 49h338l-6 -39l-344 -375h299l-8 -49h-367l6 39l344 375h-270z" />
    <glyph glyph-name="florin" unicode="&#x192;" 
d="M579 682l-27 -44q-24 18 -55 18q-29 0 -54 -25q-8 -8 -17 -27l-12 -27l-10 -30l-49 -144h110l-15 -48h-112l-110 -325q-25 -73 -60 -110.5t-91 -37.5q-45 0 -72 24l27 44q22 -16 53 -16q21 0 37 8.5t27.5 28t17 32t14.5 38.5l3 10l102 304h-88l15 48h89l62 176
q19 56 55.5 91t84.5 35q49 0 75 -23z" />
    <glyph glyph-name="AEacute" unicode="&#x1fc;" horiz-adv-x="793" 
d="M-46 0l509 690h360l-8 -51h-283l-38 -242h265l-8 -51h-265l-47 -295h289l-8 -51h-343l34 209h-246l-151 -209h-60zM203 261h216l60 380h-1zM604 771l116 145h64l-134 -145h-46z" />
    <glyph glyph-name="aeacute" unicode="&#x1fd;" horiz-adv-x="775" 
d="M399 220q-3 -20 -3 -38q0 -68 35 -106.5t99 -38.5q54 0 99 20t62 37l4 3l18 -37q-10 -10 -32 -24q-68 -46 -164 -46q-119 0 -161 107q-48 -56 -95 -81.5t-105 -25.5q-56 0 -92.5 32t-36.5 85q0 98 81 136q70 33 164 33q38 0 80 -5q6 35 6 55q0 47 -29 73.5t-78 26.5
q-33 0 -72.5 -11.5t-65.5 -29.5l-14 40q77 47 157 47q49 0 96 -26q48 -26 52 -73q37 47 88.5 73t108.5 26q66 0 105.5 -33t39.5 -82q0 -62 -66 -102.5t-186 -40.5q-42 0 -95 6zM173 37q47 0 96 28q51 29 76 75q-4 17 -4 47q0 7 2 41q-47 6 -82 6q-181 0 -181 -119
q0 -37 26 -57.5t67 -20.5zM408 265q45 -5 89 -5q85 0 139 25q57 25 57 74q0 28 -29.5 48t-73.5 20q-73 0 -122 -52q-48 -51 -60 -110zM387 545l116 145h64l-134 -145h-46z" />
    <glyph glyph-name="Oslashacute" unicode="&#x1fe;" horiz-adv-x="761" 
d="M679 615l94 85l27 -33l-94 -85q48 -74 48 -170q0 -174 -114 -299t-285 -125q-130 0 -211 84l-91 -82l-27 33l91 83q-48 70 -48 170q0 174 113 299q114 125 286 125q130 0 211 -85zM162 147l475 431q-66 72 -177 72q-96 0 -173 -52q-77 -51 -119 -134.5t-42 -178.5
q0 -81 36 -138zM697 406q0 79 -34 137l-475 -431q68 -71 175 -71q96 0 173 52q77 51 119 134.5t42 178.5zM414 771l116 145h64l-134 -145h-46z" />
    <glyph glyph-name="oslashacute" unicode="&#x1ff;" horiz-adv-x="538" 
d="M461 417l70 63l25 -31l-71 -64q30 -47 30 -112q0 -116 -78 -200q-77 -83 -192 -83q-88 0 -140 55l-70 -63l-25 31l70 63q-30 46 -30 111q0 116 78 200q78 85 193 85q85 0 140 -55zM123 115l298 267q-39 43 -107 43q-91 0 -149 -70q-59 -71 -59 -161q0 -43 17 -79z
M461 271q0 42 -17 78l-298 -267q39 -43 107 -43q90 0 148 70q60 71 60 162zM248 545l116 145h64l-134 -145h-46z" />
    <glyph glyph-name="dotlessj" unicode="&#x237;" horiz-adv-x="206" 
d="M138 456l4 9h52q-15 -27 -23 -72l-64 -402q-12 -76 -41 -127q-36 -64 -115 -64q-29 0 -43 8l7 47q18 -8 43 -8q39 0 64 33q8 10 16 36q9 29 10 36l6 39l63 396q9 49 21 69z" />
    <glyph glyph-name="circumflex" unicode="&#x2c6;" horiz-adv-x="271" 
d="M209 690h30l69 -145h-45l-46 103l-78 -103h-46z" />
    <glyph glyph-name="caron" unicode="&#x2c7;" horiz-adv-x="271" 
d="M207 587l79 103h45l-115 -145h-30l-70 145h46z" />
    <glyph glyph-name="breve" unicode="&#x2d8;" horiz-adv-x="271" 
d="M319 675h35q-16 -55 -54.5 -85t-94.5 -30q-55 0 -84.5 30t-27.5 85h35q3 -69 84 -69q83 0 107 69z" />
    <glyph glyph-name="dotaccent" unicode="&#x2d9;" horiz-adv-x="271" 
d="M256 626q0 -21 -15 -36.5t-36 -15.5q-16 0 -26.5 10t-10.5 26q0 21 15.5 36.5t35.5 15.5q16 0 26.5 -10t10.5 -26z" />
    <glyph glyph-name="ring" unicode="&#x2da;" horiz-adv-x="271" 
d="M303 647q0 -42 -31 -73q-32 -32 -72 -32q-32 0 -53 22t-21 54q0 42 31 73q32 32 72 32q32 0 53 -22t21 -54zM265 642q0 18 -12 31t-30 13q-24 0 -41.5 -19.5t-17.5 -43.5q0 -18 12 -31t30 -13q24 0 41.5 19t17.5 44z" />
    <glyph glyph-name="ogonek" unicode="&#x2db;" horiz-adv-x="271" 
d="M171 -143l9 -27q-44 -40 -99 -40q-36 0 -57.5 20t-21.5 53q0 75 103 142h42l-1 -7q-32 -18 -65 -54q-30 -34 -30 -67q0 -20 13.5 -31.5t35.5 -11.5q33 0 71 23z" />
    <glyph glyph-name="tilde" unicode="&#x2dc;" horiz-adv-x="271" 
d="M322 663l31 -10q-9 -33 -33 -55.5t-55 -22.5q-28 0 -63 23t-52 23q-15 0 -28 -11.5t-18 -29.5l-32 10q9 33 33.5 55t54.5 22q28 0 63 -23t52 -23q15 0 28.5 12t18.5 30z" />
    <glyph glyph-name="hungarumlaut" unicode="&#x2dd;" horiz-adv-x="271" 
d="M175 545l115 145h65l-135 -145h-45zM69 545l116 145h65l-135 -145h-46z" />
    <glyph glyph-name="Wgrave" unicode="&#x1e80;" horiz-adv-x="875" 
d="M635 97l259 593h57l-304 -691h-49l-87 609l-279 -609h-49l-85 691h57l71 -593l270 593h57zM411 916h65l69 -145h-45z" />
    <glyph glyph-name="wgrave" unicode="&#x1e81;" horiz-adv-x="698" 
d="M496 79l181 385h55l-223 -464h-45l-77 386l-200 -386h-44l-76 464h54l59 -385l199 386h40zM287 690h65l69 -145h-45z" />
    <glyph glyph-name="Wacute" unicode="&#x1e82;" horiz-adv-x="875" 
d="M635 97l259 593h57l-304 -691h-49l-87 609l-279 -609h-49l-85 691h57l71 -593l270 593h57zM477 771l116 145h64l-134 -145h-46z" />
    <glyph glyph-name="wacute" unicode="&#x1e83;" horiz-adv-x="698" 
d="M496 79l181 385h55l-223 -464h-45l-77 386l-200 -386h-44l-76 464h54l59 -385l199 386h40zM351 545l116 145h64l-134 -145h-46z" />
    <glyph glyph-name="Wdieresis" unicode="&#x1e84;" horiz-adv-x="875" 
d="M635 97l259 593h57l-304 -691h-49l-87 609l-279 -609h-49l-85 691h57l71 -593l270 593h57zM640 852q0 -21 -14.5 -37.5t-34.5 -16.5q-16 0 -25.5 10.5t-9.5 26.5q0 21 14.5 37t34.5 16q16 0 25.5 -10t9.5 -26zM511 852q0 -21 -14.5 -37.5t-35.5 -16.5q-16 0 -25.5 10.5
t-9.5 26.5q0 21 14.5 37t35.5 16q16 0 25.5 -10t9.5 -26z" />
    <glyph glyph-name="wdieresis" unicode="&#x1e85;" horiz-adv-x="698" 
d="M496 79l181 385h55l-223 -464h-45l-77 386l-200 -386h-44l-76 464h54l59 -385l199 386h40zM520 626q0 -21 -14.5 -37.5t-34.5 -16.5q-16 0 -25.5 10.5t-9.5 26.5q0 21 14.5 37t34.5 16q16 0 25.5 -10t9.5 -26zM391 626q0 -21 -14.5 -37.5t-35.5 -16.5q-16 0 -25.5 10.5
t-9.5 26.5q0 21 14.5 37t35.5 16q16 0 25.5 -10t9.5 -26z" />
    <glyph glyph-name="Ygrave" unicode="&#x1ef2;" horiz-adv-x="528" 
d="M297 347l250 343h62l-294 -395l-47 -295h-53l46 295l-169 395h63zM251 916h65l69 -145h-45z" />
    <glyph glyph-name="ygrave" unicode="&#x1ef3;" horiz-adv-x="422" 
d="M201 63l217 401h55l-316 -574q-45 -85 -112 -85q-39 0 -58 15l18 50q19 -10 45 -10q45 0 70 55l45 92l-108 457h55zM172 690h65l69 -145h-45z" />
    <glyph glyph-name="endash" unicode="&#x2013;" horiz-adv-x="436" 
d="M19 255l8 45h433l-7 -45h-434z" />
    <glyph glyph-name="emdash" unicode="&#x2014;" horiz-adv-x="776" 
d="M19 255l8 45h769l-7 -45h-770z" />
    <glyph glyph-name="quoteleft" unicode="&#x2018;" horiz-adv-x="276" 
d="M139 500l108 190h40l-88 -190h-60z" />
    <glyph glyph-name="quoteright" unicode="&#x2019;" horiz-adv-x="276" 
d="M135 500l88 190h60l-108 -190h-40z" />
    <glyph glyph-name="quotesinglbase" unicode="&#x201a;" horiz-adv-x="276" 
d="M37 -115l89 190h59l-107 -190h-41z" />
    <glyph glyph-name="quotedblleft" unicode="&#x201c;" horiz-adv-x="422" 
d="M283 500l108 190h40l-88 -190h-60zM139 500l108 190h40l-88 -190h-60z" />
    <glyph glyph-name="quotedblright" unicode="&#x201d;" horiz-adv-x="422" 
d="M279 500l88 190h60l-108 -190h-40zM135 500l88 190h60l-108 -190h-40z" />
    <glyph glyph-name="quotedblbase" unicode="&#x201e;" horiz-adv-x="422" 
d="M181 -115l89 190h59l-107 -190h-41zM37 -115l89 190h59l-107 -190h-41z" />
    <glyph glyph-name="dagger" unicode="&#x2020;" 
d="M389 725l-42 -262h183l-8 -49h-183l-95 -604h-50l95 604h-182l8 49h182l42 262h50z" />
    <glyph glyph-name="daggerdbl" unicode="&#x2021;" 
d="M389 725l-42 -262h183l-8 -49h-183l-46 -293h182l-7 -49h-183l-41 -262h-50l41 262h-182l8 49h182l46 293h-182l8 49h182l42 262h50z" />
    <glyph glyph-name="bullet" unicode="&#x2022;" horiz-adv-x="500" 
d="M328 463q42 -42 42 -98t-42 -98t-98 -42t-98 42t-42 98t42 98t98 42t98 -42z" />
    <glyph glyph-name="ellipsis" unicode="&#x2026;" horiz-adv-x="897" 
d="M760 45q0 -21 -15 -36.5t-36 -15.5q-16 0 -26.5 11t-10.5 27q0 20 15.5 36t35.5 16q16 0 26.5 -10.5t10.5 -27.5zM474 45q0 -20 -15.5 -36t-35.5 -16q-16 0 -26.5 11t-10.5 27q0 20 15.5 36t35.5 16q16 0 26.5 -10.5t10.5 -27.5zM188 45q0 -20 -15.5 -36t-35.5 -16
q-16 0 -26.5 10.5t-10.5 27.5q0 21 15 36.5t36 15.5q16 0 26.5 -11t10.5 -27z" />
    <glyph glyph-name="perthousand" unicode="&#x2030;" horiz-adv-x="1037" 
d="M991 178q0 -77 -49 -132q-50 -56 -126 -56q-57 0 -91 35.5t-34 92.5q0 77 49 132q50 56 126 56q57 0 91 -35.5t34 -92.5zM404 565q0 -78 -49 -133q-48 -56 -126 -56q-57 0 -91 35.5t-34 92.5q0 77 49 132q49 57 126 57q57 0 91 -35.5t34 -92.5zM104 1l520 704l34 -23
l-520 -705zM657 178q0 -77 -49 -132q-50 -56 -126 -56q-56 0 -90 35.5t-34 92.5q0 76 48 132q50 56 126 56q57 0 91 -35.5t34 -92.5zM943 172q0 40 -22.5 65t-61.5 25q-51 0 -86 -42q-34 -41 -34 -96q0 -40 22.5 -65t61.5 -25q51 0 86 42q34 41 34 96zM356 558
q0 40 -22.5 65t-61.5 25q-52 0 -87 -42q-33 -42 -33 -96q0 -40 23 -64.5t61 -24.5q53 0 86 41q34 41 34 96zM609 172q0 40 -22.5 65t-61.5 25q-51 0 -86 -42q-33 -42 -33 -96q0 -40 22.5 -65t60.5 -25q53 0 86 42q34 41 34 96z" />
    <glyph glyph-name="guilsinglleft" unicode="&#x2039;" horiz-adv-x="276" 
d="M64 232l166 186l31 -29l-139 -157l90 -158l-41 -28z" />
    <glyph glyph-name="guilsinglright" unicode="&#x203a;" horiz-adv-x="276" 
d="M95 390l41 28l108 -186l-167 -186l-31 29l139 157z" />
    <glyph glyph-name="fraction" unicode="&#x2044;" horiz-adv-x="144" 
d="M-186 -2l555 759l35 -24l-555 -759z" />
    <glyph glyph-name="Euro" unicode="&#x20ac;" 
d="M572 609l-38 -34q-43 76 -132 76q-52 0 -96 -36q-75 -61 -109 -179h275l-7 -49h-280q-7 -36 -12 -76h280l-8 -48h-276v-19q-1 -46 10 -93q12 -46 46 -77.5t83 -31.5q94 0 157 80l30 -31q-30 -47 -83.5 -75t-111.5 -28q-54 0 -93.5 24.5t-59.5 66t-28.5 87.5t-6.5 97h-67
l7 48h64q5 40 12 76h-64l8 49h67q32 107 101 185q70 79 170 79q61 0 98.5 -20.5t63.5 -70.5z" />
    <glyph glyph-name="trademark" unicode="&#x2122;" horiz-adv-x="825" 
d="M647 690h70l33 -390h-50l-25 325h-3l-112 -325h-38l-112 325h-3l-25 -325h-50l33 390h70l105 -310h2zM30 690h280v-45h-115v-345h-50v345h-115v45z" />
    <glyph glyph-name="product" unicode="&#x220f;" horiz-adv-x="809" 
d="M783 278l-8 -45h-95q-38 -77 -108 -138q-113 -95 -267 -95h-190l36 233h-85l8 45h85l22 139h-85l7 45h85l36 228h190q79 0 140 -26.5t97 -68.5q49 -59 64 -133h97l-7 -45h-84q0 -35 -5 -72q-7 -42 -16 -67h83zM621 233h-416l-29 -184h131q131 0 222 73q58 47 92 111z
M270 641l-28 -179h414q-16 63 -57 105q-68 74 -198 74h-131zM664 417h-429l-22 -139h430q9 22 17 67q6 34 4 72z" />
    <glyph glyph-name="minus" unicode="&#x2212;" horiz-adv-x="645" 
d="M50 367h505v-45h-505v45z" />
    <glyph glyph-name="approxequal" unicode="&#x2248;" horiz-adv-x="868" 
d="M464 380l13 84h53l-11 -66q77 74 175 74q66 0 105.5 -33t39.5 -82q0 -62 -66 -102.5t-186 -40.5q-43 0 -95 6q-3 -20 -3 -38q0 -68 35 -106.5t99 -38.5q54 0 99 20t62 37l4 3l18 -37q-10 -10 -32 -24q-68 -46 -164 -46q-98 0 -144 73q-1 -4 -1 -30l3 -33h-53q-3 10 -3 32
q0 18 3 39l2 11h-1q-72 -93 -178 -93q-89 0 -138.5 52.5t-49.5 142.5q0 118 74 203q73 85 188 85q104 0 151 -92h1zM446 274q0 68 -37 109.5t-102 41.5q-90 0 -146 -71q-55 -70 -55 -164q0 -68 37 -109.5t102 -41.5q89 0 145 71t56 164zM501 265q45 -5 89 -5q85 0 139 25
q57 25 57 74q0 28 -29.5 48t-73.5 20q-73 0 -122 -52q-48 -51 -60 -110z" />
    <glyph glyph-name="notequal" unicode="&#x2260;" horiz-adv-x="645" 
d="M311 290h244v-45h-255l-38 -155h-45l38 155h-205v45h216l27 110h-243v45h254l38 155h45l-38 -155h206v-45h-217z" />
    <glyph glyph-name="lessequal" unicode="&#x2264;" horiz-adv-x="984" 
d="M383 15q-19 -16 -42 -16t-37 16q-14 17 -10 40t23 39q19 17 42 17t37 -17q14 -16 10 -39t-23 -40zM227 170q4 23 23 39.5t42 16.5t37 -16.5t10 -39.5q-3 -23 -22 -39.5t-42 -16.5t-37 16.5t-11 39.5zM250 245q-19 -16 -42 -16t-37 16q-14 17 -10 40t23 39q19 17 42 17
t37 -17q14 -16 10 -39t-23 -40zM403 745q4 23 23 39.5t42 16.5t37 -16.5t10 -39.5q-3 -23 -22 -39.5t-42 -16.5t-37 16.5t-11 39.5zM389 590q-19 -16 -42 -16t-37 16q-14 17 -10 40t23 39q19 17 42 17t37 -17q14 -16 10 -39t-23 -40zM286 475q-19 -16 -42 -16t-37 16
q-14 17 -10 40t23 39q19 17 42 17t37 -17q14 -16 10 -39t-23 -40zM1008 360q-19 -16 -42 -16t-37 16q-14 17 -10 40t23 39q19 17 42 17t37 -17q14 -16 10 -39t-23 -40zM843 360q-19 -16 -42 -16t-37 16q-14 17 -10 40t23 39q19 17 42 17t37 -17q14 -16 10 -39t-23 -40z
M348 360q-19 -16 -42 -16t-37 16q-14 17 -10 40t23 39q19 17 42 17t37 -17q14 -16 10 -39t-23 -40zM183 360q-19 -16 -42 -16t-37 16q-14 17 -10 40t23 39q19 17 42 17t37 -17q14 -16 10 -39t-23 -40zM513 360q-19 -16 -42 -16t-37 16q-14 17 -10 40t23 39q19 17 42 17
t37 -17q14 -16 10 -39t-23 -40zM678 360q-19 -16 -42 -16t-37 16q-14 17 -10 40t23 39q19 17 42 17t37 -17q14 -16 10 -39t-23 -40z" />
    <glyph glyph-name="greaterequal" unicode="&#x2265;" horiz-adv-x="984" 
d="M466 360q-19 -16 -42 -16t-37 16q-14 17 -10 40t23 39q19 17 42 17t37 -17q14 -16 10 -39t-23 -40zM631 360q-19 -16 -42 -16t-37 16q-14 17 -10 40t23 39q19 17 42 17t37 -17q14 -16 10 -39t-23 -40zM961 360q-19 -16 -42 -16t-37 16q-14 17 -10 40t23 39q19 17 42 17
t37 -17q14 -16 10 -39t-23 -40zM796 360q-19 -16 -42 -16t-37 16q-14 17 -10 40t23 39q19 17 42 17t37 -17q14 -16 10 -39t-23 -40zM301 360q-19 -16 -42 -16t-37 16q-14 17 -10 40t23 39q19 17 42 17t37 -17q14 -16 10 -39t-23 -40zM136 360q-19 -16 -42 -16t-37 16
q-14 17 -10 40t23 39q19 17 42 17t37 -17q14 -16 10 -39t-23 -40zM894 475q-19 -16 -42 -16t-37 16q-14 17 -10 40t23 39q19 17 42 17t37 -17q14 -16 10 -39t-23 -40zM827 590q-19 -16 -42 -16t-37 16q-14 17 -10 40t23 39q19 17 42 17t37 -17q14 -16 10 -39t-23 -40z
M671 745q4 23 23 39.5t42 16.5t37 -16.5t10 -39.5q-3 -23 -22 -39.5t-42 -16.5t-37 16.5t-11 39.5zM858 245q-19 -16 -42 -16t-37 16q-14 17 -10 40t23 39q19 17 42 17t37 -17q14 -16 10 -39t-23 -40zM665 170q4 23 23 39.5t42 16.5t37 -16.5t10 -39.5q-3 -23 -22 -39.5
t-42 -16.5t-37 16.5t-11 39.5zM651 15q-19 -16 -42 -16t-37 16q-14 17 -10 40t23 39q19 17 42 17t37 -17q14 -16 10 -39t-23 -40z" />
    <glyph glyph-name="commaaccent" unicode="&#xf6c3;" horiz-adv-x="285" 
d="M157 -50l-78 -140h-40l58 140h60z" />
    <glyph glyph-name="apple" unicode="&#xf8ff;" horiz-adv-x="1439" 
d="M609 -62h-7q25 21 25 45q0 35 -29 41q5 -33 5 -52q0 -36 -30.5 -57t-73.5 -21q-27 0 -47 15t-20 39q0 21 14 31.5t32 10.5q10 0 13 -1q13 26 45 40v3q-3 8 -3 23q-20 -41 -55 -41q-19 0 -32 20.5t-13 50.5q0 21 18 66q18 47 18 60q0 23 -9 23q-10 0 -21 -11.5t-12 -18.5
q0 -35 -34 -53q0 -142 -116 -142q-35 0 -57.5 16.5t-22.5 48.5q0 22 12.5 38.5t30.5 16.5q25 0 25 -29q0 -22 -11.5 -38t-29.5 -16q-2 0 -8.5 2.5t-7.5 2.5q3 -12 13 -20.5t20 -8.5q33 0 51 43q16 41 26 86q-22 9 -35 31q-9 -3 -14 -3q-56 0 -56 58q0 45 32 80q31 36 77 36
q37 0 63 -13q29 -12 36 -12q2 0 16 2v-4q-56 -14 -92 -63q-2 19 -16 30.5t-34 11.5q-29 0 -51.5 -24.5t-22.5 -54.5q0 -42 45 -42q8 0 14 3q-5 12 -5 28q0 20 10 34t22 14q17 0 17 -20q0 -35 -36 -57q7 -17 31 -28q16 67 47 105q38 43 70 47v-5q-47 -23 -47 -109l2 -38
q32 17 32 46q0 24 -12 38v1q13 -6 15 -30q17 32 49 32q22 0 34.5 -21t12.5 -53q0 -11 -18 -57q-17 -48 -17 -67q0 -17 9 -17q25 0 39 57q10 38 13 52l12 57l10 47q18 -8 26 -8q12 0 34 16q0 -3 -13 -57q-22 -102 -22 -137v-7l1 -14q37 -7 37 -50q0 -28 -24 -48zM1341 115
l32 -25l-113 -22l8 -40l-70 56q-26 -59 -64 -98q15 -7 41 -7q53 0 73 41h2q-4 -22 -25 -36.5t-46 -14.5q-26 0 -53 10q-57 -59 -113 -59q-58 0 -58 95q-1 -1 -6 -1q-32 0 -54 29.5t-22 79.5q0 34 41 78t86 44q40 0 40 -52q0 -33 -33 -59q-30 -24 -68 -29q-10 -47 -10 -66
q0 -17 20 -17q5 0 6 1v1q0 32 19 63q20 33 48 33q13 0 13 -20q0 -24 -24 -53q-22 -28 -49 -31q0 -87 56 -87q44 0 98 54q-63 30 -63 96q0 26 15 47.5t38 26.5v-3q-22 -6 -34.5 -26.5t-12.5 -47.5q0 -58 64 -86q43 50 60 102l-90 27l39 16l-52 107l42 -13l-9 63l41 -45l24 35
l24 -78l34 107l17 -28l62 37v-71h38l-82 -81l81 23l-13 -42l61 -6zM771 -4h6v-4q-9 0 -15.5 -5t-6.5 -13q0 -9 6.5 -15t15.5 -6q29 0 50 30t21 59q0 16 -11 35q-30 -63 -70 -63q-30 0 -30 42q0 25 13.5 42t30.5 20q11 74 11 109q0 8 -9 8q-5 0 -12.5 -6t-14.5 -21t-7 -35
q0 -18 -23 -138q-22 -116 -27 -130q-18 8 -26 8q-10 0 -33 -16l17 90q16 83 27 151q13 69 13 84q0 37 -40 59q-39 25 -39 118q0 27 18 86q19 58 19 89q0 17 -7 17q-10 0 -24.5 -17.5t-23.5 -42.5q-2 -15 -15.5 -87.5t-14.5 -74.5q-18 9 -26 9q-18 0 -31 -10l11 61
q22 125 22 147q0 14 -7 14q-13 0 -30 -42h-8q5 16 9.5 25.5t15.5 18t26 8.5q40 0 47 -45q1 1 6 9t7 11t7.5 9.5t10 9t10.5 5t13 2.5q22 0 36 -26.5t14 -64.5q0 -39 -20 -99t-20 -87q0 -53 37 -63q16 -3 29 -17t17 -37q23 38 46 38q26 0 43 -35q17 -36 17 -64q0 -32 -13 -61
q15 -23 15 -46q0 -37 -21 -65t-53 -28q-13 0 -22 8t-9 20q0 9 6.5 15.5t15.5 6.5zM151 257h-4l3 3q10 0 21.5 9t11.5 20v5q-17 -7 -39 -7q-24 0 -46 9t-22 25q0 11 13 17.5t28 6.5q18 0 40 -11.5t31 -26.5q35 15 35 46q0 18 -8 28q-26 -16 -56 -16q-48 0 -78 33t-30 89
q0 16 10 43q-26 20 -26 58q0 37 23 69q24 33 57 33h7l6 -1v-5h-9q-33 0 -55 -30q-23 -31 -23 -65q0 -33 24 -50q27 62 79 121q52 60 86 60q31 0 31 -53q0 -43 -36 -83q-35 -40 -81 -56v-1q-1 -1 -1 -2q-22 -88 -22 -116q0 -15 9 -24.5t16 -11.5t12 -2q24 0 49 18
q-13 10 -34 10q-22 0 -28 -6v3q9 9 25 9q26 0 42 -12q42 37 42 91q0 44 -28 44q-26 0 -43.5 -23t-17.5 -51q0 -30 18 -30q13 0 22 16.5t9 35.5q0 2 -2 12h6q2 -6 2 -12q0 -20 -11.5 -39t-25.5 -19q-24 0 -24 38q0 28 19 53.5t45 25.5q21 0 33.5 -18t12.5 -45q0 -52 -48 -87
q12 -12 12 -34q0 -37 -43 -55q1 -1 1 -4q0 -14 -12.5 -24.5t-27.5 -10.5zM1157 457h9q-23 -86 -61 -86q-18 0 -32 13t-18 36q-15 -29 -26 -39.5t-26 -10.5q-27 0 -42 34q-14 36 -14 67q0 36 37 82q38 48 68 48q17 0 24 -19q4 22 9.5 49t8.5 43l4 17q15 -9 26 -8t35 16
q-55 -288 -55 -304q0 -13 7 -13q13 0 26 25q14 27 20 50zM929 424h7q-14 -53 -45 -53q-37 0 -48 48q-25 -49 -51 -49q-27 0 -42 34t-15 67q0 36 37 82q38 48 68 48q18 0 26 -23l5 20q18 -7 27 -7q8 0 33 15q-38 -198 -38 -211t6 -13q13 0 30 42zM1373 424h8q-15 -53 -46 -53
q-39 0 -47 48q-15 -29 -26 -39t-25 -10q-27 0 -43 34q-15 34 -15 67q0 35 38 82q37 48 68 48q17 0 26 -23l5 20q18 -7 26 -7q10 0 33 15l-12 -61q-10 -45 -18 -94q-8 -46 -8 -56q0 -13 7 -13q12 0 29 42zM480 424h7q-14 -53 -46 -53q-17 0 -30 12.5t-17 35.5
q-15 -29 -25.5 -39t-26.5 -10q-26 0 -41 34q-14 36 -14 67q0 35 38 82q37 48 68 48q15 0 24 -23l5 20q27 -10 38 -5q3 1 8.5 4.5t9.5 6.5l4 2q0 -2 -13 -62q-11 -50 -18 -93q-8 -46 -8 -56q0 -13 8 -13q13 0 29 42zM316 -74h-4q-20 0 -38 10.5t-18 27.5q0 21 26 21
q18 0 33.5 -12.5t15.5 -28.5l-1 -4v-4q26 6 43 23.5t17 43.5q0 12 -5 29h3q6 -9 6 -29q0 -27 -20 -48.5t-48 -26.5q-15 -28 -57 -28q-30 0 -53 13t-23 36q0 12 7 20t19 8q9 0 12 -1q-65 56 -144 56q-23 0 -85 -8q13 5 41 13.5t32 10.5q36 14 63 44q28 31 28 59
q0 32 -22.5 51.5t-56.5 19.5q-71 0 -71 -41q0 -12 13 -19.5t30 -7.5q19 0 52 27v-7q-22 -31 -52 -31q-21 0 -36 10.5t-15 27.5q0 48 75 48q44 0 68 -22.5t24 -59.5q0 -28 -25 -56q-24 -27 -46 -41l14 -4q44 -9 71.5 -26t51.5 -51h-1v-1q-2 0 -8.5 1.5t-8.5 1.5
q-25 0 -25 -22q0 -21 24 -32q26 -12 47 -12q31 0 47 21zM1071 557q-1 36 -15 36q-11 0 -18.5 -18.5t-7.5 -32.5q-25 -107 -25 -153q0 -8 7 -8q20 0 30 34q12 39 29 142zM486 -24h-12q-33 0 -33 -31q0 -20 16.5 -32.5t39.5 -12.5q22 0 41 14t19 35q0 20 -20 72
q-30 -11 -40 -34q13 -5 21.5 -15.5t8.5 -20.5q0 -7 -6 -13t-14 -6q-10 0 -16 9.5t-6 19t1 15.5zM1286 452q1 27 17 97q0 44 -14 44q-19 0 -26 -51q-24 -132 -24 -153q0 -8 6 -8q24 0 41 71zM842 452q2 27 17 97q0 44 -14 44q-17 1 -26 -51q-24 -132 -24 -153q0 -8 5 -8
q25 0 42 71zM393 452q1 27 17 97q0 44 -14 44q-8 0 -15.5 -17t-10.5 -34q-24 -106 -24 -153q0 -8 6 -8q23 0 41 71zM146 537q40 18 69 62t29 91q0 20 -14 20q-16 0 -38 -48l-8 -22q-9 -23 -20.5 -55t-17.5 -48zM1162 388h2q-5 -30 -26 -49t-50 -23q0 -21 -21 -37t-49 -16
q-27 0 -45 12t-18 37q0 16 12.5 29.5t29.5 14.5v-3q-13 -2 -23.5 -12.5t-10.5 -22.5q0 -41 57 -41q62 0 63 39q-1 -1 -6 -1q-18 0 -30.5 7.5t-12.5 20.5q0 6 6 10.5t12 4.5q12 0 22 -9.5t14 -22.5q25 3 46.5 21t27.5 41zM916 356l8 -4q-6 -27 -33.5 -46.5t-60.5 -19.5h-8
q-13 -13 -38 -13q-56 0 -78 42v1q34 -39 76 -39q23 0 33 10q-33 4 -68 25q-33 21 -33 57q0 17 8 27l4 -3q-4 -12 -4 -22q0 -33 32 -51q30 -17 70 -22q3 6 3 14q0 18 -15 30.5t-35 12.5q-17 0 -31 -8l-3 1q18 20 53.5 8t35.5 -43q0 -5 -2 -15h3q31 0 54 15t29 43zM940 113
q28 4 46 41q18 38 18 66q0 17 -8 17q-32 0 -56 -124zM961 26v-2q19 0 42 27q24 29 24 52q0 11 -7 11q-22 0 -41 -31q-18 -30 -18 -57zM180 304q-9 14 -28 24.5t-35 10.5q-31 0 -31 -18q0 -24 53 -24q23 0 41 7zM610 255l-4 1v2q-3 19 -13.5 29t-23.5 10q-7 0 -31 -12
q-25 -11 -48 -11q-26 0 -26 20q0 12 10.5 18.5t23.5 6.5l46 -5q25 0 25 18q0 11 -8.5 17.5t-21.5 6.5q-22 0 -22 -14q0 -11 12 -11q9 0 17 5l1 -6q-7 -4 -17 -4q-19 0 -19 15q0 8 9.5 14t19.5 6q15 0 25 -8t10 -20q0 -23 -31 -23l-46 5q-30 0 -30 -21q0 -14 21 -14
q13 0 39 12q25 13 35 13q21 0 34 -14t13 -36zM780 109q-15 -1 -26.5 -18.5t-11.5 -38.5q0 -28 18 -28q7 0 12 23l3 20q5 20 5 42zM324 -54q0 14 -12 23.5t-27 9.5q-21 0 -21 -20q0 -17 27 -24q29 -5 33 11zM286 191q33 23 33 51q0 15 -12 15q-18 0 -23 -27.5t2 -38.5z
M1079 326h3q-6 26 -27 26q-12 0 -12 -10q0 -16 36 -16zM494 -26q-1 -3 -1 -10q0 -24 12 -24t12 9q0 14 -23 25z" />
    <glyph glyph-name="NULL" horiz-adv-x="0" 
 />
    <glyph glyph-name="CR.001" horiz-adv-x="333" 
 />
    </font>
</defs>
</svg>
