<?xml version="1.0" standalone="no"?>
<!DOCTYPE svg PUBLIC "-//W3C//DTD SVG 1.1//EN" "http://www.w3.org/Graphics/SVG/1.1/DTD/svg11.dtd" >
<svg xmlns="http://www.w3.org/2000/svg" xmlns:xlink="http://www.w3.org/1999/xlink" version="1.1">
<metadata>
Created by FontForge 20200427 at Sun Apr 16 18:38:25 2006
 By www
(c) Copyright SoftMaker Software GmbH and its licensors
</metadata>
<defs>
<font id="GibsonBold" horiz-adv-x="583" >
  <font-face 
    font-family="Gibson"
    font-weight="700"
    font-stretch="normal"
    units-per-em="1000"
    panose-1="0 0 7 0 0 0 0 0 0 0"
    ascent="800"
    descent="-200"
    x-height="459"
    cap-height="706"
    bbox="-204 -269 1053 927"
    underline-thickness="40"
    underline-position="-170"
    unicode-range="U+0020-2215"
  />
<missing-glyph horiz-adv-x="500" 
d="M31 0v927h438v-927h-438zM438 31v865h-376v-865h376z" />
    <glyph glyph-name=".notdef" horiz-adv-x="500" 
d="M31 0v927h438v-927h-438zM438 31v865h-376v-865h376z" />
    <glyph glyph-name="NULL" horiz-adv-x="0" 
 />
    <glyph glyph-name="nonmarkingreturn" horiz-adv-x="282" 
 />
    <glyph glyph-name="space" unicode=" " horiz-adv-x="282" 
 />
    <glyph glyph-name="exclam" unicode="!" horiz-adv-x="298" 
d="M138 221l-9 2q-6 6 -20 58q-49 204 -49 326q0 46 22 78q24 38 69 38q40 0 66 -36q22 -33 22 -75q0 -59 -23.5 -210t-42.5 -176l-14 -5h-21zM151 175q38 0 66.5 -27.5t28.5 -66.5t-28 -67t-67 -28t-68 28q-28 30 -28 69q0 37 29.5 64.5t66.5 27.5z" />
    <glyph glyph-name="quotedbl" unicode="&#x22;" horiz-adv-x="503" 
d="M14 415q0 6 20 29t39 98q-61 27 -61 81q0 39 26.5 67t63.5 28q45 0 76 -41q26 -37 26 -85q0 -122 -149 -201q-23 -12 -30 -12l-4 1q-7 11 -7 35zM273 414q2 5 5 10t15 20q21 27 40 98q-61 23 -61 81q0 38 26 65.5t63 27.5q47 0 75 -38.5t28 -87.5q0 -121 -149 -200
q-23 -12 -31 -12l-4 1q-7 11 -7 35z" />
    <glyph glyph-name="numbersign" unicode="#" horiz-adv-x="527" 
d="M105 206h-97v67h107l26 193h-107v68h117l29 206h69l-29 -206h124l29 206h69l-29 -206h83v-67h-93l-27 -194h92v-67h-101l-29 -206h-69l29 206h-124l-29 -206h-69zM211 467l-27 -194h123l27 194h-123z" />
    <glyph glyph-name="dollar" unicode="$" horiz-adv-x="545" 
d="M212 821h94v-105q85 -12 168 -55v-145q-47 33 -93.5 50t-94.5 17v-138q98 -24 163 -84q75 -68 75 -162q0 -90 -65 -148q-58 -51 -152 -64v-121h-95v120q-103 12 -196 68l-2 159q109 -72 215 -88v158q-114 46 -154 77q-71 57 -71 149q0 88 62 144q55 49 146 64v104z
M355 185q0 24 -21 46t-47 30v-130q13 0 24 4t21 11q23 15 23 39zM229 577q-55 -12 -55 -53q0 -18 17 -34.5t38 -24.5v112z" />
    <glyph glyph-name="percent" unicode="%" horiz-adv-x="753" 
d="M135 714q78 0 115 -79q28 -61 28 -148q0 -93 -28 -152q-40 -79 -122 -79q-79 0 -118 76q-29 60 -29 147q0 235 154 235zM129 351q42 0 42 111v29v37q0 22 -2 38q-8 54 -36 54q-33 0 -43 -68q-3 -24 -3 -96q0 -105 42 -105zM585 450q151 0 151 -227q0 -94 -28 -153
q-40 -79 -122 -79q-76 0 -116 74q-31 60 -31 144q0 94 28 156q36 85 118 85zM583 87q32 0 43 48q3 18 3 73l1 19v19q0 109 -39 109q-33 0 -42 -67q-2 -16 -3 -35t-1 -58q0 -108 38 -108zM506 741l69 -38l-364 -741l-69 38z" />
    <glyph glyph-name="ampersand" unicode="&#x26;" horiz-adv-x="710" 
d="M90 527q0 89 61 142.5t150 53.5q88 0 142 -44q58 -49 58 -135q0 -89 -129 -184l89 -100q38 48 74 116h153q-42 -123 -132 -225l132 -151h-215l-39 45q-58 -32 -102 -46q-49 -13 -111 -13q-84 0 -147 51q-66 54 -66 138q0 114 143 199q-61 76 -61 153zM236 275l-43 -38
q-20 -20 -20 -51t20.5 -51.5t50.5 -20.5q63 0 101 35zM286 459l2 -2q24 7 50.5 34.5t26.5 50.5q0 27 -18.5 45t-45.5 18q-61 0 -61 -70q0 -17 18 -40z" />
    <glyph glyph-name="quotesingle" unicode="'" horiz-adv-x="241" 
d="M200 673l-3 -12l-5 -4l-31 -53q-11 -23 -19 -61q27 -6 43.5 -28.5t16.5 -49.5q0 -37 -25.5 -65.5t-61.5 -28.5q-49 0 -77.5 37t-28.5 86q0 119 129 193q36 21 52 21l4 -1l2 -2z" />
    <glyph glyph-name="parenleft" unicode="(" horiz-adv-x="403" 
d="M404 764q-194 -215 -194 -493q0 -261 194 -482h-132q-99 99 -160 221q-64 134 -64 263q0 140 64 267q49 96 160 224h132z" />
    <glyph glyph-name="parenright" unicode=")" horiz-adv-x="403" 
d="M152 281q0 139 -52 259q-45 104 -142 224h130q100 -100 162.5 -228t62.5 -259q0 -258 -225 -488h-130q194 224 194 492z" />
    <glyph glyph-name="asterisk" unicode="*" horiz-adv-x="483" 
d="M160 488l-84 24q-66 21 -67 37q0 15 23.5 52t36.5 43q15 -2 62 -47l59 -61l-20 76q-12 45 -12 77q0 17 23 17h81q20 0 20 -17q0 -30 -12 -75l-20 -74l57 57q38 38 62 44q13 -3 37.5 -40t24.5 -52q0 -17 -34 -27l-119 -36q55 -13 147 -46q6 -5 8 -15q0 -11 -24 -50
t-38 -45q-10 0 -37 23l-49 47l-35 35l12 -72q8 -44 19 -69q0 -23 -24 -23h-74l-18 2q-7 3 -8 13q0 30 12 75l20 74l-60 -55q-51 -45 -58 -45q-16 0 -39.5 38.5t-23.5 57.5q0 15 152 57z" />
    <glyph glyph-name="plus" unicode="+" horiz-adv-x="644" 
d="M15 342h241v241h103v-241h239v-102h-239v-240h-103v240h-241v102z" />
    <glyph glyph-name="comma" unicode="," horiz-adv-x="241" 
d="M10 -125l28 43q16 25 23.5 44t7.5 39q-60 23 -60 84q0 32 27 61.5t60 29.5q49 0 77 -38.5t28 -90.5q0 -141 -175 -210h-5l-4 1q-7 14 -7 37z" />
    <glyph glyph-name="hyphen" unicode="-" horiz-adv-x="342" 
d="M-1 330h307v-159h-307v159z" />
    <glyph glyph-name="period" unicode="." horiz-adv-x="241" 
d="M105 175q39 0 67 -28t28 -66q0 -39 -27.5 -67t-67.5 -28q-38 0 -66 27t-28 67q0 38 28.5 66.5t65.5 28.5z" />
    <glyph glyph-name="slash" unicode="/" horiz-adv-x="363" 
d="M210 706h131l-233 -706h-130z" />
    <glyph glyph-name="zero" unicode="0" horiz-adv-x="523" 
d="M239 724q135 0 195 -132q21 -48 32 -109.5t11 -140.5q0 -144 -48 -239q-62 -121 -194 -121q-129 0 -191 129q-45 95 -45 244q0 148 47 243q62 126 193 126zM235 127q53 0 69 83q8 40 8 123v54q0 191 -80 191q-69 0 -69 -217q0 -234 72 -234z" />
    <glyph glyph-name="one" unicode="1" horiz-adv-x="523" 
d="M84 538q53 18 96.5 65t58.5 103h122v-706h-157v461q-33 -22 -120 -57v134z" />
    <glyph glyph-name="two" unicode="2" horiz-adv-x="523" 
d="M245 476q0 46 -29.5 76t-75.5 30q-76 0 -147 -58v145q110 55 197 55q94 0 156 -54.5t62 -146.5t-58 -201q-25 -49 -117 -179h214v-143l-477 -1l165 233q110 167 110 244z" />
    <glyph glyph-name="three" unicode="3" horiz-adv-x="523" 
d="M11 156q83 -42 144 -42q45 0 77 26t32 70q0 94 -125 94v130q42 0 75.5 19.5t33.5 58.5q0 37 -30.5 60t-70.5 23q-55 0 -123 -26l1 127q84 27 155 27q99 0 161 -46q69 -51 69 -147q0 -54 -28 -100t-80 -58q59 -15 93.5 -59.5t34.5 -105.5q0 -104 -75 -167
q-69 -57 -179 -57q-75 0 -165 36v137z" />
    <glyph glyph-name="four" unicode="4" horiz-adv-x="523" 
d="M-24 280l320 432h111v-427h47v-119h-47v-166h-158v166h-273v114zM251 285l-2 60l-1 57q0 37 1.5 51t6.5 37q-13 -32 -66 -104l-79 -101h140z" />
    <glyph glyph-name="five" unicode="5" horiz-adv-x="523" 
d="M23 156q74 -40 145 -40q44 0 77 21q37 25 37 66q0 101 -128 101q-19 0 -39.5 -1.5t-54.5 -9.5v413h359v-145h-216l1 -136l18 1q103 0 165 -59.5t62 -163.5q0 -100 -76 -163q-71 -57 -175 -57q-68 0 -175 36v137z" />
    <glyph glyph-name="six" unicode="6" horiz-adv-x="523" 
d="M221 706h178l-149 -259q106 0 165.5 -56.5t59.5 -162.5q0 -105 -61.5 -175t-165.5 -70t-171 71.5t-67 178.5q0 98 77 245zM250 115q37 0 59 35q17 31 17 71q0 36 -14 65q-17 35 -49 38h-18q-34 0 -56 -31q-17 -28 -17 -64q0 -114 78 -114z" />
    <glyph glyph-name="seven" unicode="7" horiz-adv-x="523" 
d="M-9 706h469l-236 -726l-154 56l181 524h-260v146z" />
    <glyph glyph-name="eight" unicode="8" horiz-adv-x="523" 
d="M23 530q0 84 62 138.5t148 54.5q87 0 152 -45q71 -50 71 -135q0 -113 -86 -171q105 -51 105 -179q0 -90 -69.5 -150t-160.5 -60q-101 0 -170 54q-73 58 -73 158q0 115 106 178q-85 58 -85 157zM232 99q39 0 59 35q16 29 16 70q0 39 -17 71t-54 32q-33 0 -50.5 -33.5
t-17.5 -67.5q0 -38 13 -68q18 -39 51 -39zM236 422q60 0 60 101q0 30 -12 56q-15 29 -45 29q-57 0 -57 -96q0 -30 13.5 -60t40.5 -30z" />
    <glyph glyph-name="nine" unicode="9" horiz-adv-x="523" 
d="M259 0h-178l150 258q-108 0 -167 56.5t-59 163.5q0 106 62 175.5t166 69.5q105 0 171.5 -73t66.5 -178q0 -70 -38 -161q-14 -33 -35 -74.5t-50 -90.5zM235 381q36 0 57 36q16 29 16 69q0 43 -17 70q-22 34 -60 34q-39 0 -60 -34q-16 -29 -16 -70q0 -105 80 -105z" />
    <glyph glyph-name="colon" unicode=":" horiz-adv-x="282" 
d="M151 175q35 0 64.5 -26.5t29.5 -63.5q0 -40 -26.5 -69.5t-66.5 -29.5t-68 27t-28 68q0 38 29 66t66 28zM153 470q36 0 63.5 -27.5t27.5 -63.5q0 -39 -26.5 -68.5t-66.5 -29.5q-39 0 -67.5 28t-28.5 67t29 66.5t69 27.5z" />
    <glyph glyph-name="semicolon" unicode=";" horiz-adv-x="282" 
d="M52 -130l27 47q15 25 22.5 44.5t7.5 38.5q-59 24 -59 86q0 32 27.5 60.5t60.5 28.5q46 0 76 -40q27 -36 27 -85q0 -120 -127 -192q-36 -21 -53 -21h-4q-5 7 -5 33zM138 470q36 0 63.5 -27.5t27.5 -63.5q0 -41 -26 -69.5t-67 -28.5q-38 0 -68 27q-27 27 -27 68
q0 40 29.5 67t67.5 27z" />
    <glyph glyph-name="less" unicode="&#x3c;" horiz-adv-x="551" 
d="M527 446l-425 -193l425 -193v-68l-508 230v62l508 230v-68z" />
    <glyph glyph-name="equal" unicode="=" horiz-adv-x="644" 
d="M-32 249h666v-103h-666v103zM-32 437h666v-103h-666v103z" />
    <glyph glyph-name="greater" unicode="&#x3e;" horiz-adv-x="551" 
d="M25 60l425 193l-425 193v68l508 -230v-62l-508 -230v68z" />
    <glyph glyph-name="question" unicode="?" horiz-adv-x="442" 
d="M131 713q57 12 103 12q70 0 118.5 -52t48.5 -126q0 -49 -31 -99l-61 -82q-33 -46 -41 -84l-7 -54q-6 -6 -11 -6h-42l-11 3q-11 8 -21.5 51t-10.5 68q0 49 34.5 115t34.5 88q0 20 -15.5 34t-36.5 14q-46 0 -93 -27zM229 174q36 0 63.5 -28t27.5 -64q0 -38 -27 -68
q-28 -28 -67 -28q-38 0 -68 27q-28 28 -28 68t29.5 66.5t69.5 26.5z" />
    <glyph glyph-name="at" unicode="@" horiz-adv-x="1015" 
d="M529 500q-62 0 -110 -67q-41 -61 -41 -128q0 -41 22.5 -69t61.5 -28q60 0 108 72q41 64 41 128q0 34 -23.5 63t-58.5 29zM662 556h69l-73 -246q-18 -66 -18 -80q0 -29 21 -29q59 0 104 81q38 70 38 135q0 116 -82 189q-78 69 -197 69q-131 0 -217.5 -94t-86.5 -226
t90 -222t222 -90q68 0 133.5 30t108.5 84h67q-48 -81 -133 -128.5t-179 -47.5q-80 0 -147 27t-124 83q-111 110 -111 270q0 154 111 265t266 111q138 0 239 -85q105 -90 105 -227q0 -101 -68 -191q-74 -98 -171 -98q-28 0 -46 17q-18 20 -18 46q-59 -63 -122 -63t-105 47.5
t-42 112.5q0 53 15 99t47 88q66 89 169 89q77 0 115 -78z" />
    <glyph glyph-name="A" unicode="A" horiz-adv-x="764" 
d="M248 706h201l285 -706h-189l-50 122h-296l-50 -122h-190zM439 257l-94 239l-92 -239h186z" />
    <glyph glyph-name="B" unicode="B" horiz-adv-x="664" 
d="M37 706h287q87 0 151 -43q72 -48 72 -133q0 -109 -88 -151q140 -35 140 -180q0 -102 -79 -154q-68 -45 -175 -45h-308v706zM311 134q109 0 109 79q0 81 -105 81h-101v-160h97zM288 430q81 0 81 82q0 29 -31 47q-24 12 -59 12h-65v-141h74z" />
    <glyph glyph-name="C" unicode="C" horiz-adv-x="704" 
d="M652 489q-90 45 -113 54q-66 25 -122 25q-102 0 -168.5 -61.5t-66.5 -161.5q0 -92 70 -149q64 -53 159 -53q100 0 249 87l-1 -165q-149 -79 -275 -79q-156 0 -269 95q-119 101 -119 254q0 173 115 281q112 104 286 104q130 0 255 -69v-162z" />
    <glyph glyph-name="D" unicode="D" horiz-adv-x="764" 
d="M32 706l299 2l45 -1q76 0 136.5 -28t110.5 -81q92 -97 92 -252q0 -176 -129 -274q-44 -33 -105 -51t-138 -18l-153 -3h-158v706zM327 139q88 0 147 59t59 147q0 104 -59.5 166t-164.5 62h-49l-50 -1v-433h117z" />
    <glyph glyph-name="E" unicode="E" 
d="M41 706h487v-135h-309v-144h292v-135h-292v-157h316v-135h-494v706z" />
    <glyph glyph-name="F" unicode="F" horiz-adv-x="544" 
d="M43 706h463v-136h-286v-141h282v-135h-282v-294h-177v706z" />
    <glyph glyph-name="G" unicode="G" horiz-adv-x="764" 
d="M667 494q-54 35 -114 53t-128 18q-102 0 -173 -53q-77 -59 -77 -159t57 -158t159 -58q25 0 48.5 4t59.5 16v83h-90v136l261 -6l-1 -305q-155 -79 -291 -79q-157 0 -270 98q-117 102 -117 259q0 167 118 275q115 103 284 103q143 0 274 -66v-161z" />
    <glyph glyph-name="H" unicode="H" horiz-adv-x="805" 
d="M30 706h177v-285h335v285h177v-706h-177v285h-335v-285h-177v706z" />
    <glyph glyph-name="I" unicode="I" horiz-adv-x="301" 
d="M57 706h166v-706h-166v706z" />
    <glyph glyph-name="J" unicode="J" horiz-adv-x="322" 
d="M-71 -49l38 -2q85 0 85 118v639h177v-671q0 -108 -58.5 -173.5t-167.5 -65.5q-36 0 -74 6v149z" />
    <glyph glyph-name="K" unicode="K" horiz-adv-x="685" 
d="M36 706h177v-313l203 313h204l-229 -340l310 -366h-230l-256 320v-320h-179v706z" />
    <glyph glyph-name="L" unicode="L" 
d="M41 706h178v-569h342v-137h-520v706z" />
    <glyph glyph-name="M" unicode="M" horiz-adv-x="826" 
d="M29 706h151l205 -274l206 274h148v-706h-174v292q0 51 10 140q-27 -46 -173 -234h-35l-93 120q-71 92 -79 114l8 -195v-237h-174v706z" />
    <glyph glyph-name="N" unicode="N" horiz-adv-x="845" 
d="M31 706h178l324 -386l55 -75q-4 24 -6 49.5t-2 60.5v351h178v-706h-178l-313 373q-11 13 -28.5 36t-37.5 53q4 -36 6 -61.5t2 -46.5v-354h-178v706z" />
    <glyph glyph-name="O" unicode="O" horiz-adv-x="845" 
d="M385 720q87 0 156.5 -23t126.5 -72q119 -101 119 -268q0 -170 -113.5 -270.5t-284.5 -100.5q-172 0 -284 94q-118 100 -118 270q0 173 114 274q108 96 284 96zM388 142q90 0 152 58.5t62 149.5q0 96 -59.5 155.5t-157.5 59.5q-96 0 -155 -56.5t-59 -153.5
q0 -94 61 -153.5t156 -59.5z" />
    <glyph glyph-name="P" unicode="P" horiz-adv-x="563" 
d="M42 706h282q101 0 163.5 -56.5t62.5 -155.5q0 -137 -106 -183q-33 -14 -90.5 -22.5t-134.5 -8.5v-280h-177v706zM292 420q31 0 53 20.5t22 50.5q0 78 -94 78h-27l-27 -1v-148h73z" />
    <glyph glyph-name="Q" unicode="Q" horiz-adv-x="845" 
d="M767 -59l-163 -120q-193 57 -345 183q-125 38 -196 122q-76 91 -76 217q0 182 114 284q109 94 296 94q165 0 276 -99q115 -103 115 -265q0 -131 -74.5 -227.5t-202.5 -126.5q97 -62 256 -62zM381 144q98 0 160.5 59.5t62.5 156.5q0 90 -64.5 147t-155.5 57
q-95 0 -155 -59t-60 -154q0 -89 60.5 -148t151.5 -59z" />
    <glyph glyph-name="R" unicode="R" horiz-adv-x="644" 
d="M38 706h256q257 0 257 -208q0 -62 -30 -104q-26 -33 -90 -62q53 -18 88 -77q7 -12 50 -110q30 -73 79 -145h-207l-61 133q-36 78 -51 99q-36 50 -93 50l-18 -1v-281h-180v706zM280 419q37 0 62 19.5t25 56.5q0 35 -23 54.5t-59 19.5h-67v-150h62z" />
    <glyph glyph-name="S" unicode="S" 
d="M471 517q-103 68 -194 68q-94 0 -94 -55q0 -38 87 -76q128 -54 162 -78q87 -63 87 -165q0 -110 -79 -171q-72 -55 -184 -55q-70 0 -127 18q-38 12 -115 54v159q76 -47 106 -62q57 -27 120 -27q41 0 66 14q34 19 34 53q0 44 -88 81q-139 59 -163 76q-88 59 -88 156
q0 99 75 159q35 28 77 42t95 14q109 0 223 -60v-145z" />
    <glyph glyph-name="T" unicode="T" horiz-adv-x="664" 
d="M-36 706h671v-137h-247v-569h-177v569h-247v137z" />
    <glyph glyph-name="U" unicode="U" horiz-adv-x="805" 
d="M25 706h177v-382q0 -84 41 -134t126 -50q102 0 141 55q32 46 32 152v359h179v-405q0 -155 -99 -238q-92 -77 -250 -77q-131 0 -222 59q-103 66 -121 188l-4 87v386z" />
    <glyph glyph-name="V" unicode="V" horiz-adv-x="724" 
d="M154 706l95 -204q53 -120 81 -210q13 56 44 125l129 289h191l-320 -706h-91l-319 706h190z" />
    <glyph glyph-name="W" unicode="W" horiz-adv-x="1087" 
d="M138 706l83 -196q43 -106 71 -199q19 86 67 201l84 194h112l114 -276q30 -72 39 -121q19 58 56 153.5t99 243.5h190l-297 -706h-102l-142 391l-13 42q-23 -86 -72 -218l-81 -215h-102l-297 706h191z" />
    <glyph glyph-name="X" unicode="X" horiz-adv-x="845" 
d="M274 369l-294 337l234 -1l92 -109q64 -77 78 -109q32 51 83 112l88 107h235l-295 -337l316 -369h-233l-165 191q-19 22 -29 43q-34 -53 -94 -120l-101 -114h-234z" />
    <glyph glyph-name="Y" unicode="Y" horiz-adv-x="685" 
d="M178 706l74 -110q42 -67 61 -117q18 54 56 117l68 110h215l-254 -377v-329h-175v329l-256 377h211z" />
    <glyph glyph-name="Z" unicode="Z" horiz-adv-x="664" 
d="M348 579q-45 -9 -60 -9h-296v136h640l-335 -513q-31 -49 -55 -67q42 9 59 9h331v-135h-677l349 526z" />
    <glyph glyph-name="bracketleft" unicode="[" horiz-adv-x="423" 
d="M70 764h329v-117h-175v-740h175v-118h-329v975z" />
    <glyph glyph-name="backslash" unicode="\" horiz-adv-x="278" 
d="M-17 737h66l246 -756h-67z" />
    <glyph glyph-name="bracketright" unicode="]" horiz-adv-x="423" 
d="M-15 -93h175v740h-175v117h330v-975h-330v118z" />
    <glyph glyph-name="asciicircum" unicode="^" horiz-adv-x="0" 
d="M-63 894h124l114 -139h-131l-46 53l-46 -53h-129z" />
    <glyph glyph-name="underscore" unicode="_" horiz-adv-x="556" 
d="M0 -125v50h556v-50h-556z" />
    <glyph glyph-name="grave" unicode="`" horiz-adv-x="0" 
d="M12 706l67 -177h-105l-122 177h160z" />
    <glyph glyph-name="a" unicode="a" horiz-adv-x="523" 
d="M265 290q0 37 -15.5 58t-54.5 21q-77 0 -173 -84l1 127q101 64 204 64q120 0 163 -62q33 -48 33 -175v-91l2 -25q3 -7 19 -11q13 3 24.5 6.5t27.5 10.5v-95q-105 -47 -145 -47q-53 0 -79 47l-72 -36q-21 -8 -39 -12t-40 -4q-27 0 -48.5 8t-42.5 27q-39 35 -39 86
q0 79 102 130q35 17 172 57zM263 120v84q-53 -17 -71 -27q-39 -21 -39 -58q0 -32 37 -32q17 0 73 33z" />
    <glyph glyph-name="b" unicode="b" horiz-adv-x="604" 
d="M34 706h158v-260q41 14 69.5 21t50.5 7q96 0 162 -75q62 -71 62 -169q0 -99 -64 -170t-161 -71q-44 0 -119 33v-22h-158v706zM270 107q51 0 79 40q24 35 24 89q0 50 -28 86t-77 36q-23 0 -76 -27v-199q50 -25 78 -25z" />
    <glyph glyph-name="c" unicode="c" horiz-adv-x="463" 
d="M423 320q-49 34 -122 34q-56 0 -93.5 -36.5t-37.5 -92.5q0 -54 39.5 -86.5t93.5 -32.5q45 0 128 35v-124q-83 -34 -151 -34q-113 0 -191 63q-83 68 -83 180q0 107 78 181q75 69 186 69q89 0 153 -32v-124z" />
    <glyph glyph-name="d" unicode="d" 
d="M343 706h158v-706h-158v22q-57 -33 -118 -33q-98 0 -162 71.5t-64 169.5q0 96 64 170.5t160 74.5q42 0 120 -29v260zM343 331q-50 26 -79 26q-48 0 -75 -35.5t-27 -84.5q0 -53 25.5 -91.5t78.5 -38.5q30 0 77 25v199z" />
    <glyph glyph-name="e" unicode="e" horiz-adv-x="544" 
d="M172 207q5 -53 41.5 -81.5t90.5 -28.5q82 0 174 58v-115q-120 -57 -211 -57q-112 0 -187.5 70.5t-75.5 182.5q0 104 72.5 172t178.5 68q107 0 175 -72q63 -69 63 -180v-13zM332 301q-3 32 -24.5 55t-51.5 23q-57 0 -80 -78h156z" />
    <glyph glyph-name="f" unicode="f" horiz-adv-x="342" 
d="M-8 463h70q0 256 207 256q56 0 94 -17l1 -130q-53 16 -67 16q-51 0 -67 -41q-8 -22 -8 -84h87v-108h-87v-355h-160v355h-70v108z" />
    <glyph glyph-name="g" unicode="g" horiz-adv-x="483" 
d="M34 80q0 23 25 44q19 14 48 20q-59 28 -86 58q-32 38 -32 97q0 80 63 131q58 46 140 46q10 0 25 -1t32 -4l58 -6l125 -1h28v-92l-61 -1q22 -39 22 -79q0 -78 -61 -118q-30 -18 -113 -38q-61 -12 -61 -32q0 -24 77.5 -40.5t109.5 -34.5q66 -36 66 -114q0 -84 -75 -126
q-61 -35 -152 -35q-89 0 -158 30q-89 39 -89 118q0 93 116 121q-47 35 -47 57zM204 224q32 0 53 22q19 24 19 57q0 32 -17.5 57.5t-50.5 25.5q-31 0 -52.5 -23t-21.5 -55q0 -35 17.5 -59.5t52.5 -24.5zM204 -138q99 0 99 46t-95 46q-102 0 -102 -46t98 -46z" />
    <glyph glyph-name="h" unicode="h" 
d="M35 706h159v-263q0 -8 -1 -19t-4 -23q70 73 154 73q85 0 128 -71q35 -58 35 -150v-253h-160v237q0 109 -67 109q-21 0 -46 -12.5t-39 -31.5v-302h-159v706z" />
    <glyph glyph-name="i" unicode="i" horiz-adv-x="282" 
d="M49 459h160v-459h-160v459zM128 715q34 0 58 -24t24 -59q0 -32 -25.5 -55t-57.5 -23t-54.5 24.5t-22.5 57.5q0 32 22.5 55.5t55.5 23.5z" />
    <glyph glyph-name="j" unicode="j" horiz-adv-x="282" 
d="M42 459h160l-1 -447q0 -111 -43 -169q-36 -48 -142 -102l-67 150q93 21 93 124v444zM123 717q32 0 56 -24t24 -57t-25 -56.5t-57 -23.5q-30 0 -56 24q-23 25 -23 56q0 35 23 58q12 11 26 17t32 6z" />
    <glyph glyph-name="k" unicode="k" horiz-adv-x="544" 
d="M37 706h159v-433l139 186h185l-165 -217l203 -242h-194l-168 207v-207h-159v706z" />
    <glyph glyph-name="l" unicode="l" horiz-adv-x="282" 
d="M49 706h160v-706h-160v706z" />
    <glyph glyph-name="m" unicode="m" horiz-adv-x="886" 
d="M20 459h160v-17q0 -15 -6 -45q64 79 153 79q102 0 145 -77q39 39 74.5 58t85.5 19q171 0 171 -236v-240h-160v249q0 99 -67 99q-21 0 -45.5 -14t-38.5 -31v-303h-159v240q0 107 -65 107q-47 0 -88 -45v-302h-160v459z" />
    <glyph glyph-name="n" unicode="n" 
d="M35 459h161q0 -13 -0.5 -27t-7.5 -32q75 75 158 75q85 0 127 -72q33 -59 33 -151v-252h-159v255q0 92 -67 92q-21 0 -46 -13.5t-39 -30.5v-303h-160v459z" />
    <glyph glyph-name="o" unicode="o" 
d="M267 476q111 0 187.5 -68.5t76.5 -181.5q0 -108 -79.5 -175.5t-188.5 -67.5q-110 0 -185.5 69t-75.5 181q0 108 77 175.5t188 67.5zM270 100q46 0 72 41q24 35 24 82q0 55 -23 92q-28 43 -81 43q-45 0 -71.5 -39.5t-26.5 -85.5q0 -54 25.5 -93.5t80.5 -39.5z" />
    <glyph glyph-name="p" unicode="p" horiz-adv-x="604" 
d="M34 459h159v-19q72 28 108 28q106 0 170 -69t64 -178q0 -93 -62.5 -164.5t-155.5 -71.5q-58 0 -124 31v-274h-159v717zM272 105q47 0 76 39q24 35 24 84t-24 85q-27 39 -76 39q-31 0 -78 -28l-1 -191q31 -28 79 -28z" />
    <glyph glyph-name="q" unicode="q" horiz-adv-x="563" 
d="M343 459h159v-717h-159l-1 274q-65 -30 -120 -30q-93 0 -156.5 69.5t-63.5 165.5q0 98 56 169q60 78 155 78q59 0 130 -27v18zM342 326q-48 27 -83 27q-44 0 -72 -40q-24 -36 -24 -83q0 -48 26 -87t73 -39q33 0 80 28v194z" />
    <glyph glyph-name="r" unicode="r" horiz-adv-x="423" 
d="M43 459h159v-54l-5 -49q57 119 130 119q55 0 108 -40l-66 -140q-43 31 -72 31q-35 0 -69 -71q-28 -59 -28 -150l1 -52l1 -53h-159v459z" />
    <glyph glyph-name="s" unicode="s" horiz-adv-x="403" 
d="M0 157l74 -41q45 -21 81 -21q46 0 46 36q0 20 -52 42q-72 32 -96 51q-52 40 -52 103q0 69 55 111q50 38 121 38q77 0 160 -41v-114l-61 29q-35 15 -65 15q-43 0 -43 -23q0 -24 51 -45q75 -32 94 -46q51 -36 51 -99q0 -82 -50.5 -125.5t-132.5 -43.5q-96 0 -181 49v125z
" />
    <glyph glyph-name="t" unicode="t" horiz-adv-x="403" 
d="M-8 407l212 217h31v-165h163v-107h-163v-175q0 -72 72 -72q41 0 94 31v-114q-82 -35 -149 -35q-178 0 -178 180l1 24v24v137h-83v55z" />
    <glyph glyph-name="u" unicode="u" 
d="M35 459h159v-248q0 -99 65 -99q26 0 48 14l40 30v303h159v-459h-159v26q0 18 5 34q-63 -78 -149 -78q-168 0 -168 224v253z" />
    <glyph glyph-name="v" unicode="v" horiz-adv-x="503" 
d="M147 459l81 -224l83 224h170l-201 -459h-102l-203 459h172z" />
    <glyph glyph-name="w" unicode="w" horiz-adv-x="764" 
d="M131 459l80 -206l83 206h111l84 -206l78 206h170l-199 -459h-93l-96 222l-93 -222h-95l-199 459h169z" />
    <glyph glyph-name="x" unicode="x" horiz-adv-x="563" 
d="M154 243l-166 216h193l56 -73l15 -33q14 29 73 106h193l-170 -217l184 -242h-194l-46 59q-25 34 -39 64q-13 -30 -85 -123h-196z" />
    <glyph glyph-name="y" unicode="y" horiz-adv-x="523" 
d="M152 459q31 -59 88 -198q9 30 28 77t54 121h168l-320 -717h-173l159 343l-179 374h175z" />
    <glyph glyph-name="z" unicode="z" horiz-adv-x="503" 
d="M201 342h-189v117h444l-113 -183q-91 -146 -108 -160h234v-116h-489l112 183q89 143 109 159z" />
    <glyph glyph-name="braceleft" unicode="{" horiz-adv-x="334" 
d="M42 294q54 0 72 67q4 15 6 44t2 68l-1 43q0 47 2 77.5t9 53.5q23 75 93 75h67v-65h-44q-46 0 -46 -82v-113l-1 -57q0 -42 -24.5 -85t-62.5 -55q88 -29 88 -201l-1 -87q0 -108 47 -108h44v-65h-67q-47 0 -74.5 39.5t-27.5 89.5v171q0 44 -18 83q-21 47 -63 47v60z" />
    <glyph glyph-name="bar" unicode="|" horiz-adv-x="260" 
d="M94 737h73v-756h-73v756z" />
    <glyph glyph-name="braceright" unicode="}" horiz-adv-x="334" 
d="M292 234q-41 0 -63 -47q-18 -36 -18 -83v-171q0 -50 -25 -87q-29 -42 -77 -42h-67v65h44q46 0 46 108l-1 86q0 76 13 118q19 64 76 82q-38 12 -64 58q-13 23 -18.5 41.5t-5.5 41.5v171q0 82 -46 82h-44v65h67q76 0 97 -94q6 -32 6 -155q0 -81 8 -112q17 -67 72 -67v-60z
" />
    <glyph glyph-name="asciitilde" unicode="~" horiz-adv-x="0" 
d="M-73 893q30 0 78.5 -22.5t68.5 -22.5t53 46l61 -36q-39 -97 -105 -97q-14 0 -31.5 5t-44.5 17q-49 23 -75 23q-21 0 -55 -50l-65 38q15 38 45 66q35 33 70 33z" />
    <glyph glyph-name="quotesinglbase" unicode="&#x201a;" horiz-adv-x="241" 
d="M13 -125l28 43q16 25 23.5 44t7.5 39q-60 23 -60 84q0 32 27 61.5t60 29.5q49 0 77 -38.5t28 -90.5q0 -141 -175 -210h-5l-4 1q-7 14 -7 37z" />
    <glyph glyph-name="florin" unicode="&#x192;" horiz-adv-x="524" 
d="M493 0h-477v53h477v-53zM493 333l-477 -221v60l416 191l-416 191v59l477 -220v-60z" />
    <glyph glyph-name="quotedblbase" unicode="&#x201e;" horiz-adv-x="503" 
d="M4 -128q0 9 13 21q31 35 46 108q-61 23 -61 81q0 35 26 64.5t61 29.5q49 0 78 -41q28 -37 28 -87q0 -118 -129 -190q-38 -21 -51 -21l-4 1q-7 12 -7 34zM263 -124l9 15l11 14q27 36 39 97q-61 20 -61 81q0 35 26 64t61 29q48 0 79 -40q27 -36 27 -86q0 -140 -176 -212h-4
l-4 1q-7 11 -7 37z" />
    <glyph glyph-name="ellipsis" unicode="&#x2026;" horiz-adv-x="985" 
d="M219 0h-104v106h104v-106zM552 0h-104v106h104v-106zM885 0h-104v106h104v-106z" />
    <glyph glyph-name="dagger" unicode="&#x2020;" horiz-adv-x="523" 
d="M1 488l209 -44l-42 262h141l-45 -262l211 44v-140l-212 42l47 -636h-150l50 637l-209 -43v140z" />
    <glyph glyph-name="daggerdbl" unicode="&#x2021;" horiz-adv-x="744" 
d="M698 581l-29 -61q-83 102 -230 102q-91 0 -161 -53t-95 -137h445l-30 -63h-429l-2 -33l2 -30h400l-30 -63h-356q27 -89 98 -140.5t168 -51.5q136 0 220 99v-85q-97 -77 -225 -77q-122 0 -213.5 68.5t-118.5 186.5h-113l30 63h71l-1 31l1 32h-101l30 63h83q27 117 120 185
t217 68q72 0 140.5 -27.5t108.5 -76.5z" />
    <glyph glyph-name="circumflex" unicode="&#x2c6;" horiz-adv-x="0" 
d="M-72 706h139l127 -176h-127l-67 91l-66 -92h-127z" />
    <glyph glyph-name="perthousand" unicode="&#x2030;" horiz-adv-x="262" 
d="M53 -103q-21 0 -40 19q-17 19 -17 40q0 15 13.5 27.5t28.5 12.5q11 0 28.5 -15t22.5 -15q26 0 26 94l-3 148l-3 150v220q0 302 99 302q24 0 44.5 -15t20.5 -40q0 -18 -15.5 -29.5t-32.5 -11.5q-14 0 -26.5 10t-22.5 12q-18 0 -18 -30q0 -50 9 -153t9 -155l1 -53v-53
q0 -376 -62 -441q-24 -24 -62 -24z" />
    <glyph glyph-name="Scaron" unicode="&#x160;" horiz-adv-x="733" 
d="M299 0h-283v156h15q6 -30 19 -44.5t43 -14.5h152l-2 26q-209 62 -209 261q0 129 97 205q91 71 223 71q130 0 220 -72q96 -77 96 -206q0 -197 -208 -258l-2 -27h153q52 0 62 59h15v-156h-284l16 146q136 57 136 240q0 109 -47 172q-54 72 -158 72t-158 -72
q-48 -63 -48 -172q0 -182 136 -240z" />
    <glyph glyph-name="guilsinglleft" unicode="&#x2039;" horiz-adv-x="364" 
d="M245 108l-157 123v92l157 123v-88l-105 -81l105 -81v-88z" />
    <glyph glyph-name="OE" unicode="&#x152;" horiz-adv-x="998" 
d="M942 706v-137h-304v-140h287v-136h-287v-157h312v-136h-605q-156 0 -260 99t-104 253q0 105 51.5 190t146.5 128q53 23 126 31q13 2 50.5 3.5t80.5 1.5l167 2l170 -1zM463 567h-41q-261 0 -261 -213q0 -108 74 -166q67 -53 180 -53l24 1h24v431z" />
    <glyph glyph-name="quoteleft" unicode="&#x2018;" horiz-adv-x="241" 
d="M195 673l-3 -12l-5 -4l-31 -53q-11 -23 -19 -61q27 -6 43.5 -28.5t16.5 -49.5q0 -37 -25.5 -65.5t-61.5 -28.5q-49 0 -77.5 37t-28.5 86q0 119 129 193q36 21 52 21l4 -1l2 -2z" />
    <glyph glyph-name="quoteright" unicode="&#x2019;" horiz-adv-x="241" 
d="M10 415l1 5l14 23l30 45q9 18 14 54q-60 27 -60 86q0 33 27 61t63 28q46 0 75 -41q26 -37 26 -85q0 -125 -147 -200q-24 -12 -32 -12l-4 1q-7 12 -7 35z" />
    <glyph glyph-name="quotedblleft" unicode="&#x201c;" horiz-adv-x="503" 
d="M452 673q0 -8 -13 -22q-30 -35 -45 -106q59 -18 59 -81q0 -36 -26 -65q-24 -29 -61 -29q-48 0 -78 39q-26 37 -26 87q0 118 128 191q36 21 52 21q10 0 10 -35zM193 672q0 -7 -8 -16l-12 -16q-27 -36 -39 -97q26 -6 43.5 -30t17.5 -54q0 -33 -28 -61.5t-59 -28.5
q-48 0 -76.5 37.5t-28.5 87.5q0 138 172 213h7q11 0 11 -35z" />
    <glyph glyph-name="quotedblright" unicode="&#x201d;" horiz-adv-x="503" 
d="M4 415q0 6 20 29t39 98q-61 27 -61 81q0 39 26.5 67t63.5 28q45 0 76 -41q26 -37 26 -85q0 -122 -149 -201q-23 -12 -30 -12l-4 1q-7 11 -7 35zM263 414q2 5 5 10t15 20q21 27 40 98q-61 23 -61 81q0 38 26 65.5t63 27.5q47 0 75 -38.5t28 -87.5q0 -121 -149 -200
q-23 -12 -31 -12l-4 1q-7 11 -7 35z" />
    <glyph glyph-name="bullet" unicode="&#x2022;" horiz-adv-x="333" 
d="M297 353q0 -55 -37 -92.5t-91 -37.5q-55 0 -94 38t-39 92q0 53 39.5 91.5t93.5 38.5q52 0 90 -38.5t38 -91.5z" />
    <glyph glyph-name="endash" unicode="&#x2013;" horiz-adv-x="523" 
d="M-11 330h494v-159h-494v159z" />
    <glyph glyph-name="emdash" unicode="&#x2014;" horiz-adv-x="644" 
d="M-32 345h666v-104h-666v104z" />
    <glyph glyph-name="tilde" unicode="&#x2dc;" horiz-adv-x="0" 
d="M-65 688q33 0 84 -27t74 -27q13 0 27 15q10 13 17 30l75 -49q-31 -51 -48 -69q-32 -35 -73 -35q-24 0 -78 28.5t-76 28.5q-20 0 -51 -49l-77 47l51 70q34 37 75 37z" />
    <glyph glyph-name="trademark" unicode="&#x2122;" horiz-adv-x="851" 
d="M305 646l3 -93l-17 -1v8q0 42 -36 57q-9 3 -30 5.5t-43 2.5v-300q0 -26 48 -26v-18h-154v18q49 0 49 26l-1 300q-56 0 -76 -10q-32 -14 -32 -63l-18 1l3 93h304zM446 646l126 -276l121 276h108v-17h-9q-38 0 -38 -24v-280q0 -26 48 -26v-18h-154v18q49 0 49 26v266
l-128 -310h-18l-138 295v-251q0 -26 49 -26v-18h-124v18q49 0 49 26v270q0 23 -15 31q-6 3 -36 3v17h110z" />
    <glyph glyph-name="guilsinglright" unicode="&#x203a;" horiz-adv-x="333" 
d="M88 196l105 81l-105 81v88l157 -123v-92l-157 -123v88z" />
    <glyph glyph-name="oe" unicode="&#x153;" horiz-adv-x="865" 
d="M558 476q114 0 183 -69t69 -185v-15l-321 1q0 -52 45 -84q39 -27 96 -27q81 0 168 56v-117l-100 -37q-56 -17 -107 -17q-54 0 -94 13q-26 8 -86 39q-41 -27 -79 -39.5t-81 -12.5q-115 0 -189.5 69.5t-74.5 183.5q0 105 79 175q75 66 183 66q93 0 158 -49q78 49 151 49z
M645 299q-12 76 -76 76q-55 0 -74 -76h150zM150 213q0 -43 27.5 -78t68.5 -35q43 0 71 40q24 36 24 81q0 136 -99 136q-40 0 -66 -37.5t-26 -78.5v-28z" />
    <glyph glyph-name="Ydieresis" unicode="&#x178;" horiz-adv-x="685" 
d="M447 898q30 0 51.5 -22t21.5 -51q0 -27 -20.5 -48.5t-49.5 -21.5q-32 0 -52 19q-19 21 -19 52q0 27 20 49.5t48 22.5zM159 898q49 0 69 -48q6 -15 6 -23l-4 -20q-15 -53 -64 -53q-32 0 -53 20t-21 52q0 27 19.5 49.5t47.5 22.5zM178 706l74 -110q42 -67 61 -117
q18 54 56 117l68 110h215l-254 -377v-329h-175v329l-256 377h211z" />
    <glyph glyph-name="nonbreakingspace" unicode="&#xa0;" horiz-adv-x="500" 
 />
    <glyph glyph-name="exclamdown" unicode="&#xa1;" horiz-adv-x="282" 
d="M117 488l8 -2q16 -14 43 -176t27 -209q0 -45 -21 -78q-25 -37 -69 -37q-42 0 -67 35q-21 30 -21 75q0 61 22 206.5t42 180.5l3 3l12 2h21zM102 723q39 0 68 -27.5t29 -68.5q0 -39 -28.5 -66t-69.5 -27q-37 0 -65 27t-28 65t27 67.5t67 29.5z" />
    <glyph glyph-name="cent" unicode="&#xa2;" horiz-adv-x="463" 
d="M272 351q-44 -7 -74 -43q-14 -18 -21 -37.5t-7 -45.5q0 -45 28 -77q29 -30 74 -39v242zM431 18q-44 -19 -89 -28v-106h-85l-1 100q-51 0 -95 18t-81 53q-74 66 -74 173q0 105 74 176q36 35 81 54t96 19v68h84v-74q47 -9 82 -27v-123q-36 24 -99 33v-246q33 3 107 34v-124
z" />
    <glyph glyph-name="sterling" unicode="&#xa3;" horiz-adv-x="644" 
d="M17 407h68q-17 68 -17 95q0 104 81 166q73 55 182 55q95 0 152 -56q47 -47 78 -145l-136 -48q0 59 -27.5 89.5t-75.5 30.5q-36 0 -65 -24q-26 -24 -26 -61q0 -48 32 -102h163v-110h-121q9 -36 9 -61q0 -30 -7 -64l49 -23q33 -13 51 -13q31 0 70 64l120 -67
q-63 -87 -74 -98q-47 -47 -108 -47q-42 0 -113 35t-95 35q-48 0 -82 -73l-105 85q26 42 43 62q28 35 57 46l34 12v27q0 31 -20 80h-117v110z" />
    <glyph glyph-name="currency" unicode="&#xa4;" horiz-adv-x="802" 
d="M-1 221l47 110h46v4l1 36h-94l47 110h71q40 110 141.5 174.5t234.5 64.5q129 0 255 -69v-162q-90 45 -113 54q-67 25 -122 25q-124 0 -192 -87h323l-47 -110h-318l-1 -26v-14h304l-47 -110h-213q66 -78 185 -78q99 0 249 87l-1 -165q-74 -39 -143 -59t-132 -20
q-122 0 -225.5 64t-142.5 171h-113z" />
    <glyph glyph-name="section" unicode="&#xa7;" horiz-adv-x="563" 
d="M36 546q0 88 71 135q63 42 155 42q70 0 125 -29q68 -36 68 -100q0 -35 -22.5 -57.5t-57.5 -22.5t-53 25l-22 47q-16 25 -51 25q-24 0 -40.5 -13.5t-16.5 -37.5q0 -35 80 -87q123 -78 150 -102q80 -71 80 -155q0 -63 -20 -110q-9 -21 -24.5 -44.5t-37.5 -49.5
q41 -55 41 -108q0 -80 -73 -131q-63 -42 -151 -42q-68 0 -127 30q-70 37 -70 99q0 33 25 58q25 23 59 23q36 0 58 -48.5t60 -48.5q63 0 63 51q0 32 -81 85q-58 37 -94 62.5t-55 42.5q-81 75 -81 169q0 79 82 191q-40 48 -40 101zM331 97q29 31 29 67q0 54 -75 113l-122 79
q-28 -28 -28 -70q0 -51 75 -111z" />
    <glyph glyph-name="dieresis" unicode="&#xa8;" horiz-adv-x="0" 
d="M123 691q31 0 55.5 -22.5t24.5 -53.5q0 -34 -21.5 -57t-55.5 -23t-58 21q-22 22 -22 56q0 33 21.5 56t55.5 23zM-128 691q33 0 57.5 -21.5t24.5 -54.5q0 -31 -22.5 -55.5t-54.5 -24.5q-34 0 -57.5 21.5t-23.5 55.5q0 33 21.5 56t54.5 23z" />
    <glyph glyph-name="copyright" unicode="&#xa9;" horiz-adv-x="755" 
d="M505 497l4 -123h-19q-8 43 -39.5 72t-75.5 29q-59 0 -97 -54q-33 -48 -33 -111q0 -67 32 -106q33 -45 98 -45q39 0 68 13q21 9 57 39l11 -17q-67 -70 -143 -70q-81 0 -133 51t-52 134q0 77 51 134t128 57q20 0 51 -10q33 -9 51 -9q17 0 23 16h18zM363 648q137 0 234 -97
t97 -234q0 -138 -96.5 -234.5t-234.5 -96.5q-137 0 -234 97t-97 234t97 234t234 97zM363 24q121 0 207 86t86 207t-86 207t-207 86t-207 -86t-86 -207t86 -207t207 -86z" />
    <glyph glyph-name="guillemotleft" unicode="&#xab;" horiz-adv-x="644" 
d="M174 488h145l-172 -236l172 -235h-145l-173 235zM449 488h146l-170 -236l170 -235h-146l-171 235z" />
    <glyph glyph-name="logicalnot" unicode="&#xac;" horiz-adv-x="682" 
d="M-1 276h639v-276h-53v224h-586v52z" />
    <glyph glyph-name="registered" unicode="&#xae;" horiz-adv-x="755" 
d="M362 -19q-137 0 -234 97t-97 234t98 234t233 97q137 0 234 -97t97 -234t-97 -234t-234 -97zM361 605q-121 0 -206.5 -86.5t-85.5 -207.5t86.5 -206.5t206.5 -85.5q121 0 207 86t86 207q0 120 -86.5 206.5t-207.5 86.5zM312 190q0 -28 45 -28v-17h-153v17q47 0 47 25v277
q0 21 -11 27l-31 1v18h164q131 0 131 -90q0 -39 -28.5 -67.5t-69.5 -28.5l115 -148q11 -14 35 -14v-17h-91l-128 170h-25v-125zM312 337q52 0 83 13q44 17 44 62q0 38 -16.5 54t-60.5 22l-31 2q-20 0 -20 -20z" />
    <glyph glyph-name="degree" unicode="&#xb0;" horiz-adv-x="282" 
d="M110 370q-58 0 -101 42t-43 101q0 57 42.5 100.5t101.5 43.5q58 0 101 -43t43 -101t-42.5 -100.5t-101.5 -42.5zM109 618q-42 0 -73.5 -31t-31.5 -74q0 -42 31 -73.5t75 -31.5t75 31t31 74q0 42 -32.5 73.5t-74.5 31.5z" />
    <glyph glyph-name="plusminus" unicode="&#xb1;" horiz-adv-x="524" 
d="M225 392v227h53v-227h227v-53h-227v-228h-53v228h-227v53h227zM-2 0v53h507v-53h-507z" />
    <glyph glyph-name="acute" unicode="&#xb4;" horiz-adv-x="0" 
d="M-11 706h158l-118 -177h-103z" />
    <glyph glyph-name="mu" unicode="&#xb5;" horiz-adv-x="551" 
d="M129 480v-319q0 -47 22.5 -78.5t68.5 -31.5q30 0 62 22t46 51v356h82v-369q0 -27 13 -53.5t39 -26.5q25 0 37 23l14 44l19 -1q-24 -113 -117 -113q-41 0 -62 28q-12 18 -23 67q-66 -95 -152 -95q-29 0 -52 16l-45 31v-22q0 -26 15.5 -78.5t15.5 -75.5q0 -25 -11 -47
t-34 -22t-35 21.5t-12 46.5q0 26 13.5 78t13.5 77v471h82z" />
    <glyph glyph-name="paragraph" unicode="&#xb6;" horiz-adv-x="667" 
d="M539 706v-54h-34v-819h-58v819h-144v-819h-58v486q-73 12 -116 62q-41 52 -41 126q0 95 64 149q59 50 157 50h230z" />
    <glyph glyph-name="periodcentered" unicode="&#xb7;" horiz-adv-x="165" 
d="M93 370q30 0 52.5 -25t22.5 -55q0 -29 -23.5 -53.5t-55.5 -24.5q-31 0 -54 22q-22 24 -22 54q0 34 23 58t57 24z" />
    <glyph glyph-name="periodcentered" unicode="&#x2219;" horiz-adv-x="165" 
d="M93 370q30 0 52.5 -25t22.5 -55q0 -29 -23.5 -53.5t-55.5 -24.5q-31 0 -54 22q-22 24 -22 54q0 34 23 58t57 24z" />
    <glyph glyph-name="cedilla" unicode="&#xb8;" horiz-adv-x="0" 
d="M-112 -153l13 -1h13q64 0 64 32q0 20 -38 38l31 92l83 -6l-17 -48q60 -33 60 -81q0 -106 -186 -106l-36 3z" />
    <glyph glyph-name="guillemotright" unicode="&#xbb;" horiz-adv-x="644" 
d="M441 252l-171 236h145l173 -236l-173 -235h-145zM163 252l-170 236h146l171 -236l-171 -235h-146z" />
    <glyph glyph-name="questiondown" unicode="&#xbf;" horiz-adv-x="442" 
d="M160 487h42q20 0 33 -53q10 -43 10 -70q0 -47 -34.5 -114t-34.5 -89q0 -21 15 -35t36 -14q45 0 94 28l-42 -145q-45 -9 -94 -9q-76 0 -126.5 48t-50.5 126q0 49 30 99l60 81q34 46 43 86l4 35q3 24 15 26zM184 723q39 0 67 -28t28 -67q0 -40 -29 -66.5t-68 -26.5
q-35 0 -65 27q-28 28 -28 64q0 39 27.5 68t67.5 29z" />
    <glyph glyph-name="Agrave" unicode="&#xc0;" horiz-adv-x="764" 
d="M343 894l79 -138h-100l-128 138h149zM248 706h201l285 -706h-189l-50 122h-296l-50 -122h-190zM439 257l-94 239l-92 -239h186z" />
    <glyph glyph-name="Aacute" unicode="&#xc1;" horiz-adv-x="764" 
d="M344 894h149l-125 -138h-99zM248 706h201l285 -706h-189l-50 122h-296l-50 -122h-190zM439 257l-94 239l-92 -239h186z" />
    <glyph glyph-name="Acircumflex" unicode="&#xc2;" horiz-adv-x="764" 
d="M281 894h124l113 -139h-130l-46 53l-46 -53h-129zM248 706h201l285 -706h-189l-50 122h-296l-50 -122h-190zM439 257l-94 239l-92 -239h186z" />
    <glyph glyph-name="Atilde" unicode="&#xc3;" horiz-adv-x="764" 
d="M270 893q30 0 78.5 -22.5t69.5 -22.5q24 0 52 46l62 -36q-16 -28 -26 -43.5t-15 -20.5q-29 -33 -65 -33q-27 0 -75.5 22.5t-73.5 22.5t-57 -50l-65 37q29 48 46 67q30 33 69 33zM248 706h201l285 -706h-189l-50 122h-296l-50 -122h-190zM439 257l-94 239l-92 -239h186z
" />
    <glyph glyph-name="Adieresis" unicode="&#xc4;" horiz-adv-x="764" 
d="M248 706h201l285 -706h-189l-50 122h-296l-50 -122h-190zM439 257l-94 239l-92 -239h186zM489 898q36 0 54 -24t18 -60q0 -24 -22 -41.5t-47 -17.5q-32 0 -51.5 20.5t-19.5 51.5q0 28 20 49.5t48 21.5zM201 898q28 0 51.5 -20.5t23.5 -49.5q0 -31 -19.5 -52.5
t-48.5 -21.5q-34 0 -54 21t-20 54q0 28 20 48.5t47 20.5z" />
    <glyph glyph-name="Aring" unicode="&#xc5;" horiz-adv-x="764" 
d="M248 706h201l285 -706h-189l-50 122h-296l-50 -122h-190zM439 257l-94 239l-92 -239h186zM353 927q42 0 76.5 -27.5t34.5 -69.5q0 -50 -33.5 -77.5t-84.5 -27.5q-44 0 -79.5 27t-35.5 72q0 48 36.5 75.5t85.5 27.5zM342 783h10q16 0 27 14t11 31q0 15 -13 28t-29 13
q-43 0 -43 -47q0 -11 12 -26q12 -11 25 -13z" />
    <glyph glyph-name="AE" unicode="&#xc6;" horiz-adv-x="1026" 
d="M340 706h615v-137h-308v-143h291v-136h-291v-155h315v-135h-493v290h-155l-161 -290h-203zM470 426v60q0 15 2.5 56.5t2.5 60.5l-94 -177h89z" />
    <glyph glyph-name="Ccedilla" unicode="&#xc7;" horiz-adv-x="704" 
d="M209 -153l14 -1h15q60 0 60 32q0 20 -38 38l32 92l82 -6l-16 -47q32 -19 42 -32q17 -20 17 -49q0 -107 -185 -107l-36 3zM651 489q-90 45 -113 54q-66 25 -122 25q-102 0 -168.5 -61.5t-66.5 -161.5q0 -92 70 -149q64 -53 159 -53q100 0 249 87l-1 -165
q-149 -79 -275 -79q-156 0 -269 95q-119 101 -119 254q0 173 115 281q112 104 286 104q130 0 255 -69v-162z" />
    <glyph glyph-name="Egrave" unicode="&#xc8;" 
d="M269 894l80 -138h-101l-128 138h149zM41 706h487v-135h-309v-144h292v-135h-292v-157h316v-135h-494v706z" />
    <glyph glyph-name="Eacute" unicode="&#xc9;" 
d="M271 894h148l-125 -138h-99zM41 706h487v-135h-309v-144h292v-135h-292v-157h316v-135h-494v706z" />
    <glyph glyph-name="Ecircumflex" unicode="&#xca;" 
d="M207 894h124l114 -139h-131l-46 53l-46 -53h-129zM41 706h487v-135h-309v-144h292v-135h-292v-157h316v-135h-494v706z" />
    <glyph glyph-name="Edieresis" unicode="&#xcb;" 
d="M409 898q26 0 49.5 -21t23.5 -49q0 -31 -20 -52q-18 -21 -50 -21q-31 0 -51 20t-20 51q0 27 20 49.5t48 22.5zM121 898q29 0 52 -20.5t23 -49.5q0 -31 -19.5 -52.5t-48.5 -21.5q-33 0 -53.5 21.5t-20.5 53.5q0 26 21 47.5t46 21.5zM41 706h487v-135h-309v-144h292v-135
h-292v-157h316v-135h-494v706z" />
    <glyph glyph-name="Igrave" unicode="&#xcc;" horiz-adv-x="301" 
d="M142 894l80 -138h-101l-128 138h149zM60 706h166v-706h-166v706z" />
    <glyph glyph-name="Iacute" unicode="&#xcd;" horiz-adv-x="301" 
d="M143 894h148l-125 -138h-98zM59 706h166v-706h-166v706z" />
    <glyph glyph-name="Icircumflex" unicode="&#xce;" horiz-adv-x="301" 
d="M77 894h124l114 -139h-131l-46 53l-46 -53h-129zM57 706h166v-706h-166v706z" />
    <glyph glyph-name="Idieresis" unicode="&#xcf;" horiz-adv-x="301" 
d="M272 898q26 0 49.5 -21t23.5 -49q0 -31 -20 -52q-18 -21 -50 -21q-31 0 -51 20t-20 51q0 27 20 49.5t48 22.5zM-16 898q29 0 52 -20.5t23 -49.5q0 -31 -19.5 -52.5t-48.5 -21.5q-32 0 -53 21t-21 54q0 24 20.5 46.5t46.5 22.5zM50 706h166v-706h-166v706z" />
    <glyph glyph-name="Ntilde" unicode="&#xd1;" horiz-adv-x="845" 
d="M317 893q30 0 78.5 -22.5t69.5 -22.5q24 0 52 46l62 -36q-6 -29 -40.5 -63t-66.5 -34q-27 0 -75.5 22.5t-73.5 22.5q-27 0 -56 -50l-64 38q15 38 45 66q33 33 69 33zM31 706h178l324 -386l55 -75q-4 24 -6 49.5t-2 60.5v351h178v-706h-178l-313 373q-11 13 -28.5 36
t-37.5 53q4 -36 6 -61.5t2 -46.5v-354h-178v706z" />
    <glyph glyph-name="Ograve" unicode="&#xd2;" horiz-adv-x="845" 
d="M383 894l80 -138h-101l-127 138h148zM385 720q87 0 156.5 -23t126.5 -72q119 -101 119 -268q0 -170 -113.5 -270.5t-284.5 -100.5q-172 0 -284 94q-118 100 -118 270q0 173 114 274q108 96 284 96zM388 142q90 0 152 58.5t62 149.5q0 96 -59.5 155.5t-157.5 59.5
q-96 0 -155 -56.5t-59 -153.5q0 -94 61 -153.5t156 -59.5z" />
    <glyph glyph-name="Oacute" unicode="&#xd3;" horiz-adv-x="845" 
d="M384 894h149l-125 -138h-99zM385 720q87 0 156.5 -23t126.5 -72q119 -101 119 -268q0 -170 -113.5 -270.5t-284.5 -100.5q-172 0 -284 94q-118 100 -118 270q0 173 114 274q108 96 284 96zM388 142q90 0 152 58.5t62 149.5q0 96 -59.5 155.5t-157.5 59.5
q-96 0 -155 -56.5t-59 -153.5q0 -94 61 -153.5t156 -59.5z" />
    <glyph glyph-name="Ocircumflex" unicode="&#xd4;" horiz-adv-x="845" 
d="M321 894h125l113 -139h-131l-46 53l-46 -53h-128zM385 720q87 0 156.5 -23t126.5 -72q119 -101 119 -268q0 -170 -113.5 -270.5t-284.5 -100.5q-172 0 -284 94q-118 100 -118 270q0 173 114 274q108 96 284 96zM388 142q90 0 152 58.5t62 149.5q0 96 -59.5 155.5
t-157.5 59.5q-96 0 -155 -56.5t-59 -153.5q0 -94 61 -153.5t156 -59.5z" />
    <glyph glyph-name="Otilde" unicode="&#xd5;" horiz-adv-x="845" 
d="M310 893q30 0 78.5 -22.5t69.5 -22.5q24 0 52 46l62 -36q-6 -29 -40.5 -63t-66.5 -34q-27 0 -75.5 22.5t-73.5 22.5q-27 0 -56 -50l-64 38q15 38 45 66q33 33 69 33zM385 720q87 0 156.5 -23t126.5 -72q119 -101 119 -268q0 -170 -113.5 -270.5t-284.5 -100.5
q-172 0 -284 94q-118 100 -118 270q0 173 114 274q108 96 284 96zM388 142q90 0 152 58.5t62 149.5q0 96 -59.5 155.5t-157.5 59.5q-96 0 -155 -56.5t-59 -153.5q0 -94 61 -153.5t156 -59.5z" />
    <glyph glyph-name="Odieresis" unicode="&#xd6;" horiz-adv-x="845" 
d="M385 720q87 0 156.5 -23t126.5 -72q119 -101 119 -268q0 -170 -113.5 -270.5t-284.5 -100.5q-172 0 -284 94q-118 100 -118 270q0 173 114 274q108 96 284 96zM388 142q90 0 152 58.5t62 149.5q0 96 -59.5 155.5t-157.5 59.5q-96 0 -155 -56.5t-59 -153.5
q0 -94 61 -153.5t156 -59.5zM512 899q30 0 51.5 -22t21.5 -51q0 -30 -20 -50t-50 -20q-31 0 -51 20t-20 51q0 27 20 49.5t48 22.5zM224 899q28 0 51.5 -20.5t23.5 -49.5q0 -30 -19 -52t-49 -22q-34 0 -54 21t-20 54q0 26 21 47.5t46 21.5z" />
    <glyph glyph-name="Oslash" unicode="&#xd8;" horiz-adv-x="845" 
d="M688 774l58 -50l-79 -99q122 -110 122 -274q0 -168 -117 -270q-110 -95 -283 -95q-127 0 -213 46l-86 -102l-59 46l82 101q-60 42 -94 125q-15 38 -23 76.5t-8 78.5q0 167 118 269q112 95 282 95q103 0 213 -50zM495 539q-57 24 -105 24q-98 0 -158.5 -57.5t-60.5 -155.5
q0 -76 52 -141zM386 141q95 0 157 60t62 155q0 71 -49 135l-270 -327q58 -23 100 -23z" />
    <glyph glyph-name="Ugrave" unicode="&#xd9;" horiz-adv-x="805" 
d="M370 894l79 -138h-100l-128 138h149zM25 706h177v-382q0 -84 41 -134t126 -50q102 0 141 55q32 46 32 152v359h179v-405q0 -155 -99 -238q-92 -77 -250 -77q-131 0 -222 59q-103 66 -121 188l-4 87v386z" />
    <glyph glyph-name="Uacute" unicode="&#xda;" horiz-adv-x="805" 
d="M371 894h149l-126 -138h-98zM25 706h177v-382q0 -84 41 -134t126 -50q102 0 141 55q32 46 32 152v359h179v-405q0 -155 -99 -238q-92 -77 -250 -77q-131 0 -222 59q-103 66 -121 188l-4 87v386z" />
    <glyph glyph-name="Ucircumflex" unicode="&#xdb;" horiz-adv-x="805" 
d="M307 894h125l113 -139h-130l-47 53l-45 -53h-128zM25 706h177v-382q0 -84 41 -134t126 -50q102 0 141 55q32 46 32 152v359h179v-405q0 -155 -99 -238q-92 -77 -250 -77q-131 0 -222 59q-103 66 -121 188l-4 87v386z" />
    <glyph glyph-name="Udieresis" unicode="&#xdc;" horiz-adv-x="805" 
d="M25 706h177v-382q0 -84 41 -134t126 -50q102 0 141 55q32 46 32 152v359h179v-405q0 -155 -99 -238q-92 -77 -250 -77q-131 0 -222 59q-103 66 -121 188l-4 87v386zM512 898q27 0 49.5 -20.5t22.5 -49.5q0 -31 -18.5 -52t-50.5 -21q-31 0 -51 20t-20 51q0 28 19.5 50
t48.5 22zM224 898q30 0 52.5 -22t22.5 -54q0 -28 -20 -48t-48 -20q-32 0 -53 20t-21 52q0 28 20 50t47 22z" />
    <glyph glyph-name="germandbls" unicode="&#xdf;" horiz-adv-x="604" 
d="M34 482q0 114 66.5 176.5t182.5 62.5q93 0 154 -43q68 -48 68 -139q0 -42 -20 -80t-58 -54q62 -29 85.5 -72t23.5 -114q0 -106 -60.5 -168.5t-165.5 -62.5q-34 0 -71 10v116q20 -5 45 -5q90 0 90 126q0 64 -28 93t-94 29v93h5q36 0 63 18t27 55q0 35 -17 59.5t-52 24.5
q-62 0 -78 -56q-3 -12 -5 -38.5t-2 -68.5l-1 -444h-158v482z" />
    <glyph glyph-name="agrave" unicode="&#xe0;" horiz-adv-x="523" 
d="M248 706l65 -177h-105l-122 177h162zM265 290q0 37 -15.5 58t-54.5 21q-77 0 -173 -84l1 127q101 64 204 64q120 0 163 -62q33 -48 33 -175v-91l2 -25q3 -7 19 -11q13 3 24.5 6.5t27.5 10.5v-95q-105 -47 -145 -47q-53 0 -79 47l-72 -36q-21 -8 -39 -12t-40 -4
q-27 0 -48.5 8t-42.5 27q-39 35 -39 86q0 79 102 130q35 17 172 57zM263 120v84q-53 -17 -71 -27q-39 -21 -39 -58q0 -32 37 -32q17 0 73 33z" />
    <glyph glyph-name="aacute" unicode="&#xe1;" horiz-adv-x="523" 
d="M224 706h158l-119 -177h-103zM265 290q0 37 -15.5 58t-54.5 21q-77 0 -173 -84l1 127q101 64 204 64q120 0 163 -62q33 -48 33 -175v-91l2 -25q3 -7 19 -11q13 3 24.5 6.5t27.5 10.5v-95q-105 -47 -145 -47q-53 0 -79 47l-72 -36q-21 -8 -39 -12t-40 -4q-27 0 -48.5 8
t-42.5 27q-39 35 -39 86q0 79 102 130q35 17 172 57zM263 120v84q-53 -17 -71 -27q-39 -21 -39 -58q0 -32 37 -32q17 0 73 33z" />
    <glyph glyph-name="acircumflex" unicode="&#xe2;" horiz-adv-x="523" 
d="M162 706h140l126 -176h-126l-68 91l-66 -92h-126zM265 290q0 37 -15.5 58t-54.5 21q-77 0 -173 -84l1 127q101 64 204 64q120 0 163 -62q33 -48 33 -175v-91l2 -25q3 -7 19 -11q13 3 24.5 6.5t27.5 10.5v-95q-105 -47 -145 -47q-53 0 -79 47l-72 -36q-21 -8 -39 -12
t-40 -4q-27 0 -48.5 8t-42.5 27q-39 35 -39 86q0 79 102 130q35 17 172 57zM263 120v84q-53 -17 -71 -27q-39 -21 -39 -58q0 -32 37 -32q17 0 73 33z" />
    <glyph glyph-name="atilde" unicode="&#xe3;" horiz-adv-x="523" 
d="M169 688q32 0 84 -27t74 -27q27 0 45 45l75 -49q-15 -40 -47 -70q-37 -34 -73 -34q-25 0 -79 28.5t-78 28.5q-11 0 -29 -19l-21 -30l-76 47q63 107 125 107zM265 290q0 37 -15.5 58t-54.5 21q-77 0 -173 -84l1 127q101 64 204 64q120 0 163 -62q33 -48 33 -175v-91l2 -25
q3 -7 19 -11q13 3 24.5 6.5t27.5 10.5v-95q-105 -47 -145 -47q-53 0 -79 47l-72 -36q-21 -8 -39 -12t-40 -4q-27 0 -48.5 8t-42.5 27q-39 35 -39 86q0 79 102 130q35 17 172 57zM263 120v84q-53 -17 -71 -27q-39 -21 -39 -58q0 -32 37 -32q17 0 73 33z" />
    <glyph glyph-name="adieresis" unicode="&#xe4;" horiz-adv-x="523" 
d="M265 290q0 37 -15.5 58t-54.5 21q-78 0 -173 -84v127q101 64 204 64q124 0 165 -62q32 -49 32 -176v-90l2 -25q3 -7 19 -11q13 3 24.5 6.5t27.5 10.5v-95q-105 -47 -145 -47q-53 0 -79 47l-72 -36q-21 -8 -39 -12t-40 -4q-27 0 -48.5 8t-42.5 27q-39 35 -39 86
q0 79 102 130q35 17 172 57zM263 120v84q-53 -17 -71 -27q-39 -21 -39 -58q0 -32 37 -32q17 0 73 33zM354 691q31 0 55.5 -21.5t24.5 -54.5q0 -34 -21.5 -57t-55.5 -23q-33 0 -56.5 21t-23.5 56q0 33 21.5 56t55.5 23zM104 691q31 0 56 -22t25 -54q0 -34 -21.5 -57
t-55.5 -23q-33 0 -56.5 21t-23.5 56q0 32 21 55.5t55 23.5z" />
    <glyph glyph-name="aring" unicode="&#xe5;" horiz-adv-x="523" 
d="M265 290q0 37 -15.5 58t-54.5 21q-78 0 -173 -84v127q101 64 204 64q124 0 165 -62q32 -49 32 -176v-90l2 -25q3 -7 19 -11q13 3 24.5 6.5t27.5 10.5v-95q-105 -47 -145 -47q-53 0 -79 47l-72 -36q-21 -8 -39 -12t-40 -4q-27 0 -48.5 8t-42.5 27q-39 35 -39 86
q0 79 102 130q35 17 172 57zM263 120v84q-53 -17 -71 -27q-39 -21 -39 -58q0 -32 37 -32q17 0 73 33zM233 732q47 0 79.5 -35t32.5 -82q0 -49 -34.5 -81t-83.5 -32q-45 0 -78 34.5t-33 79.5q0 48 33 82t84 34zM232 571q14 0 27.5 11.5t15.5 28.5v15q0 13 -14.5 25t-29.5 12
q-20 0 -33.5 -13t-13.5 -33q0 -21 13.5 -33.5t34.5 -12.5z" />
    <glyph glyph-name="ae" unicode="&#xe6;" horiz-adv-x="764" 
d="M255 294v13q0 64 -73 64q-75 0 -173 -82v126q56 29 107.5 45t95.5 16q72 0 125 -37q76 38 131 38q117 0 181 -76q30 -35 46.5 -83.5t16.5 -107.5l-308 -5l3 -28q6 -39 47 -62q34 -20 78 -20q79 0 168 58v-114l-97 -38q-48 -18 -104 -18q-67 0 -103 16q-14 6 -89 55
q-116 -71 -185 -71q-60 0 -99 32q-45 33 -45 90q0 76 105 129q40 20 172 60zM546 300q-15 77 -71 77q-47 0 -71 -77h142zM255 122v82q-116 -33 -116 -84q0 -33 40 -33q29 0 76 35z" />
    <glyph glyph-name="ccedilla" unicode="&#xe7;" horiz-adv-x="463" 
d="M94 -153l13 -1h13q64 0 64 32q0 20 -38 38l32 92l82 -6l-16 -47q34 -22 42 -32q17 -20 17 -49q0 -107 -188 -107l-33 3zM422 320q-49 34 -122 34q-56 0 -93.5 -36.5t-37.5 -92.5q0 -54 39.5 -86.5t93.5 -32.5q45 0 128 35v-124q-83 -34 -151 -34q-113 0 -191 63
q-83 68 -83 180q0 107 78 181q75 69 186 69q89 0 153 -32v-124z" />
    <glyph glyph-name="egrave" unicode="&#xe8;" horiz-adv-x="544" 
d="M258 706l67 -177h-105l-122 177h160zM172 207q5 -53 41.5 -81.5t90.5 -28.5q82 0 174 58v-115q-120 -57 -211 -57q-112 0 -187.5 70.5t-75.5 182.5q0 104 72.5 172t178.5 68q107 0 175 -72q63 -69 63 -180v-13zM332 301q-3 32 -24.5 55t-51.5 23q-57 0 -80 -78h156z" />
    <glyph glyph-name="eacute" unicode="&#xe9;" horiz-adv-x="544" 
d="M235 706h158l-118 -177h-103zM172 207q5 -53 41.5 -81.5t90.5 -28.5q82 0 174 58v-115q-120 -57 -211 -57q-112 0 -187.5 70.5t-75.5 182.5q0 104 72.5 172t178.5 68q107 0 175 -72q63 -69 63 -180v-13zM332 301q-3 32 -24.5 55t-51.5 23q-57 0 -80 -78h156z" />
    <glyph glyph-name="ecircumflex" unicode="&#xea;" horiz-adv-x="544" 
d="M174 706h139l127 -176h-127l-67 91l-66 -92h-127zM172 207q5 -53 41.5 -81.5t90.5 -28.5q82 0 174 58v-115q-120 -57 -211 -57q-112 0 -187.5 70.5t-75.5 182.5q0 104 72.5 172t178.5 68q107 0 175 -72q63 -69 63 -180v-13zM332 301q-3 32 -24.5 55t-51.5 23
q-57 0 -80 -78h156z" />
    <glyph glyph-name="edieresis" unicode="&#xeb;" horiz-adv-x="544" 
d="M369 691q32 0 55.5 -21.5t23.5 -54.5q0 -34 -21.5 -57t-54.5 -23q-34 0 -58 21q-22 22 -22 56q0 33 21.5 56t55.5 23zM118 691q32 0 57 -22t25 -54t-23 -56t-54 -24q-33 0 -57 21.5t-24 55.5q0 32 21 55.5t55 23.5zM172 207q5 -53 41.5 -81.5t90.5 -28.5q82 0 174 58
v-115q-120 -57 -211 -57q-112 0 -187.5 70.5t-75.5 182.5q0 104 72.5 172t178.5 68q107 0 175 -72q63 -69 63 -180v-13zM332 301q-3 32 -24.5 55t-51.5 23q-57 0 -80 -78h156z" />
    <glyph glyph-name="igrave" unicode="&#xec;" horiz-adv-x="282" 
d="M144 706l66 -177h-105l-121 177h160zM52 459h160v-459h-160v459z" />
    <glyph glyph-name="iacute" unicode="&#xed;" horiz-adv-x="282" 
d="M121 706h158l-119 -177h-103zM52 459h160v-459h-160v459z" />
    <glyph glyph-name="icircumflex" unicode="&#xee;" horiz-adv-x="282" 
d="M54 706h140l126 -176h-126l-68 91l-66 -92h-127zM47 459h160v-459h-160v459z" />
    <glyph glyph-name="idieresis" unicode="&#xef;" horiz-adv-x="282" 
d="M247 691q31 0 55.5 -21.5t24.5 -54.5q0 -34 -21.5 -57t-55.5 -23q-33 0 -56.5 21t-23.5 56q0 33 21.5 56t55.5 23zM-3 691q34 0 57.5 -21.5t23.5 -54.5q0 -31 -21.5 -55.5t-54.5 -24.5q-34 0 -57.5 21.5t-23.5 55.5q0 33 21.5 56t54.5 23zM45 459h160v-459h-160v459z" />
    <glyph glyph-name="ntilde" unicode="&#xf1;" 
d="M204 688q32 0 83 -27t74 -27q24 0 45 45l75 -49q-30 -51 -48 -69q-33 -35 -73 -35q-24 0 -78 28.5t-77 28.5t-51 -49l-76 47q63 107 126 107zM35 459h161q0 -13 -0.5 -27t-7.5 -32q75 75 158 75q85 0 127 -72q33 -59 33 -151v-252h-159v255q0 92 -67 92q-21 0 -46 -13.5
t-39 -30.5v-303h-160v459z" />
    <glyph glyph-name="ograve" unicode="&#xf2;" 
d="M277 706l66 -177h-104l-123 177h161zM267 476q111 0 187.5 -68.5t76.5 -181.5q0 -108 -79.5 -175.5t-188.5 -67.5q-110 0 -185.5 69t-75.5 181q0 108 77 175.5t188 67.5zM270 100q46 0 72 41q24 35 24 82q0 55 -23 92q-28 43 -81 43q-45 0 -71.5 -39.5t-26.5 -85.5
q0 -54 25.5 -93.5t80.5 -39.5z" />
    <glyph glyph-name="oacute" unicode="&#xf3;" 
d="M254 706h158l-118 -177h-104zM267 476q111 0 187.5 -68.5t76.5 -181.5q0 -108 -79.5 -175.5t-188.5 -67.5q-110 0 -185.5 69t-75.5 181q0 108 77 175.5t188 67.5zM270 100q46 0 72 41q24 35 24 82q0 55 -23 92q-28 43 -81 43q-45 0 -71.5 -39.5t-26.5 -85.5
q0 -54 25.5 -93.5t80.5 -39.5z" />
    <glyph glyph-name="ocircumflex" unicode="&#xf4;" 
d="M192 706h140l126 -176h-126l-68 91l-66 -92h-126zM267 476q111 0 187.5 -68.5t76.5 -181.5q0 -108 -79.5 -175.5t-188.5 -67.5q-110 0 -185.5 69t-75.5 181q0 108 77 175.5t188 67.5zM270 100q46 0 72 41q24 35 24 82q0 55 -23 92q-28 43 -81 43q-45 0 -71.5 -39.5
t-26.5 -85.5q0 -54 25.5 -93.5t80.5 -39.5z" />
    <glyph glyph-name="otilde" unicode="&#xf5;" 
d="M199 688q32 0 84 -27t74 -27q25 0 45 45l75 -49q-30 -51 -48 -69q-33 -35 -73 -35q-24 0 -79 28.5t-76 28.5q-23 0 -51 -49l-76 47q63 107 125 107zM268 476q111 0 187.5 -68.5t76.5 -181.5q0 -108 -79.5 -175.5t-188.5 -67.5q-110 0 -185.5 69t-75.5 181q0 108 77 175.5
t188 67.5zM271 100q46 0 72 41q24 35 24 82q0 55 -23 92q-28 43 -81 43q-45 0 -71.5 -39.5t-26.5 -85.5q0 -54 25.5 -93.5t80.5 -39.5z" />
    <glyph glyph-name="odieresis" unicode="&#xf6;" 
d="M267 476q111 0 187.5 -68.5t76.5 -181.5q0 -108 -79.5 -175.5t-188.5 -67.5q-110 0 -185.5 69t-75.5 181q0 108 77 175.5t188 67.5zM270 100q46 0 72 41q24 35 24 82q0 55 -23 92q-28 43 -81 43q-45 0 -71.5 -39.5t-26.5 -85.5q0 -54 25.5 -93.5t80.5 -39.5zM389 691
q32 0 55.5 -21.5t23.5 -54.5q0 -34 -21.5 -57t-54.5 -23q-36 0 -59 22q-21 23 -21 61q0 29 24 51t53 22zM138 691q35 0 58 -23q23 -21 23 -58q0 -29 -24 -53q-24 -22 -53 -22q-34 0 -57 21.5t-23 55.5q0 32 21 55.5t55 23.5z" />
    <glyph glyph-name="divide" unicode="&#xf7;" horiz-adv-x="524" 
d="M-2 279h505v-52h-505v52zM245 438q21 0 37.5 -16t16.5 -38q0 -21 -16 -37.5t-38 -16.5q-21 0 -37 15.5t-16 38.5q0 20 15 38q16 16 38 16zM245 176q21 0 37.5 -16t16.5 -38q0 -21 -16 -37.5t-38 -16.5q-21 0 -37 15.5t-16 38.5q0 20 15 38q16 16 38 16z" />
    <glyph glyph-name="oslash" unicode="&#xf8;" 
d="M57 71q-56 70 -56 158q0 111 76 181q72 66 186 66q69 0 162 -43l75 75l42 -41l-72 -75q60 -60 60 -160q0 -110 -76 -180t-186 -70q-89 0 -166 48l-72 -70l-42 41zM324 335l-9 8q-36 15 -50 15q-101 0 -101 -146l5 -30zM262 101q49 0 78 39q25 34 25 86q0 31 -7 56
l-158 -155q28 -26 62 -26z" />
    <glyph glyph-name="ugrave" unicode="&#xf9;" 
d="M281 706l67 -177h-105l-122 177h160zM35 459h159v-248q0 -99 65 -99q26 0 48 14l40 30v303h159v-459h-159v26q0 18 5 34q-63 -78 -149 -78q-168 0 -168 224v253z" />
    <glyph glyph-name="uacute" unicode="&#xfa;" 
d="M258 706h158l-118 -177h-104zM35 459h159v-248q0 -99 65 -99q26 0 48 14l40 30v303h159v-459h-159v26q0 18 5 34q-63 -78 -149 -78q-168 0 -168 224v253z" />
    <glyph glyph-name="ucircumflex" unicode="&#xfb;" 
d="M196 706h140l127 -176h-127l-67 91l-67 -92h-126zM35 459h159v-248q0 -99 65 -99q26 0 48 14l40 30v303h159v-459h-159v26q0 18 5 34q-63 -78 -149 -78q-168 0 -168 224v253z" />
    <glyph glyph-name="udieresis" unicode="&#xfc;" 
d="M35 459h159v-248q0 -99 65 -99q26 0 48 14l40 30v303h159v-459h-159v26q0 18 5 34q-63 -78 -149 -78q-168 0 -168 224v253zM395 691q32 0 55 -23q23 -21 23 -53q0 -34 -21.5 -57t-54.5 -23t-56.5 21t-23.5 56q0 33 22.5 56t55.5 23zM144 691q31 0 56 -22t25 -54t-23 -56
q-21 -24 -54 -24t-57 21.5t-24 55.5q0 33 21.5 56t55.5 23z" />
    <glyph glyph-name="ydieresis" unicode="&#xff;" horiz-adv-x="523" 
d="M355 691q31 0 55.5 -21.5t24.5 -54.5q0 -34 -21.5 -57t-55.5 -23t-57 21.5t-23 55.5q0 33 21.5 56t55.5 23zM106 691q31 0 55.5 -21.5t24.5 -54.5q0 -34 -21.5 -57t-55.5 -23t-57 21.5t-23 55.5q0 33 21.5 56t55.5 23zM152 459q31 -59 88 -198q9 30 28 77t54 121h168
l-320 -717h-173l159 343l-179 374h175z" />
    <glyph glyph-name="dotlessi" unicode="&#x131;" horiz-adv-x="282" 
d="M49 459h160v-459h-160v459z" />
    <glyph glyph-name="caron" unicode="&#x2c7;" horiz-adv-x="0" 
d="M-66 706l66 -93l67 93h127l-127 -177h-139l-121 177h127z" />
    <glyph glyph-name="fraction" unicode="&#x2215;" horiz-adv-x="121" 
d="M192 734l55 -28l-360 -736l-55 30z" />
    <glyph glyph-name="c128" unicode="&#x112;" horiz-adv-x="524" 
d="M421 500l-73 -130h158v-53h-187l-75 -134h262v-52h-290l-87 -155l-47 27l71 128h-151v52h181l74 134h-255v53h285l87 157z" />
    <glyph glyph-name="c129" unicode="&#x113;" horiz-adv-x="682" 
d="M511 388q53 0 93.5 -39.5t40.5 -93.5t-38 -95t-90 -41q-56 0 -104 32q-19 12 -85 71q-63 -56 -85 -71q-49 -32 -105 -32q-53 0 -91 42t-38 95q0 55 41 93.5t95 38.5q48 0 99 -35q32 -20 84 -68l36 32q27 23 49.5 38t48 24t49.5 9zM145 338q-35 0 -60.5 -27t-25.5 -62
q0 -34 27 -60q27 -24 64 -24q40 0 81 29q19 13 66 59q-45 39 -70 56q-46 29 -82 29zM508 166q36 0 63 24t27 59q0 36 -24.5 62.5t-61.5 26.5q-54 0 -152 -85q45 -43 66 -58q41 -29 82 -29z" />
    <glyph glyph-name="c141" unicode="&#x114;" horiz-adv-x="585" 
d="M571 0h-578l307 660zM56 47h396l-187 449z" />
    <glyph glyph-name="c142" unicode="&#x115;" horiz-adv-x="472" 
d="M194 0l-187 362l187 353h57l186 -353l-186 -362h-57zM222 663l-157 -301l157 -310l158 310z" />
    <glyph glyph-name="mu1" unicode="&#x116;" horiz-adv-x="551" 
d="M129 480v-319q0 -47 22.5 -78.5t68.5 -31.5q30 0 62 22t46 51v356h82v-369q0 -27 13 -53.5t39 -26.5q25 0 37 23l14 44l19 -1q-24 -113 -117 -113q-41 0 -62 28q-12 18 -23 67q-66 -95 -152 -95q-29 0 -52 16l-45 31v-22q0 -26 15.5 -78.5t15.5 -75.5q0 -25 -11 -47
t-34 -22t-35 21.5t-12 46.5q0 26 13.5 78t13.5 77v471h82z" />
    <glyph glyph-name="c279" unicode="&#x117;" horiz-adv-x="342" 
d="M-1 330h307v-159h-307v159z" />
    <glyph glyph-name="uni20AC" unicode="&#x20ac;" horiz-adv-x="802" 
d="M-1 221l47 110h46v4l1 36h-94l47 110h71q40 110 141.5 174.5t234.5 64.5q129 0 255 -69v-162q-90 45 -113 54q-67 25 -122 25q-124 0 -192 -87h323l-47 -110h-318l-1 -26v-14h304l-47 -110h-213q66 -78 185 -78q99 0 249 87l-1 -165q-74 -39 -143 -59t-132 -20
q-122 0 -225.5 64t-142.5 171h-113z" />
    <glyph glyph-name="c281" unicode="&#x119;" horiz-adv-x="802" 
d="M748 489q-90 45 -113 54q-67 25 -122 25q-102 0 -168.5 -61.5t-66.5 -161.5q0 -92 69 -149q65 -53 160 -53q99 0 249 87l-1 -165q-74 -39 -143 -59t-132 -20q-156 0 -269 95q-119 101 -119 254q0 173 113 279t288 106q129 0 255 -69v-162zM-1 371l47 110h598l-47 -110
h-598zM-1 221l47 110h536l-47 -110h-536z" />
    </font>
</defs>
</svg>
