<?xml version="1.0" encoding="UTF-8" standalone="no"?>
<!DOCTYPE svg  PUBLIC '-//W3C//DTD SVG 1.1//EN'  'http://www.w3.org/Graphics/SVG/1.1/DTD/svg11.dtd'>
<svg xmlns="http://www.w3.org/2000/svg">
<defs>
<font id="Lexia-Regular" horiz-adv-x="542">
<font-face underline-position="-50" font-weight="400" descent="-200" panose-1="2 6 5 3 4 2 2 2 2 3" units-per-em="1000" unicode-range="U+0008-25CA" bbox="-204 -218 1017 923" x-height="507" underline-thickness="50" font-family="Lexia" ascent="800" cap-height="729"/>
<missing-glyph horiz-adv-x="1000"/>
<glyph glyph-name=".notdef" horiz-adv-x="1000"/>
<glyph glyph-name=".null" horiz-adv-x="0"/>
<glyph glyph-name=".null" horiz-adv-x="0"/>
<glyph glyph-name=".null" horiz-adv-x="0"/>
<glyph glyph-name="nonmarkingreturn" horiz-adv-x="1000" unicode="	"/>
<glyph glyph-name="nonmarkingreturn" horiz-adv-x="1000" unicode=""/>
<glyph glyph-name="space" horiz-adv-x="269" unicode=" "/>
<glyph glyph-name="exclam" horiz-adv-x="269" unicode="!" d="M135 -14q-25 0 -43 20t-18 47t18 47t43 20t43 -20t18 -47t-18 -47t-43 -20zM82 729h106l-18 -540h-70z"/>
<glyph glyph-name="quotedbl" horiz-adv-x="462" unicode='&quot;' d="M89 729h103l-24 -261h-55zM268 729h103l-24 -261h-55z"/>
<glyph glyph-name="numbersign" horiz-adv-x="575" unicode="#" d="M318 280l46 168h-108l-45 -168h107zM123 223h-113l15 57h113l46 168h-113l15 57h113l61 224h72l-61 -224h108l62 224h72l-61 -224h113l-15 -57h-113l-47 -168h114l-15 -57h-112l-60 -223h-72l59 223h-109l-59 -223h-72z"/>
<glyph glyph-name="dollar" d="M295 53q71 2 103 33t32 79q0 51 -34 79t-101 50v-241zM245 393v223q-63 0 -95 -30t-33 -83q0 -27 11 -45q10 -18 28 -30t40 -20t42 -13zM26 215q18 5 33 5q19 0 32 -5v-20q1 -23 9 -45t27 -42t48 -34t70 -19v254l-69 20q-27 7 -52 21t-44 34q-18 20 -30 47t-12 61 q0 44 15 80t43 60t65 38q38 13 84 13v69h50v-73q51 -9 81 -33t41 -48v69q13 6 31 6t32 -6v-200q-13 -5 -33 -5q-9 0 -17 1t-14 4v14q0 19 -6 39t-21 39q-14 19 -37 33t-57 20v-235l48 -15q39 -12 71 -28t54 -38t35 -54q12 -32 12 -76q0 -40 -15 -73q-16 -33 -44 -57t-68 -38 t-93 -14v-96h-50v98q-63 8 -99 32t-56 54v-72q-15 -6 -33 -6q-16 0 -31 6v215z" unicode="$"/>
<glyph glyph-name="percent" horiz-adv-x="914" unicode="%" d="M216 393q24 0 44 9q20 8 36 24t24 36t8 44t-9 44t-24 35t-35 23t-43 9q-25 0 -45 -9t-36 -24q-16 -16 -24 -36t-8 -42q0 -26 9 -47t25 -35t35 -23q20 -8 43 -8zM698 50q24 0 44 9t36 25t24 36t8 43t-9 43t-24 36t-35 24t-43 8q-25 0 -45 -9t-36 -24t-24 -35t-8 -43 q0 -26 9 -47q9 -22 25 -36t35 -22q20 -8 43 -8zM38 506q0 38 14 70t38 56t58 38q32 14 69 13q37 0 69 -14t56 -38t38 -56t14 -69q0 -38 -14 -70t-38 -56t-56 -39q-32 -14 -69 -14t-69 14t-58 38q-24 25 -38 57t-14 70zM615 683h75l-387 -699h-75zM520 163q0 37 14 69t38 57 q24 23 58 37q32 14 69 14t69 -14t56 -38t38 -56t14 -69t-14 -69t-38 -58q-24 -24 -56 -38t-69 -14t-69 14t-58 38q-24 24 -38 56t-14 71z"/>
<glyph glyph-name="ampersand" horiz-adv-x="687" unicode="&amp;" d="M258 333q-62 -29 -90 -67t-28 -84q0 -56 36 -90t92 -35q52 1 88 23t62 57zM466 79q-35 -39 -85 -67t-122 -28q-60 0 -100 20q-39 20 -63 48t-34 60q-10 30 -9 50q0 36 8 68q9 32 27 60t48 52t77 47q-25 33 -39 57t-21 41t-9 29t-1 19v6q1 69 47 112t126 43q50 0 86 -14 t65 -29v-81q-35 22 -67 37t-78 15q-54 0 -75 -24t-21 -55q0 -29 24 -64t67 -88l144 -176q17 43 24 79t9 52h137q6 -15 6 -31t-6 -31h-68q-2 -13 -13 -51t-35 -83l73 -90h93q6 -15 6 -31t-6 -31h-151z"/>
<glyph glyph-name="quotesingle" horiz-adv-x="269" unicode="&apos;" d="M81 729h103l-24 -261h-55z"/>
<glyph glyph-name="parenleft" horiz-adv-x="323" unicode="(" d="M224 -180q-39 60 -69 116q-29 56 -49 115q-20 57 -30 117t-10 126t10 126t30 116q20 58 49 115q30 57 69 116h75q-31 -62 -55 -113q-24 -50 -42 -104q-17 -54 -26 -114t-9 -141t9 -142t26 -115q18 -54 42 -104q24 -52 55 -114h-75z"/>
<glyph glyph-name="parenright" horiz-adv-x="323" unicode=")" d="M24 -179q32 61 56 113t41 104q17 54 26 114t9 141t-9 142t-26 115t-41 104q-24 52 -56 114h75q39 -60 69 -116t50 -115q20 -57 29 -117q10 -60 10 -126t-10 -126q-9 -60 -29 -116q-20 -58 -50 -115t-69 -116h-75z"/>
<glyph glyph-name="asterisk" horiz-adv-x="377" unicode="*" d="M142 596l-105 29l21 60l102 -37l-4 110h64l-4 -110l102 38l21 -60l-105 -30l68 -88l-54 -35l-60 92l-59 -92l-54 35z"/>
<glyph glyph-name="plus" d="M26 370h210v210h71v-210h209v-71h-209v-209h-71v209h-210v71z" unicode="+"/>
<glyph glyph-name="comma" horiz-adv-x="269" unicode="," d="M76 -119q38 17 53 45.5t15 64.5q-8 -2 -16 -2q-33 0 -46.5 20t-13.5 44q0 26 15.5 46.5t46.5 20.5q18 0 32 -8.5t23 -22.5t14 -32.5t5 -39.5q0 -57 -17 -92.5t-39 -56t-43 -28.5t-29 -9v50z"/>
<glyph glyph-name="hyphen" horiz-adv-x="323" unicode="-" d="M274 310q6 -20 6 -42t-6 -41h-225q-6 19 -6 41t6 42h225z"/>
<glyph glyph-name="period" horiz-adv-x="269" unicode="." d="M134 -14q-26 0 -43.5 19.5t-17.5 47.5t17.5 47.5t43.5 19.5t43.5 -19.5t17.5 -47.5t-17.5 -47.5t-43.5 -19.5z"/>
<glyph glyph-name="slash" horiz-adv-x="324" unicode="/" d="M250 758h74l-250 -776h-74z"/>
<glyph glyph-name="zero" d="M415 335q-1 65 -9 115t-26 86t-45 54q-27 19 -64 19q-73 0 -109 -73t-35 -201q1 -63 9 -115t26 -88t45 -55t63 -19q37 0 64 19t45 55q19 36 27 88t8 115h1zM271 -16q-73 0 -119 35t-72 87t-34 114q-9 62 -9 115t9 114q8 61 34 113t72 86t118 35q73 -1 119 -35t72 -86 t35 -113t9 -114t-9 -115q-8 -62 -34 -114t-72 -87t-119 -35z" unicode="0"/>
<glyph glyph-name="one" d="M241 66v535h-133q-6 18 -6 33q0 8 2 16t4 17h222v-601h124q6 -18 6 -33q0 -9 -2 -17l-4 -16h-346l-4 16t-2 17q0 15 6 33h133z" unicode="1"/>
<glyph glyph-name="two" d="M416 75v111q19 6 38 6q21 0 39 -6v-186h-465q0 46 14 86t40 76q27 36 67 71t93 74l26 19q26 19 49 37q23 17 41 37t27 42q10 22 10 49q0 57 -34 87t-94 30q-35 0 -64 -10t-53 -24q-24 -15 -44 -33t-38 -36v91q12 11 32 26q20 14 47 28t61 24t74 9q40 1 76 -11t65 -36 t45 -58q16 -35 16 -82q0 -42 -15 -76t-41 -62t-60 -55q-34 -26 -73 -52l-27 -18q-69 -46 -103 -90t-41 -68h292z" unicode="2"/>
<glyph glyph-name="three" d="M42 143q18 -12 38 -27q20 -16 44 -28q25 -12 56 -20t70 -9q32 -1 60 9t48 27t31 41t11 54q0 44 -17 68t-42 37t-53 17t-49 3h-36q-6 19 -6 36q-1 9 1 17t5 18h42q25 0 49 6t42 21t30 37t11 54q0 16 -6 34q-7 18 -21 34t-38 26t-63 11q-35 0 -65 -10t-54 -25t-41 -31 t-27 -28v89q15 18 37 32q23 14 49 24t54 17q28 6 57 6q47 1 85 -13t64 -38t40 -56t14 -69q0 -33 -8 -57t-22 -43q-12 -19 -28 -31t-30 -21q24 -8 45 -21q21 -12 37 -32t24 -46t8 -63q0 -39 -14 -77t-44 -66q-30 -30 -75 -48q-46 -18 -111 -18q-64 0 -118 19t-84 41v99z" unicode="3"/>
<glyph glyph-name="four" d="M329 236v332l-234 -332h234zM26 249l312 432h71v-445h103q6 -15 6 -34q0 -18 -6 -34h-103v-106h74q6 -15 6 -31t-6 -31h-239q-6 15 -6 31t6 31h85v106h-303v81z" unicode="4"/>
<glyph glyph-name="five" d="M53 130q21 -17 41 -30t43 -23t51 -15t62 -5q33 -1 60 11q26 12 46 32t30 50q10 28 11 62q-1 79 -39 116t-100 37q-44 0 -72 -17t-48 -48h-70l36 367h346q6 -18 6 -38q0 -9 -2 -21t-4 -22h-284l-19 -190q17 18 47 30t85 12q37 0 74 -13t67 -39t47 -68q18 -41 18 -97 q0 -31 -10 -73t-36 -79t-72 -62t-118 -25q-39 0 -71 6t-55 14t-41 19q-18 10 -29 18v91z" unicode="5"/>
<glyph glyph-name="six" d="M286 54q32 0 56 12t42 34t26 50q10 29 10 64q0 25 -6 52q-6 26 -23 48t-43 36t-66 14q-36 0 -62 -13t-43 -35t-25 -49q-8 -28 -9 -58q1 -27 9 -55t25 -50t44 -36t65 -14zM475 555q-35 23 -71 39t-86 15q-58 1 -94 -29t-56 -71t-28 -85t-7 -73q9 15 23 29t34 26t48 20 q26 8 58 8q34 0 71 -11t68 -36t51 -67t20 -102q0 -56 -16 -100t-47 -73q-30 -29 -73 -45t-97 -16q-44 0 -77 14t-57 34q-31 26 -49 62t-28 74t-14 76t-3 71q1 57 13 121t42 119t82 91t129 37q57 0 95 -13t69 -28v-87z" unicode="6"/>
<glyph glyph-name="seven" d="M420 584h-289v-111q-20 -6 -38 -6q-21 0 -39 6v194h445v-75l-285 -592h-95z" unicode="7"/>
<glyph glyph-name="eight" d="M129 189q-1 -39 13 -65t35 -41t46 -21t48 -5q23 -1 48 5t46 21t35 41t13 65q1 33 -11 59t-32 42t-44 24q-26 8 -55 8t-55 -8t-44 -24q-20 -16 -32 -42t-11 -59zM149 502q-1 -47 33 -79t89 -32t89 32t33 79q0 16 -5 35q-4 19 -18 36t-38 29t-61 11q-37 1 -61 -11t-38 -29 t-18 -36q-5 -19 -5 -35zM151 363q-14 7 -29 19t-28 28q-14 16 -22 40t-8 56q0 33 11 65t36 57t64 40t96 15t96 -15t64 -40t36 -57t11 -65q0 -32 -8 -56t-22 -40q-12 -16 -28 -28t-29 -19q30 -13 51 -33t34 -43t19 -47t6 -42q1 -44 -13 -82t-42 -68t-72 -47t-103 -17t-103 17 t-72 47t-42 68t-13 82q0 18 6 42t19 47t34 43t51 33z" unicode="8"/>
<glyph glyph-name="nine" d="M262 303q35 0 61 13q25 12 43 34t26 50t9 59q0 31 -8 59t-25 50t-43 34t-61 13q-33 0 -59 -12t-44 -34q-17 -21 -27 -51t-10 -64q0 -26 6 -53t23 -49t43 -36t66 -13zM65 115q19 -12 37 -22q18 -9 38 -17t44 -12t54 -4q54 0 88 26t54 66q20 39 26 83q7 44 7 79 q-7 -11 -21 -25q-14 -15 -36 -27t-49 -20t-59 -9q-34 1 -71 11t-68 35t-51 66t-20 102q0 53 16 97t46 74q30 31 72 48t97 17q51 0 88 -16t63 -42t40 -60q16 -34 24 -71t12 -74q3 -37 3 -68q0 -60 -12 -125t-42 -119q-31 -54 -81 -89t-127 -35q-57 0 -97 12t-75 30v89z" unicode="9"/>
<glyph glyph-name="colon" horiz-adv-x="269" unicode=":" d="M134 -14q-26 0 -43.5 19.5t-17.5 47.5t17.5 47.5t43.5 19.5t43.5 -19.5t17.5 -47.5t-17.5 -47.5t-43.5 -19.5zM134 373q-26 0 -43.5 19.5t-17.5 47.5t17.5 47.5t43.5 19.5t43.5 -19.5t17.5 -47.5t-17.5 -47.5t-43.5 -19.5z"/>
<glyph glyph-name="semicolon" horiz-adv-x="269" unicode=";" d="M76 -119q38 17 53 45.5t15 64.5q-8 -2 -16 -2q-33 0 -46.5 20t-13.5 44q0 26 15.5 46.5t46.5 20.5q18 0 32 -8.5t23 -22.5t14 -32.5t5 -39.5q0 -57 -17 -92.5t-39 -56t-43 -28.5t-29 -9v50zM138 373q-26 0 -43.5 19.5t-17.5 47.5t17.5 47.5t43.5 19.5t43.5 -19.5 t17.5 -47.5t-17.5 -47.5t-43.5 -19.5z"/>
<glyph glyph-name="less" d="M35 369l473 201v-78l-378 -157l378 -157v-77l-473 200v68z" unicode="&lt;"/>
<glyph glyph-name="equal" d="M26 272h490v-71h-490v71zM26 468h490v-71h-490v71z" unicode="="/>
<glyph glyph-name="greater" d="M35 178l378 157l-378 157v78l473 -201v-68l-473 -200v77z" unicode="&gt;"/>
<glyph glyph-name="question" horiz-adv-x="539" unicode="?" d="M253 -14q-25 0 -43 20t-18 47t18 47t43 20t43 -20t18 -47t-18 -47t-43 -20zM210 189q0 39 4 68t16 53q10 24 28 48q18 22 42 49q16 18 32 34q16 15 29 33t21 38t7 47q-1 20 -7 40t-22 36t-42 26t-62 10q-26 -1 -53 -9t-52 -22t-47 -31t-36 -34v89q15 14 36 28 q22 14 48 27q26 12 57 20t65 8q46 1 84 -13t65 -38t42 -57t15 -72q0 -55 -25 -98t-75 -95q-23 -24 -40 -43t-28 -39t-16 -45q-5 -24 -5 -58h-81z"/>
<glyph glyph-name="at" horiz-adv-x="841" unicode="@" d="M319 153q-1 -27 19 -43t53 -16q21 0 41 6t37 19q17 11 28 29t12 40l3 63l-100 -11q-44 -6 -68 -24t-25 -59v-4zM244 158q2 55 38 93t116 46l117 11l1 11v8t1 8q0 35 -20 54t-71 19q-20 0 -40 -6t-38 -14t-32 -18t-25 -17l4 71q9 6 23 14t32 16q18 7 43 12q24 5 53 5 q18 1 42 -3t48 -18q22 -14 38 -38q16 -26 16 -71v-12l-11 -214q30 7 55 25t43 45q18 26 28 59t10 69q-1 59 -23 107t-60 80q-38 33 -88 51t-106 18q-66 0 -122 -24t-96 -67t-64 -101q-22 -58 -22 -127q0 -71 24 -129q24 -59 64 -99q42 -40 99 -62t124 -22q43 0 79 6t67 16 t59 24t59 32l34 -58q-61 -37 -133 -62t-167 -25q-84 0 -155 28q-70 29 -122 79t-82 121t-29 157q1 82 31 152t82 120q52 52 122 80t148 28q70 0 133 -24t111 -65q48 -42 76 -100t28 -127q0 -68 -22 -120t-62 -87q-39 -35 -90 -52t-108 -17l3 47q-16 -22 -46 -40t-86 -18 q-57 1 -94 31t-37 86v8z"/>
<glyph glyph-name="A" horiz-adv-x="732" unicode="A" d="M478 306l-115 339l-118 -339h233zM81 70l240 668h99l231 -668h67q6 -18 6 -35t-6 -35h-246q-7 17 -7 35t7 35h86l-55 161h-284l-56 -161h86q6 -18 6 -35t-6 -35h-235q-6 18 -6 35t6 35h67z"/>
<glyph glyph-name="B" horiz-adv-x="690" unicode="B" d="M386 76q78 0 114 38t36 97q0 39 -14 64t-36 40t-52 21q-29 6 -59 6h-175v-266h186zM352 418q69 0 107 29t38 93q0 26 -7 46t-24 35q-16 15 -44 23t-69 9h-153v-235h152zM111 70v589h-75q-6 18 -6 35t6 35h346q54 1 94 -15t66 -42t37 -58q12 -33 12 -69q1 -17 -3 -37 t-14 -42q-10 -20 -27 -40t-45 -33q21 -7 44 -21t42 -35q20 -21 32 -51t12 -73t-14 -81t-44 -68t-74 -46q-44 -18 -105 -18h-359q-6 18 -6 35t6 35h75z"/>
<glyph glyph-name="C" horiz-adv-x="715" unicode="C" d="M642 76q-14 -14 -38 -30t-56 -30t-70 -24t-81 -10q-87 0 -151 30t-106 80q-42 51 -64 119q-21 68 -21 145q1 74 21 144t61 126q41 54 102 88t142 33q55 0 103 -19t86 -60v61q19 6 38 6q20 0 38 -6v-279q-21 -6 -41 -6t-41 6v48q0 36 -12 67t-35 54t-57 36t-80 13 q-62 0 -105 -28t-70 -74q-27 -44 -39 -98t-12 -107q0 -79 20 -135t55 -92q34 -36 78 -53t92 -17t87 14t70 32q30 20 52 40t34 33v-107z"/>
<glyph glyph-name="D" horiz-adv-x="735" unicode="D" d="M379 78q46 0 83 20q38 20 64 59q26 37 40 91t15 120q0 66 -15 118q-16 52 -44 90q-28 36 -70 56t-94 19h-156v-573h177zM111 70v589h-75q-6 18 -6 35t6 35h338q73 0 130 -27t96 -75q40 -48 60 -113t20 -140q0 -58 -14 -124t-48 -122t-91 -92t-143 -36h-348q-6 18 -6 35 t6 35h75z"/>
<glyph glyph-name="E" horiz-adv-x="644" unicode="E" d="M111 70v589h-75q-6 18 -6 35t6 35h547v-212q-20 -6 -39 -6q-20 0 -39 6v134h-303v-237h303q6 -20 6 -39q0 -20 -6 -39h-303v-258h310v137q21 6 39 6q20 0 38 -6v-215h-553q-6 18 -6 35t6 35h75z"/>
<glyph glyph-name="F" horiz-adv-x="609" unicode="F" d="M111 70v589h-75q-6 18 -6 35t6 35h537v-217q-18 -7 -39 -7t-39 7v137h-293v-234h279q7 -20 7 -40t-7 -40h-279v-264h90q7 -18 7 -36t-7 -35h-256q-6 18 -6 35t6 35h75z"/>
<glyph glyph-name="G" horiz-adv-x="757" unicode="G" d="M566 281h-104q-6 18 -6 35t6 35h260q6 -18 6 -35t-6 -35h-65v-221q1 -4 -1 -8t-8 -8q-14 -8 -38 -19t-56 -21t-70 -16t-79 -6q-93 0 -159 32t-109 85q-42 53 -62 122t-20 143t21 143t62 123q40 54 100 85q60 32 138 32q116 0 191 -79v60q19 6 38 6q20 0 38 -6v-256 q-20 -6 -40 -6q-21 0 -40 6v38q0 32 -12 60q-11 28 -35 50t-58 34t-78 13q-61 0 -104 -27t-70 -70q-28 -44 -40 -98t-12 -109q0 -71 19 -127t53 -94t80 -58t99 -20q29 0 51 2t42 6q18 4 34 11q16 6 34 14v184z"/>
<glyph glyph-name="H" horiz-adv-x="763" unicode="H" d="M111 70v589h-75q-6 18 -6 35t6 35h241q6 -18 6 -35t-6 -35h-75v-236h359v236h-75q-6 18 -6 35t6 35h241q6 -18 6 -35t-6 -35h-75v-589h75q6 -18 6 -35t-6 -35h-241q-6 18 -6 35t6 35h75v275h-359v-275h75q6 -18 6 -35t-6 -35h-241q-6 18 -6 35t6 35h75z"/>
<glyph glyph-name="I" horiz-adv-x="330" unicode="I" d="M119 70v589h-75q-6 18 -6 35t6 35h242q6 -18 6 -35t-6 -35h-76v-589h76q6 -18 6 -35t-6 -35h-242q-6 18 -6 35t6 35h75z"/>
<glyph glyph-name="J" horiz-adv-x="516" unicode="J" d="M21 127q9 -7 25 -17t39 -21q22 -10 49 -17t58 -7q70 -1 96 39t27 124v431h-89q-6 18 -6 35t6 35h256q6 -18 6 -35t-6 -35h-76v-429q0 -68 -16 -114t-45 -76q-29 -28 -69 -40t-87 -12q-28 0 -54 6t-48 14t-39 16t-27 15v88z"/>
<glyph glyph-name="K" horiz-adv-x="699" unicode="K" d="M111 70v589h-75q-6 18 -6 35t6 35h241q6 -18 6 -35t-6 -35h-75v-283l283 283h-91q-6 18 -6 35t6 35h262q6 -18 6 -35t-6 -35h-70l-216 -214l249 -375h71q6 -18 6 -35t-6 -35h-262q-6 18 -6 35t6 35h82l-204 312l-104 -103v-209h75q6 -18 6 -35t-6 -35h-241q-6 18 -6 35 t6 35h75z"/>
<glyph glyph-name="L" horiz-adv-x="591" unicode="L" d="M111 70v589h-75q-6 18 -6 35t6 35h252q6 -18 6 -35t-6 -35h-86v-581h276v165q21 6 39 6q20 0 38 -6v-243h-519q-6 18 -6 35t6 35h75z"/>
<glyph glyph-name="M" horiz-adv-x="907" unicode="M" d="M111 70v589h-75q-6 18 -6 35t6 35h212l170 -512q4 -11 8 -27t10 -34t10 -34l7 -28q3 12 8 30t9 35t10 32q4 15 7 24l170 514h214q6 -18 6 -35t-6 -35h-76v-589h76q6 -18 6 -35t-6 -35h-239q-6 18 -6 35t6 35h75v492q1 22 1 54t1 57l-217 -654h-89l-216 650q1 -27 1 -57 t1 -50v-492h76q6 -18 6 -35t-6 -35h-229q-6 18 -6 35t6 35h75z"/>
<glyph glyph-name="N" horiz-adv-x="757" unicode="N" d="M111 70v589h-75q-6 18 -6 35t6 35h185l294 -509q5 -9 11.5 -22t14 -29t15 -33t14.5 -33q0 15 -0.5 34.5t-1 37t-1 31t-0.5 18.5v435h-81q-6 18 -6 35t6 35h241q6 -18 6 -35t-6 -35h-80v-668h-95l-310 538q-6 10 -13.5 24.5t-15 30t-14.5 31t-13 28.5q1 -16 1.5 -36.5 t1 -40t1 -36t0.5 -23.5v-437h78q6 -18 6 -35t-6 -35h-232q-6 18 -6 35t6 35h75z"/>
<glyph glyph-name="O" horiz-adv-x="789" unicode="O" d="M395 58q52 0 96 21.5t76 61.5t50 96.5t18 126.5t-18 127t-50 97t-76 61.5t-96 21.5t-96 -21.5t-76.5 -61.5t-50.5 -97t-18 -127t18 -126.5t50.5 -96.5t76.5 -61.5t96 -21.5zM395 -18q-98 0 -163 36.5t-104.5 92.5t-56 123.5t-16.5 129.5q0 63 16.5 130.5t56 123.5 t104.5 92.5t163 36.5q65 0 115 -17t88 -45.5t64 -66.5t42 -80.5t23 -87t7 -86.5q0 -41 -7 -85.5t-23 -87t-42 -80.5t-64 -66.5t-88 -45.5t-115 -17z"/>
<glyph glyph-name="P" horiz-adv-x="637" unicode="P" d="M367 389q67 -1 105 31t38 103q0 67 -38 99t-101 31h-171v-264h167zM111 70v589h-75q-6 18 -6 35t6 35h363q51 0 89 -16t64 -44q26 -27 40 -65t14 -80q0 -36 -11 -74t-35 -68t-64 -50t-97 -19h-199v-243h86q6 -18 6 -35t-6 -35h-250q-6 18 -6 35t6 35h75z"/>
<glyph glyph-name="Q" horiz-adv-x="789" unicode="Q" d="M395 61q52 -1 96 21t76 62t50 95q18 56 18 125q0 70 -18 126t-50 96t-76 60q-44 22 -96 22t-96 -22q-45 -22 -77 -60q-32 -40 -50 -96t-18 -126q0 -69 18 -125q18 -55 50 -95t77 -62q44 -22 96 -21zM734 -93q-22 -11 -66 -23t-101 -12q-72 0 -130 32t-96 83 q-79 7 -133 45t-89 90q-34 54 -49 118t-15 124q1 62 17 130t56 124t104 92q65 36 163 37q65 0 115 -17q50 -18 88 -46t64 -66t42 -80t23 -88q7 -44 7 -86q0 -56 -12 -116t-44 -114t-84 -94t-132 -53q40 -40 109 -40q15 0 33 1t38 5q20 5 42 13t50 22v-81z"/>
<glyph glyph-name="R" horiz-adv-x="700" unicode="R" d="M377 395q65 0 104 30t39 101q0 67 -38 97t-101 30h-181v-258h177zM111 70v589h-75q-6 18 -6 35t6 35h373q51 1 89 -15t64 -44t40 -64q14 -37 14 -79q0 -29 -8 -60t-24 -59q-17 -28 -46 -51q-29 -22 -71 -31l139 -256h73q6 -18 6 -35t-6 -35h-152l-159 319h-168v-249h91 q6 -18 6 -35t-6 -35h-255q-6 18 -6 35t6 35h75z"/>
<glyph glyph-name="S" horiz-adv-x="647" unicode="S" d="M48 262q21 6 40 6q21 0 39 -6v-42q0 -31 15 -60t43 -51t68.5 -35t91.5 -13q81 0 125 32t44 89q0 29 -10.5 50.5t-29 37.5t-44 27.5t-55.5 19.5l-159 43q-30 8 -58 22.5t-49 36t-33.5 50.5t-12.5 67q0 52 19.5 91t52 65.5t75.5 40t90 13.5q75 0 125 -25t73 -61v69 q19 6 38 6q20 0 38 -6v-245q-20 -6 -39 -6q-20 0 -39 6v33q0 30 -12 57.5t-36 49t-59.5 34t-83.5 12.5q-66 0 -109 -30.5t-43 -90.5q0 -42 25 -67t79 -39l160 -43q45 -12 81 -29.5t61 -43t38 -60.5t13 -83t-20 -85t-55.5 -63t-83.5 -39.5t-103 -13.5q-82 0 -135.5 25 t-88.5 67v-75q-20 -6 -38 -6q-19 0 -38 6v262z"/>
<glyph glyph-name="T" horiz-adv-x="685" unicode="T" d="M297 70v586h-184v-152q-20 -6 -39 -6q-20 0 -39 6v225h615v-225q-20 -6 -39 -6q-20 0 -39 6v152h-184v-586h79q6 -18 6 -35t-6 -35h-249q-6 18 -6 35t6 35h79z"/>
<glyph glyph-name="U" horiz-adv-x="758" unicode="U" d="M105 659h-75q-6 18 -6 35t6 35h242q6 -18 6 -35t-6 -35h-76v-403q0 -57 16 -94t42.5 -59t59 -31t65.5 -9t66 9t59.5 31t43 59t16.5 94v403h-74q-6 18 -6 35t6 35h238q6 -18 6 -35t-6 -35h-77v-415q0 -53 -16 -100.5t-49 -83.5t-84.5 -57t-122.5 -21t-123 21t-85.5 57 t-49.5 83.5t-16 100.5v415z"/>
<glyph glyph-name="V" horiz-adv-x="718" unicode="V" d="M81 659h-67q-6 18 -6 35t6 35h246q6 -18 6 -35t-6 -35h-86l119 -348q5 -19 15 -49t20 -64t20 -65l13 -52q5 21 15 53t20 65q10 34 20 64t17 48l123 348h-86q-6 18 -6 35t6 35h234q6 -18 6 -35t-6 -35h-67l-237 -668h-91z"/>
<glyph glyph-name="W" horiz-adv-x="1025" unicode="W" d="M82 659h-68q-6 18 -6 35t6 35h245q6 -18 6 -35t-6 -35h-85l98 -388q2 -12 8 -35t12 -49q6 -27 10 -51q5 -24 8 -39q2 15 8 40t12 51t12 48t8 35l122 458h93l117 -458q2 -11 8 -34t12 -49t10 -52q5 -24 7 -39q3 15 9 39t11 51q5 26 11 49t9 35l103 388h-84q-6 18 -6 35 t6 35h233q6 -18 6 -35t-6 -35h-69l-182 -668h-93l-117 452q-2 11 -8 34t-12 49t-10 50q-5 24 -7 39q-3 -15 -9 -39t-11 -50t-11 -48t-9 -35l-122 -452h-93z"/>
<glyph glyph-name="X" horiz-adv-x="723" unicode="X" d="M88 70l226 298l-215 291h-63q-6 18 -6 35t6 35h263q6 -18 6 -35t-6 -35h-97l164 -223l169 223h-97q-6 18 -6 35t6 35h251q6 -18 6 -35t-6 -35h-63l-215 -283l225 -306h64q6 -18 6 -35t-6 -35h-264q-6 18 -6 35t6 35h97l-174 237l-180 -237h96q6 -18 6 -35t-6 -35h-251 q-6 18 -6 35t6 35h64z"/>
<glyph glyph-name="Y" horiz-adv-x="720" unicode="Y" d="M310 70v223l-238 366h-58q-6 18 -6 35t6 35h248q6 -18 6 -35t-6 -35h-91l191 -293l197 293h-92q-6 18 -6 35t6 35h239q6 -18 6 -35t-6 -35h-58l-247 -367v-222h80q6 -18 6 -35t-6 -35h-250q-6 18 -6 35t6 35h79z"/>
<glyph glyph-name="Z" horiz-adv-x="630" unicode="Z" d="M30 78l445 573h-347v-138q-20 -6 -39 -6t-38 6v216h531v-78l-446 -573h387v141q19 6 38 6q21 0 39 -6v-219h-570v78z"/>
<glyph glyph-name="bracketleft" horiz-adv-x="269" unicode="[" d="M59 758h183v-62h-99v-802h99v-62h-183v926z"/>
<glyph glyph-name="backslash" horiz-adv-x="324" unicode="\" d="M0 758h74l250 -776h-74z"/>
<glyph glyph-name="bracketright" horiz-adv-x="269" unicode="]" d="M27 -106h99v802h-99v62h183v-926h-183v62z"/>
<glyph glyph-name="asciicircum" horiz-adv-x="552" unicode="^" d="M242 667h70l205 -411h-85l-158 317l-158 -317h-81z"/>
<glyph glyph-name="underscore" horiz-adv-x="500" unicode="_" d="M0 -73h500v-64h-500v64z"/>
<glyph glyph-name="grave" horiz-adv-x="342" unicode="`" d="M72 711h110l87 -136h-71z"/>
<glyph glyph-name="a" horiz-adv-x="533" unicode="a" d="M359 256l-126 -13q-55 -6 -84.5 -30t-29.5 -77q0 -37 26 -59t71 -22q25 0 51 8t46 23t33 37.5t13 51.5v81zM363 68q-8 -14 -20 -28.5t-31.5 -26.5t-47 -19.5t-64.5 -7.5q-73 0 -119.5 39.5t-46.5 111.5q0 33 9.5 62t30.5 51.5t55 36.5t83 19l147 14v17q0 27 -5.5 48 t-19 35.5t-36.5 22t-59 7.5q-27 0 -51 -7t-44.5 -16.5t-37 -20.5t-26.5 -19v79q10 7 26 16.5t38.5 18t51.5 14.5t65 6q22 0 53.5 -4.5t60.5 -22t49 -51.5t20 -93v-288h64q6 -15 6 -31t-6 -31h-145v68z"/>
<glyph glyph-name="b" horiz-adv-x="577" unicode="b" d="M313 56q33 0 59 15t44 42t26 63t8 78q0 24 -4 58t-20 64q-14 30 -42 51t-73 21t-73 -21t-41 -52q-15 -31 -19 -65t-4 -61q0 -57 14 -95t36 -60q21 -22 45 -30t44 -8zM93 62v634h-67q-7 14 -7 31t7 31h152v-318q8 12 20 26t30 26t42 20t57 9q49 1 89 -19t67 -54t41 -80 t14 -99q0 -46 -10 -96t-36 -92t-69 -69t-108 -27q-45 1 -84 23t-58 65v-73h-147q-7 14 -7 31t7 31h67z"/>
<glyph glyph-name="c" horiz-adv-x="497" unicode="c" d="M449 44q-11 -8 -27 -18t-38 -19t-48 -15q-28 -6 -61 -6q-57 0 -101 20t-74 55t-46 81t-15 99q-1 57 13 107t42 88t70 59q42 22 100 22q45 0 78 -18t47 -43v48q16 6 31 6q17 0 32 -6v-206q-18 -6 -35 -6t-35 6v27q0 57 -30 89t-83 33q-43 -1 -71 -19t-43 -47 q-16 -29 -22 -65t-6 -70q0 -46 12 -80t33 -58q21 -22 50 -34t62 -12q31 0 58 8t48 20t36 24t23 18v-88z"/>
<glyph glyph-name="d" horiz-adv-x="576" unicode="d" d="M264 57q19 1 43 9t45 30q22 22 36 58q14 37 14 95q0 27 -4 61t-20 65q-14 31 -41 52t-71 21q-46 0 -74 -21t-42 -51t-18 -64t-5 -58q1 -42 9 -78t26 -62t42 -42q26 -15 60 -15zM403 74q-9 -21 -23 -37q-14 -15 -33 -27t-41 -18t-44 -6q-65 0 -108 26q-42 26 -68 66 t-36 89t-11 96q0 55 14 103t41 82t66 54t90 19q32 -1 56 -9t43 -20q18 -12 30 -27q12 -14 19 -25v256h-66q-7 14 -7 31t7 31h152v-696h66q7 -14 7 -31t-7 -31h-147v74z"/>
<glyph glyph-name="e" horiz-adv-x="506" unicode="e" d="M382 291q0 25 -5.5 53t-19.5 52t-38.5 39.5t-62.5 15.5q-35 0 -59.5 -17t-39.5 -41.5t-21.5 -52t-6.5 -49.5h253zM447 30q-26 -15 -68.5 -29.5t-87.5 -14.5q-67 0 -115 22.5t-78.5 60t-44.5 85.5t-14 100t13 100.5t39.5 85.5t68 59t98.5 22q61 0 101.5 -23t65.5 -61 t35.5 -87t10.5 -100v-21h-342q1 -32 12 -62t31 -53.5t49.5 -38t68.5 -14.5q55 0 91.5 17t65.5 36v-84z"/>
<glyph glyph-name="f" horiz-adv-x="322" unicode="f" d="M109 62v383h-79q-6 15 -6 31t6 31h79v87q0 48 13 81t34 54q20 21 48 30t57 9q25 0 45 -4t36 -12v-71q-10 5 -26 11t-46 7q-32 1 -54 -21t-22 -72v-99h110q6 -15 6 -31t-6 -31h-110v-383h99q6 -15 6 -31t-6 -31h-257q-6 15 -6 31t6 31h73z"/>
<glyph glyph-name="g" horiz-adv-x="576" unicode="g" d="M264 71q20 -1 44 7t45 28t35 57q14 36 14 94q0 27 -4 60t-20 62q-14 29 -40 49t-72 20t-74 -20t-42 -48t-18 -62q-4 -32 -5 -56q0 -42 9 -77t26 -61t43 -39q26 -14 59 -14zM71 -55q12 -7 29 -17q16 -10 38 -18t48 -15q26 -6 57 -6q81 0 118 38t37 116v38q-16 -37 -54 -59 t-83 -22q-67 0 -109 24t-68 64q-26 39 -35 87q-10 48 -10 95q0 56 14 102t41 79t66 51t90 19q34 1 60 -9t44 -24t30 -28q12 -15 17 -25h2v72h148q6 -15 6 -31t-6 -31h-67v-375q0 -70 -16 -118t-47 -78q-30 -30 -73 -42t-96 -12q-32 0 -60 4t-52 12q-24 6 -41 14 q-18 8 -28 15v80z"/>
<glyph glyph-name="h" horiz-adv-x="585" unicode="h" d="M93 62v634h-68q-6 15 -6 31t6 31h153v-315q18 34 56 56t92 22q80 1 124 -45t43 -135v-279h67q6 -15 6 -31t-6 -31h-212q-6 15 -6 31t6 31h59v250q0 30 -4 56q-3 26 -15 43t-32 27t-51 9q-23 -1 -45 -9t-41 -28q-17 -20 -29 -52q-12 -33 -12 -82v-214h59q6 -15 6 -31 t-6 -31h-212q-6 15 -6 31t6 31h68z"/>
<glyph glyph-name="i" horiz-adv-x="292" unicode="i" d="M106 62v383h-68q-6 15 -6 31t6 31h153v-445h68q6 -15 6 -31t-6 -31h-221q-6 15 -6 31t6 31h68zM134 610q-24 0 -40 18t-16 43t16 43t40 18t40 -18t16 -43t-16 -43t-40 -18z"/>
<glyph glyph-name="j" horiz-adv-x="277" unicode="j" d="M-28 -97q14 -5 32 -11t37 -6q31 0 45 16t15 53v490h-67q-6 15 -6 31t6 31h153v-527q0 -50 -12 -82t-31 -48q-20 -18 -44 -24t-49 -6t-45 5t-34 12v66zM130 610q-24 0 -40 18t-16 43t16 43t40 18t40 -18t16 -43t-16 -43t-40 -18z"/>
<glyph glyph-name="k" horiz-adv-x="556" unicode="k" d="M93 62v634h-68q-6 15 -6 31t6 31h153v-482l203 173h-82q-6 12 -6 29q0 14 6 29h229q6 -15 6 -31t-6 -31h-62l-143 -120l170 -263h53q6 -15 6 -31t-6 -31h-208q-6 15 -6 31t6 31h54l-132 210l-82 -69v-141h54q6 -15 6 -31t-6 -31h-207q-6 15 -6 31t6 31h68z"/>
<glyph glyph-name="l" horiz-adv-x="283" unicode="l" d="M99 62v634h-68q-6 15 -6 31t6 31h153v-696h68q6 -15 6 -31t-6 -31h-221q-6 15 -6 31t6 31h68z"/>
<glyph glyph-name="m" horiz-adv-x="858" unicode="m" d="M98 62v383h-68q-6 15 -6 31t6 31h140v-75q7 13 18 29q10 16 28 29t43 22t60 9q53 0 87 -20t54 -61q9 16 21 30q11 14 29 26t42 18q24 7 58 7q81 0 118 -45t37 -135v-279h68q6 -15 6 -31t-6 -31h-212q-6 15 -6 31t6 31h59v250q0 30 -2 55t-12 43t-28 28t-49 10 q-22 0 -43 -8t-37 -28q-15 -20 -25 -54t-10 -82v-214h59q6 -15 6 -31t-6 -31h-203q-6 15 -6 31t6 31h59v250q-1 30 -3 55t-12 43t-27 28q-18 10 -49 10q-22 0 -43 -8t-37 -28t-26 -54t-9 -82v-214h59q6 -15 6 -31t-6 -31h-212q-6 15 -6 31t6 31h68z"/>
<glyph glyph-name="n" horiz-adv-x="590" unicode="n" d="M98 62v383h-68q-6 15 -6 31t6 31h140v-75q7 13 20 29t32.5 29t46.5 22t62 9q80 0 123 -45.5t43 -134.5v-279h68q6 -15 6 -31t-6 -31h-212q-6 15 -6 31t6 31h59v250q0 31 -4 56.5t-15.5 42.5t-31.5 26.5t-51 9.5q-23 0 -45.5 -8.5t-40.5 -28t-29.5 -52.5t-11.5 -82v-214 h59q6 -15 6 -31t-6 -31h-212q-6 15 -6 31t6 31h68z"/>
<glyph glyph-name="o" horiz-adv-x="549" unicode="o" d="M274 58q46 0 74.5 21t45 51.5t22.5 64t6 59.5q0 25 -6 59t-22.5 64t-45 51t-74.5 21t-74.5 -21t-44.5 -51t-22 -64t-6 -59q0 -26 6 -59.5t22 -64t44.5 -51.5t74.5 -21zM274 -14q-61 0 -105 23.5t-73 61.5t-43 86t-14 97t14 97t43 85.5t73 61t105 23.5t105.5 -23.5 t73.5 -61t43 -85.5t14 -97t-14 -97t-43 -86t-73.5 -61.5t-105.5 -23.5z"/>
<glyph glyph-name="p" horiz-adv-x="577" unicode="p" d="M313 56q33 0 59 15t44 42t26 63t8 78q0 24 -4 58t-20 64q-14 30 -42 51t-73 21t-73 -21t-41 -52q-15 -31 -19 -65t-4 -61q0 -57 14 -95t36 -60q21 -22 45 -30t44 -8zM93 -106v551h-68q-6 15 -6 31t6 31h149v-72h1q6 10 18 25q12 14 30 28q17 14 43 24t61 9q49 1 89 -19 t67 -54t41 -80t14 -99q0 -46 -10 -96t-35 -92t-67 -69t-107 -27q-19 0 -41 6q-22 7 -42 17t-34 26q-16 16 -24 35v-175h73q6 -15 6 -31t-6 -31h-226q-6 15 -6 31t6 31h68z"/>
<glyph glyph-name="q" horiz-adv-x="576" unicode="q" d="M264 56q19 0 43 8t45 30q22 22 36 60t14 95q0 27 -4 61t-20 65q-14 31 -40 52t-72 21t-74 -21t-42 -51t-18 -64t-5 -58q1 -42 9 -78t26 -63t42 -42q26 -15 60 -15zM398 -106v175q-6 -18 -20 -33q-14 -14 -32 -26t-40 -18t-44 -7q-65 0 -108 26q-42 27 -68 67t-36 89 t-11 96q0 55 14 103t41 82t66 54t90 19q34 1 60 -9t44 -24t30 -28q12 -15 17 -25h2v72h148q6 -15 6 -31t-6 -31h-67v-551h67q6 -15 6 -31t-6 -31h-225q-6 15 -6 31t6 31h72z"/>
<glyph glyph-name="r" horiz-adv-x="381" unicode="r" d="M98 62v383h-68q-6 15 -6 31t6 31h140v-96q6 16 19 33t32 31t42 23t49 9q18 -1 32 -3t26 -7l-8 -82q-10 5 -24 10t-37 5q-19 0 -39 -8t-38 -27t-30 -51t-11 -82v-200h73q6 -15 6 -31t-6 -31h-226q-6 15 -6 31t6 31h68z"/>
<glyph glyph-name="s" horiz-adv-x="496" unicode="s" d="M47 192q18 6 33 6q17 0 32 -6v-22q0 -26 12 -47.5t32.5 -36.5t47.5 -23t57 -8q47 0 78 17t31 54q0 19 -6.5 32.5t-19.5 23.5t-32 17.5t-44 14.5l-99 27q-52 14 -83.5 44.5t-31.5 82.5q0 41 15.5 70t40.5 47t56 26t63 8q53 0 86.5 -17.5t47.5 -41.5v46q16 6 32 6 q17 0 32 -6v-174q-17 -6 -34 -6t-33 6v21q0 18 -7.5 36.5t-23.5 33.5t-40 24.5t-57 9.5q-40 0 -69.5 -18t-29.5 -58q0 -32 21.5 -45.5t71.5 -26.5l85 -22q37 -10 64 -23t45 -31.5t26.5 -43.5t8.5 -59q0 -32 -14.5 -58t-40 -44.5t-60.5 -28.5t-76 -10q-48 0 -88 14.5 t-66 45.5v-46q-17 -6 -32 -6q-16 0 -31 6v189z"/>
<glyph glyph-name="t" horiz-adv-x="322" unicode="t" d="M88 445h-77q-6 15 -6 31t6 31h77v136l86 46v-182h120q6 -15 6 -31t-6 -31h-120v-313q0 -70 62 -70q27 0 45 6t27 11v-68q-16 -10 -40 -14t-44 -4q-68 -1 -102 37t-34 106v309z"/>
<glyph glyph-name="u" horiz-adv-x="584" unicode="u" d="M92 445h-67q-6 15 -6 31t6 31h152v-312q0 -32 4.5 -57t15.5 -42t31 -26.5t51 -9.5q22 0 45 8.5t41 28t29.5 52.5t11.5 82v214h-67q-6 15 -6 31t6 31h153v-445h67q6 -15 6 -31t-6 -31h-139v75q-9 -14 -22 -29.5t-32.5 -29t-45.5 -22.5t-61 -9q-81 0 -124 45.5t-43 135.5 v279z"/>
<glyph glyph-name="v" horiz-adv-x="537" unicode="v" d="M62 445h-51q-6 15 -6 31t6 31h201q6 -15 6 -31t-6 -31h-64l98 -286q2 -7 6 -19t8 -26l8 -28q4 -13 5 -20q1 7 5 20l8 28t9 26q4 12 6 19l97 286h-62q-6 15 -6 31t6 31h190q6 -15 6 -31t-6 -31h-52l-162 -448h-87z"/>
<glyph glyph-name="w" horiz-adv-x="799" unicode="w" d="M63 445h-52q-6 15 -6 31t6 31h204q6 -15 6 -31t-6 -31h-63l63 -220q4 -14 9 -35t10 -44q6 -22 10 -46l7 -42q3 18 7 41l8 46t9 43q4 20 8 35l77 284h89l76 -283q5 -14 9 -34t8 -44q4 -23 10 -46q4 -23 7 -41q3 18 7 41t10 46q5 24 10 44t9 34l62 221h-61q-6 15 -6 31 t6 31h192q6 -15 6 -31t-6 -31h-52l-134 -448h-89l-75 275q-4 13 -9 34t-11 44q-6 22 -10 46q-5 24 -8 43q-4 -19 -8 -43t-10 -46q-6 -23 -10 -44q-5 -21 -9 -34l-75 -275h-89z"/>
<glyph glyph-name="x" horiz-adv-x="536" unicode="x" d="M64 62l161 192l-152 191h-48q-6 15 -6 31t6 31h203q6 -15 6 -31t-6 -31h-63l108 -137l112 137h-60q-6 15 -6 31t6 31h187q6 -15 6 -31t-6 -31h-47l-153 -183l160 -200h48q6 -15 6 -31t-6 -31h-203q-6 15 -6 31t6 31h61l-114 146l-119 -146h60q6 -15 6 -31t-6 -31h-189 q-6 15 -6 31t6 31h48z"/>
<glyph glyph-name="y" horiz-adv-x="537" unicode="y" d="M47 -98q17 -6 38 -10t38 -4t32 3t27.5 13.5t23.5 30.5t21 53l-164 457h-52q-6 15 -6 31t6 31h204q6 -15 6 -31t-6 -31h-64l98 -290q2 -6 5.5 -17t7 -23.5t7 -24t4.5 -18.5q1 7 4 18.5t7 24t8 23.5t6 17l97 290h-62q-6 15 -6 31t6 31h193q6 -15 6 -31t-6 -31h-52 l-175 -489q-14 -40 -31.5 -66.5t-38 -42t-45.5 -21.5t-54 -6t-47.5 4.5t-35.5 10.5v67z"/>
<glyph glyph-name="z" horiz-adv-x="446" unicode="z" d="M19 68l311 377h-228v-104q-18 -6 -35 -6t-35 6v166h386v-68l-311 -377h250v103q18 6 35 6q18 0 35 -6v-165h-408v68z"/>
<glyph glyph-name="braceleft" horiz-adv-x="324" unicode="{" d="M116 139q0 55 -22 91t-56 35v62q16 0 30 9q14 10 26 26q10 16 16 38t6 50v183q0 30 8 53t23 39q14 17 32 25t36 8h71v-62h-43q-26 0 -35 -24t-9 -56v-183q-1 -36 -11 -61t-24 -41t-29 -24q-14 -8 -21 -10v-2q7 -2 21 -10q15 -8 29 -24q14 -15 24 -41t11 -64v-182 q0 -32 9 -56t35 -24h43v-62h-71q-18 0 -36 8t-32 25q-15 16 -23 39t-8 53v182z"/>
<glyph glyph-name="bar" horiz-adv-x="252" unicode="|" d="M91 758h71v-776h-71v776z"/>
<glyph glyph-name="braceright" horiz-adv-x="324" unicode="}" d="M38 -106h43q26 0 35 24t9 56v182q1 38 11 64t24 41q14 16 29 24q14 8 21 10v2q-7 2 -21 10q-15 8 -29 24t-24 41t-11 61v183q0 32 -9 56t-35 24h-43v62h71q18 0 36 -8t32 -25q15 -16 23 -39t8 -53v-183q0 -28 6 -50t16 -38t25 -26q14 -9 31 -9v-62q-34 1 -56 -35t-22 -91 v-182q0 -30 -8 -53t-23 -39q-14 -17 -32 -25t-36 -8h-71v62z"/>
<glyph glyph-name="asciitilde" horiz-adv-x="651" unicode="~" d="M35 156q12 92 51 136t102 44q28 0 49 -5t54 -18l105 -41q16 -6 34 -10t38 -5q38 0 58 24t29 71h61q-12 -92 -51 -136t-102 -44q-27 0 -49 6t-43 14l-116 44q-15 6 -33 10t-39 5q-37 0 -57 -24t-30 -71h-61z"/>
<glyph glyph-name="uni00A0" horiz-adv-x="269" unicode=" "/>
<glyph glyph-name="exclamdown" horiz-adv-x="269" unicode="¡" d="M100 329h70l18 -497h-106zM135 386q-25 0 -43 20t-18 47t18 47t43 20t43 -20t18 -47t-18 -47t-43 -20z"/>
<glyph glyph-name="cent" d="M254 529q-32 -9 -54 -29t-34 -48t-18 -60q-5 -33 -5 -64q1 -74 31 -120t80 -60v381zM254 71q-48 7 -84 29t-62 56q-24 34 -37 76q-13 43 -13 91q0 51 12 99t36 85t61 61t87 29v86h60v-87q33 -6 58 -22t36 -36v48q16 6 31 6q17 0 32 -6v-206q-18 -6 -35 -6t-35 6v30 q-1 50 -23 81t-64 39v-389q29 3 54 11q24 8 44 20t34 22q14 11 22 17v-85q-12 -7 -26 -16q-14 -10 -33 -18t-43 -14t-52 -9v-85h-60v87z" unicode="¢"/>
<glyph glyph-name="sterling" d="M33 66q23 21 45 40q22 20 37 42t25 50t10 68q0 28 -6 51h-108q-2 9 -4 17t-2 16t2 16t4 17h88q-6 23 -12 58t-6 73q0 22 9 51t32 55t61 44t98 19q57 0 96 -15t71 -32v-87q-29 22 -69 41t-91 19q-67 -1 -96 -31t-29 -80q0 -38 6 -64t14 -51h192q2 -9 4 -17t2 -16t-2 -16 t-4 -17h-171q1 -11 3 -23t2 -24q0 -34 -8 -62t-20 -51q-13 -23 -30 -44t-36 -42h291v115q19 6 38 6q21 0 39 -6v-186h-475v66z" unicode="£"/>
<glyph glyph-name="currency" horiz-adv-x="539" unicode="¤" d="M78 186q-23 31 -36 68t-13 79t13 79t36 68l-58 59l45 45l58 -59q31 23 69 37t80 14t78 -12t67 -36l56 56l45 -45l-55 -56q24 -31 38 -69t14 -81t-14 -81t-38 -70l55 -55l-45 -45l-56 56q-31 -24 -67 -36t-78 -12t-80 14t-69 37l-58 -59l-45 45zM272 155q36 0 67 14t54 38 q23 25 37 57t13 69q1 37 -13 69t-37 57q-23 24 -54 38t-67 14t-67 -14t-54 -38q-23 -25 -37 -57t-13 -69q-1 -37 13 -69t37 -57q23 -24 54 -38t67 -14z"/>
<glyph glyph-name="yen" d="M225 64v108h-173v50h173v82h-173v50h137l-139 249h-43q-5 18 -5 32t5 32h207q6 -17 6 -32q0 -16 -6 -32h-73l131 -243l138 243h-74q-6 16 -6 32q0 15 6 32h199q5 -18 5 -32t-5 -32h-43l-145 -249h143v-50h-181v-82h181v-50h-181v-108h73q5 -18 5 -32t-5 -32h-229 q-6 16 -6 32q0 15 6 32h72z" unicode="¥"/>
<glyph glyph-name="brokenbar" horiz-adv-x="252" unicode="¦" d="M91 240h71v-258h-71v258zM91 758h71v-259h-71v259z"/>
<glyph glyph-name="section" horiz-adv-x="556" unicode="§" d="M360 133q25 17 47 41t22 60q0 33 -19 58t-53 47l-162 103q-29 -14 -49 -40t-20 -62q0 -20 6 -35t15 -27q10 -12 23 -22t28 -19zM75 -11q9 -13 29 -29t44 -32q24 -14 53 -24q28 -10 57 -10q19 0 39 2t37 12q17 8 28 23t11 39q0 16 -4 28t-13 24t-24 23q-15 12 -36 26 l-165 110q-29 19 -47 39t-26 37q-9 18 -12 34t-3 27q-1 32 7 56t22 44q14 19 31 34q18 15 40 28q-27 28 -37 54t-10 54q0 34 15 64t41 51t61 33t75 11q32 0 60 -7q28 -8 51 -18t41 -21t27 -18v-95q-13 15 -31 30t-40 27t-46 20q-26 8 -57 8q-47 -1 -78 -19t-31 -63 q0 -29 19 -49t54 -41l146 -90q23 -14 43 -29q20 -16 34 -34t24 -41q8 -23 8 -54q0 -32 -9 -56q-9 -23 -23 -43t-34 -34q-18 -14 -37 -27q11 -12 21 -24t16 -26t11 -31q4 -17 4 -39q0 -37 -15 -65q-16 -28 -40 -48t-57 -30t-69 -10q-71 0 -122 23t-83 52v94z"/>
<glyph glyph-name="dieresis" horiz-adv-x="342" unicode="¨" d="M83 583q-20 0 -35.5 16t-15.5 39t15.5 39t35.5 16t35 -16t15 -39t-15 -39t-35 -16zM259 583q-20 0 -35 16t-15 39t15 39t35 16t35.5 -16t15.5 -39t-15.5 -39t-35.5 -16z"/>
<glyph glyph-name="copyright" horiz-adv-x="884" unicode="©" d="M589 194q-9 -9 -24 -19t-34 -19t-42 -15t-48 -6q-53 0 -91 18q-38 19 -64 49t-38 71t-12 87q0 44 12 86t38 75q24 33 60 53t85 20q62 0 104 -38v25q9 4 16 5t12 1q6 0 13 -1t15 -5v-171q-11 -2 -17 -4t-13 -1q-7 -1 -13 1t-16 4v33q0 39 -26 67t-76 27q-32 0 -56 -16 t-39 -41t-22 -56t-7 -61q0 -45 12 -77t30 -52q20 -20 44 -30t50 -10q27 0 49 8t40 20q19 12 33 26l25 25v-79zM443 46q65 0 121 24t98 67t66 101t24 128q0 68 -24 126t-66 100t-98 67q-56 24 -121 24q-67 0 -123 -24q-56 -25 -98 -67t-66 -100t-24 -126q0 -70 24 -128 t66 -101t98 -67t123 -24zM55 366q0 82 31 152t84 121q54 51 124 79t149 29q78 -1 148 -29t123 -79t84 -121t31 -152q0 -84 -31 -154t-84 -121t-123 -80t-148 -29q-79 0 -149 29t-124 80q-53 51 -84 121t-31 154z"/>
<glyph glyph-name="ordfeminine" horiz-adv-x="380" unicode="ª" d="M246 575l-82 -7q-32 -2 -50 -16t-18 -43q0 -20 16 -32t41 -12q15 1 31 5t30 12t23 22q9 12 9 28v43zM40 371h296v-57h-296v57zM248 457q-22 -24 -44 -34t-61 -10q-45 -1 -77 25t-31 71q-1 43 27 73t89 34l95 8v6q0 32 -17 48t-58 16q-31 0 -57 -12t-51 -32v60 q21 12 49 24t72 13q13 0 34 -3q20 -3 40 -14q20 -10 34 -32t14 -59v-171h37q4 -6 5 -12t1 -11t-1 -11t-5 -12h-95v35z"/>
<glyph glyph-name="guillemotleft" horiz-adv-x="490" unicode="«" d="M26 253l147 225h88l-148 -225l148 -225h-88zM229 253l147 225h88l-148 -225l148 -225h-88z"/>
<glyph glyph-name="logicalnot" d="M26 468h490v-267h-71v196h-419v71z" unicode="¬"/>
<glyph glyph-name="uni00AD" horiz-adv-x="323" unicode="­" d="M274 310q6 -20 6 -42t-6 -41h-225q-6 19 -6 41t6 42h225z"/>
<glyph glyph-name="registered" horiz-adv-x="884" unicode="®" d="M462 389q37 0 58 17t21 56q-1 36 -21 52t-55 17h-102v-142h99zM302 199v335h-43q-3 8 -4 14t-1 12t1 12t5 13h221q60 1 93 -35t33 -88q-1 -17 -5 -35t-14 -35q-10 -16 -26 -30t-40 -21l77 -142h44q4 -15 4 -26q0 -10 -4 -25h-97l-92 187h-91v-136h53q4 -15 4 -26 q0 -10 -4 -25h-156q-4 8 -5 14t-1 11q0 6 1 12t5 14h42zM443 46q65 0 121 24t98 67t66 101t24 128q0 68 -24 126t-66 100t-98 67q-56 24 -121 24q-67 0 -123 -24q-56 -25 -98 -67t-66 -100t-24 -126q0 -70 24 -128t66 -101t98 -67t123 -24zM55 366q0 82 31 152t84 121 q54 51 124 79t149 29q78 -1 148 -29t123 -79t84 -121t31 -152q0 -84 -31 -154t-84 -121t-123 -80t-148 -29q-79 0 -149 29t-124 80q-53 51 -84 121t-31 154z"/>
<glyph glyph-name="macron" horiz-adv-x="342" unicode="¯" d="M17 668h307v-65h-307v65z"/>
<glyph glyph-name="degree" horiz-adv-x="400" unicode="°" d="M200 497q34 0 58 25t24 61t-24 61t-58 25t-58 -25t-24 -61t24 -61t58 -25zM54 583q0 31 11 58t31 47t46 30q27 11 58 11t58 -11q26 -10 46 -30t31 -47t11 -58t-11 -58t-31 -47t-46 -30q-27 -11 -58 -11t-58 11q-26 10 -46 30t-31 47t-11 58z"/>
<glyph glyph-name="plusminus" d="M28 111h488v-71h-488v71zM26 428h210v200h71v-202h209v-69h-209v-200h-71v200h-210v71z" unicode="±"/>
<glyph glyph-name="twosuperior" horiz-adv-x="358" unicode="²" d="M248 389v52q11 3 18.5 4t13.5 1q7 0 14 -1t20 -5v-106h-296q0 38 16 66t40 49t51.5 37t51.5 30.5t40 30t16 34.5q0 23 -16.5 35.5t-46.5 12.5q-37 0 -66.5 -16.5t-61.5 -45.5v68q18 14 52 31t85 17q25 0 48.5 -6t41.5 -18.5t29 -31t11 -43.5q0 -36 -24.5 -61t-58 -45.5 t-68 -41t-54.5 -47.5h144z"/>
<glyph glyph-name="threesuperior" horiz-adv-x="358" unicode="³" d="M31 423q16 -9 31 -17t30.5 -13t32.5 -8t39 -3q35 0 55.5 14.5t20.5 39.5q0 17 -8 27t-20 15t-27 6.5t-28 1.5h-31q-2 5 -3 13t-1 14q0 14 4 26h36q26 0 46 11t20 37q0 6 -2.5 13t-10 14t-20 11.5t-31.5 4.5q-38 0 -66.5 -16t-55.5 -37v62q22 20 57.5 32t70.5 12 q59 0 94.5 -26.5t35.5 -68.5q0 -27 -13.5 -43.5t-31.5 -27.5q26 -11 43 -29.5t17 -50.5q0 -21 -9 -41t-28 -35t-48 -24.5t-69 -9.5t-73.5 10t-56.5 23v63z"/>
<glyph glyph-name="acute" horiz-adv-x="342" unicode="´" d="M160 711h110l-126 -136h-71z"/>
<glyph glyph-name="mu" horiz-adv-x="587" unicode="µ" d="M92 445h-67q-6 15 -6 31t6 31h152v-336q1 -19 5 -39t15 -36t31 -26t51 -10q22 0 45 8t41 28q17 20 29 53t12 82v214h-67q-6 15 -6 31t6 31h153v-445h67q6 -15 6 -31t-6 -31h-139v75q-9 -13 -22 -29t-31 -30t-41 -22q-23 -9 -53 -9q-35 1 -57 13t-39 32v-198h-86z"/>
<glyph glyph-name="paragraph" horiz-adv-x="679" unicode="¶" d="M268 355q-48 0 -88 14t-67 39q-27 24 -43 58t-16 73q0 99 63 145t168 45h253v-909h-78v847h-114v-847h-78v535z"/>
<glyph glyph-name="periodcentered" horiz-adv-x="269" unicode="·" d="M134 365q-20 0 -36 16t-15 39q-1 23 15 39t36 16t35 -16t15 -39t-15 -39t-35 -16z"/>
<glyph glyph-name="cedilla" horiz-adv-x="342" unicode="¸" d="M82 -158q18 -8 32 -12t32 -3q6 -1 16 1t18 6t14 12t6 22q0 22 -16 30t-30 8q-7 0 -17 -2t-21 -6l-16 19l62 83h51l-43 -59q10 3 23 3q23 0 39 -7t25 -18t13 -23t4 -25q0 -37 -30 -63t-84 -26q-27 0 -50 6t-42 15z"/>
<glyph glyph-name="onesuperior" horiz-adv-x="358" unicode="¹" d="M146 385v240h-78q-2 5 -3 12.5t-1 13.5q0 13 4 25h152v-291h72q4 -12 4 -25q0 -6 -1 -13.5t-3 -12.5h-224q-2 5 -3 12.5t-1 13.5q0 13 4 25h78z"/>
<glyph glyph-name="ordmasculine" horiz-adv-x="375" unicode="º" d="M188 467q28 -1 46 11t28 30t14 36q4 20 3 36q1 14 -3 34t-14 38t-28 28q-18 12 -46 12t-46 -12t-27 -28q-9 -18 -13 -38t-4 -34q0 -16 4 -36t13 -36q9 -18 27 -30t46 -11zM40 372h296v-58h-296v58zM188 412q-41 0 -70 15q-30 15 -48 39t-26 54t-9 60q1 30 9 60t26 54 t48 38q29 15 70 15q40 0 70 -15q30 -14 48 -38t28 -54q9 -30 9 -60t-9 -60q-10 -30 -28 -54t-48 -39t-70 -15z"/>
<glyph glyph-name="guillemotright" horiz-adv-x="490" unicode="»" d="M174 253l-148 225h88l147 -225l-147 -225h-88zM377 253l-148 225h88l147 -225l-147 -225h-88z"/>
<glyph glyph-name="onequarter" horiz-adv-x="915" unicode="¼" d="M176 385v240h-78q-2 5 -3 12.5t-1 13.5q0 13 4 25h152v-291h72q4 -12 4 -25q0 -6 -1 -13.5t-3 -12.5h-224q-2 5 -3 12.5t-1 13.5q0 13 4 25h78zM616 683h75l-387 -699h-75zM499 125l188 215h63v-217h55q4 -12 4 -25q0 -6 -1 -13.5t-3 -12.5h-55v-79h-71v79h-180v53z M679 123v130l-112 -130h112z"/>
<glyph glyph-name="onehalf" horiz-adv-x="915" unicode="½" d="M156 385v240h-78q-2 5 -3 12.5t-1 13.5q0 13 4 25h152v-291h72q4 -12 4 -25q0 -6 -1 -13.5t-3 -12.5h-224q-2 5 -3 12.5t-1 13.5q0 13 4 25h78zM579 683h75l-387 -699h-75zM736 48v52q11 3 18.5 4t13.5 1q7 0 14 -1t20 -5v-106h-296q0 38 16 66t40 49t51.5 37t51.5 30.5 t40 30t16 34.5q0 23 -16.5 35.5t-46.5 12.5q-37 0 -66.5 -16.5t-61.5 -45.5v68q18 14 52 31t85 17q25 0 48.5 -6t41.5 -18.5t29 -31t11 -43.5q0 -36 -24.5 -61t-58 -45.5t-68 -41t-54.5 -47.5h144z"/>
<glyph glyph-name="threequarters" horiz-adv-x="915" unicode="¾" d="M76 423q16 -9 31 -17t30.5 -13t32.5 -8t39 -3q35 0 55.5 14.5t20.5 39.5q0 17 -8 27t-20 15t-27 6.5t-28 1.5h-31q-2 5 -3 13t-1 14q0 14 4 26h36q26 0 46 11t20 37q0 6 -2.5 13t-10 14t-20 11.5t-31.5 4.5q-38 0 -66.5 -16t-55.5 -37v62q22 20 57.5 32t70.5 12 q59 0 94.5 -26.5t35.5 -68.5q0 -27 -13.5 -43.5t-31.5 -27.5q26 -11 43 -29.5t17 -50.5q0 -21 -9 -41t-28 -35t-48 -24.5t-69 -9.5t-73.5 10t-56.5 23v63zM626 683h75l-387 -699h-75zM509 125l188 215h63v-217h55q4 -12 4 -25q0 -6 -1 -13.5t-3 -12.5h-55v-79h-71v79h-180 v53zM689 123v130l-112 -130h112z"/>
<glyph glyph-name="questiondown" horiz-adv-x="539" unicode="¿" d="M480 -106q-15 -11 -35 -24q-21 -13 -47 -24t-60 -18t-74 -7q-42 1 -78 13t-62 34t-40 52t-15 66q0 57 27 101t72 83q28 26 46 44t28 34t12 36q3 18 3 44h81q0 -32 -4 -56t-12 -46q-10 -22 -28 -44t-46 -47q-16 -15 -32 -29t-28 -29q-12 -17 -20 -35t-8 -42q0 -45 32 -74 t94 -29q28 0 56 8t54 20q26 11 48 27t36 31v-89zM297 387q-25 -1 -43 19t-18 48t18 48t43 19q25 1 43 -19t18 -48t-18 -48t-43 -19z"/>
<glyph glyph-name="Agrave" horiz-adv-x="732" unicode="À" d="M478 306l-115 339l-118 -339h233zM81 70l240 668h99l231 -668h67q6 -18 6 -35t-6 -35h-246q-7 17 -7 35t7 35h86l-55 161h-284l-56 -161h86q6 -18 6 -35t-6 -35h-235q-6 18 -6 35t6 35h67zM217 923h110l87 -136h-71z"/>
<glyph glyph-name="Aacute" horiz-adv-x="732" unicode="Á" d="M478 306l-115 339l-118 -339h233zM81 70l240 668h99l231 -668h67q6 -18 6 -35t-6 -35h-246q-7 17 -7 35t7 35h86l-55 161h-284l-56 -161h86q6 -18 6 -35t-6 -35h-235q-6 18 -6 35t6 35h67zM425 923h110l-126 -136h-71z"/>
<glyph glyph-name="Acircumflex" horiz-adv-x="732" unicode="Â" d="M478 306l-115 339l-118 -339h233zM81 70l240 668h99l231 -668h67q6 -18 6 -35t-6 -35h-246q-7 17 -7 35t7 35h86l-55 161h-284l-56 -161h86q6 -18 6 -35t-6 -35h-235q-6 18 -6 35t6 35h67zM321 923h90l96 -136h-77l-64 90l-64 -90h-77z"/>
<glyph glyph-name="Atilde" horiz-adv-x="732" unicode="Ã" d="M478 306l-115 339l-118 -339h233zM81 70l240 668h99l231 -668h67q6 -18 6 -35t-6 -35h-246q-7 17 -7 35t7 35h86l-55 161h-284l-56 -161h86q6 -18 6 -35t-6 -35h-235q-6 18 -6 35t6 35h67zM195 802q3 22 10.5 41.5t19.5 34t30 23t43 8.5q30 0 48.5 -7.5t42.5 -16.5 q23 -8 32 -10.5t19 -2.5q11 0 18.5 4.5t12 11.5t7 14.5t4.5 12.5h55q-3 -22 -10.5 -41.5t-19.5 -34t-30 -23t-43 -8.5q-20 0 -38.5 6.5t-44.5 16.5q-13 5 -21 8t-14.5 4.5t-12 2t-12.5 0.5q-11 0 -18 -5t-11.5 -12t-7.5 -14.5t-4 -12.5h-55z"/>
<glyph glyph-name="Adieresis" horiz-adv-x="732" unicode="Ä" d="M478 306l-115 339l-118 -339h233zM81 70l240 668h99l231 -668h67q6 -18 6 -35t-6 -35h-246q-7 17 -7 35t7 35h86l-55 161h-284l-56 -161h86q6 -18 6 -35t-6 -35h-235q-6 18 -6 35t6 35h67zM278 795q-20 0 -35.5 16t-15.5 39t15.5 39t35.5 16t35 -16t15 -39t-15 -39 t-35 -16zM454 795q-20 0 -35 16t-15 39t15 39t35 16t35.5 -16t15.5 -39t-15.5 -39t-35.5 -16z"/>
<glyph glyph-name="Aring" horiz-adv-x="732" unicode="Å" d="M478 306l-115 339l-118 -339h233zM371 739q24 0 42 18t18 42t-18 42t-42 18t-42 -18t-18 -42t18 -42t42 -18zM81 70l231 643q-20 15 -32 37t-13 49q0 21 8 40q9 19 23 33t33 23q19 8 40 8t40 -8q19 -9 33 -23t23 -33q8 -19 8 -40q-1 -27 -13 -50t-33 -37l222 -642h67 q6 -18 6 -35t-6 -35h-246q-7 17 -7 35t7 35h86l-55 161h-284l-56 -161h86q6 -18 6 -35t-6 -35h-235q-6 18 -6 35t6 35h67z"/>
<glyph glyph-name="AE" horiz-adv-x="1001" unicode="Æ" d="M497 317v334h-64l-158 -334h222zM73 70l282 589h-75q-6 18 -6 35t6 35h660v-212q-20 -6 -39 -6q-20 0 -39 6v134h-274v-237h274q6 -20 6 -39q0 -20 -6 -39h-274v-258h281v137q21 6 39 6q20 0 38 -6v-215h-524q-6 18 -6 35t6 35h75v175h-256l-83 -175h83q6 -18 6 -35 t-6 -35h-235q-6 18 -6 35t6 35h67z"/>
<glyph glyph-name="Ccedilla" horiz-adv-x="715" unicode="Ç" d="M283 -158q18 -8 32 -12t32 -3q7 -1 17 1t17 6q8 4 14 12t6 22q1 22 -15 30t-31 8q-7 0 -17 -2t-21 -6l-16 19l50 68q-75 7 -131 39t-92 82t-54 114t-19 136q1 74 21 144t61 126q41 54 102 88t142 33q55 0 103 -19t86 -60v61q19 6 38 6q20 0 38 -6v-279q-21 -6 -41 -6 t-41 6v48q0 36 -12 67t-35 54t-57 36t-80 13q-62 0 -105 -28t-70 -74q-27 -44 -39 -98t-12 -107q0 -79 20 -135t55 -92q34 -36 78 -53t92 -17t87 14t70 32q30 20 52 40t34 33v-107q-14 -13 -38 -29q-24 -17 -55 -31t-69 -24t-79 -10l-30 -41q10 3 23 3q24 0 40 -7t24 -18 q9 -11 13 -23t4 -25q0 -37 -30 -63t-84 -26q-27 0 -50 6t-42 15z"/>
<glyph glyph-name="Egrave" horiz-adv-x="644" unicode="È" d="M111 70v589h-75q-6 18 -6 35t6 35h547v-212q-20 -6 -39 -6q-20 0 -39 6v134h-303v-237h303q6 -20 6 -39q0 -20 -6 -39h-303v-258h310v137q21 6 39 6q20 0 38 -6v-215h-553q-6 18 -6 35t6 35h75zM213 923h110l87 -136h-71z"/>
<glyph glyph-name="Eacute" horiz-adv-x="644" unicode="É" d="M111 70v589h-75q-6 18 -6 35t6 35h547v-212q-20 -6 -39 -6q-20 0 -39 6v134h-303v-237h303q6 -20 6 -39q0 -20 -6 -39h-303v-258h310v137q21 6 39 6q20 0 38 -6v-215h-553q-6 18 -6 35t6 35h75zM393 923h110l-126 -136h-71z"/>
<glyph glyph-name="Ecircumflex" horiz-adv-x="644" unicode="Ê" d="M111 70v589h-75q-6 18 -6 35t6 35h547v-212q-20 -6 -39 -6q-20 0 -39 6v134h-303v-237h303q6 -20 6 -39q0 -20 -6 -39h-303v-258h310v137q21 6 39 6q20 0 38 -6v-215h-553q-6 18 -6 35t6 35h75zM282 923h90l96 -136h-77l-64 90l-64 -90h-77z"/>
<glyph glyph-name="Edieresis" horiz-adv-x="644" unicode="Ë" d="M111 70v589h-75q-6 18 -6 35t6 35h547v-212q-20 -6 -39 -6q-20 0 -39 6v134h-303v-237h303q6 -20 6 -39q0 -20 -6 -39h-303v-258h310v137q21 6 39 6q20 0 38 -6v-215h-553q-6 18 -6 35t6 35h75zM244 795q-20 0 -35.5 16t-15.5 39t15.5 39t35.5 16t35 -16t15 -39t-15 -39 t-35 -16zM420 795q-20 0 -35 16t-15 39t15 39t35 16t35.5 -16t15.5 -39t-15.5 -39t-35.5 -16z"/>
<glyph glyph-name="Igrave" horiz-adv-x="330" unicode="Ì" d="M119 70v589h-75q-6 18 -6 35t6 35h242q6 -18 6 -35t-6 -35h-76v-589h76q6 -18 6 -35t-6 -35h-242q-6 18 -6 35t6 35h75zM18 923h110l87 -136h-71z"/>
<glyph glyph-name="Iacute" horiz-adv-x="330" unicode="Í" d="M119 70v589h-75q-6 18 -6 35t6 35h242q6 -18 6 -35t-6 -35h-76v-589h76q6 -18 6 -35t-6 -35h-242q-6 18 -6 35t6 35h75zM214 923h110l-126 -136h-71z"/>
<glyph glyph-name="Icircumflex" horiz-adv-x="330" unicode="Î" d="M119 70v589h-75q-6 18 -6 35t6 35h242q6 -18 6 -35t-6 -35h-76v-589h76q6 -18 6 -35t-6 -35h-242q-6 18 -6 35t6 35h75zM122 923h90l96 -136h-77l-64 90l-64 -90h-77z"/>
<glyph glyph-name="Idieresis" horiz-adv-x="330" unicode="Ï" d="M119 70v589h-75q-6 18 -6 35t6 35h242q6 -18 6 -35t-6 -35h-76v-589h76q6 -18 6 -35t-6 -35h-242q-6 18 -6 35t6 35h75zM79 795q-20 0 -35.5 16t-15.5 39t15.5 39t35.5 16t35 -16t15 -39t-15 -39t-35 -16zM255 795q-20 0 -35 16t-15 39t15 39t35 16t35.5 -16t15.5 -39 t-15.5 -39t-35.5 -16z"/>
<glyph glyph-name="Eth" horiz-adv-x="735" unicode="Ð" d="M379 78q46 0 83 20q38 20 64 59q26 37 40 91t15 120q0 66 -15 118q-16 52 -44 90q-28 36 -70 56t-94 19h-156v-241h161v-70h-161v-262h177zM111 70v270h-81v70h81v249h-75q-6 18 -6 35t6 35h338q73 0 130 -27t96 -75q40 -48 60 -113t20 -140q0 -58 -14 -124t-48 -122 t-91 -92t-143 -36h-348q-6 18 -6 35t6 35h75z"/>
<glyph glyph-name="Ntilde" horiz-adv-x="757" unicode="Ñ" d="M111 70v589h-75q-6 18 -6 35t6 35h185l294 -509q5 -9 11.5 -22t14 -29t15 -33t14.5 -33q0 15 -0.5 34.5t-1 37t-1 31t-0.5 18.5v435h-81q-6 18 -6 35t6 35h241q6 -18 6 -35t-6 -35h-80v-668h-95l-310 538q-6 10 -13.5 24.5t-15 30t-14.5 31t-13 28.5q1 -16 1.5 -36.5 t1 -40t1 -36t0.5 -23.5v-437h78q6 -18 6 -35t-6 -35h-232q-6 18 -6 35t6 35h75zM207 802q3 22 10.5 41.5t19.5 34t30 23t43 8.5q30 0 48.5 -7.5t42.5 -16.5q23 -8 32 -10.5t19 -2.5q11 0 18.5 4.5t12 11.5t7 14.5t4.5 12.5h55q-3 -22 -10.5 -41.5t-19.5 -34t-30 -23 t-43 -8.5q-20 0 -38.5 6.5t-44.5 16.5q-13 5 -21 8t-14.5 4.5t-12 2t-12.5 0.5q-11 0 -18 -5t-11.5 -12t-7.5 -14.5t-4 -12.5h-55z"/>
<glyph glyph-name="Ograve" horiz-adv-x="789" unicode="Ò" d="M395 58q52 0 96 21.5t76 61.5t50 96.5t18 126.5t-18 127t-50 97t-76 61.5t-96 21.5t-96 -21.5t-76.5 -61.5t-50.5 -97t-18 -127t18 -126.5t50.5 -96.5t76.5 -61.5t96 -21.5zM395 -18q-98 0 -163 36.5t-104.5 92.5t-56 123.5t-16.5 129.5q0 63 16.5 130.5t56 123.5 t104.5 92.5t163 36.5q65 0 115 -17t88 -45.5t64 -66.5t42 -80.5t23 -87t7 -86.5q0 -41 -7 -85.5t-23 -87t-42 -80.5t-64 -66.5t-88 -45.5t-115 -17zM270 923h110l87 -136h-71z"/>
<glyph glyph-name="Oacute" horiz-adv-x="789" unicode="Ó" d="M395 58q52 0 96 21.5t76 61.5t50 96.5t18 126.5t-18 127t-50 97t-76 61.5t-96 21.5t-96 -21.5t-76.5 -61.5t-50.5 -97t-18 -127t18 -126.5t50.5 -96.5t76.5 -61.5t96 -21.5zM395 -18q-98 0 -163 36.5t-104.5 92.5t-56 123.5t-16.5 129.5q0 63 16.5 130.5t56 123.5 t104.5 92.5t163 36.5q65 0 115 -17t88 -45.5t64 -66.5t42 -80.5t23 -87t7 -86.5q0 -41 -7 -85.5t-23 -87t-42 -80.5t-64 -66.5t-88 -45.5t-115 -17zM449 923h110l-126 -136h-71z"/>
<glyph glyph-name="Ocircumflex" horiz-adv-x="789" unicode="Ô" d="M395 58q52 0 96 21.5t76 61.5t50 96.5t18 126.5t-18 127t-50 97t-76 61.5t-96 21.5t-96 -21.5t-76.5 -61.5t-50.5 -97t-18 -127t18 -126.5t50.5 -96.5t76.5 -61.5t96 -21.5zM395 -18q-98 0 -163 36.5t-104.5 92.5t-56 123.5t-16.5 129.5q0 63 16.5 130.5t56 123.5 t104.5 92.5t163 36.5q65 0 115 -17t88 -45.5t64 -66.5t42 -80.5t23 -87t7 -86.5q0 -41 -7 -85.5t-23 -87t-42 -80.5t-64 -66.5t-88 -45.5t-115 -17zM349 923h90l96 -136h-77l-64 90l-64 -90h-77z"/>
<glyph glyph-name="Otilde" horiz-adv-x="789" unicode="Õ" d="M395 58q52 0 96 21.5t76 61.5t50 96.5t18 126.5t-18 127t-50 97t-76 61.5t-96 21.5t-96 -21.5t-76.5 -61.5t-50.5 -97t-18 -127t18 -126.5t50.5 -96.5t76.5 -61.5t96 -21.5zM395 -18q-98 0 -163 36.5t-104.5 92.5t-56 123.5t-16.5 129.5q0 63 16.5 130.5t56 123.5 t104.5 92.5t163 36.5q65 0 115 -17t88 -45.5t64 -66.5t42 -80.5t23 -87t7 -86.5q0 -41 -7 -85.5t-23 -87t-42 -80.5t-64 -66.5t-88 -45.5t-115 -17zM223 802q3 22 10.5 41.5t19.5 34t30 23t43 8.5q30 0 48.5 -7.5t42.5 -16.5q23 -8 32 -10.5t19 -2.5q11 0 18.5 4.5t12 11.5 t7 14.5t4.5 12.5h55q-3 -22 -10.5 -41.5t-19.5 -34t-30 -23t-43 -8.5q-20 0 -38.5 6.5t-44.5 16.5q-13 5 -21 8t-14.5 4.5t-12 2t-12.5 0.5q-11 0 -18 -5t-11.5 -12t-7.5 -14.5t-4 -12.5h-55z"/>
<glyph glyph-name="Odieresis" horiz-adv-x="789" unicode="Ö" d="M395 58q52 0 96 21.5t76 61.5t50 96.5t18 126.5t-18 127t-50 97t-76 61.5t-96 21.5t-96 -21.5t-76.5 -61.5t-50.5 -97t-18 -127t18 -126.5t50.5 -96.5t76.5 -61.5t96 -21.5zM395 -18q-98 0 -163 36.5t-104.5 92.5t-56 123.5t-16.5 129.5q0 63 16.5 130.5t56 123.5 t104.5 92.5t163 36.5q65 0 115 -17t88 -45.5t64 -66.5t42 -80.5t23 -87t7 -86.5q0 -41 -7 -85.5t-23 -87t-42 -80.5t-64 -66.5t-88 -45.5t-115 -17zM306 795q-20 0 -35.5 16t-15.5 39t15.5 39t35.5 16t35 -16t15 -39t-15 -39t-35 -16zM482 795q-20 0 -35 16t-15 39t15 39 t35 16t35.5 -16t15.5 -39t-15.5 -39t-35.5 -16z"/>
<glyph glyph-name="multiply" d="M222 334l-154 153l50 51l154 -153l153 153l49 -48l-154 -153l154 -154l-51 -50l-153 153l-153 -153l-49 48z" unicode="×"/>
<glyph glyph-name="Oslash" horiz-adv-x="789" unicode="Ø" d="M231 131q31 -35 73 -54t91 -19q52 0 96 22t76 61q32 41 50 97t18 126q0 96 -35 169zM560 596q-31 36 -73 56t-92 19q-52 1 -96 -21q-45 -22 -77 -62t-50 -97t-18 -127q0 -50 10 -94t26 -78zM122 119q-36 55 -52 120t-15 125q1 62 17 130t56 124t104 92q65 36 163 37 q76 -1 132 -23t95 -60l82 88l52 -49l-88 -95q36 -56 51 -120t15 -124q0 -42 -7 -86t-23 -86t-42 -81t-64 -67t-88 -45t-115 -17q-75 0 -131 22t-96 60l-80 -88l-52 49z"/>
<glyph glyph-name="Ugrave" horiz-adv-x="758" unicode="Ù" d="M105 659h-75q-6 18 -6 35t6 35h242q6 -18 6 -35t-6 -35h-76v-403q0 -57 16 -94t42.5 -59t59 -31t65.5 -9t66 9t59.5 31t43 59t16.5 94v403h-74q-6 18 -6 35t6 35h238q6 -18 6 -35t-6 -35h-77v-415q0 -53 -16 -100.5t-49 -83.5t-84.5 -57t-122.5 -21t-123 21t-85.5 57 t-49.5 83.5t-16 100.5v415zM240 923h110l87 -136h-71z"/>
<glyph glyph-name="Uacute" horiz-adv-x="758" unicode="Ú" d="M105 659h-75q-6 18 -6 35t6 35h242q6 -18 6 -35t-6 -35h-76v-403q0 -57 16 -94t42.5 -59t59 -31t65.5 -9t66 9t59.5 31t43 59t16.5 94v403h-74q-6 18 -6 35t6 35h238q6 -18 6 -35t-6 -35h-77v-415q0 -53 -16 -100.5t-49 -83.5t-84.5 -57t-122.5 -21t-123 21t-85.5 57 t-49.5 83.5t-16 100.5v415zM418 923h110l-126 -136h-71z"/>
<glyph glyph-name="Ucircumflex" horiz-adv-x="758" unicode="Û" d="M105 659h-75q-6 18 -6 35t6 35h242q6 -18 6 -35t-6 -35h-76v-403q0 -57 16 -94t42.5 -59t59 -31t65.5 -9t66 9t59.5 31t43 59t16.5 94v403h-74q-6 18 -6 35t6 35h238q6 -18 6 -35t-6 -35h-77v-415q0 -53 -16 -100.5t-49 -83.5t-84.5 -57t-122.5 -21t-123 21t-85.5 57 t-49.5 83.5t-16 100.5v415zM334 923h90l96 -136h-77l-64 90l-64 -90h-77z"/>
<glyph glyph-name="Udieresis" horiz-adv-x="758" unicode="Ü" d="M105 659h-75q-6 18 -6 35t6 35h242q6 -18 6 -35t-6 -35h-76v-403q0 -57 16 -94t42.5 -59t59 -31t65.5 -9t66 9t59.5 31t43 59t16.5 94v403h-74q-6 18 -6 35t6 35h238q6 -18 6 -35t-6 -35h-77v-415q0 -53 -16 -100.5t-49 -83.5t-84.5 -57t-122.5 -21t-123 21t-85.5 57 t-49.5 83.5t-16 100.5v415zM291 795q-20 0 -35.5 16t-15.5 39t15.5 39t35.5 16t35 -16t15 -39t-15 -39t-35 -16zM467 795q-20 0 -35 16t-15 39t15 39t35 16t35.5 -16t15.5 -39t-15.5 -39t-35.5 -16z"/>
<glyph glyph-name="Yacute" horiz-adv-x="720" unicode="Ý" d="M310 70v223l-238 366h-58q-6 18 -6 35t6 35h248q6 -18 6 -35t-6 -35h-91l191 -293l197 293h-92q-6 18 -6 35t6 35h239q6 -18 6 -35t-6 -35h-58l-247 -367v-222h80q6 -18 6 -35t-6 -35h-250q-6 18 -6 35t6 35h79zM429 923h110l-126 -136h-71z"/>
<glyph glyph-name="Thorn" horiz-adv-x="637" unicode="Þ" d="M367 236q67 0 105 32t38 102q0 66 -38 98t-101 32h-171v-264h167zM111 70v589h-75q-6 18 -6 35t6 35h250q6 -18 6 -35t-6 -35h-86v-83h199q51 0 89 -16t64 -44t40 -66t14 -79q0 -35 -11 -73t-35 -68t-64 -50t-97 -20h-199v-90h86q6 -18 6 -35t-6 -35h-250q-6 18 -6 35 t6 35h75z"/>
<glyph glyph-name="germandbls" horiz-adv-x="615" unicode="ß" d="M98 62v470q0 48 14 92t42 76t72 50q43 18 102 18q51 0 90 -15t66 -41q26 -26 40 -59q14 -34 14 -73q0 -36 -9 -64t-23 -47q-14 -21 -30 -33t-31 -19q29 -10 53 -27q24 -16 41 -42t27 -60t10 -80q0 -55 -17 -97t-45 -70t-66 -42q-37 -14 -77 -14q-37 1 -66 7t-57 15v82 q28 -15 58 -21t57 -6q54 0 89 38t35 114q1 81 -45 122t-120 41h-41q-6 18 -6 33t6 33h27q42 1 70 11t44 28t23 43t7 55q0 24 -7 46t-23 38t-40 26t-59 9q-43 0 -69 -16q-26 -15 -42 -43q-14 -28 -20 -64t-6 -77v-499h-161q-6 15 -6 31t6 31h73z"/>
<glyph glyph-name="agrave" horiz-adv-x="533" unicode="à" d="M359 256l-126 -13q-55 -6 -84.5 -30t-29.5 -77q0 -37 26 -59t71 -22q25 0 51 8t46 23t33 37.5t13 51.5v81zM363 68q-8 -14 -20 -28.5t-31.5 -26.5t-47 -19.5t-64.5 -7.5q-73 0 -119.5 39.5t-46.5 111.5q0 33 9.5 62t30.5 51.5t55 36.5t83 19l147 14v17q0 27 -5.5 48 t-19 35.5t-36.5 22t-59 7.5q-27 0 -51 -7t-44.5 -16.5t-37 -20.5t-26.5 -19v79q10 7 26 16.5t38.5 18t51.5 14.5t65 6q22 0 53.5 -4.5t60.5 -22t49 -51.5t20 -93v-288h64q6 -15 6 -31t-6 -31h-145v68zM127 711h110l87 -136h-71z"/>
<glyph glyph-name="aacute" horiz-adv-x="533" unicode="á" d="M359 256l-126 -13q-55 -6 -84.5 -30t-29.5 -77q0 -37 26 -59t71 -22q25 0 51 8t46 23t33 37.5t13 51.5v81zM363 68q-8 -14 -20 -28.5t-31.5 -26.5t-47 -19.5t-64.5 -7.5q-73 0 -119.5 39.5t-46.5 111.5q0 33 9.5 62t30.5 51.5t55 36.5t83 19l147 14v17q0 27 -5.5 48 t-19 35.5t-36.5 22t-59 7.5q-27 0 -51 -7t-44.5 -16.5t-37 -20.5t-26.5 -19v79q10 7 26 16.5t38.5 18t51.5 14.5t65 6q22 0 53.5 -4.5t60.5 -22t49 -51.5t20 -93v-288h64q6 -15 6 -31t-6 -31h-145v68zM300 711h110l-126 -136h-71z"/>
<glyph glyph-name="acircumflex" horiz-adv-x="533" unicode="â" d="M359 256l-126 -13q-55 -6 -84.5 -30t-29.5 -77q0 -37 26 -59t71 -22q25 0 51 8t46 23t33 37.5t13 51.5v81zM363 68q-8 -14 -20 -28.5t-31.5 -26.5t-47 -19.5t-64.5 -7.5q-73 0 -119.5 39.5t-46.5 111.5q0 33 9.5 62t30.5 51.5t55 36.5t83 19l147 14v17q0 27 -5.5 48 t-19 35.5t-36.5 22t-59 7.5q-27 0 -51 -7t-44.5 -16.5t-37 -20.5t-26.5 -19v79q10 7 26 16.5t38.5 18t51.5 14.5t65 6q22 0 53.5 -4.5t60.5 -22t49 -51.5t20 -93v-288h64q6 -15 6 -31t-6 -31h-145v68zM221 711h90l96 -136h-77l-64 90l-64 -90h-77z"/>
<glyph glyph-name="atilde" horiz-adv-x="533" unicode="ã" d="M359 256l-126 -13q-55 -6 -84.5 -30t-29.5 -77q0 -37 26 -59t71 -22q25 0 51 8t46 23t33 37.5t13 51.5v81zM363 68q-8 -14 -20 -28.5t-31.5 -26.5t-47 -19.5t-64.5 -7.5q-73 0 -119.5 39.5t-46.5 111.5q0 33 9.5 62t30.5 51.5t55 36.5t83 19l147 14v17q0 27 -5.5 48 t-19 35.5t-36.5 22t-59 7.5q-27 0 -51 -7t-44.5 -16.5t-37 -20.5t-26.5 -19v79q10 7 26 16.5t38.5 18t51.5 14.5t65 6q22 0 53.5 -4.5t60.5 -22t49 -51.5t20 -93v-288h64q6 -15 6 -31t-6 -31h-145v68zM85 590q3 22 10.5 41.5t19.5 34t30 23t43 8.5q30 0 48.5 -7.5 t42.5 -16.5q23 -8 32 -10.5t19 -2.5q11 0 18.5 4.5t12 11.5t7 14.5t4.5 12.5h55q-3 -22 -10.5 -41.5t-19.5 -34t-30 -23t-43 -8.5q-20 0 -38.5 6.5t-44.5 16.5q-13 5 -21 8t-14.5 4.5t-12 2t-12.5 0.5q-11 0 -18 -5t-11.5 -12t-7.5 -14.5t-4 -12.5h-55z"/>
<glyph glyph-name="adieresis" horiz-adv-x="533" unicode="ä" d="M359 256l-126 -13q-55 -6 -84.5 -30t-29.5 -77q0 -37 26 -59t71 -22q25 0 51 8t46 23t33 37.5t13 51.5v81zM363 68q-8 -14 -20 -28.5t-31.5 -26.5t-47 -19.5t-64.5 -7.5q-73 0 -119.5 39.5t-46.5 111.5q0 33 9.5 62t30.5 51.5t55 36.5t83 19l147 14v17q0 27 -5.5 48 t-19 35.5t-36.5 22t-59 7.5q-27 0 -51 -7t-44.5 -16.5t-37 -20.5t-26.5 -19v79q10 7 26 16.5t38.5 18t51.5 14.5t65 6q22 0 53.5 -4.5t60.5 -22t49 -51.5t20 -93v-288h64q6 -15 6 -31t-6 -31h-145v68zM173 583q-20 0 -35.5 16t-15.5 39t15.5 39t35.5 16t35 -16t15 -39 t-15 -39t-35 -16zM349 583q-20 0 -35 16t-15 39t15 39t35 16t35.5 -16t15.5 -39t-15.5 -39t-35.5 -16z"/>
<glyph glyph-name="aring" horiz-adv-x="533" unicode="å" d="M359 256l-126 -13q-55 -6 -84.5 -30t-29.5 -77q0 -37 26 -59t71 -22q25 0 51 8t46 23t33 37.5t13 51.5v81zM363 68q-8 -14 -20 -28.5t-31.5 -26.5t-47 -19.5t-64.5 -7.5q-73 0 -119.5 39.5t-46.5 111.5q0 33 9.5 62t30.5 51.5t55 36.5t83 19l147 14v17q0 27 -5.5 48 t-19 35.5t-36.5 22t-59 7.5q-27 0 -51 -7t-44.5 -16.5t-37 -20.5t-26.5 -19v79q10 7 26 16.5t38.5 18t51.5 14.5t65 6q22 0 53.5 -4.5t60.5 -22t49 -51.5t20 -93v-288h64q6 -15 6 -31t-6 -31h-145v68zM266 617q24 0 42 18t18 42t-18 42t-42 18t-42 -18t-18 -42t18 -42 t42 -18zM162 677q0 21 8 40t22.5 33.5t33.5 22.5t40 8t40 -8t33.5 -22.5t22.5 -33.5t8 -40t-8 -40t-22.5 -33.5t-33.5 -22.5t-40 -8t-40 8t-33.5 22.5t-22.5 33.5t-8 40z"/>
<glyph glyph-name="ae" horiz-adv-x="821" unicode="æ" d="M359 243l-109 -4q-74 -3 -102 -29t-29 -70t29 -64t75 -21q27 0 51 8t44 23q19 16 30 38t11 51v68zM697 305q1 20 -5 45q-6 26 -20 48t-38 38t-63 15q-35 -1 -59 -17t-40 -40t-22 -48q-6 -25 -6 -41h253zM80 466q10 6 26 16t38 18t52 15q29 6 65 6q17 -1 37 -3t42 -10 t42 -24q20 -15 35 -39q26 34 65 55t91 21q61 0 101 -23t66 -61t36 -87t10 -100v-7h-342q1 -37 12 -70t31 -58q19 -25 49 -39t69 -15q55 0 91 17t66 36v-84q-26 -16 -68 -30t-88 -14q-78 0 -124 29t-77 73q-9 -16 -25 -34t-40 -33t-56 -25t-76 -10q-80 0 -127 37t-47 109 q0 33 11 63q11 31 33 53t58 36t86 16l137 5v32q1 27 -5 48t-20 35t-36 22q-23 8 -59 8q-27 0 -51 -7t-44 -17t-38 -20q-16 -11 -26 -19v79z"/>
<glyph glyph-name="ccedilla" horiz-adv-x="497" unicode="ç" d="M165 -158q18 -8 32 -12t32 -3q7 -1 17 1t17 6q8 4 14 12t6 22q1 22 -15 30t-31 8q-7 0 -17 -2t-21 -6l-16 19l53 72q-48 7 -85 29t-61 56t-38 76q-13 43 -13 91q-1 57 13 107t42 88t70 59q42 22 100 22q45 0 78 -18t47 -43v48q16 6 31 6q17 0 32 -6v-206q-18 -6 -35 -6 t-35 6v27q0 57 -30 89t-83 33q-43 -1 -71 -19t-43 -47q-16 -29 -22 -65t-6 -70q0 -46 12 -80t33 -58q21 -22 50 -34t62 -12q31 0 58 8t48 20t36 24t23 18v-88q-11 -8 -26 -18t-35 -18t-46 -14q-25 -6 -56 -8l-33 -45q10 3 23 3q24 0 40 -7t24 -18q9 -11 13 -23t4 -25 q0 -37 -30 -63t-84 -26q-27 0 -50 6t-42 15z"/>
<glyph glyph-name="egrave" horiz-adv-x="506" unicode="è" d="M382 291q0 25 -5.5 53t-19.5 52t-38.5 39.5t-62.5 15.5q-35 0 -59.5 -17t-39.5 -41.5t-21.5 -52t-6.5 -49.5h253zM447 30q-26 -15 -68.5 -29.5t-87.5 -14.5q-67 0 -115 22.5t-78.5 60t-44.5 85.5t-14 100t13 100.5t39.5 85.5t68 59t98.5 22q61 0 101.5 -23t65.5 -61 t35.5 -87t10.5 -100v-21h-342q1 -32 12 -62t31 -53.5t49.5 -38t68.5 -14.5q55 0 91.5 17t65.5 36v-84zM134 711h110l87 -136h-71z"/>
<glyph glyph-name="eacute" horiz-adv-x="506" unicode="é" d="M382 291q0 25 -5.5 53t-19.5 52t-38.5 39.5t-62.5 15.5q-35 0 -59.5 -17t-39.5 -41.5t-21.5 -52t-6.5 -49.5h253zM447 30q-26 -15 -68.5 -29.5t-87.5 -14.5q-67 0 -115 22.5t-78.5 60t-44.5 85.5t-14 100t13 100.5t39.5 85.5t68 59t98.5 22q61 0 101.5 -23t65.5 -61 t35.5 -87t10.5 -100v-21h-342q1 -32 12 -62t31 -53.5t49.5 -38t68.5 -14.5q55 0 91.5 17t65.5 36v-84zM302 711h110l-126 -136h-71z"/>
<glyph glyph-name="ecircumflex" horiz-adv-x="506" unicode="ê" d="M382 291q0 25 -5.5 53t-19.5 52t-38.5 39.5t-62.5 15.5q-35 0 -59.5 -17t-39.5 -41.5t-21.5 -52t-6.5 -49.5h253zM447 30q-26 -15 -68.5 -29.5t-87.5 -14.5q-67 0 -115 22.5t-78.5 60t-44.5 85.5t-14 100t13 100.5t39.5 85.5t68 59t98.5 22q61 0 101.5 -23t65.5 -61 t35.5 -87t10.5 -100v-21h-342q1 -32 12 -62t31 -53.5t49.5 -38t68.5 -14.5q55 0 91.5 17t65.5 36v-84zM225 711h90l96 -136h-77l-64 90l-64 -90h-77z"/>
<glyph glyph-name="edieresis" horiz-adv-x="506" unicode="ë" d="M382 291q0 25 -5.5 53t-19.5 52t-38.5 39.5t-62.5 15.5q-35 0 -59.5 -17t-39.5 -41.5t-21.5 -52t-6.5 -49.5h253zM447 30q-26 -15 -68.5 -29.5t-87.5 -14.5q-67 0 -115 22.5t-78.5 60t-44.5 85.5t-14 100t13 100.5t39.5 85.5t68 59t98.5 22q61 0 101.5 -23t65.5 -61 t35.5 -87t10.5 -100v-21h-342q1 -32 12 -62t31 -53.5t49.5 -38t68.5 -14.5q55 0 91.5 17t65.5 36v-84zM184 583q-20 0 -35.5 16t-15.5 39t15.5 39t35.5 16t35 -16t15 -39t-15 -39t-35 -16zM360 583q-20 0 -35 16t-15 39t15 39t35 16t35.5 -16t15.5 -39t-15.5 -39t-35.5 -16z "/>
<glyph glyph-name="igrave" horiz-adv-x="292" unicode="ì" d="M106 62v383h-68q-6 15 -6 31t6 31h153v-445h68q6 -15 6 -31t-6 -31h-221q-6 15 -6 31t6 31h68zM-16 711h110l87 -136h-71z"/>
<glyph glyph-name="iacute" horiz-adv-x="292" unicode="í" d="M106 62v383h-68q-6 15 -6 31t6 31h153v-445h68q6 -15 6 -31t-6 -31h-221q-6 15 -6 31t6 31h68zM175 711h110l-126 -136h-71z"/>
<glyph glyph-name="icircumflex" horiz-adv-x="292" unicode="î" d="M106 62v383h-68q-6 15 -6 31t6 31h153v-445h68q6 -15 6 -31t-6 -31h-221q-6 15 -6 31t6 31h68zM78 711h90l96 -136h-77l-64 90l-64 -90h-77z"/>
<glyph glyph-name="idieresis" horiz-adv-x="292" unicode="ï" d="M106 62v383h-68q-6 15 -6 31t6 31h153v-445h68q6 -15 6 -31t-6 -31h-221q-6 15 -6 31t6 31h68zM37 583q-20 0 -35.5 16t-15.5 39t15.5 39t35.5 16t35 -16t15 -39t-15 -39t-35 -16zM213 583q-20 0 -35 16t-15 39t15 39t35 16t35.5 -16t15.5 -39t-15.5 -39t-35.5 -16z"/>
<glyph glyph-name="eth" horiz-adv-x="549" unicode="ð" d="M274 58q46 0 74 22t46 52q16 30 22 63q6 32 6 52q0 25 -6 58t-22 61t-46 49q-28 20 -74 20t-74 -20q-28 -21 -45 -49q-16 -28 -22 -61t-6 -58q0 -20 6 -52q6 -33 22 -63q17 -30 45 -52t74 -22zM143 584l89 74q-24 16 -50 30t-53 25l27 55q74 -29 130 -65l78 65l33 -38 l-69 -57q51 -41 86 -87q34 -46 56 -96t31 -100t9 -99q0 -63 -14 -119t-43 -96q-29 -42 -73 -66t-106 -24q-61 0 -105 24t-73 63q-29 38 -43 84t-14 90q0 49 14 96q13 47 41 83t70 59q42 22 99 22q20 0 40 -5q20 -6 38 -14q19 -8 33 -19t22 -24q-17 52 -49 98t-74 83l-97 -80 z"/>
<glyph glyph-name="ntilde" horiz-adv-x="590" unicode="ñ" d="M98 62v383h-68q-6 15 -6 31t6 31h140v-75q7 13 20 29t32.5 29t46.5 22t62 9q80 0 123 -45.5t43 -134.5v-279h68q6 -15 6 -31t-6 -31h-212q-6 15 -6 31t6 31h59v250q0 31 -4 56.5t-15.5 42.5t-31.5 26.5t-51 9.5q-23 0 -45.5 -8.5t-40.5 -28t-29.5 -52.5t-11.5 -82v-214 h59q6 -15 6 -31t-6 -31h-212q-6 15 -6 31t6 31h68zM134 590q3 22 10.5 41.5t19.5 34t30 23t43 8.5q30 0 48.5 -7.5t42.5 -16.5q23 -8 32 -10.5t19 -2.5q11 0 18.5 4.5t12 11.5t7 14.5t4.5 12.5h55q-3 -22 -10.5 -41.5t-19.5 -34t-30 -23t-43 -8.5q-20 0 -38.5 6.5 t-44.5 16.5q-13 5 -21 8t-14.5 4.5t-12 2t-12.5 0.5q-11 0 -18 -5t-11.5 -12t-7.5 -14.5t-4 -12.5h-55z"/>
<glyph glyph-name="ograve" horiz-adv-x="549" unicode="ò" d="M274 58q46 0 74.5 21t45 51.5t22.5 64t6 59.5q0 25 -6 59t-22.5 64t-45 51t-74.5 21t-74.5 -21t-44.5 -51t-22 -64t-6 -59q0 -26 6 -59.5t22 -64t44.5 -51.5t74.5 -21zM274 -14q-61 0 -105 23.5t-73 61.5t-43 86t-14 97t14 97t43 85.5t73 61t105 23.5t105.5 -23.5 t73.5 -61t43 -85.5t14 -97t-14 -97t-43 -86t-73.5 -61.5t-105.5 -23.5zM145 711h110l87 -136h-71z"/>
<glyph glyph-name="oacute" horiz-adv-x="549" unicode="ó" d="M274 58q46 0 74.5 21t45 51.5t22.5 64t6 59.5q0 25 -6 59t-22.5 64t-45 51t-74.5 21t-74.5 -21t-44.5 -51t-22 -64t-6 -59q0 -26 6 -59.5t22 -64t44.5 -51.5t74.5 -21zM274 -14q-61 0 -105 23.5t-73 61.5t-43 86t-14 97t14 97t43 85.5t73 61t105 23.5t105.5 -23.5 t73.5 -61t43 -85.5t14 -97t-14 -97t-43 -86t-73.5 -61.5t-105.5 -23.5zM323 711h110l-126 -136h-71z"/>
<glyph glyph-name="ocircumflex" horiz-adv-x="549" unicode="ô" d="M274 58q46 0 74.5 21t45 51.5t22.5 64t6 59.5q0 25 -6 59t-22.5 64t-45 51t-74.5 21t-74.5 -21t-44.5 -51t-22 -64t-6 -59q0 -26 6 -59.5t22 -64t44.5 -51.5t74.5 -21zM274 -14q-61 0 -105 23.5t-73 61.5t-43 86t-14 97t14 97t43 85.5t73 61t105 23.5t105.5 -23.5 t73.5 -61t43 -85.5t14 -97t-14 -97t-43 -86t-73.5 -61.5t-105.5 -23.5zM229 711h90l96 -136h-77l-64 90l-64 -90h-77z"/>
<glyph glyph-name="otilde" horiz-adv-x="549" unicode="õ" d="M274 58q46 0 74.5 21t45 51.5t22.5 64t6 59.5q0 25 -6 59t-22.5 64t-45 51t-74.5 21t-74.5 -21t-44.5 -51t-22 -64t-6 -59q0 -26 6 -59.5t22 -64t44.5 -51.5t74.5 -21zM274 -14q-61 0 -105 23.5t-73 61.5t-43 86t-14 97t14 97t43 85.5t73 61t105 23.5t105.5 -23.5 t73.5 -61t43 -85.5t14 -97t-14 -97t-43 -86t-73.5 -61.5t-105.5 -23.5zM103 590q3 22 10.5 41.5t19.5 34t30 23t43 8.5q30 0 48.5 -7.5t42.5 -16.5q23 -8 32 -10.5t19 -2.5q11 0 18.5 4.5t12 11.5t7 14.5t4.5 12.5h55q-3 -22 -10.5 -41.5t-19.5 -34t-30 -23t-43 -8.5 q-20 0 -38.5 6.5t-44.5 16.5q-13 5 -21 8t-14.5 4.5t-12 2t-12.5 0.5q-11 0 -18 -5t-11.5 -12t-7.5 -14.5t-4 -12.5h-55z"/>
<glyph glyph-name="odieresis" horiz-adv-x="549" unicode="ö" d="M274 58q46 0 74.5 21t45 51.5t22.5 64t6 59.5q0 25 -6 59t-22.5 64t-45 51t-74.5 21t-74.5 -21t-44.5 -51t-22 -64t-6 -59q0 -26 6 -59.5t22 -64t44.5 -51.5t74.5 -21zM274 -14q-61 0 -105 23.5t-73 61.5t-43 86t-14 97t14 97t43 85.5t73 61t105 23.5t105.5 -23.5 t73.5 -61t43 -85.5t14 -97t-14 -97t-43 -86t-73.5 -61.5t-105.5 -23.5zM186 583q-20 0 -35.5 16t-15.5 39t15.5 39t35.5 16t35 -16t15 -39t-15 -39t-35 -16zM362 583q-20 0 -35 16t-15 39t15 39t35 16t35.5 -16t15.5 -39t-15.5 -39t-35.5 -16z"/>
<glyph glyph-name="divide" d="M204 132q0 28 20 48t48 20t48 -20t20 -48q0 -26 -20 -47t-48 -21t-48 20t-20 48zM26 370h490v-71h-490v71zM204 539q0 29 20 49t48 19q28 0 48 -20t20 -48q0 -26 -20 -47t-48 -21t-48 20t-20 48z" unicode="÷"/>
<glyph glyph-name="oslash" horiz-adv-x="549" unicode="ø" d="M178 98q16 -18 40 -29t56 -11q46 0 74 21t46 51q16 30 22 64t6 60q0 22 -4 50t-15 54zM371 409q-17 18 -41 29t-56 11q-46 0 -74 -21t-45 -51q-16 -30 -22 -64t-6 -59q0 -22 4 -50t15 -56zM88 81q-25 37 -37 82t-12 91q0 49 14 97q14 47 43 85t73 62t105 23q48 0 84 -14 t64 -38l58 66l43 -38l-62 -72q25 -37 37 -81t12 -90q0 -49 -14 -97t-43 -86q-29 -37 -73 -61t-106 -24q-46 0 -82 14t-66 38l-57 -66l-43 38z"/>
<glyph glyph-name="ugrave" horiz-adv-x="584" unicode="ù" d="M92 445h-67q-6 15 -6 31t6 31h152v-312q0 -32 4.5 -57t15.5 -42t31 -26.5t51 -9.5q22 0 45 8.5t41 28t29.5 52.5t11.5 82v214h-67q-6 15 -6 31t6 31h153v-445h67q6 -15 6 -31t-6 -31h-139v75q-9 -14 -22 -29.5t-32.5 -29t-45.5 -22.5t-61 -9q-81 0 -124 45.5t-43 135.5 v279zM138 711h110l87 -136h-71z"/>
<glyph glyph-name="uacute" horiz-adv-x="584" unicode="ú" d="M92 445h-67q-6 15 -6 31t6 31h152v-312q0 -32 4.5 -57t15.5 -42t31 -26.5t51 -9.5q22 0 45 8.5t41 28t29.5 52.5t11.5 82v214h-67q-6 15 -6 31t6 31h153v-445h67q6 -15 6 -31t-6 -31h-139v75q-9 -14 -22 -29.5t-32.5 -29t-45.5 -22.5t-61 -9q-81 0 -124 45.5t-43 135.5 v279zM333 711h110l-126 -136h-71z"/>
<glyph glyph-name="ucircumflex" horiz-adv-x="584" unicode="û" d="M92 445h-67q-6 15 -6 31t6 31h152v-312q0 -32 4.5 -57t15.5 -42t31 -26.5t51 -9.5q22 0 45 8.5t41 28t29.5 52.5t11.5 82v214h-67q-6 15 -6 31t6 31h153v-445h67q6 -15 6 -31t-6 -31h-139v75q-9 -14 -22 -29.5t-32.5 -29t-45.5 -22.5t-61 -9q-81 0 -124 45.5t-43 135.5 v279zM233 711h90l96 -136h-77l-64 90l-64 -90h-77z"/>
<glyph glyph-name="udieresis" horiz-adv-x="584" unicode="ü" d="M92 445h-67q-6 15 -6 31t6 31h152v-312q0 -32 4.5 -57t15.5 -42t31 -26.5t51 -9.5q22 0 45 8.5t41 28t29.5 52.5t11.5 82v214h-67q-6 15 -6 31t6 31h153v-445h67q6 -15 6 -31t-6 -31h-139v75q-9 -14 -22 -29.5t-32.5 -29t-45.5 -22.5t-61 -9q-81 0 -124 45.5t-43 135.5 v279zM192 583q-20 0 -35.5 16t-15.5 39t15.5 39t35.5 16t35 -16t15 -39t-15 -39t-35 -16zM368 583q-20 0 -35 16t-15 39t15 39t35 16t35.5 -16t15.5 -39t-15.5 -39t-35.5 -16z"/>
<glyph glyph-name="yacute" horiz-adv-x="537" unicode="ý" d="M47 -98q17 -6 38 -10t38 -4t32 3t27.5 13.5t23.5 30.5t21 53l-164 457h-52q-6 15 -6 31t6 31h204q6 -15 6 -31t-6 -31h-64l98 -290q2 -6 5.5 -17t7 -23.5t7 -24t4.5 -18.5q1 7 4 18.5t7 24t8 23.5t6 17l97 290h-62q-6 15 -6 31t6 31h193q6 -15 6 -31t-6 -31h-52 l-175 -489q-14 -40 -31.5 -66.5t-38 -42t-45.5 -21.5t-54 -6t-47.5 4.5t-35.5 10.5v67zM317 711h110l-126 -136h-71z"/>
<glyph glyph-name="thorn" horiz-adv-x="563" unicode="þ" d="M299 56q33 0 59 15t44 42t26 63t8 78q0 24 -4 58t-20 64q-14 30 -42 51t-73 21t-73 -21t-41 -52q-15 -31 -19 -65t-4 -61q0 -57 14 -95t36 -60q21 -22 45 -30t44 -8zM79 -106v802h-68q-6 15 -6 31t6 31h153v-319q7 11 19 25t30 27q19 13 43 21t57 9q49 1 89 -19t67 -54 t41 -80t14 -99q0 -46 -10 -96t-35 -92t-67 -69t-107 -27q-19 0 -41 6q-22 7 -42 17t-34 26q-16 16 -24 35v-175h73q6 -15 6 -31t-6 -31h-226q-6 15 -6 31t6 31h68z"/>
<glyph glyph-name="dotlessi" horiz-adv-x="292" unicode="ı" d="M106 62v383h-68q-6 15 -6 31t6 31h153v-445h68q6 -15 6 -31t-6 -31h-221q-6 15 -6 31t6 31h68z"/>
<glyph glyph-name="OE" horiz-adv-x="1062" unicode="Œ" d="M530 652q-16 2 -30 4t-30 2q-15 0 -32 2h-38q-57 0 -103 -20q-45 -20 -77 -58t-49 -93t-17 -125q0 -73 18 -128q18 -54 48 -92q32 -38 72 -57t87 -19q35 0 71 1t80 9v574zM930 78v137q21 6 39 6q20 0 38 -6v-215h-417q-41 0 -68 -1q-28 -1 -50 -3t-46 -2q-24 -1 -60 -1 q-82 0 -140 32t-96 84q-38 53 -57 119q-18 66 -18 136q1 67 19 134q18 68 58 120t106 85q65 33 158 33q30 0 54 -1t48 -3t49 -2q25 -1 57 -1h397v-212q-20 -6 -39 -6q-20 0 -39 6v134h-303v-237h303q6 -20 6 -39q0 -20 -6 -39h-303v-258h310z"/>
<glyph glyph-name="oe" horiz-adv-x="884" unicode="œ" d="M274 58q46 0 74 21t46 51q16 30 22 64t6 60q0 25 -6 59t-22 64t-46 51q-28 21 -74 21t-74 -21t-45 -51q-16 -30 -22 -64t-6 -59q0 -26 6 -60t22 -64q17 -30 45 -51t74 -21zM760 291q0 25 -6 53t-19 52q-15 24 -39 40t-62 15q-36 0 -60 -17q-24 -18 -39 -42t-21 -52 t-7 -49h253zM825 30q-27 -16 -69 -30t-87 -14q-75 0 -125 30t-81 80q-29 -50 -75 -80t-114 -30q-61 0 -105 24t-73 61q-29 38 -43 86t-14 97t14 97q14 47 43 85t73 62t105 23q65 -1 111 -29t75 -76q27 49 70 77t106 28q62 0 102 -23t65 -61t35 -87t11 -100v-21h-342 q1 -32 12 -62q11 -29 31 -53t50 -38t68 -15q56 0 92 17t65 36v-84z"/>
<glyph glyph-name="Scaron" horiz-adv-x="647" unicode="Š" d="M48 262q21 6 40 6q21 0 39 -6v-42q0 -31 15 -60t43 -51t68.5 -35t91.5 -13q81 0 125 32t44 89q0 29 -10.5 50.5t-29 37.5t-44 27.5t-55.5 19.5l-159 43q-30 8 -58 22.5t-49 36t-33.5 50.5t-12.5 67q0 52 19.5 91t52 65.5t75.5 40t90 13.5q75 0 125 -25t73 -61v69 q19 6 38 6q20 0 38 -6v-245q-20 -6 -39 -6q-20 0 -39 6v33q0 30 -12 57.5t-36 49t-59.5 34t-83.5 12.5q-66 0 -109 -30.5t-43 -90.5q0 -42 25 -67t79 -39l160 -43q45 -12 81 -29.5t61 -43t38 -60.5t13 -83t-20 -85t-55.5 -63t-83.5 -39.5t-103 -13.5q-82 0 -135.5 25 t-88.5 67v-75q-20 -6 -38 -6q-19 0 -38 6v262zM208 923h77l64 -90l64 90h77l-96 -136h-90z"/>
<glyph glyph-name="scaron" horiz-adv-x="496" unicode="š" d="M47 192q18 6 33 6q17 0 32 -6v-22q0 -26 12 -47.5t32.5 -36.5t47.5 -23t57 -8q47 0 78 17t31 54q0 19 -6.5 32.5t-19.5 23.5t-32 17.5t-44 14.5l-99 27q-52 14 -83.5 44.5t-31.5 82.5q0 41 15.5 70t40.5 47t56 26t63 8q53 0 86.5 -17.5t47.5 -41.5v46q16 6 32 6 q17 0 32 -6v-174q-17 -6 -34 -6t-33 6v21q0 18 -7.5 36.5t-23.5 33.5t-40 24.5t-57 9.5q-40 0 -69.5 -18t-29.5 -58q0 -32 21.5 -45.5t71.5 -26.5l85 -22q37 -10 64 -23t45 -31.5t26.5 -43.5t8.5 -59q0 -32 -14.5 -58t-40 -44.5t-60.5 -28.5t-76 -10q-48 0 -88 14.5 t-66 45.5v-46q-17 -6 -32 -6q-16 0 -31 6v189zM117 711h77l64 -90l64 90h77l-96 -136h-90z"/>
<glyph glyph-name="Ydieresis" horiz-adv-x="720" unicode="Ÿ" d="M310 70v223l-238 366h-58q-6 18 -6 35t6 35h248q6 -18 6 -35t-6 -35h-91l191 -293l197 293h-92q-6 18 -6 35t6 35h239q6 -18 6 -35t-6 -35h-58l-247 -367v-222h80q6 -18 6 -35t-6 -35h-250q-6 18 -6 35t6 35h79zM272 795q-20 0 -35.5 16t-15.5 39t15.5 39t35.5 16t35 -16 t15 -39t-15 -39t-35 -16zM448 795q-20 0 -35 16t-15 39t15 39t35 16t35.5 -16t15.5 -39t-15.5 -39t-35.5 -16z"/>
<glyph glyph-name="circumflex" horiz-adv-x="342" unicode="ˆ" d="M126 711h90l96 -136h-77l-64 90l-64 -90h-77z"/>
<glyph glyph-name="caron" horiz-adv-x="342" unicode="ˇ" d="M30 711h77l64 -90l64 90h77l-96 -136h-90z"/>
<glyph glyph-name="uni02C9" horiz-adv-x="342" unicode="ˉ" d="M17 668h307v-65h-307v65z"/>
<glyph glyph-name="ring" horiz-adv-x="342" unicode="˚" d="M171 617q24 0 42 18t18 42t-18 42t-42 18t-42 -18t-18 -42t18 -42t42 -18zM67 677q0 21 8 40t22.5 33.5t33.5 22.5t40 8t40 -8t33.5 -22.5t22.5 -33.5t8 -40t-8 -40t-22.5 -33.5t-33.5 -22.5t-40 -8t-40 8t-33.5 22.5t-22.5 33.5t-8 40z"/>
<glyph glyph-name="tilde" horiz-adv-x="342" unicode="˜" d="M0 590q3 22 10.5 41.5t19.5 34t30 23t43 8.5q30 0 48.5 -7.5t42.5 -16.5q23 -8 32 -10.5t19 -2.5q11 0 18.5 4.5t12 11.5t7 14.5t4.5 12.5h55q-3 -22 -10.5 -41.5t-19.5 -34t-30 -23t-43 -8.5q-20 0 -38.5 6.5t-44.5 16.5q-13 5 -21 8t-14.5 4.5t-12 2t-12.5 0.5 q-11 0 -18 -5t-11.5 -12t-7.5 -14.5t-4 -12.5h-55z"/>
<glyph glyph-name="pi" horiz-adv-x="585" unicode="π" d="M98 62v383h-68q-6 15 -6 31t6 31h525q6 -15 6 -31t-6 -31h-68v-383h68q6 -15 6 -31t-6 -31h-212q-6 15 -6 31t6 31h59v383h-219v-383h59q6 -15 6 -31t-6 -31h-212q-6 15 -6 31t6 31h68z"/>
<glyph glyph-name="endash" horiz-adv-x="500" unicode="–" d="M0 313h500v-73h-500v73z"/>
<glyph glyph-name="quoteleft" horiz-adv-x="269" unicode="‘" d="M193 697q-38 -17 -53 -45.5t-15 -64.5q8 2 16 2q33 0 46.5 -20t13.5 -44q0 -26 -15.5 -46.5t-46.5 -20.5q-18 0 -32 8.5t-23 22.5t-14 32.5t-5 39.5q0 57 17 92.5t39 56t43 28.5t29 9v-50z"/>
<glyph glyph-name="quoteright" horiz-adv-x="269" unicode="’" d="M76 508q38 17 53 45.5t15 64.5q-8 -2 -16 -2q-33 0 -46.5 20t-13.5 44q0 26 15.5 46.5t46.5 20.5q18 0 32 -8.5t23 -22.5t14 -32.5t5 -39.5q0 -57 -17 -92.5t-39 -56t-43 -28.5t-29 -9v50z"/>
<glyph glyph-name="quotesinglbase" horiz-adv-x="269" unicode="‚" d="M76 -119q38 17 53 45t15 65q-8 -2 -16 -2q-32 0 -46 20t-14 44q0 27 16 47t46 20q18 0 32 -8t23 -23t14 -33t5 -39q0 -57 -17 -93t-39 -56t-43 -28t-29 -9v50z"/>
<glyph glyph-name="quotedblleft" horiz-adv-x="464" unicode="“" d="M193 697q-38 -17 -53 -45.5t-15 -64.5q8 2 16 2q33 0 46.5 -20t13.5 -44q0 -26 -15.5 -46.5t-46.5 -20.5q-18 0 -32 8.5t-23 22.5t-14 32.5t-5 39.5q0 57 17 92.5t39 56t43 28.5t29 9v-50zM388 697q-38 -17 -53 -45.5t-15 -64.5q8 2 16 2q33 0 46.5 -20t13.5 -44 q0 -26 -15.5 -46.5t-46.5 -20.5q-18 0 -32 8.5t-23 22.5t-14 32.5t-5 39.5q0 57 17 92.5t39 56t43 28.5t29 9v-50z"/>
<glyph glyph-name="quotedblright" horiz-adv-x="464" unicode="”" d="M76 508q38 17 53 45.5t15 64.5q-8 -2 -16 -2q-33 0 -46.5 20t-13.5 44q0 26 15.5 46.5t46.5 20.5q18 0 32 -8.5t23 -22.5t14 -32.5t5 -39.5q0 -57 -17 -92.5t-39 -56t-43 -28.5t-29 -9v50zM271 508q38 17 53 45.5t15 64.5q-8 -2 -16 -2q-33 0 -46.5 20t-13.5 44 q0 26 15.5 46.5t46.5 20.5q18 0 32 -8.5t23 -22.5t14 -32.5t5 -39.5q0 -57 -17 -92.5t-39 -56t-43 -28.5t-29 -9v50z"/>
<glyph glyph-name="dagger" horiz-adv-x="556" unicode="†" d="M235 431h-187v76h187v222h88v-222h186v-76h-186v-599h-88v599z"/>
<glyph glyph-name="daggerdbl" horiz-adv-x="556" unicode="‡" d="M235 35h-187v76h187v339h-187v76h187v203h88v-203h186v-76h-186v-339h186v-76h-186v-202h-88v202z"/>
<glyph glyph-name="ellipsis" horiz-adv-x="1000" unicode="…" d="M167 -14q-26 0 -43.5 19.5t-17.5 47.5t17.5 47.5t43.5 19.5t43.5 -19.5t17.5 -47.5t-17.5 -47.5t-43.5 -19.5zM500 -14q-26 0 -43.5 19.5t-17.5 47.5t17.5 47.5t43.5 19.5t43.5 -19.5t17.5 -47.5t-17.5 -47.5t-43.5 -19.5zM833 -14q-26 0 -43.5 19.5t-17.5 47.5 t17.5 47.5t43.5 19.5t43.5 -19.5t17.5 -47.5t-17.5 -47.5t-43.5 -19.5z"/>
<glyph glyph-name="perthousand" horiz-adv-x="1000" unicode="‰" d="M481 60q19 0 35 7t29 19t19 30q6 16 6 34q0 36 -26 62t-62 26q-20 0 -36 -7t-28 -19t-19 -28t-7 -34q0 -42 26 -66t63 -24zM164 430q20 0 36 7t28 19t18 30q6 16 7 34q1 36 -25 62t-63 26q-19 0 -35 -7t-29 -19q-12 -12 -19 -28t-7 -34q1 -42 27 -66t62 -24zM836 60 q20 0 36 7t28 19t18 30q6 16 7 34q1 36 -25 62t-63 26q-19 0 -35 -7t-29 -19q-12 -12 -19 -28t-7 -34q1 -42 27 -66t62 -24zM332 150q0 31 12 58t32 47q20 19 48 31t58 12t57 -12t47 -31q20 -20 32 -47t12 -58t-12 -58q-12 -28 -31 -48q-20 -20 -47 -32t-58 -12 q-30 0 -58 12t-48 32t-32 47t-12 59zM480 683h71l-387 -699h-71zM15 520q0 31 12 58t32 47q19 19 47 31t59 12q30 0 57 -12q28 -12 48 -31q20 -20 32 -47t11 -58q1 -31 -11 -58q-12 -28 -32 -48t-47 -32t-58 -12t-59 12t-47 32q-20 20 -32 47t-12 59zM687 150q0 31 12 58 t32 47q19 19 47 31t59 12q30 0 57 -12q28 -12 48 -31q20 -20 32 -47t11 -58q1 -31 -11 -58q-12 -28 -32 -48t-47 -32t-58 -12t-59 12t-47 32q-20 20 -32 47t-12 59z"/>
<glyph glyph-name="guilsinglleft" horiz-adv-x="287" unicode="‹" d="M26 253l147 225h88l-148 -225l148 -225h-88z"/>
<glyph glyph-name="guilsinglright" horiz-adv-x="287" unicode="›" d="M174 253l-148 225h88l147 -225l-147 -225h-88z"/>
<glyph glyph-name="fraction" horiz-adv-x="54" unicode="⁄" d="M183 683h75l-387 -699h-75z"/>
<glyph glyph-name="foursuperior" horiz-adv-x="358" unicode="⁴" d="M21 466l188 215h63v-217h55q4 -12 4 -25q0 -6 -1 -13.5t-3 -12.5h-55v-79h-71v79h-180v53zM201 464v130l-112 -130h112z"/>
<glyph glyph-name="Euro" d="M12 286h47q-1 9 -1 18v19v22t2 23h-60l12 50h53q9 61 31 110q22 50 53 84q32 34 73 52t90 19q54 0 91 -15t56 -47v46q15 6 31 6q17 0 32 -6v-199q-8 -4 -17 -5t-18 -1t-17 2t-18 4v28q0 54 -37 84t-95 30q-64 0 -106 -47t-58 -145h248l-12 -50h-241q-1 -8 -1 -16v-19v-24 t2 -23h220l-12 -50h-199q16 -86 65 -131t110 -45q48 0 96 15t87 53v-88q-39 -32 -87 -44t-98 -12t-95 17t-81 49t-60 80q-24 46 -33 106h-65z" unicode="€"/>
<glyph glyph-name="trademark" horiz-adv-x="1006" unicode="™" d="M203 369v309h-91v-83q-16 -4 -27 -4t-28 4v134h354v-134q-17 -4 -27 -4q-12 0 -28 4v83h-91v-309h43q4 -16 4 -26q0 -11 -4 -24h-148q-4 13 -4 24q0 10 4 26h43zM493 369v310h-39q-4 7 -5 13t-1 12q0 5 1 11t5 14h132l103 -333l104 333h133q4 -15 4 -25q0 -11 -5 -25h-40 v-310h41q4 -16 4 -26q0 -5 -1 -11t-4 -13h-138q-3 7 -4 13t-1 11q0 10 4 26h40v318l-112 -358h-58l-111 358v-318h41q3 -9 4 -15t1 -11t-1 -11t-4 -13h-132q-4 7 -5 13t-1 11t1 11t5 15h39z"/>
<glyph glyph-name="partialdiff" horiz-adv-x="549" unicode="∂" d="M274 58q46 0 74 20t44 48t24 61q6 33 6 60q0 28 -6 61q-6 34 -24 62q-16 28 -44 47t-74 19t-74 -19t-44 -47t-23 -62q-6 -33 -6 -61q0 -27 6 -60q7 -33 23 -61t44 -48t74 -20zM98 709q6 6 18 16q12 9 30 19q19 10 45 17t60 7q53 0 93 -21t69 -57t47 -82t30 -98t16 -104 t4 -99q0 -74 -14 -133t-44 -101q-30 -43 -74 -65t-105 -22t-105 22t-72 57t-43 83q-14 48 -14 100q-1 52 13 100t42 82q28 35 68 56q42 21 97 21q45 1 87 -17t68 -59q-9 129 -52 199t-117 70q-24 0 -42 -5t-31 -12q-12 -7 -20 -15t-12 -11z"/>
<glyph glyph-name="product" horiz-adv-x="763" unicode="∏" d="M111 -14v673h-75q-6 18 -6 35t6 35h691q6 -18 6 -35t-6 -35h-75v-673h75q6 -18 6 -35t-6 -35h-241q-6 18 -6 35t6 35h75v665h-359v-665h75q6 -18 6 -35t-6 -35h-241q-6 18 -6 35t6 35h75z"/>
<glyph glyph-name="summation" horiz-adv-x="675" unicode="∑" d="M26 -6l280 331l-271 326v78h561v-216q-20 -6 -38 -6q-20 0 -39 6v138h-375l272 -324l-284 -333h416v141q19 6 38 6q21 0 39 -6v-219h-599v78z"/>
<glyph glyph-name="minus" d="M26 370h490v-71h-490v71z" unicode="−"/>
<glyph glyph-name="radical" horiz-adv-x="601" unicode="√" d="M145 435l-91 -46l-26 57l159 82l195 -402l126 777l71 -12l-149 -907h-59z"/>
<glyph glyph-name="infinity" horiz-adv-x="716" unicode="∞" d="M314 334q-18 19 -34 36q-16 18 -34 30q-16 12 -34 19t-40 7q-20 0 -36 -8t-26 -22t-16 -30t-6 -33q0 -37 22 -65t63 -28t75 28t66 66zM403 334q15 -16 31 -32t32 -30q18 -14 37 -23t40 -9q19 0 35 8t26 22t16 30t6 34q0 16 -6 33t-16 30t-26 21t-36 9q-43 0 -76 -28 t-63 -65zM358 287q-32 -33 -56 -55t-46 -34t-41 -18q-20 -4 -42 -4q-32 0 -59 12t-47 32q-19 22 -31 50t-12 63q0 34 12 63t31 50q20 20 47 32t59 12q22 0 42 -4q19 -4 41 -18q22 -12 46 -34t56 -55q31 34 55 56q23 22 45 34q22 13 42 17t43 4q32 0 59 -12t47 -32 q19 -22 31 -50t12 -62q0 -35 -12 -64t-31 -50q-20 -20 -47 -32t-59 -12q-23 0 -43 4t-41 18q-21 12 -45 34t-56 55z"/>
<glyph glyph-name="approxequal" horiz-adv-x="651" unicode="≈" d="M35 122q12 92 51 136t102 44q28 0 49 -5t54 -18l105 -41q16 -6 34 -10t38 -5q38 0 58 24t29 71h61q-12 -92 -51 -136t-102 -44q-27 0 -49 6t-43 14l-116 44q-15 6 -33 10t-39 5q-37 0 -57 -24t-30 -71h-61zM35 349q12 91 51 135t102 45q28 0 49 -5t54 -18l105 -41 q16 -7 34 -11t38 -4q38 0 58 24t29 71h61q-12 -91 -51 -135t-102 -45q-27 0 -49 6t-43 14l-116 44q-15 7 -33 11t-39 4q-37 0 -57 -24t-30 -71h-61z"/>
<glyph glyph-name="notequal" d="M168 201h-142v71h178l62 125h-240v71h275l56 112h71l-56 -112h144v-71h-179l-62 -125h241v-71h-277l-55 -111h-71z" unicode="≠"/>
<glyph glyph-name="lessequal" d="M35 111h473v-71h-473v71zM35 427l473 201v-78l-378 -157l378 -157v-77l-473 200v68z" unicode="≤"/>
<glyph glyph-name="greaterequal" d="M35 111h473v-71h-473v71zM35 236l378 157l-378 157v78l473 -201v-68l-473 -200v77z" unicode="≥"/>
<glyph glyph-name="lozenge" d="M424 365l-153 248l-153 -248l153 -249zM27 365l244 382l244 -382l-244 -383z" unicode="◊"/>
</font>
</defs>
</svg>
