<?xml version="1.0" standalone="no"?>
<!DOCTYPE svg PUBLIC "-//W3C//DTD SVG 1.1//EN" "http://www.w3.org/Graphics/SVG/1.1/DTD/svg11.dtd" >
<svg>
<metadata>
Created by FontForge 20120731 at Mon Jun 12 05:42:35 2017
 By www
HTF Gotham  Copr. 2000 The Hoefler Type Foundry, Inc. Info: www.typography.com
</metadata>
<defs>
<font id="Gotham-Medium" horiz-adv-x="500" >
  <font-face 
    font-family="Gotham"
    font-weight="550"
    font-stretch="normal"
    units-per-em="1000"
    panose-1="2 0 6 3 3 0 0 2 0 4"
    ascent="800"
    descent="-200"
    x-height="528"
    cap-height="700"
    bbox="-70 -165.029 1180 922"
    underline-thickness="20"
    underline-position="-113"
    unicode-range="U+0020-FB02"
  />
<missing-glyph 
 />
    <glyph glyph-name="fi" unicode="fi" horiz-adv-x="662" 
d="M584 609h-130v115h130v-115zM222 524h140v-100h-138v-424h-121v424h-67v101h67v38q0 173 162 173q51 0 98 -14v-102q-39 13 -71 13q-70 0 -70 -80v-29zM580 0h-121v528h121v-528z" />
    <glyph glyph-name="fl" unicode="fl" horiz-adv-x="662" 
d="M222 524h140v-100h-138v-424h-121v424h-67v101h67v38q0 173 162 173q51 0 98 -14v-102q-39 13 -71 13q-70 0 -70 -80v-29zM580 0h-121v730h121v-730z" />
    <glyph glyph-name=".notdef" 
 />
    <glyph glyph-name=".null" horiz-adv-x="0" 
 />
    <glyph glyph-name="nonmarkingreturn" horiz-adv-x="333" 
 />
    <glyph glyph-name="space" unicode=" " horiz-adv-x="300" 
 />
    <glyph glyph-name="exclam" unicode="!" horiz-adv-x="302" 
d="M80 700h142v-35l-37 -444h-67l-38 444v35zM218 0h-133v137h133v-137z" />
    <glyph glyph-name="quotedbl" unicode="&#x22;" horiz-adv-x="487" 
d="M279 401l24 299h137v-5l-98 -294h-63zM60 401l23 299h137v-5l-97 -294h-63z" />
    <glyph glyph-name="numbersign" unicode="#" horiz-adv-x="700" 
d="M660 439h-107l-29 -174h100v-104h-118l-28 -161h-107l28 161h-164l-27 -161h-107l28 161h-90v104h108l29 174h-100v104h118l27 157h107l-27 -157h164l26 157h107l-27 -157h89v-104zM447 439h-164l-30 -174h164z" />
    <glyph glyph-name="dollar" unicode="$" horiz-adv-x="642" 
d="M585 195q0 -82 -58.5 -134t-154.5 -60v-99h-87v100q-130 15 -236 99l64 91q90 -73 176 -86v196q-112 29 -163 76t-51 130q0 80 57.5 132t152.5 60v58h87v-60q103 -13 188 -76l-56 -94q-65 49 -136 64v-190q114 -29 165.5 -77.5t51.5 -129.5zM289 423v176q-46 -4 -71 -27
t-25 -57q0 -33 20.5 -54t75.5 -38zM467 188q0 35 -21 56.5t-78 38.5v-181q47 4 73 27t26 59z" />
    <glyph glyph-name="percent" unicode="%" horiz-adv-x="849" 
d="M378 530q0 -75 -46.5 -127.5t-119.5 -52.5q-72 0 -118 52t-46 126q0 75 46.5 127.5t119.5 52.5q72 0 118 -52t46 -126zM730 700l-512 -700h-99l512 700h99zM801 172q0 -75 -46.5 -127.5t-119.5 -52.5q-72 0 -118 52t-46 126q0 75 46.5 127.5t119.5 52.5q72 0 118 -52
t46 -126zM289 528q0 44 -22 73.5t-55 29.5q-34 0 -54.5 -29t-20.5 -72q0 -44 22 -73.5t55 -29.5q34 0 54.5 29t20.5 72zM712 170q0 44 -22 73.5t-55 29.5q-34 0 -54.5 -29t-20.5 -72q0 -44 22 -73.5t55 -29.5q34 0 54.5 29t20.5 72z" />
    <glyph glyph-name="ampersand" unicode="&#x26;" horiz-adv-x="696" 
d="M666 51l-91 -65l-93 95q-98 -91 -215 -91q-99 0 -163.5 55t-64.5 146q0 133 149 197q-58 75 -58 147q0 74 55 125.5t146 51.5q82 0 134 -48.5t52 -121.5q0 -125 -154 -183l120 -122q38 57 75 135l93 -49q-48 -96 -95 -160zM408 535q0 36 -22 58t-58 22q-37 0 -60 -23.5
t-23 -61.5q0 -47 53 -105q56 20 83 46t27 64zM412 153l-156 159q-93 -40 -93 -117q0 -45 33 -74t84 -29q68 0 132 61z" />
    <glyph glyph-name="quotesingle" unicode="'" horiz-adv-x="269" 
d="M60 401l23 299h139v-5l-98 -294h-64z" />
    <glyph glyph-name="parenleft" unicode="(" horiz-adv-x="440" 
d="M393 634q-108 -71 -158.5 -154t-50.5 -193t50.5 -193t158.5 -154l-53 -81q-277 152 -277 428t277 428z" />
    <glyph glyph-name="parenright" unicode=")" horiz-adv-x="440" 
d="M48 634l53 81q277 -153 277 -428t-277 -428l-53 81q108 71 158.5 154t50.5 193t-50.5 193t-158.5 154z" />
    <glyph glyph-name="asterisk" unicode="*" horiz-adv-x="430" 
d="M372 492l-36 -61l-100 73l14 -122h-70l14 122l-100 -73l-36 61l114 50l-114 50l36 61l100 -73l-14 122h70l-14 -122l100 73l36 -61l-114 -50z" />
    <glyph glyph-name="plus" unicode="+" horiz-adv-x="640" 
d="M263 407v191h114v-191h192v-110h-192v-191h-114v191h-192v110h192z" />
    <glyph glyph-name="comma" unicode="," horiz-adv-x="269" 
d="M34 -94q92 18 85 94h-51v137h133v-116q0 -81 -38 -120.5t-116 -45.5z" />
    <glyph glyph-name="hyphen" unicode="-" horiz-adv-x="408" 
d="M352 247h-296v119h296v-119z" />
    <glyph glyph-name="period" unicode="." horiz-adv-x="269" 
d="M201 0h-133v137h133v-137z" />
    <glyph glyph-name="slash" unicode="/" horiz-adv-x="521" 
d="M427 798h105l-452 -926h-105z" />
    <glyph glyph-name="zero" unicode="0" horiz-adv-x="724" 
d="M667 351q0 -154 -85.5 -258.5t-220.5 -104.5t-219.5 103.5t-84.5 257.5t85.5 258.5t220.5 104.5t219.5 -103.5t84.5 -257.5zM540 349q0 107 -49.5 179.5t-129.5 72.5t-128.5 -71t-48.5 -179q0 -107 49.5 -179.5t129.5 -72.5t128.5 71.5t48.5 178.5z" />
    <glyph glyph-name="one" unicode="1" horiz-adv-x="396" 
d="M26 645l188 60h86v-705h-122v580l-126 -35z" />
    <glyph glyph-name="two" unicode="2" horiz-adv-x="613" 
d="M308 600q-46 0 -82.5 -25t-79.5 -80l-87 68q54 76 111.5 111.5t146.5 35.5q105 0 168 -58t63 -152q0 -78 -40 -133.5t-142 -138.5l-144 -120h333v-108h-506v97l241 205q74 62 102.5 102.5t28.5 86.5q0 50 -32 79.5t-81 29.5z" />
    <glyph glyph-name="three" unicode="3" horiz-adv-x="618" 
d="M385 593h-303v107h463v-92l-195 -200q91 -12 148.5 -59.5t57.5 -138.5q0 -98 -68.5 -160t-176.5 -62q-167 0 -268 123l86 80q78 -92 184 -92q53 0 87 29.5t34 77.5q0 52 -43 80.5t-118 28.5h-57l-20 77z" />
    <glyph glyph-name="four" unicode="4" horiz-adv-x="681" 
d="M425 705h105v-447h100v-101h-100v-157h-118v157h-353l-23 88zM412 258v277l-230 -277h230z" />
    <glyph glyph-name="five" unicode="5" horiz-adv-x="622" 
d="M94 357l20 343h418v-109h-312l-11 -164q55 20 111 20q108 0 175.5 -56.5t67.5 -164.5t-71 -173t-188 -65q-147 0 -257 107l76 89q90 -84 180 -84q63 0 101 33.5t38 88.5q0 54 -39.5 85.5t-105.5 31.5q-63 0 -129 -31z" />
    <glyph glyph-name="six" unicode="6" horiz-adv-x="656" 
d="M571 634l-66 -95q-79 61 -152 61q-76 0 -119.5 -61.5t-48.5 -160.5q72 70 167 70q106 0 175.5 -59t69.5 -162q0 -105 -74.5 -172t-185.5 -67q-120 0 -195 73q-42 43 -63.5 105.5t-21.5 163.5q0 168 78.5 275t221.5 107q117 0 214 -78zM474 222q0 54 -39.5 88.5
t-103.5 34.5t-103 -36t-39 -88q0 -55 40 -91t105 -36q64 0 102 36t38 92z" />
    <glyph glyph-name="seven" unicode="7" horiz-adv-x="609" 
d="M68 592v108h492v-93l-316 -607h-138l314 592h-352z" />
    <glyph glyph-name="eight" unicode="8" horiz-adv-x="630" 
d="M582 194q0 -93 -75 -148.5t-192 -55.5q-116 0 -191.5 55.5t-75.5 145.5q0 119 126 172q-102 54 -102 157q0 81 69 135.5t174 54.5t174 -54.5t69 -135.5q0 -103 -102 -157q126 -58 126 -169zM440 508q0 42 -35 70.5t-90 28.5t-90 -28.5t-35 -69.5q0 -46 35.5 -75.5
t89.5 -29.5t89.5 29t35.5 75zM462 199q0 48 -42 77.5t-105 29.5t-105 -29.5t-42 -77.5q0 -46 40 -76t107 -30t107 30t40 76z" />
    <glyph glyph-name="nine" unicode="9" horiz-adv-x="656" 
d="M599 370q0 -172 -80.5 -277t-219.5 -105q-123 0 -224 84l67 94q78 -66 160 -66q76 0 121 60.5t48 159.5q-62 -74 -164 -74q-112 0 -180 60.5t-68 162.5q0 105 73 174t188 69q120 0 194 -74q85 -85 85 -268zM467 476q0 56 -40 93t-106 37q-64 0 -101.5 -37.5t-37.5 -93.5
t39 -91t104 -35t103.5 36.5t38.5 90.5z" />
    <glyph glyph-name="colon" unicode=":" horiz-adv-x="279" 
d="M206 391h-133v137h133v-137zM206 0h-133v137h133v-137z" />
    <glyph glyph-name="semicolon" unicode=";" horiz-adv-x="279" 
d="M206 391h-133v137h133v-137zM39 -94q92 18 85 94h-51v137h133v-116q0 -81 -38 -120.5t-116 -45.5z" />
    <glyph glyph-name="less" unicode="&#x3c;" horiz-adv-x="640" 
d="M70 406l477 221v-115l-357 -159l357 -160v-116l-477 221v108z" />
    <glyph glyph-name="equal" unicode="=" horiz-adv-x="640" 
d="M86 533h468v-112h-468v112zM86 283h468v-112h-468v112z" />
    <glyph glyph-name="greater" unicode="&#x3e;" horiz-adv-x="640" 
d="M570 298l-477 -221v115l357 159l-357 160v116l477 -221v-108z" />
    <glyph glyph-name="question" unicode="?" horiz-adv-x="541" 
d="M192 388q185 7 185 113q0 43 -31 69.5t-84 26.5q-89 0 -163 -79l-75 80q98 111 241 111q106 0 170 -55t64 -149q0 -89 -55 -138t-146 -65l-10 -81h-81l-20 162zM312 0h-134v137h134v-137z" />
    <glyph glyph-name="at" unicode="@" horiz-adv-x="980" 
d="M927 316q0 -120 -55.5 -184.5t-138.5 -64.5q-104 0 -148 70q-68 -70 -155 -70q-77 0 -129 52.5t-52 136.5q0 104 69 177t158 73q93 0 141 -74l12 60l97 -15l-44 -252q-5 -30 -5 -43q0 -33 21 -52t57 -19q56 0 94 53.5t38 151.5q0 142 -115 250t-281 108
q-169 0 -283.5 -116.5t-114.5 -283.5q0 -168 115 -283t291 -115q131 0 247 67l18 -30q-123 -75 -265 -75q-190 0 -318 127.5t-128 308.5q0 180 127.5 309t310.5 129q90 0 171.5 -33t139 -87.5t91.5 -126.5t34 -149zM595 312q0 48 -30 78t-75 30q-56 0 -97.5 -46t-41.5 -112
q0 -51 29 -79.5t77 -28.5q55 0 96.5 46.5t41.5 111.5z" />
    <glyph glyph-name="A" unicode="A" horiz-adv-x="790" 
d="M452 705l308 -705h-130l-71 169h-331l-72 -169h-126l308 705h114zM514 278l-121 280l-120 -280h241z" />
    <glyph glyph-name="B" unicode="B" horiz-adv-x="722" 
d="M404 700q106 0 168 -48.5t62 -130.5q0 -105 -100 -157q139 -47 139 -171q0 -93 -70 -143t-189 -50h-324v700h314zM379 405q61 0 96.5 24.5t35.5 71.5q0 43 -32 66.5t-91 23.5h-177v-186h168zM415 109q64 0 99.5 25t35.5 72q0 95 -144 95h-195v-192h204z" />
    <glyph glyph-name="C" unicode="C" horiz-adv-x="738" 
d="M699 112q-59 -62 -125 -93t-159 -31q-152 0 -254 104.5t-102 256.5t102 257.5t259 105.5q91 0 154.5 -28t119.5 -81l-79 -91q-94 87 -196 87q-100 0 -165.5 -71.5t-65.5 -176.5t66 -177.5t165 -72.5q60 0 106 22.5t95 68.5z" />
    <glyph glyph-name="D" unicode="D" horiz-adv-x="782" 
d="M723 351q0 -150 -104.5 -250.5t-267.5 -100.5h-261v700h261q163 0 267.5 -99.5t104.5 -249.5zM594 349q0 105 -67 172t-176 67h-138v-476h138q109 0 176 66.5t67 170.5z" />
    <glyph glyph-name="E" unicode="E" horiz-adv-x="670" 
d="M609 700v-110h-396v-182h351v-110h-351v-188h401v-110h-524v700h519z" />
    <glyph glyph-name="F" unicode="F" horiz-adv-x="656" 
d="M611 700v-112h-398v-191h353v-112h-353v-285h-123v700h521z" />
    <glyph glyph-name="G" unicode="G" horiz-adv-x="784" 
d="M714 97q-127 -109 -292 -109q-162 0 -262.5 102.5t-100.5 258.5q0 150 102.5 256.5t258.5 106.5q88 0 150 -23.5t119 -71.5l-78 -93q-44 38 -88.5 56.5t-107.5 18.5q-96 0 -161.5 -72.5t-65.5 -175.5q0 -110 66 -180.5t172 -70.5q98 0 169 53v131h-179v107h298v-294z" />
    <glyph glyph-name="H" unicode="H" horiz-adv-x="760" 
d="M547 295h-334v-295h-123v700h123v-291h334v291h123v-700h-123v295z" />
    <glyph glyph-name="I" unicode="I" horiz-adv-x="317" 
d="M97 700h123v-700h-123v700z" />
    <glyph glyph-name="J" unicode="J" horiz-adv-x="559" 
d="M480 238q0 -121 -64 -184.5t-171 -63.5q-141 0 -224 113l81 83q65 -82 141 -82q51 0 81 34.5t30 102.5v459h126v-462z" />
    <glyph glyph-name="K" unicode="K" horiz-adv-x="725" 
d="M406 399l304 -399h-149l-239 315l-109 -112v-203h-123v700h123v-352l333 352h151z" />
    <glyph glyph-name="L" unicode="L" horiz-adv-x="619" 
d="M90 0v700h123v-588h368v-112h-491z" />
    <glyph glyph-name="M" unicode="M" horiz-adv-x="868" 
d="M655 502l-221 -330h-4l-219 328v-500h-121v700h131l213 -331l213 331h131v-700h-123v502z" />
    <glyph glyph-name="N" unicode="N" horiz-adv-x="790" 
d="M579 216v484h121v-700h-103l-386 498v-498h-121v700h114z" />
    <glyph glyph-name="O" unicode="O" horiz-adv-x="850" 
d="M791 351q0 -151 -104 -257t-263 -106t-262 105t-103 256t104 257t263 106t262 -105t103 -256zM662 349q0 104 -67.5 177t-170.5 73t-169.5 -72t-66.5 -176t67.5 -177t170.5 -73t169.5 72t66.5 176z" />
    <glyph glyph-name="P" unicode="P" horiz-adv-x="668" 
d="M632 465q0 -114 -79.5 -177t-200.5 -63h-139v-225h-123v700h276q122 0 194 -64t72 -171zM507 462q0 61 -40.5 93.5t-110.5 32.5h-143v-252h143q69 0 110 34.5t41 91.5z" />
    <glyph glyph-name="Q" unicode="Q" horiz-adv-x="850" 
d="M720 135l80 -68l-79 -88l-84 75q-95 -66 -213 -66q-159 0 -262 105t-103 256t104 257t263 106t262 -105t103 -256q0 -120 -71 -216zM546 135l-120 102l79 90l121 -110q36 55 36 132q0 104 -67.5 177t-170.5 73t-169.5 -72t-66.5 -176t67.5 -177t170.5 -73q67 0 120 34z
" />
    <glyph glyph-name="R" unicode="R" horiz-adv-x="723" 
d="M684 0h-145l-172 244h-154v-244h-123v700h312q121 0 190.5 -59.5t69.5 -162.5q0 -84 -45 -138t-122 -75zM537 471q0 57 -38 87t-107 30h-179v-235h180q66 0 105 32t39 86z" />
    <glyph glyph-name="S" unicode="S" horiz-adv-x="640" 
d="M194 517q0 -42 33.5 -64.5t132.5 -46.5q116 -28 170.5 -75t54.5 -131q0 -97 -69 -153.5t-181 -56.5q-167 0 -292 112l74 88q105 -91 221 -91q57 0 90.5 24t33.5 65q0 40 -32 63t-126 45q-122 30 -177.5 74t-55.5 136q0 91 67 147.5t172 56.5q144 0 254 -88l-66 -93
q-97 72 -190 72q-53 0 -83.5 -24t-30.5 -60z" />
    <glyph glyph-name="T" unicode="T" horiz-adv-x="648" 
d="M386 586v-586h-124v586h-222v114h568v-114h-222z" />
    <glyph glyph-name="U" unicode="U" horiz-adv-x="757" 
d="M678 700v-397q0 -153 -80 -233.5t-221 -80.5q-139 0 -218.5 79t-79.5 229v403h123v-398q0 -96 47 -148t130 -52t129.5 50t46.5 145v403h123z" />
    <glyph glyph-name="V" unicode="V" horiz-adv-x="750" 
d="M377 162l210 538h133l-291 -705h-108l-291 705h136z" />
    <glyph glyph-name="W" unicode="W" horiz-adv-x="1116" 
d="M336 181l172 521h104l172 -521l167 519h129l-244 -705h-106l-172 503l-172 -503h-106l-244 705h133z" />
    <glyph glyph-name="X" unicode="X" horiz-adv-x="729" 
d="M692 0h-145l-184 265l-185 -265h-141l255 356l-245 344h145l174 -251l175 251h141l-244 -342z" />
    <glyph glyph-name="Y" unicode="Y" horiz-adv-x="716" 
d="M420 279v-279h-124v276l-278 424h145l196 -310l198 310h141z" />
    <glyph glyph-name="Z" unicode="Z" horiz-adv-x="702" 
d="M478 591h-400v109h560v-91l-413 -500h413v-109h-573v91z" />
    <glyph glyph-name="bracketleft" unicode="[" horiz-adv-x="454" 
d="M395 700v-95h-192v-640h192v-95h-307v830h307z" />
    <glyph glyph-name="backslash" unicode="\" horiz-adv-x="521" 
d="M94 798l452 -926h-105l-452 926h105z" />
    <glyph glyph-name="bracketright" unicode="]" horiz-adv-x="454" 
d="M59 700h308v-830h-308v95h192v640h-192v95z" />
    <glyph glyph-name="asciicircum" unicode="^" 
d="M249 625l-102 -132h-91l151 208h86l151 -208h-93z" />
    <glyph glyph-name="underscore" unicode="_" horiz-adv-x="600" 
d="M-2 -66h604v-94h-604v94z" />
    <glyph glyph-name="grave" unicode="`" 
d="M246 595l-122 115l110 49l106 -164h-94z" />
    <glyph glyph-name="a" unicode="a" horiz-adv-x="587" 
d="M519 0h-120v65q-64 -76 -171 -76q-79 0 -133.5 43.5t-54.5 119.5v2q0 83 59 126.5t155 43.5q77 0 146 -22v13q0 55 -33.5 84t-96.5 29q-72 0 -151 -33l-33 97q98 44 201 44q115 0 173.5 -58t58.5 -165v-313zM402 191v33q-54 21 -121 21q-57 0 -89 -22.5t-32 -62.5v-2
q0 -36 29 -57t73 -21q61 0 100.5 31t39.5 80z" />
    <glyph glyph-name="b" unicode="b" horiz-adv-x="670" 
d="M622 264q0 -126 -73 -200.5t-173 -74.5q-109 0 -179 93v-82h-121v730h121v-290q70 99 179 99q100 0 173 -74.5t73 -200.5zM499 264q0 76 -44 123t-107 47q-64 0 -109 -47.5t-45 -122.5t45 -122.5t109 -47.5t107.5 46.5t43.5 123.5z" />
    <glyph glyph-name="c" unicode="c" horiz-adv-x="571" 
d="M536 87q-43 -48 -93.5 -73.5t-122.5 -25.5q-117 0 -195 80t-78 194q0 115 78.5 196t195.5 81q128 0 211 -91l-75 -81q-63 66 -137 66q-65 0 -108.5 -49t-43.5 -120q0 -72 44.5 -121.5t113.5 -49.5q73 0 137 66z" />
    <glyph glyph-name="d" unicode="d" horiz-adv-x="670" 
d="M595 0h-121v88q-70 -99 -180 -99q-99 0 -172 74.5t-73 200.5t72.5 200.5t172.5 74.5q108 0 180 -93v284h121v-730zM476 264q0 75 -45 122.5t-108 47.5q-64 0 -108 -46.5t-44 -123.5q0 -76 44.5 -123t107.5 -47t108 47.5t45 122.5z" />
    <glyph glyph-name="e" unicode="e" horiz-adv-x="604" 
d="M168 221q10 -63 51 -98.5t101 -35.5q78 0 143 63l71 -63q-82 -99 -216 -99q-116 0 -193.5 77t-77.5 198q0 116 73 196t185 80q121 0 187 -81.5t66 -203.5q0 -9 -2 -33h-388zM167 301h271q-6 61 -41 100t-93 39q-55 0 -92 -38.5t-45 -100.5z" />
    <glyph glyph-name="f" unicode="f" horiz-adv-x="376" 
d="M222 524h140v-100h-138v-424h-121v424h-67v101h67v38q0 173 162 173q51 0 98 -14v-102q-39 13 -71 13q-70 0 -70 -80v-29z" />
    <glyph glyph-name="g" unicode="g" horiz-adv-x="670" 
d="M595 108q0 -270 -284 -270q-132 0 -236 63l45 91q90 -56 188 -56q81 0 124 41.5t43 120.5v41q-75 -97 -186 -97q-98 0 -169 67.5t-71 180.5t71.5 181t168.5 68q110 0 185 -90v79h121v-420zM476 290q0 65 -45 106t-110 41q-64 0 -107 -40.5t-43 -105.5t43.5 -106
t106.5 -41q64 0 109.5 41t45.5 105z" />
    <glyph glyph-name="h" unicode="h" horiz-adv-x="620" 
d="M197 298v-298h-121v730h121v-284q63 93 165 93q88 0 138 -55t50 -148v-336h-121v300q0 62 -29.5 95.5t-83.5 33.5q-53 0 -86 -35t-33 -96z" />
    <glyph glyph-name="i" unicode="i" horiz-adv-x="286" 
d="M208 609h-130v115h130v-115zM204 0h-121v528h121v-528z" />
    <glyph glyph-name="j" unicode="j" horiz-adv-x="286" 
d="M208 609h-130v115h130v-115zM83 528h121v-535q0 -156 -154 -156q-26 0 -58 5v97q18 -3 34 -3q57 0 57 64v528z" />
    <glyph glyph-name="k" unicode="k" horiz-adv-x="582" 
d="M353 313l217 -313h-140l-159 228l-74 -77v-151h-121v730h121v-436l219 234h147z" />
    <glyph glyph-name="l" unicode="l" horiz-adv-x="286" 
d="M204 0h-121v730h121v-730z" />
    <glyph glyph-name="m" unicode="m" horiz-adv-x="950" 
d="M515 446q71 93 179 93q87 0 136 -53t49 -149v-337h-121v300q0 63 -28 96t-79 33t-82 -34.5t-31 -96.5v-298h-121v301q0 61 -28 94.5t-79 33.5t-82 -35.5t-31 -96.5v-297h-121v528h121v-80q66 91 161 91q110 0 157 -93z" />
    <glyph glyph-name="n" unicode="n" horiz-adv-x="620" 
d="M197 298v-298h-121v528h121v-82q63 93 165 93q88 0 138 -55t50 -148v-336h-121v300q0 62 -29.5 95.5t-83.5 33.5q-53 0 -86 -35t-33 -96z" />
    <glyph glyph-name="o" unicode="o" horiz-adv-x="657" 
d="M610 264q0 -115 -81 -195.5t-202 -80.5q-120 0 -200 80t-80 194q0 115 81 196t201 81t200.5 -80t80.5 -195zM489 262q0 72 -46 121.5t-116 49.5q-71 0 -115 -48.5t-44 -120.5t45.5 -121.5t115.5 -49.5q72 0 116 48.5t44 120.5z" />
    <glyph glyph-name="p" unicode="p" horiz-adv-x="670" 
d="M622 264q0 -126 -73 -200.5t-173 -74.5q-109 0 -179 93v-242h-121v688h121v-88q70 99 179 99q100 0 173 -74.5t73 -200.5zM499 264q0 76 -44 123t-107 47q-64 0 -109 -47.5t-45 -122.5t45 -122.5t109 -47.5t107.5 46.5t43.5 123.5z" />
    <glyph glyph-name="q" unicode="q" horiz-adv-x="670" 
d="M595 -160h-121v248q-70 -99 -180 -99q-99 0 -172 74.5t-73 200.5t72.5 200.5t172.5 74.5q108 0 180 -93v82h121v-688zM476 264q0 75 -45 122.5t-108 47.5q-64 0 -108 -46.5t-44 -123.5q0 -76 44.5 -123t107.5 -47t108 47.5t45 122.5z" />
    <glyph glyph-name="r" unicode="r" horiz-adv-x="413" 
d="M197 201v-201h-121v528h121v-119q56 135 187 129v-128h-7q-82 0 -131 -53.5t-49 -155.5z" />
    <glyph glyph-name="s" unicode="s" 
d="M453 156q0 -80 -55 -123t-141 -43q-124 0 -224 79l54 82q86 -65 173 -65q39 0 60.5 15.5t21.5 41.5v2q0 33 -58 55q-12 4 -60 19q-36 10 -60 20t-51 27.5t-40.5 44.5t-13.5 63v2q0 73 53.5 117t134.5 44q103 0 194 -60l-48 -86q-82 50 -149 50q-35 0 -54.5 -14.5
t-19.5 -38.5v-2q0 -24 26.5 -38.5t82.5 -32.5q7 -2 10 -3q35 -11 59 -21.5t50.5 -28.5t40.5 -44t14 -60v-2z" />
    <glyph glyph-name="t" unicode="t" horiz-adv-x="410" 
d="M222 424v-259q0 -66 65 -66q39 0 75 18v-99q-48 -27 -109 -27q-152 0 -152 155v278h-67v104h67v145h121v-145h142v-104h-142z" />
    <glyph glyph-name="u" unicode="u" horiz-adv-x="620" 
d="M423 230v298h121v-528h-121v82q-63 -93 -165 -93q-88 0 -138 55t-50 148v336h121v-300q0 -62 29.5 -95.5t83.5 -33.5q53 0 86 35t33 96z" />
    <glyph glyph-name="v" unicode="v" horiz-adv-x="595" 
d="M298 140l143 388h127l-216 -532h-109l-217 532h130z" />
    <glyph glyph-name="w" unicode="w" horiz-adv-x="861" 
d="M482 530l118 -364l108 362h121l-173 -532h-108l-118 361l-119 -361h-108l-171 532h124l106 -362l117 364h103z" />
    <glyph glyph-name="x" unicode="x" horiz-adv-x="580" 
d="M355 271l195 -271h-132l-130 185l-129 -185h-129l194 268l-187 260h132l122 -174l122 174h129z" />
    <glyph glyph-name="y" unicode="y" horiz-adv-x="596" 
d="M568 528l-210 -543q-32 -81 -71 -114.5t-103 -33.5q-66 0 -125 32l41 90q37 -20 71 -20q26 0 43 13.5t32 47.5l-220 528h129l150 -392l137 392h126z" />
    <glyph glyph-name="z" unicode="z" horiz-adv-x="560" 
d="M357 429h-294v99h448v-83l-305 -346h305v-99h-459v83z" />
    <glyph glyph-name="braceleft" unicode="{" horiz-adv-x="487" 
d="M437 635q-86 -24 -111 -51.5t-25 -85.5q0 -10 1 -36.5t1 -37.5q0 -56 -26 -88t-78 -49q53 -17 78.5 -49t25.5 -88q0 -11 -1 -37.5t-1 -36.5q0 -58 25 -85.5t111 -51.5l-21 -80q-130 24 -178.5 71t-48.5 129q0 7 1 35t1 37q0 59 -25.5 84.5t-87.5 25.5h-26v92h26
q62 0 87.5 25.5t25.5 84.5q0 9 -1 37t-1 35q0 82 48.5 129t178.5 71z" />
    <glyph glyph-name="bar" unicode="|" horiz-adv-x="331" 
d="M214 -128h-97v926h97v-926z" />
    <glyph glyph-name="braceright" unicode="}" horiz-adv-x="487" 
d="M50 -61q86 24 111 51.5t25 85.5q0 10 -1 36.5t-1 37.5q0 56 26 88t78 49q-53 17 -78.5 49t-25.5 88q0 11 1 37.5t1 36.5q0 58 -25 85.5t-111 51.5l21 80q130 -24 178.5 -71t48.5 -129q0 -7 -1 -35t-1 -37q0 -59 25.5 -84.5t87.5 -25.5h26v-92h-26q-62 0 -87.5 -25.5
t-25.5 -84.5q0 -9 1 -37t1 -35q0 -82 -48.5 -129t-178.5 -71z" />
    <glyph glyph-name="asciitilde" unicode="~" horiz-adv-x="495" 
d="M436 364q-17 -64 -42.5 -94.5t-69.5 -30.5q-30 0 -79 20t-64 20q-21 0 -32.5 -11.5t-22.5 -38.5l-67 21q17 64 42.5 94t69.5 30q30 0 79 -20t64 -20q21 0 32.5 11.5t22.5 38.5z" />
    <glyph glyph-name="exclamdown" unicode="&#xa1;" horiz-adv-x="302" 
d="M85 700h133v-137h-133v137zM222 0h-142v35l38 444h67l37 -444v-35z" />
    <glyph glyph-name="cent" unicode="&#xa2;" horiz-adv-x="581" 
d="M538 181q-88 -100 -212 -101q-8 0 -12 1l-16 -87h-88l20 101q-79 29 -128.5 99.5t-49.5 159.5q0 115 78.5 195.5t194.5 80.5h9l15 76h88l-18 -89q63 -18 118 -78l-73 -78q-39 38 -70 49l-63 -323q3 -1 10 -1q67 4 127 64zM317 525h-2q-63 -3 -104 -51.5t-41 -117.5
q0 -51 23 -91.5t62 -61.5z" />
    <glyph glyph-name="sterling" unicode="&#xa3;" horiz-adv-x="644" 
d="M142 382v92q0 110 60.5 173t169.5 63q136 0 221 -112l-94 -75q-29 37 -57.5 55t-68.5 18q-50 0 -78.5 -33.5t-28.5 -91.5v-89h249v-104h-249v-171h325v-107h-528v78l79 24v176h-79v104h79z" />
    <glyph glyph-name="currency" unicode="&#xa4;" horiz-adv-x="720" 
d="M130 395h-78v85h94q31 105 105.5 168.5t178.5 63.5q85 0 142.5 -34.5t101.5 -97.5l-93 -69q-34 47 -69 69t-85 22q-53 0 -92.5 -32.5t-60.5 -89.5h214v-85h-234q-2 -28 -2 -44q0 -13 2 -41h234v-85h-216q21 -59 63 -93t100 -34q47 0 81 23t72 72l88 -64
q-47 -68 -104.5 -104.5t-137.5 -36.5q-109 0 -185.5 64.5t-105.5 172.5h-91v85h77q-1 13 -1 39q0 31 2 46z" />
    <glyph glyph-name="yen" unicode="&#xa5;" horiz-adv-x="686" 
d="M402 264v-73h193v-89h-193v-102h-118v102h-193v89h193v73h-193v89h159l-231 347h143l183 -293l183 293h139l-232 -347h160v-89h-193z" />
    <glyph glyph-name="section" unicode="&#xa7;" horiz-adv-x="632" 
d="M574 350q0 -88 -107 -117q55 -35 55 -96q0 -67 -52.5 -107t-143.5 -40q-141 0 -231 95l69 68q76 -71 161 -71q40 0 60.5 13.5t20.5 36.5t-27 38t-105 33q-118 27 -167 59.5t-49 87.5q0 88 107 117q-55 35 -55 96q0 67 52.5 107t143.5 40q141 0 231 -95l-69 -68
q-76 71 -161 71q-40 0 -60.5 -13.5t-20.5 -36.5t27 -38t105 -33q118 -27 167 -59.5t49 -87.5zM465 333q0 23 -27 39t-90 32q-72 18 -104 18q-35 0 -56 -15.5t-21 -39.5q0 -23 27 -39t90 -32q71 -18 104 -18q35 0 56 15.5t21 39.5z" />
    <glyph glyph-name="dieresis" unicode="&#xa8;" 
d="M411 595h-123v118h123v-118zM212 595h-123v118h123v-118z" />
    <glyph glyph-name="copyright" unicode="&#xa9;" horiz-adv-x="830" 
d="M777 351q0 -149 -106 -256t-257 -107t-256 106t-105 255t106 256t257 107t256 -106t105 -255zM739 351q0 136 -93 230.5t-230 94.5q-138 0 -231.5 -95.5t-93.5 -231.5t93 -230.5t230 -94.5q138 0 231.5 95.5t93.5 231.5zM573 227q-65 -68 -154 -68q-82 0 -137 56.5
t-55 138.5t55 139.5t139 57.5q88 0 149 -59l-47 -54q-50 45 -102 45q-51 0 -84.5 -37t-33.5 -91q0 -53 34 -90.5t84 -37.5q54 0 104 47z" />
    <glyph glyph-name="ordfeminine" unicode="&#xaa;" horiz-adv-x="390" 
d="M319 409h-68v34q-35 -40 -92 -40q-44 0 -73.5 24t-29.5 67q0 46 32.5 70t87.5 24q36 0 76 -11v5q0 61 -70 61q-35 0 -83 -19l-19 54q53 25 112 25q127 0 127 -122v-172zM323 282h-270v58h270v-58zM252 514v18q-31 11 -63 11q-30 0 -47 -12t-17 -34q0 -20 14.5 -31.5
t37.5 -11.5q32 0 53.5 17t21.5 43z" />
    <glyph glyph-name="guillemotleft" unicode="&#xab;" horiz-adv-x="606" 
d="M461 488l92 -47l-132 -176l132 -177l-92 -47l-165 219v8zM210 488l92 -47l-132 -176l132 -177l-92 -47l-166 219v8z" />
    <glyph glyph-name="registered" unicode="&#xae;" horiz-adv-x="830" 
d="M777 351q0 -149 -106 -256t-257 -107t-256 106t-105 255t106 256t257 107t256 -106t105 -255zM739 351q0 136 -93 230.5t-230 94.5q-138 0 -231.5 -95.5t-93.5 -231.5t93 -230.5t230 -94.5q138 0 231.5 95.5t93.5 231.5zM584 429q0 -45 -23.5 -74t-64.5 -41l102 -143h-86
l-92 131h-79v-131h-72v379h169q67 0 106.5 -32.5t39.5 -88.5zM510 425q0 60 -75 60h-94v-120h94q35 0 55 16t20 44z" />
    <glyph glyph-name="macron" unicode="&#xaf;" 
d="M421 600h-342v89h342v-89z" />
    <glyph glyph-name="degree" unicode="&#xb0;" horiz-adv-x="471" 
d="M402 544q0 -66 -50.5 -114.5t-116.5 -48.5t-116 48.5t-50 114.5q0 65 50 113.5t116 48.5t116.5 -48.5t50.5 -113.5zM330 544q0 39 -27.5 67.5t-67.5 28.5t-67 -28.5t-27 -67.5q0 -40 27 -68.5t67 -28.5q41 0 68 28.5t27 68.5z" />
    <glyph glyph-name="plusminus" unicode="&#xb1;" horiz-adv-x="610" 
d="M560 200q0 -93 -67 -152.5t-182 -59.5q-165 0 -272 122l85 79q80 -90 189 -90q58 0 91.5 27.5t33.5 74.5q0 48 -40.5 74t-113.5 26h-75v104h78q61 0 96.5 27.5t35.5 73.5q0 43 -32.5 69t-88.5 26q-84 0 -159 -88l-86 70q49 63 107 96t140 33q108 0 174.5 -53t66.5 -135
q0 -114 -104 -165q123 -47 123 -159z" />
    <glyph glyph-name="acute" unicode="&#xb4;" 
d="M254 595h-94l106 164l110 -49z" />
    <glyph glyph-name="mu" unicode="&#xb5;" horiz-adv-x="850" 
d="M791 351q0 -79 -31.5 -149t-88.5 -121l175 -174v-8h-180l-116 111q-61 -22 -126 -22q-159 0 -262 105t-103 256t104 257t263 106t262 -105t103 -256zM662 349q0 104 -67.5 177t-170.5 73t-169.5 -72t-66.5 -176t67.5 -177t170.5 -73t169.5 72t66.5 176z" />
    <glyph glyph-name="paragraph" unicode="&#xb6;" horiz-adv-x="557" 
d="M311 700h159v-700h-124v244h-18q-128 0 -208 59.5t-80 168.5q0 106 74.5 167t196.5 61z" />
    <glyph glyph-name="periodcentered" unicode="&#xb7;" horiz-adv-x="269" 
d="M201 238h-133v137h133v-137z" />
    <glyph glyph-name="cedilla" unicode="&#xb8;" 
d="M221 10h91l-75 -175l-106 44z" />
    <glyph glyph-name="ordmasculine" unicode="&#xba;" horiz-adv-x="390" 
d="M346 554q0 -64 -43.5 -108t-108.5 -44q-64 0 -107 44t-43 107q0 64 43.5 108t108.5 44q64 0 107 -44t43 -107zM339 282h-288v58h288v-58zM276 553q0 37 -23.5 63.5t-58.5 26.5q-36 0 -58 -25.5t-22 -63.5q0 -37 23.5 -63.5t58.5 -26.5q36 0 58 25.5t22 63.5z" />
    <glyph glyph-name="guillemotright" unicode="&#xbb;" horiz-adv-x="606" 
d="M396 41l-92 46l132 176l-132 177l92 48l166 -220v-8zM145 41l-92 46l132 176l-132 177l92 48l165 -220v-8z" />
    <glyph glyph-name="questiondown" unicode="&#xbf;" horiz-adv-x="541" 
d="M229 700h134v-137h-134v137zM349 312q-185 -7 -185 -113q0 -43 31 -69.5t84 -26.5q89 0 163 79l75 -80q-98 -111 -241 -111q-106 0 -170 55t-64 149q0 89 55 138t146 65l10 81h81l20 -162z" />
    <glyph glyph-name="Agrave" unicode="&#xc0;" horiz-adv-x="790" 
d="M452 705l308 -705h-130l-71 169h-331l-72 -169h-126l308 705h114zM514 278l-121 280l-120 -280h241zM351 758l-122 115l110 49l106 -164h-94z" />
    <glyph glyph-name="Aacute" unicode="&#xc1;" horiz-adv-x="790" 
d="M452 705l308 -705h-130l-71 169h-331l-72 -169h-126l308 705h114zM514 278l-121 280l-120 -280h241zM439 758h-94l106 164l110 -49z" />
    <glyph glyph-name="Acircumflex" unicode="&#xc2;" horiz-adv-x="790" 
d="M452 705l308 -705h-130l-71 169h-331l-72 -169h-126l308 705h114zM514 278l-121 280l-120 -280h241zM394 824l-77 -67h-94l116 146h112l116 -146h-96z" />
    <glyph glyph-name="Atilde" unicode="&#xc3;" horiz-adv-x="790" 
d="M452 705l308 -705h-130l-71 169h-331l-72 -169h-126l308 705h114zM514 278l-121 280l-120 -280h241zM584 882q-17 -64 -42.5 -94t-69.5 -30q-30 0 -79 20t-65 20q-20 0 -31.5 -11t-23.5 -39l-67 20q17 64 42.5 94.5t69.5 30.5q30 0 79 -20t65 -20q20 0 31.5 11t23.5 39z
" />
    <glyph glyph-name="Adieresis" unicode="&#xc4;" horiz-adv-x="790" 
d="M452 705l308 -705h-130l-71 169h-331l-72 -169h-126l308 705h114zM514 278l-121 280l-120 -280h241zM556 758h-123v118h123v-118zM357 758h-123v118h123v-118z" />
    <glyph glyph-name="Aring" unicode="&#xc5;" horiz-adv-x="790" 
d="M328 684q-47 35 -47 88q0 45 34.5 77.5t79.5 32.5t79.5 -32.5t34.5 -77.5q0 -53 -47 -88l298 -684h-130l-71 169h-331l-72 -169h-126zM457 772q0 26 -18.5 44t-43.5 18t-43.5 -18t-18.5 -44t18.5 -44t43.5 -18t43.5 18t18.5 44zM514 278l-121 280l-120 -280h241z" />
    <glyph glyph-name="AE" unicode="&#xc6;" horiz-adv-x="1045" 
d="M232 169l-93 -169h-127l391 700h581v-110h-374v-182h329v-110h-329v-188h379v-110h-502v169h-255zM467 593l-176 -315h196v315h-20z" />
    <glyph glyph-name="Ccedilla" unicode="&#xc7;" horiz-adv-x="738" 
d="M345 -5q-126 23 -206 122t-80 232q0 152 102 257.5t259 105.5q91 0 154.5 -28t119.5 -81l-79 -91q-94 87 -196 87q-100 0 -165.5 -71.5t-65.5 -176.5t66 -177.5t165 -72.5q60 0 106 22.5t95 68.5l79 -80q-55 -58 -116.5 -88.5t-145.5 -34.5l-66 -154l-105 44z" />
    <glyph glyph-name="Egrave" unicode="&#xc8;" horiz-adv-x="670" 
d="M609 700v-110h-396v-182h351v-110h-351v-188h401v-110h-524v700h519zM327 758l-122 115l110 49l106 -164h-94z" />
    <glyph glyph-name="Eacute" unicode="&#xc9;" horiz-adv-x="670" 
d="M609 700v-110h-396v-182h351v-110h-351v-188h401v-110h-524v700h519zM371 758h-94l106 164l110 -49z" />
    <glyph glyph-name="Ecircumflex" unicode="&#xca;" horiz-adv-x="670" 
d="M609 700v-110h-396v-182h351v-110h-351v-188h401v-110h-524v700h519zM346 825l-77 -67h-94l116 146h112l116 -146h-96z" />
    <glyph glyph-name="Edieresis" unicode="&#xcb;" horiz-adv-x="670" 
d="M609 700v-110h-396v-182h351v-110h-351v-188h401v-110h-524v700h519zM508 758h-123v118h123v-118zM309 758h-123v118h123v-118z" />
    <glyph glyph-name="Igrave" unicode="&#xcc;" horiz-adv-x="317" 
d="M97 700h123v-700h-123v700zM116 758l-122 115l110 49l106 -164h-94z" />
    <glyph glyph-name="Iacute" unicode="&#xcd;" horiz-adv-x="317" 
d="M97 700h123v-700h-123v700zM202 758h-94l106 164l110 -49z" />
    <glyph glyph-name="Icircumflex" unicode="&#xce;" horiz-adv-x="317" 
d="M97 700h123v-700h-123v700zM158 825l-77 -67h-94l116 146h112l116 -146h-96z" />
    <glyph glyph-name="Idieresis" unicode="&#xcf;" horiz-adv-x="317" 
d="M97 700h123v-700h-123v700zM320 758h-123v118h123v-118zM121 758h-123v118h123v-118z" />
    <glyph glyph-name="Eth" unicode="&#xd0;" horiz-adv-x="812" 
d="M120 297h-75v110h75v293h261q163 0 267.5 -99.5t104.5 -249.5t-104.5 -250.5t-267.5 -100.5h-261v297zM242 407h176v-110h-176v-185h139q109 0 176 66.5t67 170.5q0 105 -67 172t-176 67h-139v-181z" />
    <glyph glyph-name="Ntilde" unicode="&#xd1;" horiz-adv-x="790" 
d="M579 216v484h121v-700h-103l-386 498v-498h-121v700h114zM584 882q-17 -64 -42.5 -94t-69.5 -30q-30 0 -79 20t-65 20q-21 0 -32 -11t-23 -39l-67 20q17 64 42.5 94.5t69.5 30.5q30 0 79 -20t65 -20q21 0 32 11t23 39z" />
    <glyph glyph-name="Ograve" unicode="&#xd2;" horiz-adv-x="850" 
d="M791 351q0 -151 -104 -257t-263 -106t-262 105t-103 256t104 257t263 106t262 -105t103 -256zM662 349q0 104 -67.5 177t-170.5 73t-169.5 -72t-66.5 -176t67.5 -177t170.5 -73t169.5 72t66.5 176zM374 758l-122 115l110 49l106 -164h-94z" />
    <glyph glyph-name="Oacute" unicode="&#xd3;" horiz-adv-x="850" 
d="M791 351q0 -151 -104 -257t-263 -106t-262 105t-103 256t104 257t263 106t262 -105t103 -256zM662 349q0 104 -67.5 177t-170.5 73t-169.5 -72t-66.5 -176t67.5 -177t170.5 -73t169.5 72t66.5 176zM476 758h-94l106 164l110 -49z" />
    <glyph glyph-name="Ocircumflex" unicode="&#xd4;" horiz-adv-x="850" 
d="M791 351q0 -151 -104 -257t-263 -106t-262 105t-103 256t104 257t263 106t262 -105t103 -256zM662 349q0 104 -67.5 177t-170.5 73t-169.5 -72t-66.5 -176t67.5 -177t170.5 -73t169.5 72t66.5 176zM424 825l-77 -67h-94l116 146h112l116 -146h-96z" />
    <glyph glyph-name="Otilde" unicode="&#xd5;" horiz-adv-x="850" 
d="M791 351q0 -151 -104 -257t-263 -106t-262 105t-103 256t104 257t263 106t262 -105t103 -256zM662 349q0 104 -67.5 177t-170.5 73t-169.5 -72t-66.5 -176t67.5 -177t170.5 -73t169.5 72t66.5 176zM614 882q-17 -64 -42.5 -94t-69.5 -30q-30 0 -79 20t-65 20
q-21 0 -32 -11t-23 -39l-67 20q17 64 42.5 94.5t69.5 30.5q30 0 79 -20t65 -20q21 0 32 11t23 39z" />
    <glyph glyph-name="Odieresis" unicode="&#xd6;" horiz-adv-x="850" 
d="M791 351q0 -151 -104 -257t-263 -106t-262 105t-103 256t104 257t263 106t262 -105t103 -256zM662 349q0 104 -67.5 177t-170.5 73t-169.5 -72t-66.5 -176t67.5 -177t170.5 -73t169.5 72t66.5 176zM586 758h-123v118h123v-118zM387 758h-123v118h123v-118z" />
    <glyph glyph-name="Oslash" unicode="&#xd8;" horiz-adv-x="850" 
d="M791 351q0 -151 -104 -257t-263 -106q-114 0 -204 60l-48 -53h-121l99 112q-91 99 -91 242q0 151 104 257t263 106q114 0 204 -60l48 53h121l-99 -112q91 -99 91 -242zM552 562q-57 39 -128 39q-103 0 -171 -73t-68 -177q0 -83 47 -150zM665 349q0 83 -47 150l-320 -361
q57 -39 128 -39q103 0 171 73t68 177z" />
    <glyph glyph-name="Ugrave" unicode="&#xd9;" horiz-adv-x="757" 
d="M678 700v-397q0 -153 -80 -233.5t-221 -80.5q-139 0 -218.5 79t-79.5 229v403h123v-398q0 -96 47 -148t130 -52t129.5 50t46.5 145v403h123zM341 753l-122 115l110 49l106 -164h-94z" />
    <glyph glyph-name="Uacute" unicode="&#xda;" horiz-adv-x="757" 
d="M678 700v-397q0 -153 -80 -233.5t-221 -80.5q-139 0 -218.5 79t-79.5 229v403h123v-398q0 -96 47 -148t130 -52t129.5 50t46.5 145v403h123zM416 753h-94l106 164l110 -49z" />
    <glyph glyph-name="Ucircumflex" unicode="&#xdb;" horiz-adv-x="757" 
d="M678 700v-397q0 -153 -80 -233.5t-221 -80.5q-139 0 -218.5 79t-79.5 229v403h123v-398q0 -96 47 -148t130 -52t129.5 50t46.5 145v403h123zM378 824l-77 -67h-94l116 146h112l116 -146h-96z" />
    <glyph glyph-name="Udieresis" unicode="&#xdc;" horiz-adv-x="757" 
d="M678 700v-397q0 -153 -80 -233.5t-221 -80.5q-139 0 -218.5 79t-79.5 229v403h123v-398q0 -96 47 -148t130 -52t129.5 50t46.5 145v403h123zM540 757h-123v118h123v-118zM341 757h-123v118h123v-118z" />
    <glyph glyph-name="Yacute" unicode="&#xdd;" horiz-adv-x="716" 
d="M420 279v-279h-124v276l-278 424h145l196 -310l198 310h141zM405 753h-94l106 164l110 -49z" />
    <glyph glyph-name="Thorn" unicode="&#xde;" horiz-adv-x="673" 
d="M632 356q0 -115 -79.5 -177.5t-200.5 -62.5h-139v-116h-123v700h123v-110h153q122 0 194 -63.5t72 -170.5zM507 353q0 61 -40.5 93.5t-110.5 32.5h-143v-253h143q69 0 110 35t41 92z" />
    <glyph glyph-name="germandbls" unicode="&#xdf;" horiz-adv-x="620" 
d="M529 548q0 -111 -110 -172q152 -52 152 -179q0 -97 -74 -150t-201 -49v93q74 2 114 30t40 79q0 48 -41.5 77t-112.5 38v82q113 55 113 140q0 44 -27.5 70.5t-73.5 26.5q-50 0 -81 -35t-31 -93v-506h-120v502q0 109 64 172t174 63q99 0 157 -53.5t58 -135.5z" />
    <glyph glyph-name="agrave" unicode="&#xe0;" horiz-adv-x="587" 
d="M519 0h-120v65q-64 -76 -171 -76q-79 0 -133.5 43.5t-54.5 119.5v2q0 83 59 126.5t155 43.5q77 0 146 -22v13q0 55 -33.5 84t-96.5 29q-72 0 -151 -33l-33 97q98 44 201 44q115 0 173.5 -58t58.5 -165v-313zM402 191v33q-54 21 -121 21q-57 0 -89 -22.5t-32 -62.5v-2
q0 -36 29 -57t73 -21q61 0 100.5 31t39.5 80zM257 595l-122 115l110 49l106 -164h-94z" />
    <glyph glyph-name="aacute" unicode="&#xe1;" horiz-adv-x="587" 
d="M519 0h-120v65q-64 -76 -171 -76q-79 0 -133.5 43.5t-54.5 119.5v2q0 83 59 126.5t155 43.5q77 0 146 -22v13q0 55 -33.5 84t-96.5 29q-72 0 -151 -33l-33 97q98 44 201 44q115 0 173.5 -58t58.5 -165v-313zM402 191v33q-54 21 -121 21q-57 0 -89 -22.5t-32 -62.5v-2
q0 -36 29 -57t73 -21q61 0 100.5 31t39.5 80zM329 595h-94l106 164l110 -49z" />
    <glyph glyph-name="acircumflex" unicode="&#xe2;" horiz-adv-x="587" 
d="M519 0h-120v65q-64 -76 -171 -76q-79 0 -133.5 43.5t-54.5 119.5v2q0 83 59 126.5t155 43.5q77 0 146 -22v13q0 55 -33.5 84t-96.5 29q-72 0 -151 -33l-33 97q98 44 201 44q115 0 173.5 -58t58.5 -165v-313zM402 191v33q-54 21 -121 21q-57 0 -89 -22.5t-32 -62.5v-2
q0 -36 29 -57t73 -21q61 0 100.5 31t39.5 80zM292 662l-77 -67h-94l116 146h112l116 -146h-96z" />
    <glyph glyph-name="atilde" unicode="&#xe3;" horiz-adv-x="587" 
d="M519 0h-120v65q-64 -76 -171 -76q-79 0 -133.5 43.5t-54.5 119.5v2q0 83 59 126.5t155 43.5q77 0 146 -22v13q0 55 -33.5 84t-96.5 29q-72 0 -151 -33l-33 97q98 44 201 44q115 0 173.5 -58t58.5 -165v-313zM402 191v33q-54 21 -121 21q-57 0 -89 -22.5t-32 -62.5v-2
q0 -36 29 -57t73 -21q61 0 100.5 31t39.5 80zM483 719q-17 -64 -42.5 -94t-69.5 -30q-30 0 -79 20t-65 20q-21 0 -32 -11t-23 -39l-67 20q17 64 42.5 94.5t69.5 30.5q30 0 79 -20t65 -20q21 0 32 11t23 39z" />
    <glyph glyph-name="adieresis" unicode="&#xe4;" horiz-adv-x="587" 
d="M519 0h-120v65q-64 -76 -171 -76q-79 0 -133.5 43.5t-54.5 119.5v2q0 83 59 126.5t155 43.5q77 0 146 -22v13q0 55 -33.5 84t-96.5 29q-72 0 -151 -33l-33 97q98 44 201 44q115 0 173.5 -58t58.5 -165v-313zM402 191v33q-54 21 -121 21q-57 0 -89 -22.5t-32 -62.5v-2
q0 -36 29 -57t73 -21q61 0 100.5 31t39.5 80zM454 595h-123v118h123v-118zM255 595h-123v118h123v-118z" />
    <glyph glyph-name="aring" unicode="&#xe5;" horiz-adv-x="587" 
d="M519 0h-120v65q-64 -76 -171 -76q-79 0 -133.5 43.5t-54.5 119.5v2q0 83 59 126.5t155 43.5q77 0 146 -22v13q0 55 -33.5 84t-96.5 29q-72 0 -151 -33l-33 97q98 44 201 44q115 0 173.5 -58t58.5 -165v-313zM402 191v33q-54 21 -121 21q-57 0 -89 -22.5t-32 -62.5v-2
q0 -36 29 -57t73 -21q61 0 100.5 31t39.5 80zM407 703q0 -45 -34.5 -77.5t-79.5 -32.5t-79.5 32.5t-34.5 77.5t34.5 77.5t79.5 32.5t79.5 -32.5t34.5 -77.5zM355 703q0 25 -18.5 43.5t-43.5 18.5t-43.5 -18.5t-18.5 -43.5t18.5 -43.5t43.5 -18.5t43.5 18.5t18.5 43.5z" />
    <glyph glyph-name="ae" unicode="&#xe6;" horiz-adv-x="952" 
d="M461 78q-107 -89 -221 -89q-91 0 -145.5 43.5t-54.5 122.5q0 82 59 125.5t155 43.5q77 0 146 -22v13q0 55 -33.5 84t-96.5 29q-72 0 -151 -33l-33 97q98 44 198 44q136 0 186 -87q69 90 185 90q119 0 184.5 -81.5t65.5 -203.5q0 -21 -1 -33h-388q10 -63 51 -98.5
t100 -35.5q79 0 144 63l71 -63q-84 -99 -217 -99q-127 0 -204 90zM514 301h272q-6 61 -41 100t-93 39q-55 0 -92.5 -38.5t-45.5 -100.5zM397 227q-51 18 -116 18q-57 0 -89 -22.5t-32 -62.5q0 -38 29 -59t73 -21q84 0 155 66q-16 40 -20 81z" />
    <glyph glyph-name="ccedilla" unicode="&#xe7;" horiz-adv-x="571" 
d="M250 -3q-90 23 -146.5 96t-56.5 169q0 115 78.5 196t195.5 81q128 0 211 -91l-75 -81q-63 66 -137 66q-65 0 -108.5 -49t-43.5 -120q0 -72 44.5 -121.5t113.5 -49.5q73 0 137 66l73 -72q-41 -45 -86.5 -70t-108.5 -28l-65 -154l-106 44z" />
    <glyph glyph-name="egrave" unicode="&#xe8;" horiz-adv-x="604" 
d="M168 221q10 -63 51 -98.5t101 -35.5q78 0 143 63l71 -63q-82 -99 -216 -99q-116 0 -193.5 77t-77.5 198q0 116 73 196t185 80q121 0 187 -81.5t66 -203.5q0 -9 -2 -33h-388zM167 301h271q-6 61 -41 100t-93 39q-55 0 -92 -38.5t-45 -100.5zM261 595l-122 115l110 49
l106 -164h-94z" />
    <glyph glyph-name="eacute" unicode="&#xe9;" horiz-adv-x="604" 
d="M168 221q10 -63 51 -98.5t101 -35.5q78 0 143 63l71 -63q-82 -99 -216 -99q-116 0 -193.5 77t-77.5 198q0 116 73 196t185 80q121 0 187 -81.5t66 -203.5q0 -9 -2 -33h-388zM167 301h271q-6 61 -41 100t-93 39q-55 0 -92 -38.5t-45 -100.5zM343 595h-94l106 164l110 -49z
" />
    <glyph glyph-name="ecircumflex" unicode="&#xea;" horiz-adv-x="604" 
d="M168 221q10 -63 51 -98.5t101 -35.5q78 0 143 63l71 -63q-82 -99 -216 -99q-116 0 -193.5 77t-77.5 198q0 116 73 196t185 80q121 0 187 -81.5t66 -203.5q0 -9 -2 -33h-388zM167 301h271q-6 61 -41 100t-93 39q-55 0 -92 -38.5t-45 -100.5zM302 662l-77 -67h-94l116 146
h112l116 -146h-96z" />
    <glyph glyph-name="edieresis" unicode="&#xeb;" horiz-adv-x="604" 
d="M168 221q10 -63 51 -98.5t101 -35.5q78 0 143 63l71 -63q-82 -99 -216 -99q-116 0 -193.5 77t-77.5 198q0 116 73 196t185 80q121 0 187 -81.5t66 -203.5q0 -9 -2 -33h-388zM167 301h271q-6 61 -41 100t-93 39q-55 0 -92 -38.5t-45 -100.5zM464 595h-123v118h123v-118z
M265 595h-123v118h123v-118z" />
    <glyph glyph-name="igrave" unicode="&#xec;" horiz-adv-x="286" 
d="M204 0h-121v528h121v-528zM101 595l-122 115l110 49l106 -164h-94z" />
    <glyph glyph-name="iacute" unicode="&#xed;" horiz-adv-x="286" 
d="M204 0h-121v528h121v-528zM185 595h-94l106 164l110 -49z" />
    <glyph glyph-name="icircumflex" unicode="&#xee;" horiz-adv-x="286" 
d="M204 0h-121v528h121v-528zM142 662l-77 -67h-94l116 146h112l116 -146h-96z" />
    <glyph glyph-name="idieresis" unicode="&#xef;" horiz-adv-x="286" 
d="M204 0h-121v528h121v-528zM304 595h-123v118h123v-118zM105 595h-123v118h123v-118z" />
    <glyph glyph-name="eth" unicode="&#xf0;" horiz-adv-x="642" 
d="M313 588l-119 -53l-48 63l121 53l-58 79h139l24 -35l99 43l47 -63l-102 -44l89 -129q46 -66 67 -122t21 -122q0 -113 -75.5 -191.5t-201.5 -78.5q-115 0 -192 76t-77 185q0 105 66.5 171t165.5 66q71 0 139 -41zM474 246q0 64 -44 107.5t-113 43.5q-68 0 -109.5 -42.5
t-41.5 -108.5q0 -64 44 -109.5t111 -45.5q68 0 110.5 45t42.5 110z" />
    <glyph glyph-name="ntilde" unicode="&#xf1;" horiz-adv-x="620" 
d="M197 298v-298h-121v528h121v-82q63 93 165 93q88 0 138 -55t50 -148v-336h-121v300q0 62 -29.5 95.5t-83.5 33.5q-53 0 -86 -35t-33 -96zM503 719q-17 -64 -42.5 -94t-69.5 -30q-30 0 -79 20t-65 20q-21 0 -32 -11t-23 -39l-67 20q17 64 42.5 94.5t69.5 30.5q30 0 79 -20
t65 -20q21 0 32 11t23 39z" />
    <glyph glyph-name="ograve" unicode="&#xf2;" horiz-adv-x="657" 
d="M610 264q0 -115 -81 -195.5t-202 -80.5q-120 0 -200 80t-80 194q0 115 81 196t201 81t200.5 -80t80.5 -195zM489 262q0 72 -46 121.5t-116 49.5q-71 0 -115 -48.5t-44 -120.5t45.5 -121.5t115.5 -49.5q72 0 116 48.5t44 120.5zM281 595l-122 115l110 49l106 -164h-94z
" />
    <glyph glyph-name="oacute" unicode="&#xf3;" horiz-adv-x="657" 
d="M610 264q0 -115 -81 -195.5t-202 -80.5q-120 0 -200 80t-80 194q0 115 81 196t201 81t200.5 -80t80.5 -195zM489 262q0 72 -46 121.5t-116 49.5q-71 0 -115 -48.5t-44 -120.5t45.5 -121.5t115.5 -49.5q72 0 116 48.5t44 120.5zM375 595h-94l106 164l110 -49z" />
    <glyph glyph-name="ocircumflex" unicode="&#xf4;" horiz-adv-x="657" 
d="M610 264q0 -115 -81 -195.5t-202 -80.5q-120 0 -200 80t-80 194q0 115 81 196t201 81t200.5 -80t80.5 -195zM489 262q0 72 -46 121.5t-116 49.5q-71 0 -115 -48.5t-44 -120.5t45.5 -121.5t115.5 -49.5q72 0 116 48.5t44 120.5zM327 662l-77 -67h-94l116 146h112l116 -146
h-96z" />
    <glyph glyph-name="otilde" unicode="&#xf5;" horiz-adv-x="657" 
d="M610 264q0 -115 -81 -195.5t-202 -80.5q-120 0 -200 80t-80 194q0 115 81 196t201 81t200.5 -80t80.5 -195zM489 262q0 72 -46 121.5t-116 49.5q-71 0 -115 -48.5t-44 -120.5t45.5 -121.5t115.5 -49.5q72 0 116 48.5t44 120.5zM517 719q-17 -64 -42.5 -94t-69.5 -30
q-30 0 -79 20t-65 20q-21 0 -32 -11t-23 -39l-67 20q17 64 42.5 94.5t69.5 30.5q30 0 79 -20t65 -20q21 0 32 11t23 39z" />
    <glyph glyph-name="odieresis" unicode="&#xf6;" horiz-adv-x="657" 
d="M610 264q0 -115 -81 -195.5t-202 -80.5q-120 0 -200 80t-80 194q0 115 81 196t201 81t200.5 -80t80.5 -195zM489 262q0 72 -46 121.5t-116 49.5q-71 0 -115 -48.5t-44 -120.5t45.5 -121.5t115.5 -49.5q72 0 116 48.5t44 120.5zM489 595h-123v118h123v-118zM290 595h-123
v118h123v-118z" />
    <glyph glyph-name="oslash" unicode="&#xf8;" horiz-adv-x="657" 
d="M610 264q0 -115 -81 -195.5t-202 -80.5q-83 0 -151 43l-34 -36h-110l80 89q-65 76 -65 178q0 115 81 196t201 81q84 0 151 -43l35 38h110l-81 -91q66 -75 66 -179zM409 412q-35 24 -82 24q-72 0 -117 -49.5t-45 -122.5q0 -51 25 -92zM492 262q0 52 -25 93l-218 -241
q37 -24 80 -24q72 0 117.5 49.5t45.5 122.5z" />
    <glyph glyph-name="ugrave" unicode="&#xf9;" horiz-adv-x="620" 
d="M423 230v298h121v-528h-121v82q-63 -93 -165 -93q-88 0 -138 55t-50 148v336h121v-300q0 -62 29.5 -95.5t83.5 -33.5q53 0 86 35t33 96zM275 593l-122 115l110 49l106 -164h-94z" />
    <glyph glyph-name="uacute" unicode="&#xfa;" horiz-adv-x="620" 
d="M423 230v298h121v-528h-121v82q-63 -93 -165 -93q-88 0 -138 55t-50 148v336h121v-300q0 -62 29.5 -95.5t83.5 -33.5q53 0 86 35t33 96zM343 593h-94l106 164l110 -49z" />
    <glyph glyph-name="ucircumflex" unicode="&#xfb;" horiz-adv-x="620" 
d="M423 230v298h121v-528h-121v82q-63 -93 -165 -93q-88 0 -138 55t-50 148v336h121v-300q0 -62 29.5 -95.5t83.5 -33.5q53 0 86 35t33 96zM309 662l-77 -67h-94l116 146h112l116 -146h-96z" />
    <glyph glyph-name="udieresis" unicode="&#xfc;" horiz-adv-x="620" 
d="M423 230v298h121v-528h-121v82q-63 -93 -165 -93q-88 0 -138 55t-50 148v336h121v-300q0 -62 29.5 -95.5t83.5 -33.5q53 0 86 35t33 96zM471 595h-123v118h123v-118zM272 595h-123v118h123v-118z" />
    <glyph glyph-name="yacute" unicode="&#xfd;" horiz-adv-x="596" 
d="M568 528l-210 -543q-32 -81 -71 -114.5t-103 -33.5q-66 0 -125 32l41 90q37 -20 71 -20q26 0 43 13.5t32 47.5l-220 528h129l150 -392l137 392h126zM338 593h-94l106 164l110 -49z" />
    <glyph glyph-name="thorn" unicode="&#xfe;" horiz-adv-x="670" 
d="M622 264q0 -126 -73 -200.5t-173 -74.5q-109 0 -179 93v-242h-121v890h121v-290q70 99 179 99q100 0 173 -74.5t73 -200.5zM499 264q0 76 -44 123t-107 47q-64 0 -109 -47.5t-45 -122.5t45 -122.5t109 -47.5t107.5 46.5t43.5 123.5z" />
    <glyph glyph-name="ydieresis" unicode="&#xff;" horiz-adv-x="596" 
d="M568 528l-210 -543q-32 -81 -71 -114.5t-103 -33.5q-66 0 -125 32l41 90q37 -20 71 -20q26 0 43 13.5t32 47.5l-220 528h129l150 -392l137 392h126zM459 595h-123v118h123v-118zM260 595h-123v118h123v-118z" />
    <glyph glyph-name="dotlessi" unicode="&#x131;" horiz-adv-x="286" 
d="M204 0h-121v528h121v-528z" />
    <glyph glyph-name="Lslash" unicode="&#x141;" horiz-adv-x="649" 
d="M611 0h-491v278l-75 -22v114l75 23v307h122v-270l202 60v-114l-202 -61v-203h369v-112z" />
    <glyph glyph-name="lslash" unicode="&#x142;" horiz-adv-x="346" 
d="M233 332v-332h-120v297l-76 -23v115l76 23v318h120v-283l76 23v-115z" />
    <glyph glyph-name="OE" unicode="&#x152;" horiz-adv-x="1098" 
d="M1042 0h-611q-163 0 -267.5 99.5t-104.5 249.5t104.5 250.5t267.5 100.5h606v-110h-374v-182h329v-110h-329v-188h379v-110zM540 112v476h-109q-109 0 -176 -66.5t-67 -170.5q0 -105 67 -172t176 -67h109z" />
    <glyph glyph-name="oe" unicode="&#x153;" horiz-adv-x="1040" 
d="M539 102q-35 -52 -92.5 -83t-125.5 -31q-114 0 -194 80.5t-80 193.5q0 115 81 196t198 81q67 0 123.5 -30.5t91.5 -82.5q32 52 85 82.5t117 30.5q118 0 184 -82t66 -203q0 -9 -2 -33h-388q10 -63 51.5 -98.5t100.5 -35.5q79 0 144 63l71 -63q-84 -99 -216 -99
q-69 0 -125.5 30t-89.5 84zM602 301h272q-7 62 -41.5 100.5t-92.5 38.5q-55 0 -92.5 -38.5t-45.5 -100.5zM482 262q0 71 -45 121t-113 50q-70 0 -113 -48.5t-43 -120.5q0 -71 45 -121t113 -50q70 0 113 48.5t43 120.5z" />
    <glyph glyph-name="Scaron" unicode="&#x160;" horiz-adv-x="640" 
d="M194 517q0 -42 33.5 -64.5t132.5 -46.5q116 -28 170.5 -75t54.5 -131q0 -97 -69 -153.5t-181 -56.5q-167 0 -292 112l74 88q105 -91 221 -91q57 0 90.5 24t33.5 65q0 40 -32 63t-126 45q-122 30 -177.5 74t-55.5 136q0 91 67 147.5t172 56.5q144 0 254 -88l-66 -93
q-97 72 -190 72q-53 0 -83.5 -24t-30.5 -60zM321 838l77 66h94l-116 -146h-112l-116 146h96z" />
    <glyph glyph-name="scaron" unicode="&#x161;" 
d="M453 156q0 -80 -55 -123t-141 -43q-124 0 -224 79l54 82q86 -65 173 -65q39 0 60.5 15.5t21.5 41.5v2q0 33 -58 55q-12 4 -60 19q-36 10 -60 20t-51 27.5t-40.5 44.5t-13.5 63v2q0 73 53.5 117t134.5 44q103 0 194 -60l-48 -86q-82 50 -149 50q-35 0 -54.5 -14.5
t-19.5 -38.5v-2q0 -24 26.5 -38.5t82.5 -32.5q7 -2 10 -3q35 -11 59 -21.5t50.5 -28.5t40.5 -44t14 -60v-2zM255 675l77 66h94l-116 -146h-112l-116 146h96z" />
    <glyph glyph-name="Ydieresis" unicode="&#x178;" horiz-adv-x="716" 
d="M420 279v-279h-124v276l-278 424h145l196 -310l198 310h141zM519 757h-123v118h123v-118zM320 757h-123v118h123v-118z" />
    <glyph glyph-name="Zcaron" unicode="&#x17d;" horiz-adv-x="702" 
d="M478 591h-400v109h560v-91l-413 -500h413v-109h-573v91zM356 838l77 66h94l-116 -146h-112l-116 146h96z" />
    <glyph glyph-name="zcaron" unicode="&#x17e;" horiz-adv-x="560" 
d="M357 429h-294v99h448v-83l-305 -346h305v-99h-459v83zM289 675l77 66h94l-116 -146h-112l-116 146h96z" />
    <glyph glyph-name="florin" unicode="&#x192;" horiz-adv-x="527" 
d="M491 592q-40 10 -69 10q-35 0 -54 -18t-27 -59l-12 -68h127v-101h-145l-38 -211q-14 -80 -56 -115t-120 -35q-36 0 -56 5v99q21 -3 40 -3q62 0 73 67l35 193h-80v101h97l18 93q15 78 55.5 116.5t119.5 38.5q53 0 92 -11v-102z" />
    <glyph glyph-name="circumflex" unicode="&#x2c6;" 
d="M249 662l-77 -67h-94l116 146h112l116 -146h-96z" />
    <glyph glyph-name="caron" unicode="&#x2c7;" 
d="M251 675l77 66h94l-116 -146h-112l-116 146h96z" />
    <glyph glyph-name="breve" unicode="&#x2d8;" 
d="M421 741q-5 -70 -51.5 -109t-119.5 -39t-119.5 39t-51.5 109h83q20 -63 88 -63t88 63h83z" />
    <glyph glyph-name="dotaccent" unicode="&#x2d9;" 
d="M313 595h-126v119h126v-119z" />
    <glyph glyph-name="ring" unicode="&#x2da;" 
d="M364 703q0 -45 -34.5 -77.5t-79.5 -32.5t-79.5 32.5t-34.5 77.5t34.5 77.5t79.5 32.5t79.5 -32.5t34.5 -77.5zM312 703q0 25 -18 43.5t-44 18.5t-44 -18.5t-18 -43.5t18 -43.5t44 -18.5t44 18.5t18 43.5z" />
    <glyph glyph-name="ogonek" unicode="&#x2db;" 
d="M277 10q-6 -23 -6 -44q0 -68 95 -74v-56q-91 -6 -140.5 23t-49.5 85q0 30 15 66h86z" />
    <glyph glyph-name="tilde" unicode="&#x2dc;" 
d="M439 719q-17 -64 -42.5 -94t-69.5 -30q-30 0 -79 20t-65 20q-21 0 -32 -11t-23 -39l-67 20q17 64 42.5 94.5t69.5 30.5q30 0 79 -20t65 -20q21 0 32 11t23 39z" />
    <glyph glyph-name="hungarumlaut" unicode="&#x2dd;" 
d="M328 595h-90l106 164l106 -49zM146 595h-90l104 164l106 -49z" />
    <glyph glyph-name="pi" unicode="&#x3c0;" horiz-adv-x="830" 
d="M777 351q0 -149 -106 -256t-257 -107t-256 106t-105 255t106 256t257 107t256 -106t105 -255zM739 351q0 136 -93 230.5t-230 94.5q-138 0 -231.5 -95.5t-93.5 -231.5t93 -230.5t230 -94.5q138 0 231.5 95.5t93.5 231.5zM586 418q0 -63 -44 -97t-111 -34h-71v-120h-74
v380h153q68 0 107.5 -35t39.5 -94zM511 417q0 31 -20.5 47.5t-57.5 16.5h-73v-129h73q36 0 57 18t21 47z" />
    <glyph glyph-name="endash" unicode="&#x2013;" horiz-adv-x="528" 
d="M472 249h-416v115h416v-115z" />
    <glyph glyph-name="emdash" unicode="&#x2014;" horiz-adv-x="898" 
d="M842 249h-786v115h786v-115z" />
    <glyph glyph-name="quoteleft" unicode="&#x2018;" horiz-adv-x="269" 
d="M230 653q-92 -17 -85 -93h51v-138h-133v117q0 81 38 120.5t116 45.5z" />
    <glyph glyph-name="quoteright" unicode="&#x2019;" horiz-adv-x="269" 
d="M39 469q92 17 85 94h-51v137h133v-117q0 -81 -38 -120.5t-116 -45.5z" />
    <glyph glyph-name="quotesinglbase" unicode="&#x201a;" horiz-adv-x="269" 
d="M34 -94q92 18 85 94h-51v137h133v-116q0 -81 -38 -120.5t-116 -45.5z" />
    <glyph glyph-name="quotedblleft" unicode="&#x201c;" horiz-adv-x="501" 
d="M462 653q-92 -17 -86 -93h52v-138h-133v117q0 81 38 120.5t116 45.5zM230 653q-92 -17 -85 -93h51v-138h-133v117q0 81 38 120.5t116 45.5z" />
    <glyph glyph-name="quotedblright" unicode="&#x201d;" horiz-adv-x="501" 
d="M271 469q92 17 85 94h-51v137h133v-117q0 -81 -38 -120.5t-116 -45.5zM39 469q92 17 85 94h-51v137h133v-117q0 -81 -38 -120.5t-116 -45.5z" />
    <glyph glyph-name="quotedblbase" unicode="&#x201e;" horiz-adv-x="501" 
d="M266 -94q92 18 85 94h-51v137h133v-116q0 -81 -38 -120.5t-116 -45.5zM34 -94q92 18 85 94h-51v137h133v-116q0 -81 -38 -120.5t-116 -45.5z" />
    <glyph glyph-name="dagger" unicode="&#x2020;" horiz-adv-x="410" 
d="M232 513l9 -275h-72l9 275l-122 -9v71l121 -9l-12 134h80l-12 -134l121 9v-71z" />
    <glyph glyph-name="daggerdbl" unicode="&#x2021;" horiz-adv-x="430" 
d="M364 125l-121 9l12 -134h-80l12 134l-121 -9v71l121 -9l-8 163l8 163l-121 -9v71l121 -9l-12 134h80l-12 -134l121 9v-71l-121 9l8 -163l-8 -163l121 9v-71z" />
    <glyph glyph-name="bullet" unicode="&#x2022;" horiz-adv-x="491" 
d="M387 352q0 -58 -41.5 -99.5t-100.5 -41.5q-58 0 -99.5 41.5t-41.5 99.5t41.5 99.5t99.5 41.5q59 0 100.5 -41.5t41.5 -99.5z" />
    <glyph glyph-name="ellipsis" unicode="&#x2026;" horiz-adv-x="792" 
d="M724 0h-130v134h130v-134zM461 0h-130v134h130v-134zM198 0h-130v134h130v-134z" />
    <glyph glyph-name="perthousand" unicode="&#x2030;" horiz-adv-x="1228" 
d="M378 530q0 -75 -46.5 -127.5t-119.5 -52.5q-72 0 -118 52t-46 126q0 75 46.5 127.5t119.5 52.5q72 0 118 -52t46 -126zM631 700h99l-512 -700h-99zM1180 172q0 -75 -46.5 -127.5t-119.5 -52.5t-118.5 51.5t-45.5 126.5t46.5 127.5t119.5 52.5q72 0 118 -52t46 -126z
M801 172q0 -75 -46.5 -127.5t-119.5 -52.5q-72 0 -118 52t-46 126q0 75 46.5 127.5t119.5 52.5q72 0 118 -52t46 -126zM289 528q0 44 -22 73.5t-55 29.5q-34 0 -54.5 -29t-20.5 -72q0 -44 22 -73.5t55 -29.5q34 0 54.5 29t20.5 72zM1091 170q0 44 -22 73.5t-55 29.5
q-34 0 -54.5 -29t-20.5 -72q0 -44 22 -73.5t55 -29.5q34 0 54.5 29t20.5 72zM712 170q0 44 -22 73.5t-55 29.5q-34 0 -54.5 -29t-20.5 -72q0 -44 22 -73.5t55 -29.5q34 0 54.5 29t20.5 72z" />
    <glyph glyph-name="guilsinglleft" unicode="&#x2039;" horiz-adv-x="354" 
d="M210 488l92 -47l-132 -176l132 -177l-92 -47l-166 219v8z" />
    <glyph glyph-name="guilsinglright" unicode="&#x203a;" horiz-adv-x="354" 
d="M145 41l-92 46l132 176l-132 177l92 48l165 -220v-8z" />
    <glyph glyph-name="fraction" unicode="&#x2044;" horiz-adv-x="459" 
d="M397 758h110l-467 -856h-110z" />
    <glyph glyph-name="trademark" unicode="&#x2122;" horiz-adv-x="690" 
d="M594 611l-95 -148h-6l-95 148v-219h-57v308h63l93 -146l93 146h61v-308h-57v219zM180 646v-254h-59v254h-95v54h249v-54h-95z" />
    <glyph glyph-name="Omega" unicode="&#x2126;" horiz-adv-x="752" 
d="M598 524h140v-100h-138v-424h-121v424h-67v101h67v38q0 86 41.5 129.5t119.5 43.5q52 0 99 -14v-102q-39 13 -71 13q-70 0 -70 -80v-29zM222 524h140v-100h-138v-424h-121v424h-67v101h67v38q0 173 162 173q51 0 98 -14v-102q-39 13 -71 13q-70 0 -70 -80v-29z" />
    <glyph glyph-name="radical" unicode="&#x221a;" horiz-adv-x="1038" 
d="M598 524h140v-100h-138v-424h-121v424h-67v101h67v38q0 86 41.5 129.5t119.5 43.5q52 0 99 -14v-102q-39 13 -71 13q-70 0 -70 -80v-29zM222 524h140v-100h-138v-424h-121v424h-67v101h67v38q0 173 162 173q51 0 98 -14v-102q-39 13 -71 13q-70 0 -70 -80v-29zM956 0
h-122v730h122v-730z" />
    <glyph glyph-name="approxequal" unicode="&#x2248;" horiz-adv-x="1038" 
d="M960 609h-130v115h130v-115zM598 524h140v-100h-138v-424h-121v424h-67v101h67v38q0 86 41.5 129.5t119.5 43.5q52 0 99 -14v-102q-39 13 -71 13q-70 0 -70 -80v-29zM222 524h140v-100h-138v-424h-121v424h-67v101h67v38q0 173 162 173q51 0 98 -14v-102q-39 13 -71 13
q-70 0 -70 -80v-29zM956 0h-122v528h122v-528z" />
    <glyph glyph-name="NUL" unicode="&#xe000;" horiz-adv-x="0" 
 />
    <glyph glyph-name="apple" unicode="&#xe001;" horiz-adv-x="967" 
d="M868 0h-767v750h767v-750zM859 -104h-6l-3 20l-10 -21h-2l-10 21l-3 -20h-6l6 34h1l13 -26l13 26h1zM806 -87q0 -18 -17 -18q-7 0 -12 5t-5 12q0 18 18 18q7 0 11.5 -5t4.5 -12zM758 -96l-1 -6q-3 -3 -10 -3q-18 0 -18 17q0 8 5.5 13t12.5 5t11 -3l-2 -5q-3 3 -9 3
q-12 0 -12 -12q0 -13 13 -13q4 0 10 4zM702 -71l-13 -19v-14h-6v14l-14 19l6 1l11 -15l9 14h7zM656 -104h-6v15h-16v-15h-6v33h6v-13h16v13h6v-33zM612 -82q0 -12 -17 -12v-10h-6v33q23 3 23 -11zM576 -104h-6l-4 8h-14l-3 -8h-6l15 34h2zM534 -104h-7l-8 11h-5v-11h-6v33
q23 3 23 -10q0 -7 -7 -10zM491 -101q-6 -4 -13 -4q-18 0 -18 17q0 8 5.5 13t13.5 5q6 0 12 -4l-2 -5q-4 4 -11 4q-12 0 -12 -13q0 -12 13 -12q2 0 6 2v7h-9v5h15v-15zM447 -87q0 -18 -17 -18q-7 0 -12 5t-5 12q0 18 18 18q7 0 11.5 -5t4.5 -12zM400 -82q0 -12 -17 -12v-10
h-6v33q23 3 23 -11zM364 -71l-13 -19v-14h-6v14l-14 19l6 1l11 -15l9 14h7zM323 -71v-5h-12v-28h-6v28h-12v5h30zM267 -71l-12 -34h-1l-11 23l-10 -23h-1l-12 34l6 1l7 -23l10 23h1l10 -23l7 22h6zM211 -71l-12 -34h-1l-11 23l-10 -23h-1l-12 34l6 1l7 -23l10 23h1l10 -23
l7 22h6zM155 -71l-12 -34h-1l-11 23l-10 -23h-1l-12 34l6 1l7 -23l10 23h1l10 -23l7 22h6zM716 -101q0 -4 -4 -4t-4 4t4 4t4 -4zM284 -101q0 -4 -4 -4t-4 4t4 4t4 -4zM559 686q0 8 -1 12q-2 -1 -17 -1t-18 1l-1 -12h2q4 9 10 9q3 0 3 -3v-23q-1 -5 -5 -5v-2h17v2l-4 2
q-1 1 -1 3v23q0 3 3 3t5.5 -2.5t3.5 -4.5l1 -2h2zM504 662v2q-6 -1 -6 5v21q0 5 6 5v2h-18v-1v-1l4 -2q1 -1 1 -3v-9h-17v9q1 5 5 5v1v1h-17v-2l4 -2q1 -1 1 -3v-21q-1 -4 -5 -5v-2h17v2q-5 0 -5 5v10h17v-10q-1 -5 -5 -5v-2h18zM439 664l-4 2q-1 1 -1 3v21q1 5 5 5v2h-29
l-2 -10l2 -1q3 8 9 8h4q4 0 4 -3v-10h-4q-5 0 -6 5h-2v-13h2q0 6 6 6h4v-11q0 -3 -4 -3h-4q-3 0 -5.5 2.5t-3.5 4.5l-1 2l-2 -1l2 -11h30v2zM827 618v6h-685v-6h685zM696 540q0 15 -11.5 26.5t-25.5 11.5q-8 0 -15.5 -5.5t-7.5 -16.5q0 -16 11 -27t26 -11q8 0 15.5 5.5
t7.5 16.5zM589 537q0 12 -14 17q5 3 5 9q0 15 -21 15q-13 0 -13 -11q0 -6 5 -6q4 0 4 3q0 2 -1.5 3.5t-1.5 2.5q0 5 7 5q10 0 10 -12q0 -4 -2 -6q-16 2 -16 -6q0 -6 8 -6q6 0 11 5q6 -4 6 -15q0 -14 -12 -14t-12 9q0 3 3 3l1 -1q2 -1 4 -1q4 0 4 5t-7 5q-9 0 -9 -10
q0 -13 16 -13q25 0 25 19zM295 537q0 12 -14 17q5 3 5 9q0 15 -21 15q-13 0 -13 -11q0 -6 5 -6q4 0 4 3q0 2 -1.5 3.5t-1.5 2.5q0 5 7 5q10 0 10 -12q0 -4 -2 -6q-16 2 -16 -6q0 -6 8 -6q6 0 11 5q6 -4 6 -15q0 -14 -12 -14t-12 9q0 3 3 3l1 -1q2 -1 4 -1q4 0 4 5t-7 5
q-9 0 -9 -10q0 -13 16 -13q25 0 25 19zM820 522q-8 -1 -10 8l-7 35q-1 4 1 6t4 2h2l-1 3h-28l1 -3q7 1 9 -8l3 -15h-24l-3 15q-1 4 1 6t4 2h2l-1 3h-29l1 -3q8 1 10 -8l7 -35q1 -4 -1 -6t-4 -2h-2l1 -3h29l-1 3q-8 -1 -10 8l-3 16h24l3 -16q1 -4 -1 -6t-4 -2h-2l1 -3h29z
M498 519l-1 3q-8 -1 -10 8l-7 35q-1 4 1 6t4 2h2l-1 3h-45v-17h4q-1 13 13 13h4q5 0 6 -6l3 -16h-4q-4 0 -7 2t-4 4l-1 3h-3l5 -23h3q-1 11 8 11h4l3 -17q1 -4 -1 -6t-4 -2h-2l1 -3h29zM202 522q-8 -1 -10 8l-7 35q-1 4 1 6t4 2h2l-1 3h-27q-20 0 -20 -15q0 -13 19 -15
l-9 -16q-2 -4 -5.5 -6t-6.5 -2h-2l1 -3h19l12 23q2 3 5 3l3 -15q1 -4 -1 -6t-4 -2h-2l1 -3h29zM400 521q0 8 -13 9q-4 2 -5 14.5t-5.5 23t-18.5 10.5q-5 0 -9 -3.5t-4 -6.5q0 -5 5 -5q4 0 4 6t5 6t7 -8t4.5 -19.5t9.5 -17.5q-8 0 -14 -6.5t-9 -6.5q-5 0 -5 4q0 2 1 3t1 2
q0 5 -5 5t-5 -7q0 -4 5 -8t10 -4q10 0 15 6.5t10 6.5q4 -7 12 -7q4 0 4 3zM827 475v6h-685v-6h685zM827 378v62h-147v-62h36v28h11v-65h-14v-33h81v33h-14v65h11v-28h36zM648 406v34h-81v-34h11l-15 -23l-15 23h10v34h-62v-34h12l37 -46v-19h-14v-33h81v33h-15v20l37 45h14z
M458 308v33h-14v65h14v34h-96q-21 0 -34 -11.5t-13 -28.5q0 -18 13 -29t34 -11h30v-19h-15v-33h81zM283 308v33h-14v65h14v34h-141v-62h41v28h33v-20h-24v-24h24v-21h-33v28h-41v-61h141zM827 271v6h-685v-6h685zM728 192q0 15 -11.5 26.5t-25.5 11.5q-8 0 -15.5 -5.5
t-7.5 -16.5q0 -16 11 -27t26 -11q8 0 15.5 5.5t7.5 16.5zM203 217q-7 13 -18 13q-15 0 -14 -23q-7 23 -21 23q-12 0 -12 -12l3 -1q0 6 8 6q16 0 24 -33q2 -8 0.5 -11.5t-3.5 -3.5h-3l1 -4h28l-1 4q-7 -2 -10 9q-5 17 -5 25q0 13 9 13q5 0 12 -7zM823 171l-1 3q-8 -1 -10 8
l-7 35q-1 4 1 6t4 2h2l-1 3h-45v-17h4q-1 13 13 13h4q5 0 6 -6l3 -16h-4q-4 0 -7 2t-4 4l-1 3h-3l5 -23h3q-1 11 8 11h4l3 -17q1 -4 -1 -6t-4 -2h-2l1 -3h29zM621 225l-1 3h-29l1 -3q8 1 10 -9l5 -21q5 -20 -11 -20q-14 0 -20 22l-4 19q-1 5 1 7t4 2h2v3h-24l1 -3q9 1 11 -9
l4 -19q5 -27 28 -27q24 0 19 24l-5 22q-1 5 1 7t4 2h3zM522 174q-6 0 -9 10l-7 32q-1 4 1 6.5t5 2.5h2l-1 3h-14l-29 -42l-5 30q-1 4 1 6t4 2l2 1l-1 3h-21l1 -3q7 0 9 -9l8 -45l3 -1l30 44l6 -30q1 -5 -0.5 -7.5t-3.5 -2.5h-2l1 -3h21zM414 171l-1 4q-7 -2 -10 9l-8 31
q-3 9 8 10l-1 3h-30q-25 0 -25 -22q0 -15 11 -25t24 -10h32zM306 174q-8 -1 -10 8l-7 35q-1 4 1 6t4 2h2l-1 3h-27q-20 0 -20 -15q0 -13 19 -15l-9 -16q-2 -4 -5.5 -6t-6.5 -2h-2l1 -3h19l12 23q2 3 5 3l3 -15q1 -4 -1 -6t-4 -2h-2l1 -3h29zM827 127v6h-685v-6h685zM694 46
v2q-6 1 -6 5v20l6 6v2h-10l-24 -26v18q0 2 1.5 3.5t2.5 1.5l2 1v2h-15v-2q6 -1 6 -6v-28h3l25 28v-20q-1 -4 -5 -5v-2h14zM633 48l-4 2q-1 1 -1 3v21q1 5 5 5v2h-29l-2 -10l2 -1q3 8 9 8h4q4 0 4 -3v-10h-4q-5 0 -6 5h-2v-13h2q0 6 6 6h4v-11q0 -3 -4 -3h-4q-3 0 -5.5 2.5
t-3.5 4.5l-1 2l-2 -1l2 -11h30v2zM583 81h-15v-2l2 -2q1 -1 0 -3l-9 -19l-5 10l4 8l6 6v2h-26l1 -2q3 0 7 -6l3 -5l-7 -13l-8 18q-2 5 2 6v2h-13v-2q4 -1 6 -6l13 -27h1q1 -1 1 0l8 16l9 -16h1l12 27q1 3 3 4.5t3 1.5h1v2zM480 79v2h-15v-2l2 -1q1 -1 -1 -4l-6 -9l-6 9
q-2 4 3 5v2h-15v-2q5 0 8 -5l8 -12v-8q0 -5 -5 -6v-2h17v2q-5 0 -5 6v8l8 12zM425 64q0 18 -20 18t-20 -18q0 -19 20 -19t20 19zM364 46v2q-5 0 -5 5v20q0 5 5 6v2h-18q-13 0 -13 -9q0 -5 9 -9l-7 -10l-8 -5v-2h11l7 12q3 4 7 4v-9q-1 -4 -5 -5v-2h17zM309 46v2q-6 1 -6 6
v20q0 5 6 5v2h-18v-2q6 0 6 -5v-9q-2 0 -4 2l-8 8q-2 3 1 4v2h-14v-2q5 -1 8 -4l10 -9l-13 -13l-7 -5v-2h17v2l-3 1q-1 1 1 4l8 8q2 2 4 2v-9q0 -3 -1.5 -4.5t-3.5 -1.5h-1v-2h18zM606 -83q0 8 -11 7v-13q11 0 11 6zM525 -82q0 8 -11 6v-12q11 -1 11 6zM394 -83q0 8 -11 7
v-13q11 0 11 6zM564 -92l-5 12l-5 -12h10zM800 -88q0 13 -11 13t-11 -12q0 -13 11 -13t11 12zM441 -88q0 13 -11 13t-11 -12q0 -13 11 -13t11 12zM176 548h-5q-15 0 -15 15q0 9 8 9t9 -5zM566 553q-3 -4 -7 -4t-4 2q0 3 4 3q5 0 7 -1zM272 553q-3 -4 -7 -4t-4 2q0 3 4 3
q5 0 7 -1zM684 535q0 -13 -11 -13q-9 0 -17 11.5t-8 26.5q0 14 11 14q9 0 17 -12t8 -27zM392 384h-11q-13 0 -13 11t13 11h11v-22zM280 200h-5q-15 0 -15 15q0 9 8 9t9 -5zM716 187q0 -13 -11 -13q-9 0 -17 11.5t-8 26.5q0 14 11 14q9 0 17 -12t8 -27zM393 182q0 -7 -4 -7
h-5q-11 0 -18.5 10t-7.5 22q0 17 14 17h6q4 -1 6 -7zM553 79q5 0 0 -9q-5 9 0 9zM352 64h-3q-8 0 -8 8q0 6 7 6q4 0 4 -4v-10zM417 64q0 -17 -12 -17t-12 17q0 16 12 16t12 -16z" />
    <glyph glyph-name="nbspace" unicode="&#xe002;" horiz-adv-x="300" 
 />
  </font>
</defs>
</svg>
